osu file format v14

[General]
AudioFilename: audio.mp3
AudioLeadIn: 0
PreviewTime: 97269
Countdown: 0
SampleSet: Normal
StackLeniency: 0.7
Mode: 1
LetterboxInBreaks: 0
WidescreenStoryboard: 1

[Editor]
Bookmarks: 11532,21637,31742,41848,77216,87321,97427,122058
DistanceSpacing: 0.8
BeatDivisor: 2
GridSize: 32
TimelineZoom: 1.4

[Metadata]
Title:Sweet Requiem
TitleUnicode:Sweet Requiem
Artist:REDALiCE & aran
ArtistUnicode:REDALiCE & aran
Creator:Marm
Version:Muzukashii
Source:東方永夜抄 ~ Imperishable Night.
Tags:東方Project Touhou ZUN 太田順也 Oota Junya Team Shanghai Alice 上海アリス幻樂団 Eternal Night Vignette Eiyashou 少女綺想曲 ~ Dream Battle Maiden's Capriccio Reimu 博麗 霊夢 AECD-046 Annual Hakurei Shrine Grand Festival 博麗神社例大祭 Jinja Reitaisai 14 gaston_2199
BeatmapID:1420979
BeatmapSetID:665521

[Difficulty]
HPDrainRate:5
CircleSize:2
OverallDifficulty:5
ApproachRate:0
SliderMultiplier:1.4
SliderTickRate:1

[Events]
//Background and Video events
0,0,"sweet requiem.jpg",0,-50
//Break Periods
//Storyboard Layer 0 (Background)
//Storyboard Layer 1 (Fail)
//Storyboard Layer 2 (Pass)
//Storyboard Layer 3 (Foreground)
//Storyboard Sound Samples

[TimingPoints]
1427,315.789473684211,4,1,0,100,1,0
21716,-125,4,1,0,65,0,0
26532,-111.111111111111,4,1,0,75,0,0
36716,-100,4,1,0,100,0,0
46821,-125,4,1,0,100,0,0
54084,-120.481927710843,4,1,0,100,0,0
54242,-116.279069767442,4,1,0,100,0,0
54400,-111.111111111111,4,1,0,100,0,0
56808,-105.263157894737,4,1,0,100,0,0
57005,-100,4,1,0,100,0,1
67111,-100,4,1,0,100,0,0
99953,-100,4,1,0,100,0,1
117637,-100,4,1,0,100,0,0

[HitObjects]
256,192,163,5,0,0:0:0:0:
256,192,795,1,8,0:0:0:0:
256,192,953,1,0,0:0:0:0:
256,192,1111,1,12,0:0:0:0:
256,192,1427,1,0,0:0:0:0:
256,192,1584,1,8,0:0:0:0:
256,192,1742,1,0,0:0:0:0:
256,192,2058,1,8,0:0:0:0:
256,192,2374,1,8,0:0:0:0:
256,192,2532,1,0,0:0:0:0:
256,192,2848,1,8,0:0:0:0:
256,192,3005,1,0,0:0:0:0:
256,192,3321,1,8,0:0:0:0:
256,192,3637,1,8,0:0:0:0:
256,192,3795,1,0,0:0:0:0:
256,192,3953,1,0,0:0:0:0:
256,192,4111,1,0,0:0:0:0:
256,192,4269,1,8,0:0:0:0:
256,192,4584,1,8,0:0:0:0:
256,192,4742,1,8,0:0:0:0:
256,192,4900,1,8,0:0:0:0:
256,192,5058,1,0,0:0:0:0:
256,192,5216,1,0,0:0:0:0:
256,192,5532,1,0,0:0:0:0:
256,192,5848,1,0,0:0:0:0:
256,192,6005,1,8,0:0:0:0:
256,192,6163,1,8,0:0:0:0:
256,192,6242,1,8,0:0:0:0:
256,192,6321,1,8,0:0:0:0:
256,192,6479,1,0,0:0:0:0:
256,192,6795,1,8,0:0:0:0:
256,192,7111,1,0,0:0:0:0:
256,192,7427,1,8,0:0:0:0:
256,192,7742,1,8,0:0:0:0:
256,192,8058,1,0,0:0:0:0:
256,192,8216,1,8,0:0:0:0:
256,192,8532,1,8,0:0:0:0:
256,192,8690,1,0,0:0:0:0:
256,192,9005,1,8,0:0:0:0:
256,192,9163,1,0,0:0:0:0:
256,192,9321,1,0,0:0:0:0:
256,192,9479,1,8,0:0:0:0:
256,192,9795,1,0,0:0:0:0:
256,192,9953,1,8,0:0:0:0:
256,192,10111,1,0,0:0:0:0:
256,192,10269,1,8,0:0:0:0:
256,192,10427,1,8,0:0:0:0:
256,192,10584,1,0,0:0:0:0:
256,192,10742,1,8,0:0:0:0:
256,192,10900,1,0,0:0:0:0:
256,192,11216,1,8,0:0:0:0:
256,192,11295,1,8,0:0:0:0:
256,192,11374,1,8,0:0:0:0:
256,192,11532,1,0,0:0:0:0:
256,192,11690,1,8,0:0:0:0:
256,192,12163,1,8,0:0:0:0:
256,192,12479,1,0,0:0:0:0:
256,192,12637,1,8,0:0:0:0:
256,192,12953,1,8,0:0:0:0:
256,192,13269,1,0,0:0:0:0:
256,192,13427,1,8,0:0:0:0:
256,192,13742,1,0,0:0:0:0:
256,192,13900,1,8,0:0:0:0:
256,192,14058,1,0,0:0:0:0:
256,192,14137,1,0,0:0:0:0:
256,192,14216,1,0,0:0:0:0:
256,192,14374,1,8,0:0:0:0:
256,192,14532,1,0,0:0:0:0:
256,192,14690,1,0,0:0:0:0:
256,192,15005,1,8,0:0:0:0:
256,192,15163,1,8,0:0:0:0:
256,192,15321,1,0,0:0:0:0:
256,192,15637,1,8,0:0:0:0:
256,192,15953,1,0,0:0:0:0:
256,192,16269,1,8,0:0:0:0:
256,192,16584,1,8,0:0:0:0:
256,192,16900,1,0,0:0:0:0:
256,192,17216,1,0,0:0:0:0:
256,192,17532,1,0,0:0:0:0:
256,192,17848,1,8,0:0:0:0:
256,192,18163,1,0,0:0:0:0:
256,192,18321,1,8,0:0:0:0:
256,192,18479,1,0,0:0:0:0:
256,192,18795,1,0,0:0:0:0:
256,192,19111,1,8,0:0:0:0:
256,192,19269,1,0,0:0:0:0:
256,192,19427,1,0,0:0:0:0:
256,192,19584,1,8,0:0:0:0:
256,192,19742,1,0,0:0:0:0:
256,192,19900,1,0,0:0:0:0:
256,192,20058,1,8,0:0:0:0:
256,192,20216,1,0,0:0:0:0:
256,192,20374,12,0,21479,0:0:0:0:
256,192,21637,5,4,0:0:0:0:
256,192,22111,1,8,0:0:0:0:
256,192,22269,1,0,0:0:0:0:
256,192,22900,1,8,0:0:0:0:
256,192,23374,1,0,0:0:0:0:
256,192,23532,1,0,0:0:0:0:
256,192,23848,1,8,0:0:0:0:
256,192,24005,1,8,0:0:0:0:
256,192,24163,1,0,0:0:0:0:
256,192,24637,1,8,0:0:0:0:
256,192,24795,1,0,0:0:0:0:
256,192,25427,1,8,0:0:0:0:
256,192,26690,1,4,0:0:0:0:
256,192,27321,1,0,0:0:0:0:
256,192,27953,1,12,0:0:0:0:
256,192,28584,1,8,0:0:0:0:
256,192,29216,1,4,0:0:0:0:
256,192,29374,1,4,0:0:0:0:
256,192,29848,1,4,0:0:0:0:
256,192,30005,1,4,0:0:0:0:
256,192,30637,1,4,0:0:0:0:
256,192,30795,1,4,0:0:0:0:
256,192,31111,1,4,0:0:0:0:
256,192,31584,1,4,0:0:0:0:
256,192,31742,1,12,0:0:0:0:
256,192,32374,1,4,0:0:0:0:
256,192,33005,1,12,0:0:0:0:
256,192,33637,1,4,0:0:0:0:
256,192,34269,1,4,0:0:0:0:
256,192,34900,1,12,0:0:0:0:
256,192,35532,1,4,0:0:0:0:
256,192,36163,1,4,0:0:0:0:
256,192,36795,1,12,0:0:0:0:
256,192,37111,1,0,0:0:0:0:
256,192,37269,1,0,0:0:0:0:
256,192,37427,1,8,0:0:0:0:
256,192,37742,1,0,0:0:0:0:
256,192,38058,1,12,0:0:0:0:
256,192,38374,1,8,0:0:0:0:
256,192,38532,1,0,0:0:0:0:
256,192,38690,1,8,0:0:0:0:
256,192,39005,1,0,0:0:0:0:
256,192,39321,1,8,0:0:0:0:
256,192,39479,1,0,0:0:0:0:
256,192,39637,1,0,0:0:0:0:
256,192,39795,1,0,0:0:0:0:
256,192,39953,1,8,0:0:0:0:
256,192,40111,1,0,0:0:0:0:
256,192,40269,1,0,0:0:0:0:
256,192,40427,1,0,0:0:0:0:
256,192,40584,1,8,0:0:0:0:
256,192,40795,1,8,0:0:0:0:
256,192,40900,1,8,0:0:0:0:
256,192,41111,1,0,0:0:0:0:
256,192,41216,1,8,0:0:0:0:
256,192,41427,1,8,0:0:0:0:
256,192,41532,1,8,0:0:0:0:
256,192,41848,1,0,0:0:0:0:
256,192,42479,1,8,0:0:0:0:
256,192,43111,1,0,0:0:0:0:
256,192,43742,1,0,0:0:0:0:
256,192,44058,1,8,0:0:0:0:
256,192,44374,12,0,46111,0:0:0:0:
256,192,46269,5,12,0:0:0:0:
256,192,46900,1,4,0:0:0:0:
256,192,47532,1,12,0:0:0:0:
256,192,48163,1,12,0:0:0:0:
256,192,48479,1,0,0:0:0:0:
256,192,48795,1,8,0:0:0:0:
256,192,49427,1,4,0:0:0:0:
256,192,50058,1,12,0:0:0:0:
256,192,50690,1,4,0:0:0:0:
256,192,51163,1,0,0:0:0:0:
256,192,51321,1,8,0:0:0:0:
256,192,51953,1,4,0:0:0:0:
256,192,52269,1,4,0:0:0:0:
256,192,52584,1,12,0:0:0:0:
256,192,53216,1,12,0:0:0:0:
256,192,53532,1,0,0:0:0:0:
256,192,53848,1,8,0:0:0:0:
256,192,54163,1,8,0:0:0:0:
256,192,54321,1,0,0:0:0:0:
256,192,54479,1,12,0:0:0:0:
256,192,54795,1,8,0:0:0:0:
256,192,55111,1,0,0:0:0:0:
256,192,55269,1,0,0:0:0:0:
256,192,55584,1,8,0:0:0:0:
256,192,55742,1,0,0:0:0:0:
256,192,56058,1,0,0:0:0:0:
256,192,56374,1,0,0:0:0:0:
256,192,56532,1,8,0:0:0:0:
256,192,56848,1,8,0:0:0:0:
256,192,57005,1,0,0:0:0:0:
256,192,57321,1,8,0:0:0:0:
256,192,57479,1,0,0:0:0:0:
256,192,57558,1,0,0:0:0:0:
256,192,57637,1,0,0:0:0:0:
256,192,57953,1,0,0:0:0:0:
256,192,58269,1,8,0:0:0:0:
256,192,58584,1,0,0:0:0:0:
256,192,58742,1,8,0:0:0:0:
256,192,59216,1,0,0:0:0:0:
256,192,59532,1,0,0:0:0:0:
256,192,59848,1,0,0:0:0:0:
256,192,60005,1,8,0:0:0:0:
256,192,60163,1,0,0:0:0:0:
256,192,60479,1,0,0:0:0:0:
256,192,60795,1,0,0:0:0:0:
256,192,60953,1,8,0:0:0:0:
256,192,61111,1,8,0:0:0:0:
256,192,61427,1,8,0:0:0:0:
256,192,61663,1,8,0:0:0:0:
256,192,61900,1,8,0:0:0:0:
256,192,62058,1,0,0:0:0:0:
256,192,62374,1,8,0:0:0:0:
256,192,62532,1,0,0:0:0:0:
256,192,62611,1,0,0:0:0:0:
256,192,62690,1,0,0:0:0:0:
256,192,63005,1,0,0:0:0:0:
256,192,63163,1,0,0:0:0:0:
256,192,63321,1,8,0:0:0:0:
256,192,63637,1,8,0:0:0:0:
256,192,63953,1,8,0:0:0:0:
256,192,64111,1,0,0:0:0:0:
256,192,64269,1,8,0:0:0:0:
256,192,64584,1,8,0:0:0:0:
256,192,64742,1,0,0:0:0:0:
256,192,64900,1,0,0:0:0:0:
256,192,65058,1,8,0:0:0:0:
256,192,65374,1,0,0:0:0:0:
256,192,65532,1,8,0:0:0:0:
256,192,65690,1,0,0:0:0:0:
256,192,65848,1,8,0:0:0:0:
256,192,66163,1,8,0:0:0:0:
256,192,66479,1,0,0:0:0:0:
256,192,66716,1,0,0:0:0:0:
256,192,66953,1,0,0:0:0:0:
256,192,67111,1,8,0:0:0:0:
256,192,67742,1,0,0:0:0:0:
256,192,68058,1,8,0:0:0:0:
256,192,68374,1,0,0:0:0:0:
256,192,68532,1,0,0:0:0:0:
256,192,68690,1,8,0:0:0:0:
256,192,69005,1,0,0:0:0:0:
256,192,69479,1,8,0:0:0:0:
256,192,69637,1,0,0:0:0:0:
256,192,69953,1,0,0:0:0:0:
256,192,70269,1,8,0:0:0:0:
256,192,70742,1,0,0:0:0:0:
256,192,70900,1,8,0:0:0:0:
256,192,71216,1,0,0:0:0:0:
256,192,71532,1,0,0:0:0:0:
256,192,71848,1,0,0:0:0:0:
256,192,72005,1,8,0:0:0:0:
256,192,72163,1,0,0:0:0:0:
256,192,72795,1,0,0:0:0:0:
256,192,73111,1,8,0:0:0:0:
256,192,73427,1,0,0:0:0:0:
256,192,73742,1,8,0:0:0:0:
256,192,73900,1,8,0:0:0:0:
256,192,74058,1,0,0:0:0:0:
256,192,74374,1,8,0:0:0:0:
256,192,74690,1,0,0:0:0:0:
256,192,75005,1,0,0:0:0:0:
256,192,75321,1,8,0:0:0:0:
256,192,75637,1,8,0:0:0:0:
256,192,75795,1,8,0:0:0:0:
256,192,75953,1,0,0:0:0:0:
256,192,76269,1,8,0:0:0:0:
256,192,76584,1,8,0:0:0:0:
256,192,76821,1,8,0:0:0:0:
256,192,77058,1,0,0:0:0:0:
256,192,77216,1,12,0:0:0:0:
256,192,77532,1,8,0:0:0:0:
256,192,77848,1,8,0:0:0:0:
256,192,78084,1,8,0:0:0:0:
256,192,78321,1,8,0:0:0:0:
256,192,78637,1,8,0:0:0:0:
256,192,78795,1,8,0:0:0:0:
256,192,79111,1,8,0:0:0:0:
256,192,79348,1,8,0:0:0:0:
256,192,79584,1,8,0:0:0:0:
256,192,79742,1,4,0:0:0:0:
256,192,80058,1,0,0:0:0:0:
256,192,80374,1,0,0:0:0:0:
256,192,80611,1,0,0:0:0:0:
256,192,80848,1,0,0:0:0:0:
256,192,81163,1,0,0:0:0:0:
256,192,81242,1,0,0:0:0:0:
256,192,81321,1,0,0:0:0:0:
256,192,81637,1,8,0:0:0:0:
256,192,81874,1,8,0:0:0:0:
256,192,82111,1,8,0:0:0:0:
256,192,82269,1,4,0:0:0:0:
256,192,82584,1,0,0:0:0:0:
256,192,82742,1,8,0:0:0:0:
256,192,82900,1,0,0:0:0:0:
256,192,83137,1,0,0:0:0:0:
256,192,83374,1,0,0:0:0:0:
256,192,83690,1,8,0:0:0:0:
256,192,83848,1,8,0:0:0:0:
256,192,84005,1,0,0:0:0:0:
256,192,84163,1,8,0:0:0:0:
256,192,84400,1,8,0:0:0:0:
256,192,84637,1,8,0:0:0:0:
256,192,84795,1,0,0:0:0:0:
256,192,85111,1,0,0:0:0:0:
256,192,85269,1,8,0:0:0:0:
256,192,85427,1,0,0:0:0:0:
256,192,85663,1,0,0:0:0:0:
256,192,85900,1,0,0:0:0:0:
256,192,86058,1,8,0:0:0:0:
256,192,86374,1,8,0:0:0:0:
256,192,86690,1,8,0:0:0:0:
256,192,87005,1,0,0:0:0:0:
256,192,87321,1,8,0:0:0:0:
256,192,87953,1,8,0:0:0:0:
256,192,88269,1,0,0:0:0:0:
256,192,88584,1,8,0:0:0:0:
256,192,89216,1,8,0:0:0:0:
256,192,89532,1,0,0:0:0:0:
256,192,89848,1,8,0:0:0:0:
256,192,90479,1,8,0:0:0:0:
256,192,90795,1,0,0:0:0:0:
256,192,91111,1,8,0:0:0:0:
256,192,91742,1,8,0:0:0:0:
256,192,92058,1,0,0:0:0:0:
256,192,92374,1,8,0:0:0:0:
256,192,92584,1,0,0:0:0:0:
256,192,92690,1,8,0:0:0:0:
256,192,93005,1,8,0:0:0:0:
256,192,93216,1,0,0:0:0:0:
256,192,93321,1,8,0:0:0:0:
256,192,93637,1,8,0:0:0:0:
256,192,93848,1,0,0:0:0:0:
256,192,93953,1,8,0:0:0:0:
256,192,94269,1,8,0:0:0:0:
256,192,94479,1,0,0:0:0:0:
256,192,94584,1,8,0:0:0:0:
256,192,94900,1,8,0:0:0:0:
256,192,95111,1,8,0:0:0:0:
256,192,95216,1,8,0:0:0:0:
256,192,95532,1,8,0:0:0:0:
256,192,95742,1,8,0:0:0:0:
256,192,95848,1,0,0:0:0:0:
256,192,96163,12,0,96953,0:0:0:0:
256,192,97111,5,0,0:0:0:0:
256,192,97427,1,12,0:0:0:0:
256,192,97900,1,8,0:0:0:0:
256,192,98058,1,4,0:0:0:0:
256,192,98532,1,0,0:0:0:0:
256,192,98690,1,12,0:0:0:0:
256,192,99163,1,8,0:0:0:0:
256,192,99321,1,0,0:0:0:0:
256,192,99637,1,8,0:0:0:0:
256,192,99795,1,8,0:0:0:0:
256,192,99953,1,0,0:0:0:0:
256,192,100269,1,8,0:0:0:0:
256,192,100427,1,0,0:0:0:0:
256,192,100505,1,0,0:0:0:0:
256,192,100584,1,0,0:0:0:0:
256,192,100900,1,8,0:0:0:0:
256,192,101216,1,0,0:0:0:0:
256,192,101374,1,8,0:0:0:0:
256,192,101532,1,8,0:0:0:0:
256,192,101848,1,0,0:0:0:0:
256,192,102163,1,8,0:0:0:0:
256,192,102321,1,8,0:0:0:0:
256,192,102479,1,0,0:0:0:0:
256,192,102795,1,8,0:0:0:0:
256,192,102953,1,0,0:0:0:0:
256,192,103032,1,0,0:0:0:0:
256,192,103111,1,0,0:0:0:0:
256,192,103427,1,8,0:0:0:0:
256,192,103742,1,0,0:0:0:0:
256,192,103900,1,8,0:0:0:0:
256,192,104058,1,8,0:0:0:0:
256,192,104374,1,0,0:0:0:0:
256,192,104690,1,8,0:0:0:0:
256,192,104848,1,8,0:0:0:0:
256,192,105005,1,0,0:0:0:0:
256,192,105321,1,0,0:0:0:0:
256,192,105479,1,8,0:0:0:0:
256,192,105637,1,0,0:0:0:0:
256,192,105953,1,8,0:0:0:0:
256,192,106269,1,0,0:0:0:0:
256,192,106584,1,8,0:0:0:0:
256,192,106900,1,0,0:0:0:0:
256,192,107058,1,8,0:0:0:0:
256,192,107532,1,4,0:0:0:0:
256,192,107848,1,8,0:0:0:0:
256,192,108006,1,0,0:0:0:0:
256,192,108085,1,0,0:0:0:0:
256,192,108164,1,0,0:0:0:0:
256,192,108480,1,0,0:0:0:0:
256,192,108796,1,8,0:0:0:0:
256,192,109111,1,0,0:0:0:0:
256,192,109269,1,8,0:0:0:0:
256,192,109743,1,0,0:0:0:0:
256,192,110059,1,0,0:0:0:0:
256,192,110137,1,0,0:0:0:0:
256,192,110216,1,0,0:0:0:0:
256,192,110295,1,0,0:0:0:0:
256,192,110375,1,0,0:0:0:0:
256,192,111006,1,8,0:0:0:0:
256,192,111322,1,0,0:0:0:0:
256,192,111480,1,8,0:0:0:0:
256,192,111638,1,8,0:0:0:0:
256,192,111953,1,0,0:0:0:0:
256,192,112269,1,8,0:0:0:0:
256,192,112427,1,8,0:0:0:0:
256,192,112585,1,0,0:0:0:0:
256,192,112901,1,0,0:0:0:0:
256,192,113059,1,0,0:0:0:0:
256,192,113138,1,0,0:0:0:0:
256,192,113217,1,0,0:0:0:0:
256,192,113532,1,8,0:0:0:0:
256,192,113690,1,0,0:0:0:0:
256,192,113848,1,8,0:0:0:0:
256,192,114005,1,0,0:0:0:0:
256,192,114164,1,8,0:0:0:0:
256,192,114479,1,0,0:0:0:0:
256,192,114716,1,0,0:0:0:0:
256,192,114953,1,0,0:0:0:0:
256,192,115111,1,8,0:0:0:0:
256,192,115427,1,0,0:0:0:0:
256,192,115585,1,8,0:0:0:0:
256,192,115743,1,0,0:0:0:0:
256,192,116059,1,8,0:0:0:0:
256,192,116375,1,8,0:0:0:0:
256,192,116532,1,0,0:0:0:0:
256,192,116690,1,0,0:0:0:0:
256,192,117006,1,0,0:0:0:0:
256,192,117243,1,0,0:0:0:0:
256,192,117480,1,0,0:0:0:0:
256,192,117638,1,8,0:0:0:0:
