osu file format v14

[General]
AudioFilename: audio.mp3
AudioLeadIn: 0
PreviewTime: 97269
Countdown: 0
SampleSet: Normal
StackLeniency: 0.7
Mode: 1
LetterboxInBreaks: 0
WidescreenStoryboard: 1

[Editor]
Bookmarks: 11532,21637,31742,41848,46900,77216,87321,97427,122058
DistanceSpacing: 0.8
BeatDivisor: 2
GridSize: 32
TimelineZoom: 1.1

[Metadata]
Title:Sweet Requiem
TitleUnicode:Sweet Requiem
Artist:REDALiCE & aran
ArtistUnicode:REDALiCE & aran
Creator:Marm
Version:Kantan
Source:東方永夜抄 ~ Imperishable Night.
Tags:東方Project Touhou ZUN 太田順也 Oota Junya Team Shanghai Alice 上海アリス幻樂団 Eternal Night Vignette Eiyashou 少女綺想曲 ~ Dream Battle Maiden's Capriccio Reimu 博麗 霊夢 AECD-046 Annual Hakurei Shrine Grand Festival 博麗神社例大祭 Jinja Reitaisai 14 gaston_2199
BeatmapID:1430382
BeatmapSetID:665521

[Difficulty]
HPDrainRate:8
CircleSize:2
OverallDifficulty:3
ApproachRate:0
SliderMultiplier:1.4
SliderTickRate:1

[Events]
//Background and Video events
0,0,"sweet requiem.jpg",0,-50
//Break Periods
//Storyboard Layer 0 (Background)
//Storyboard Layer 1 (Fail)
//Storyboard Layer 2 (Pass)
//Storyboard Layer 3 (Foreground)
//Storyboard Sound Samples

[TimingPoints]
1427,315.789473684211,4,1,0,100,1,0
21716,-100,4,1,0,65,0,0
26532,-99.9999999999999,4,1,0,75,0,0
36716,-99.9999999999999,4,1,0,100,0,0
57005,-100,4,1,0,100,0,1
67111,-100,4,1,0,100,0,0
99953,-100,4,1,0,100,0,1
117637,-100,4,1,0,100,0,0

[HitObjects]
256,192,163,5,0,0:0:0:0:
256,192,1111,1,12,0:0:0:0:
256,192,1427,1,0,0:0:0:0:
256,192,2058,1,0,0:0:0:0:
256,192,2690,1,8,0:0:0:0:
256,192,3321,1,0,0:0:0:0:
256,192,3953,1,0,0:0:0:0:
256,192,4269,1,8,0:0:0:0:
256,192,4900,1,8,0:0:0:0:
256,192,5216,1,0,0:0:0:0:
256,192,5532,1,8,0:0:0:0:
256,192,6163,1,8,0:0:0:0:
256,192,6479,1,0,0:0:0:0:
256,192,7742,1,0,0:0:0:0:
256,192,8374,1,0,0:0:0:0:
256,192,8690,1,8,0:0:0:0:
256,192,9005,1,0,0:0:0:0:
256,192,9637,1,0,0:0:0:0:
256,192,10269,1,0,0:0:0:0:
256,192,10900,1,0,0:0:0:0:
256,192,11216,1,8,0:0:0:0:
256,192,11532,1,4,0:0:0:0:
256,192,12163,1,0,0:0:0:0:
256,192,12795,1,8,0:0:0:0:
256,192,13427,1,0,0:0:0:0:
256,192,14058,1,0,0:0:0:0:
256,192,14374,1,8,0:0:0:0:
256,192,14690,1,0,0:0:0:0:
256,192,15321,1,8,0:0:0:0:
256,192,16269,1,8,0:0:0:0:
256,192,16584,1,8,0:0:0:0:
256,192,17216,1,0,0:0:0:0:
256,192,17848,1,0,0:0:0:0:
256,192,18479,1,0,0:0:0:0:
256,192,19111,1,8,0:0:0:0:
256,192,19742,1,0,0:0:0:0:
256,192,20058,1,0,0:0:0:0:
160,192,20374,2,0,L|160:32,4,140
256,192,22269,5,0,0:0:0:0:
256,192,22900,1,8,0:0:0:0:
256,192,24163,1,0,0:0:0:0:
256,192,24795,1,0,0:0:0:0:
256,192,25427,1,8,0:0:0:0:
256,192,26690,1,4,0:0:0:0:
256,192,27953,1,12,0:0:0:0:
256,192,29216,1,4,0:0:0:0:
256,192,29848,1,4,0:0:0:0:
256,192,31111,1,12,0:0:0:0:
256,192,31742,1,4,0:0:0:0:
256,192,33005,1,8,0:0:0:0:
256,192,34269,1,0,0:0:0:0:
256,192,35532,1,0,0:0:0:0:
256,192,36795,1,8,0:0:0:0:
256,192,37427,1,0,0:0:0:0:
256,192,38058,1,8,0:0:0:0:
256,192,39321,1,8,0:0:0:0:
256,192,39637,1,0,0:0:0:0:
256,192,39953,1,8,0:0:0:0:
256,192,40269,1,0,0:0:0:0:
256,192,40584,1,8,0:0:0:0:
256,192,41532,1,8,0:0:0:0:
256,192,41848,1,0,0:0:0:0:
256,192,43111,1,0,0:0:0:0:
256,192,43742,1,0,0:0:0:0:
256,192,44374,12,0,45953,0:0:0:0:
256,192,46269,5,12,0:0:0:0:
256,192,46900,1,4,0:0:0:0:
256,192,48479,1,0,0:0:0:0:
256,192,48795,1,12,0:0:0:0:
256,192,49427,1,4,0:0:0:0:
256,192,50058,1,12,0:0:0:0:
256,192,50690,1,4,0:0:0:0:
256,192,51953,1,0,0:0:0:0:
256,192,52269,1,0,0:0:0:0:
256,192,52584,1,12,0:0:0:0:
256,192,53532,1,0,0:0:0:0:
256,192,53848,1,12,0:0:0:0:
256,192,54479,1,4,0:0:0:0:
256,192,55742,1,4,0:0:0:0:
256,192,56374,1,0,0:0:0:0:
256,192,57005,1,12,0:0:0:0:
256,192,57637,1,0,0:0:0:0:
256,192,58269,1,8,0:0:0:0:
256,192,58900,1,0,0:0:0:0:
256,192,59216,1,8,0:0:0:0:
256,192,59532,1,0,0:0:0:0:
256,192,60163,1,0,0:0:0:0:
256,192,60795,1,8,0:0:0:0:
256,192,61111,1,0,0:0:0:0:
256,192,61427,1,8,0:0:0:0:
256,192,62058,1,12,0:0:0:0:
256,192,62690,1,0,0:0:0:0:
256,192,63321,1,8,0:0:0:0:
256,192,63637,1,0,0:0:0:0:
256,192,63953,1,8,0:0:0:0:
256,192,64584,1,12,0:0:0:0:
256,192,65216,1,8,0:0:0:0:
256,192,65848,1,8,0:0:0:0:
256,192,66163,1,8,0:0:0:0:
256,192,66479,1,0,0:0:0:0:
256,192,67111,1,4,0:0:0:0:
256,192,68374,1,0,0:0:0:0:
256,192,69005,1,8,0:0:0:0:
256,192,69637,1,0,0:0:0:0:
256,192,70900,1,0,0:0:0:0:
256,192,71532,1,8,0:0:0:0:
256,192,72163,1,0,0:0:0:0:
256,192,73427,1,8,0:0:0:0:
256,192,74690,1,0,0:0:0:0:
256,192,75321,1,0,0:0:0:0:
256,192,75953,1,4,0:0:0:0:
256,192,76584,1,8,0:0:0:0:
256,192,76900,1,8,0:0:0:0:
256,192,77216,1,0,0:0:0:0:
256,192,77848,1,8,0:0:0:0:
256,192,79111,1,8,0:0:0:0:
256,192,79742,1,0,0:0:0:0:
256,192,80374,1,0,0:0:0:0:
256,192,81637,1,0,0:0:0:0:
256,192,82269,1,8,0:0:0:0:
256,192,82900,1,8,0:0:0:0:
256,192,84163,1,8,0:0:0:0:
256,192,84795,1,0,0:0:0:0:
256,192,85427,1,0,0:0:0:0:
256,192,86058,1,8,0:0:0:0:
256,192,86690,1,8,0:0:0:0:
256,192,87005,1,0,0:0:0:0:
256,192,87321,1,8,0:0:0:0:
256,192,88584,1,8,0:0:0:0:
256,192,89848,1,8,0:0:0:0:
256,192,91111,1,8,0:0:0:0:
256,192,92058,1,0,0:0:0:0:
256,192,92374,1,8,0:0:0:0:
256,192,93005,1,8,0:0:0:0:
256,192,93637,1,8,0:0:0:0:
256,192,94269,1,8,0:0:0:0:
256,192,94900,1,8,0:0:0:0:
256,192,95532,1,8,0:0:0:0:
256,192,96163,12,0,97111,0:0:0:0:
256,192,97427,5,12,0:0:0:0:
256,192,98058,1,4,0:0:0:0:
256,192,98690,1,12,0:0:0:0:
256,192,99321,1,12,0:0:0:0:
256,192,99637,1,4,0:0:0:0:
256,192,99953,1,12,0:0:0:0:
256,192,100584,1,0,0:0:0:0:
256,192,101216,1,8,0:0:0:0:
256,192,102479,1,8,0:0:0:0:
256,192,103111,1,0,0:0:0:0:
256,192,103742,1,8,0:0:0:0:
256,192,104374,1,0,0:0:0:0:
256,192,104690,1,8,0:0:0:0:
256,192,105005,1,0,0:0:0:0:
256,192,105637,1,8,0:0:0:0:
256,192,106269,1,0,0:0:0:0:
256,192,106584,1,8,0:0:0:0:
256,192,107532,1,12,0:0:0:0:
256,192,108163,1,0,0:0:0:0:
256,192,108795,1,8,0:0:0:0:
256,192,109427,1,0,0:0:0:0:
256,192,109742,1,8,0:0:0:0:
256,192,110058,1,0,0:0:0:0:
256,192,110690,1,0,0:0:0:0:
256,192,111321,1,0,0:0:0:0:
256,192,111637,1,8,0:0:0:0:
256,192,111953,1,0,0:0:0:0:
256,192,112584,1,8,0:0:0:0:
256,192,113216,1,8,0:0:0:0:
256,192,113532,1,0,0:0:0:0:
256,192,113848,1,8,0:0:0:0:
256,192,114479,1,0,0:0:0:0:
256,192,114795,1,8,0:0:0:0:
256,192,115111,1,0,0:0:0:0:
256,192,115427,1,0,0:0:0:0:
256,192,115742,12,8,117637,0:0:0:0:
