osu file format v14

[General]
AudioFilename: audio.mp3
AudioLeadIn: 0
PreviewTime: 97607
Countdown: 0
SampleSet: Soft
StackLeniency: 0.7
Mode: 2
LetterboxInBreaks: 0
WidescreenStoryboard: 1

[Editor]
Bookmarks: 1607,11712,21817,31922,42028,47080,57186,67291,77396,82449,87501,92554,97607,117817,122238
DistanceSpacing: 0.8
BeatDivisor: 4
GridSize: 32
TimelineZoom: 2.1

[Metadata]
Title:Sweet Requiem
TitleUnicode:Sweet Requiem
Artist:REDALiCE & aran
ArtistUnicode:REDALiCE & aran
Creator:-MomoX
Version:Salad
Source:東方永夜抄 ~ Imperishable Night.
Tags:GIGACHAD Dako Electronic Instrumental 東方Project Touhou ZUN 太田順也 Oota Junya Team Shanghai Alice 上海アリス幻樂団 Eternal Night Vignette Eiyashou 少女綺想曲 ~ Dream Battle Maiden's Capriccio Reimu 博麗 霊夢 AECD-046 Annual Hakurei Shrine Grand Festival 博麗神社例大祭 Jinja Reitaisai 14 SOUND VOLTEX IV HEAVENLY HAVEN sdvx CHUNITHM CRYSTAL PLUS SEGA WACCA Lily MARVELOUS! HARDCORE TANO*C selections 2017 alice's emotion Kanon Matsubara
BeatmapID:2659443
BeatmapSetID:1278893

[Difficulty]
HPDrainRate:4
CircleSize:2.5
OverallDifficulty:7
ApproachRate:7
SliderMultiplier:1.61
SliderTickRate:1

[Events]
//Background and Video events
0,0,"EjX2mDAU8AAKytd.jpg",0,0
//Break Periods
2,22017,25970
2,67491,75233
//Storyboard Layer 0 (Background)
//Storyboard Layer 1 (Fail)
//Storyboard Layer 2 (Pass)
//Storyboard Layer 3 (Foreground)
//Storyboard Layer 4 (Overlay)
//Storyboard Sound Samples

[TimingPoints]
344,315.789473684211,4,2,1,65,1,0
11080,-100,4,2,1,65,0,0
11396,-100,4,2,1,65,0,0
20554,-111.111111111111,4,2,1,65,0,0
23080,-111.111111111111,4,2,0,65,0,0
23159,-111.111111111111,4,2,1,65,0,0
24344,-111.111111111111,4,2,0,65,0,0
24422,-111.111111111111,4,2,1,65,0,0
25607,-100,4,2,0,65,0,0
25686,-100,4,2,1,65,0,0
26870,-100,4,2,1,65,0,0
42028,-100,4,2,2,65,0,0
46449,-100,4,2,1,65,0,0
52133,-100,4,2,1,65,0,0
52449,-100,4,2,1,65,0,0
57186,-100,4,2,1,65,0,1
67291,-100,4,2,1,80,0,0
76133,-100,4,2,1,65,0,0
76765,-100,4,2,1,65,0,0
77396,-100,4,1,1,65,0,0
86238,-100,4,2,2,65,0,0
87501,-100,4,2,2,65,0,0
92554,-100,4,1,1,65,0,0
95080,-100,4,1,1,65,0,0
96344,-100,4,2,1,65,0,0
96975,-100,4,1,0,65,0,0
97291,-100,4,2,1,65,0,0
97607,-100,4,2,1,65,0,0
100133,-100,4,2,1,65,0,1
107238,-100,4,2,1,65,0,0
107712,-100,4,2,1,65,0,1
117817,-100,4,2,1,65,0,0
119080,-100,4,2,1,50,0,0
119712,-100,4,2,1,40,0,0
120344,-100,4,2,1,30,0,0
120975,-100,4,2,1,25,0,0
121291,-100,4,2,1,20,0,0
121607,-100,4,2,1,15,0,0
121922,-100,4,2,1,10,0,0
122238,-100,4,2,1,5,0,0

[Colours]
Combo1 : 92,46,46
Combo2 : 220,0,0
Combo3 : 220,151,151
Combo4 : 255,174,94

[HitObjects]
256,192,344,12,0,1291,0:0:0:0:
325,310,1607,5,2,0:0:0:0:
414,308,1765,2,0,P|468:267|411:216,1,161,2|2,0:0|0:0,0:0:0:0:
326,217,2238,2,0,P|271:168|345:143,1,161,2|8,0:0|0:0,0:0:0:0:
415,130,2712,1,2,0:0:0:0:
258,59,3028,6,0,L|259:238,1,161,2|2,0:0|0:0,0:0:0:0:
348,217,3501,2,0,P|398:191|346:125,1,161,2|8,0:0|0:0,0:0:0:0:
264,130,3975,1,2,0:0:0:0:
180,130,4133,5,2,0:0:0:0:
96,133,4291,2,0,L|96:318,1,161,2|2,0:0|0:0,0:0:0:0:
181,294,4765,2,0,L|350:295,1,161,2|8,0:0|0:0,0:0:0:0:
261,224,5238,1,2,0:0:0:0:
97,120,5396,6,0,L|97:231,1,80.5,2|2,0:0|0:0,0:0:0:0:
173,178,5712,2,0,L|173:281,1,80.5,8|2,0:0|0:0,0:0:0:0:
97,118,6028,2,0,L|17:118,1,80.5,2|2,0:0|0:0,0:0:0:0:
97,118,6344,1,8,0:0:0:0:
365,93,6659,5,6,1:0:0:0:
453,136,6817,2,0,L|435:306,1,161,2|2,0:0|0:0,0:0:0:0:
347,295,7291,1,2,0:0:0:0:
170,293,7607,1,10,0:0:0:0:
443,291,7922,6,0,L|444:111,1,161,2|10,0:0|0:0,0:0:0:0:
354,127,8396,2,0,P|325:151|411:196,1,161,2|2,0:0|0:0,0:0:0:0:
479,127,8870,1,10,0:0:0:0:
205,146,9186,6,0,P|151:179|228:220,1,161,14|10,1:0|0:0,0:0:0:0:
292,288,9659,2,0,P|346:255|269:214,1,161,10|10,0:0|0:0,0:0:0:0:
204,193,10133,1,10,0:0:0:0:
446,273,10449,5,10,0:0:0:0:
491,210,10606,1,10,0:0:0:0:
475,152,10764,1,10,0:0:0:0:
411,139,10922,1,10,0:0:0:0:
250,138,11080,5,8,0:0:0:0:
411,139,11396,1,2,0:0:0:0:
137,142,11712,5,6,0:0:0:0:
49,146,11870,2,0,L|49:310,1,161,2|2,0:0|0:0,0:0:0:0:
138,300,12344,2,0,P|171:273|106:200,1,161,2|8,0:0|0:0,0:0:0:0:
26,222,12817,1,2,0:0:0:0:
301,244,13133,6,0,P|354:210|296:155,1,161,2|2,0:0|0:0,0:0:0:0:
212,156,13607,2,0,L|35:155,1,161,2|8,0:0|0:0,0:0:0:0:
140,84,14080,1,2,0:0:0:0:
302,90,14238,6,0,P|359:120|285:140,1,161,2|8,0:0|0:0,0:0:0:0:
135,161,14870,2,0,L|135:340,1,161,2|8,0:0|0:0,0:0:0:0:
222,324,15344,1,2,0:0:0:0:
385,134,15501,6,0,L|385:245,1,80.5,2|2,0:0|0:0,0:0:0:0:
309,192,15817,2,0,L|309:295,1,80.5,8|2,0:0|0:0,0:0:0:0:
385,132,16133,2,0,L|477:132,1,80.5,2|2,0:0|0:0,0:0:0:0:
385,132,16449,1,8,0:0:0:0:
111,124,16765,6,0,L|8:124,2,80.5,14|10|10,1:0|0:0|0:0,0:0:0:0:
263,133,17396,2,0,L|352:133,1,80.5,10|10,0:0|0:0,0:0:0:0:
343,133,17712,1,10,0:0:0:0:
69,291,18028,6,0,L|68:111,1,161,14|10,1:0|0:0,0:0:0:0:
158,127,18502,2,0,P|203:142|153:209,1,161,10|10,0:0|0:0,0:0:0:0:
66,124,18976,1,10,0:0:0:0:
307,146,19292,6,0,P|361:179|284:220,1,161,14|10,1:0|0:0,0:0:0:0:
220,288,19765,2,0,P|166:255|243:214,1,161,10|10,0:0|0:0,0:0:0:0:
308,193,20239,1,10,0:0:0:0:
60,39,20554,6,0,P|49:161|406:316,1,579.599982312012,2|6,0:0|1:0,0:0:0:0:
256,192,26870,5,6,0:0:0:0:
424,190,27344,1,0,0:0:0:0:
424,190,27501,1,0,0:0:0:0:
199,189,28133,5,6,0:0:0:0:
392,181,28607,1,0,0:0:0:0:
481,181,28765,2,0,L|481:353,1,161,0|0,0:0|0:0,0:0:0:0:
240,312,29396,5,6,1:0:0:0:
240,312,29554,1,6,1:0:0:0:
409,189,30028,1,6,1:0:0:0:
409,189,30186,1,6,1:0:0:0:
120,188,30817,5,6,1:0:0:0:
38,187,30975,1,6,1:0:0:0:
280,163,31291,2,0,L|416:164,2,120.75,6|6|6,1:0|1:0|1:0,0:0:0:0:
119,154,31922,6,0,L|118:324,1,161,6|0,1:0|0:0,0:0:0:0:
280,333,32554,2,0,L|281:155,1,161,2|0,0:0|0:0,0:0:0:0:
119,98,33186,6,0,L|285:98,1,161,2|0,0:0|0:0,0:0:0:0:
441,100,33817,2,0,L|440:296,1,161,2|0,0:0|0:0,0:0:0:0:
279,282,34449,6,0,P|225:258|285:211,1,161,2|0,0:0|0:0,0:0:0:0:
439,195,35080,2,0,L|261:195,1,161,2|0,0:0|0:0,0:0:0:0:
133,228,35712,6,0,P|79:204|139:157,1,161,2|0,0:0|0:0,0:0:0:0:
281,143,36344,2,0,L|448:142,1,161,2|0,0:0|0:0,0:0:0:0:
198,213,36975,6,0,L|198:319,1,80.5,6|2,1:0|0:0,0:0:0:0:
281,214,37291,2,0,L|281:112,1,80.5,2|2,0:0|0:0,0:0:0:0:
199,120,37607,2,0,P|118:198|206:254,1,241.5,2|2,0:0|0:0,0:0:0:0:
371,190,38238,6,0,L|371:296,1,80.5,6|2,1:0|0:0,0:0:0:0:
288,191,38554,2,0,L|288:89,1,80.5,2|2,0:0|0:0,0:0:0:0:
370,97,38870,2,0,P|451:175|363:231,1,241.5,2|2,0:0|0:0,0:0:0:0:
202,69,39501,5,6,1:0:0:0:
133,78,39658,1,2,0:0:0:0:
80,120,39816,1,2,0:0:0:0:
53,183,39974,1,2,0:0:0:0:
60,251,40132,1,6,1:0:0:0:
99,306,40290,1,2,0:0:0:0:
161,336,40448,1,2,0:0:0:0:
229,331,40606,1,2,0:0:0:0:
399,64,40765,6,0,L|275:64,1,107.333333333333,6|2,1:0|0:0,0:0:0:0:
292,152,41080,2,0,L|418:152,1,107.333333333333,6|2,1:0|0:0,0:0:0:0:
399,259,41396,2,0,L|278:258,1,107.333333333333,6|2,1:0|0:0,0:0:0:0:
291,258,41712,1,6,1:0:0:0:
49,160,42028,5,12,0:0:0:0:
210,244,42344,1,8,0:0:0:0:
370,160,42659,1,8,0:0:0:0:
210,244,42975,1,8,0:0:0:0:
452,226,43291,5,8,0:0:0:0:
290,224,43607,1,8,0:0:0:0:
452,226,43922,2,0,P|440:118|377:90,1,161,8|8,0:0|0:0,0:0:0:0:
160,66,44554,5,8,0:0:0:0:
51,88,44765,1,8,0:0:0:0:
160,66,44975,1,8,0:0:0:0:
268,88,45186,1,8,0:0:0:0:
160,66,45396,1,8,0:0:0:0:
51,88,45607,1,8,0:0:0:0:
160,66,45817,5,8,0:0:0:0:
268,88,46028,1,8,0:0:0:0:
160,66,46238,1,8,0:0:0:0:
387,130,46449,2,0,P|466:186|379:267,1,241.5,12|0,0:0|0:0,0:0:0:0:
209,305,47080,6,0,P|150:278|214:155,1,241.5,2|0,0:0|0:0,0:0:0:0:
294,118,47712,2,0,P|355:141|292:261,1,241.5,8|0,0:0|0:0,0:0:0:0:
213,268,48344,5,2,0:0:0:0:
62,266,48659,1,2,0:0:0:0:
319,238,48975,2,0,P|382:208|313:90,1,241.5,8|0,0:0|0:0,0:0:0:0:
139,101,49607,6,0,P|76:134|163:249,1,241.5,2|0,0:0|0:0,0:0:0:0:
222,252,50238,2,0,L|457:131,1,241.5,8|0,0:0|0:0,0:0:0:0:
275,119,50870,6,0,P|184:158|150:317,1,241.5,2|2,0:0|0:0,0:0:0:0:
222,300,51501,2,0,P|326:255|303:129,1,241.5,8|0,0:0|0:0,0:0:0:0:
138,174,52133,5,6,1:0:0:0:
283,173,52449,1,6,1:0:0:0:
26,291,52765,2,0,P|60:170|166:141,1,241.5,8|0,0:0|0:0,0:0:0:0:
242,140,53396,6,0,P|306:175|228:295,1,241.5,4|2,1:0|0:0,0:0:0:0:
162,299,54028,2,0,P|109:259|181:211,1,161,8|10,0:0|0:0,0:0:0:0:
409,148,54659,6,0,L|492:149,2,80.5,2|2|8,0:0|0:0|0:0,0:0:0:0:
182,197,55449,2,0,L|98:197,2,80.5,2|10|2,1:0|1:0|0:0,0:0:0:0:
359,197,55922,6,0,L|360:298,1,80.5,2|2,0:0|0:0,0:0:0:0:
284,205,56238,2,0,L|284:108,1,80.5,10|2,0:0|0:0,0:0:0:0:
361,123,56554,1,2,0:0:0:0:
184,121,56712,1,6,1:0:0:0:
403,144,57186,6,0,L|405:324,1,161,6|8,0:0|0:0,0:0:0:0:
328,315,57659,1,2,0:0:0:0:
251,316,57817,1,2,0:0:0:0:
183,279,57974,1,2,0:0:0:0:
185,203,58132,1,8,0:0:0:0:
254,170,58290,1,2,0:0:0:0:
433,56,58449,6,0,L|432:236,1,161,2|8,0:0|0:0,0:0:0:0:
356,211,58922,1,2,0:0:0:0:
279,213,59080,2,0,L|278:294,1,80.5,2|2,0:0|0:0,0:0:0:0:
356,211,59396,2,0,L|357:130,1,80.5,8|2,0:0|0:0,0:0:0:0:
179,128,59712,6,0,P|126:185|196:206,1,161,2|8,0:0|0:0,0:0:0:0:
256,218,60186,1,2,0:0:0:0:
333,218,60344,2,0,L|333:115,1,80.5,2|2,0:0|0:0,0:0:0:0:
256,218,60659,2,0,L|169:268,1,80.5,8|2,0:0|0:0,0:0:0:0:
364,316,60975,6,0,L|457:317,2,80.5,2|2|8,0:0|0:0|0:0,0:0:0:0:
213,290,61607,2,0,L|84:290,2,120.75,2|2|2,0:0|0:0|0:0,0:0:0:0:
391,142,62238,6,0,P|444:187|377:237,1,161,2|8,0:0|0:0,0:0:0:0:
316,244,62712,1,2,0:0:0:0:
240,246,62870,2,0,L|75:177,1,161,2|8,0:0|0:0,0:0:0:0:
168,153,63344,1,10,0:0:0:0:
344,97,63501,6,0,L|344:260,1,161,10|10,0:0|0:0,0:0:0:0:
267,259,63975,1,2,0:0:0:0:
190,299,64133,2,0,L|190:136,1,161,10|10,0:0|0:0,0:0:0:0:
267,131,64607,1,2,0:0:0:0:
444,80,64765,5,10,0:0:0:0:
444,80,64922,1,10,0:0:0:0:
363,105,65080,1,10,0:0:0:0:
363,105,65238,1,10,0:0:0:0:
444,80,65396,1,10,0:0:0:0:
444,80,65554,1,10,0:0:0:0:
363,105,65712,2,0,L|268:132,1,80.5,10|10,0:0|0:0,0:0:0:0:
107,170,66028,5,10,0:0:0:0:
41,207,66185,1,10,0:0:0:0:
41,284,66343,1,10,0:0:0:0:
107,322,66501,1,10,0:0:0:0:
284,324,66659,2,0,L|419:271,2,120.75,10|10|10,0:0|0:0|0:0,0:0:0:0:
107,322,67291,5,6,0:1:0:0:
255,194,76133,6,0,L|431:137,1,161,4|2,0:0|0:0,0:0:0:0:
262,118,76765,2,0,L|116:173,2,120.75,2|2|2,0:0|0:0|0:0,0:0:0:0:
440,87,77396,5,6,0:0:0:0:
287,151,77712,1,6,0:0:0:0:
134,209,78028,2,0,L|272:153,2,120.75,6|6|6,0:0|0:0|0:0,0:0:0:0:
287,266,78817,5,6,0:0:0:0:
205,268,78975,1,6,0:0:0:0:
358,173,79291,2,0,L|220:117,2,120.75,6|6|6,0:0|0:0|0:0,0:0:0:0:
181,188,79922,5,6,0:0:0:0:
334,158,80238,1,6,0:0:0:0:
181,188,80554,2,0,L|43:132,2,120.75,6|6|6,0:0|0:0|0:0,0:0:0:0:
335,293,81344,5,6,0:0:0:0:
415,293,81501,1,6,0:0:0:0:
262,226,81817,2,0,L|124:170,2,120.75,6|6|6,0:0|0:0|0:0,0:0:0:0:
441,296,82449,5,6,0:0:0:0:
441,296,82607,1,2,0:0:0:0:
360,83,82765,1,6,0:0:0:0:
360,83,82922,1,2,0:0:0:0:
279,132,83080,2,0,L|141:188,2,120.75,6|6|6,0:0|0:0|0:0,0:0:0:0:
125,189,83870,5,6,0:0:0:0:
125,189,84028,1,6,0:0:0:0:
279,241,84344,2,0,L|424:180,2,120.75,6|6|6,0:0|0:0|0:0,0:0:0:0:
102,306,84975,5,6,0:0:0:0:
102,306,85133,1,2,0:0:0:0:
183,226,85291,1,6,0:0:0:0:
183,226,85449,1,2,0:0:0:0:
264,148,85607,2,0,L|402:92,2,120.75,6|6|6,0:0|0:0|0:0,0:0:0:0:
86,194,86238,6,0,L|212:195,1,107.333333333333,10|2,0:0|0:0,0:0:0:0:
193,194,86554,2,0,L|193:62,1,107.333333333333,10|2,0:0|0:0,0:0:0:0:
193,86,86870,2,0,L|69:85,1,107.333333333333,10|2,0:0|0:0,0:0:0:0:
85,85,87186,1,10,0:0:0:0:
327,272,87501,6,0,L|193:272,1,107.333333333333,10|2,0:0|0:0,0:0:0:0:
219,272,87817,2,0,L|354:272,1,107.333333333333,10|2,0:0|0:0,0:0:0:0:
326,272,88133,2,0,L|450:272,1,107.333333333333,10|2,0:0|0:0,0:0:0:0:
433,272,88449,1,10,0:0:0:0:
191,288,88765,6,0,L|64:288,1,107.333333333333,10|2,0:0|0:0,0:0:0:0:
83,288,89081,2,0,L|83:156,1,107.333333333333,10|0,0:0|0:0,0:0:0:0:
83,180,89397,2,0,L|219:180,1,107.333333333333,10|2,0:0|0:0,0:0:0:0:
190,180,89713,1,10,0:0:0:0:
432,314,90028,6,0,L|432:180,1,107.333333333333,10|2,0:0|0:0,0:0:0:0:
432,206,90344,2,0,L|277:206,1,107.333333333333,10|2,0:0|0:0,0:0:0:0:
324,206,90660,2,0,L|469:205,1,107.333333333333,10|0,0:0|0:0,0:0:0:0:
431,205,90976,1,10,0:0:0:0:
188,323,91292,6,0,L|188:189,1,107.333333333333,10|2,0:0|0:0,0:0:0:0:
188,215,91608,2,0,L|345:215,1,107.333333333333,10|2,0:0|0:0,0:0:0:0:
295,215,91922,2,0,L|138:215,1,107.333333333333,10|2,0:0|0:0,0:0:0:0:
187,215,92238,1,10,0:0:0:0:
442,296,92554,5,6,0:0:0:0:
334,299,92765,1,2,0:0:0:0:
228,302,92975,1,2,0:0:0:0:
228,302,93186,1,6,0:0:0:0:
334,299,93396,1,2,0:0:0:0:
442,296,93607,1,2,0:0:0:0:
442,296,93817,5,6,0:0:0:0:
336,299,94028,1,2,0:0:0:0:
228,302,94238,1,2,0:0:0:0:
228,302,94449,1,6,0:0:0:0:
334,299,94660,1,2,0:0:0:0:
442,296,94870,1,2,0:0:0:0:
229,96,95080,6,0,L|229:210,1,107.333333333333,6|2,0:0|0:0,0:0:0:0:
229,203,95396,2,0,L|384:203,1,107.333333333333,6|2,0:0|0:0,0:0:0:0:
335,202,95712,2,0,L|442:202,1,107.333333333333,6|2,0:0|0:0,0:0:0:0:
443,203,96028,1,6,0:0:0:0:
165,274,96344,6,0,L|33:275,2,107.333333333333,0|0|0,0:0|0:0|0:0,0:0:0:0:
358,239,96975,1,2,0:0:0:0:
196,134,97291,1,2,1:0:0:0:
453,132,97607,6,0,L|453:237,1,80.5,6|2,1:0|0:0,0:0:0:0:
260,215,98238,2,0,L|260:320,1,80.5,6|2,1:0|0:0,0:0:0:0:
453,252,98870,6,0,L|453:147,1,80.5,6|2,1:0|0:0,0:0:0:0:
260,136,99501,2,0,L|260:233,1,80.5,6|2,1:0|0:0,0:0:0:0:
341,304,99817,2,0,L|341:213,1,80.5,8|2,0:0|0:0,0:0:0:0:
166,190,100133,6,0,P|116:211|177:267,1,161,2|8,0:0|0:0,0:0:0:0:
245,265,100607,1,2,0:0:0:0:
322,254,100765,2,0,P|372:275|311:331,1,161,2|8,0:0|0:0,0:0:0:0:
80,242,101396,6,0,L|81:63,1,161,2|8,0:0|0:0,0:0:0:0:
159,167,101870,1,2,0:0:0:0:
236,178,102028,2,0,L|407:104,1,161,2|8,0:0|0:0,0:0:0:0:
308,84,102501,1,2,0:0:0:0:
131,80,102659,6,0,P|159:182|206:184,1,161,2|8,0:0|0:0,0:0:0:0:
275,184,103133,1,2,0:0:0:0:
352,181,103291,2,0,P|354:256|285:287,1,161,2|8,0:0|0:0,0:0:0:0:
32,270,103922,6,0,L|32:83,1,161,2|8,0:0|0:0,0:0:0:0:
109,109,104396,1,2,0:0:0:0:
186,113,104554,2,0,L|186:220,1,80.5,2|2,0:0|0:0,0:0:0:0:
109,189,104870,2,0,L|109:79,1,80.5,8|2,0:0|0:0,0:0:0:0:
287,105,105186,6,0,L|439:168,1,161,2|8,0:0|0:0,0:0:0:0:
359,204,105659,1,2,0:0:0:0:
277,210,105817,2,0,L|278:315,1,80.5,2|2,0:0|0:0,0:0:0:0:
359,204,106133,2,0,L|359:95,1,80.5,8|2,0:0|0:0,0:0:0:0:
181,129,106449,6,0,L|181:224,1,80.5,2|2,0:0|0:0,0:0:0:0:
263,307,106765,2,0,L|263:208,1,80.5,8|2,0:0|0:0,0:0:0:0:
181,129,107080,1,2,0:0:0:0:
358,117,107238,1,6,1:0:0:0:
126,241,107712,6,0,L|124:61,1,161,6|8,0:0|0:0,0:0:0:0:
201,70,108185,1,2,0:0:0:0:
278,69,108343,1,2,0:0:0:0:
346,106,108500,1,2,0:0:0:0:
344,182,108658,1,8,0:0:0:0:
275,215,108816,1,2,0:0:0:0:
96,329,108975,6,0,L|97:149,1,161,2|8,0:0|0:0,0:0:0:0:
173,174,109448,1,2,0:0:0:0:
250,172,109607,2,0,L|251:91,1,80.5,2|2,0:0|0:0,0:0:0:0:
173,174,109922,2,0,L|172:255,1,80.5,8|2,0:0|0:0,0:0:0:0:
350,257,110238,6,0,L|446:198,2,80.5,2|2|8,0:0|0:0|0:0,0:0:0:0:
273,167,110712,1,2,0:0:0:0:
196,167,110870,2,0,L|196:270,1,80.5,2|2,0:0|0:0,0:0:0:0:
273,167,111186,2,0,L|360:117,1,80.5,8|2,0:0|0:0,0:0:0:0:
165,69,111501,6,0,L|72:68,2,80.5,2|2|8,0:0|0:0|0:0,0:0:0:0:
241,87,111975,1,2,0:0:0:0:
316,95,112133,2,0,L|445:95,2,120.75,2|2|2,0:0|0:0|0:0,0:0:0:0:
138,243,112764,6,0,P|85:198|152:148,1,161,2|8,0:0|0:0,0:0:0:0:
213,141,113238,1,2,0:0:0:0:
289,139,113396,1,2,0:0:0:0:
363,170,113553,1,2,0:0:0:0:
437,201,113712,1,8,0:0:0:0:
361,232,113870,1,10,0:0:0:0:
185,288,114028,6,0,L|185:125,1,161,10|10,0:0|0:0,0:0:0:0:
262,126,114501,1,2,0:0:0:0:
339,86,114659,2,0,L|414:126,2,80.5,10|2|10,0:0|0:0|0:0,0:0:0:0:
262,254,115133,1,2,0:0:0:0:
85,305,115291,5,10,0:0:0:0:
85,305,115448,1,10,0:0:0:0:
166,280,115606,1,10,0:0:0:0:
166,280,115764,1,10,0:0:0:0:
85,305,115922,1,10,0:0:0:0:
85,305,116080,1,10,0:0:0:0:
166,280,116238,2,0,L|261:253,1,80.5,10|10,0:0|0:0,0:0:0:0:
422,215,116554,5,2,0:0:0:0:
488,178,116711,1,10,0:0:0:0:
488,101,116869,1,10,0:0:0:0:
422,63,117027,1,2,0:0:0:0:
245,61,117185,2,0,L|110:114,2,120.75,10|10|10,0:0|0:0|0:0,0:0:0:0:
422,63,117817,5,14,0:0:0:0:
256,192,118133,12,0,122238,0:0:0:0:
