osu file format v14

[General]
AudioFilename: audio.mp3
AudioLeadIn: 0
PreviewTime: 97607
Countdown: 0
SampleSet: Soft
StackLeniency: 0.7
Mode: 2
LetterboxInBreaks: 0
WidescreenStoryboard: 1

[Editor]
Bookmarks: 1607,11712,21817,31922,42028,47080,57186,67291,77396,82449,87501,92554,97607,117817,122238
DistanceSpacing: 0.7
BeatDivisor: 6
GridSize: 32
TimelineZoom: 2.1

[Metadata]
Title:Sweet Requiem
TitleUnicode:Sweet Requiem
Artist:REDALiCE & aran
ArtistUnicode:REDALiCE & aran
Creator:-MomoX
Version:Cup
Source:東方永夜抄 ~ Imperishable Night.
Tags:GIGACHAD Dako Electronic Instrumental 東方Project Touhou ZUN 太田順也 Oota Junya Team Shanghai Alice 上海アリス幻樂団 Eternal Night Vignette Eiyashou 少女綺想曲 ~ Dream Battle Maiden's Capriccio Reimu 博麗 霊夢 AECD-046 Annual Hakurei Shrine Grand Festival 博麗神社例大祭 Jinja Reitaisai 14 SOUND VOLTEX IV HEAVENLY HAVEN sdvx CHUNITHM CRYSTAL PLUS SEGA WACCA Lily MARVELOUS! HARDCORE TANO*C selections 2017 alice's emotion Kanon Matsubara
BeatmapID:2657915
BeatmapSetID:1278893

[Difficulty]
HPDrainRate:3
CircleSize:2
OverallDifficulty:6
ApproachRate:6
SliderMultiplier:1.45
SliderTickRate:1

[Events]
//Background and Video events
0,0,"EjX2mDAU8AAKytd.jpg",0,0
//Break Periods
2,22017,25820
2,67491,75083
//Storyboard Layer 0 (Background)
//Storyboard Layer 1 (Fail)
//Storyboard Layer 2 (Pass)
//Storyboard Layer 3 (Foreground)
//Storyboard Layer 4 (Overlay)
//Storyboard Sound Samples

[TimingPoints]
344,315.789473684211,4,2,1,65,1,0
11080,-100,4,2,1,65,0,0
11396,-100,4,2,1,65,0,0
23080,-100,4,2,0,65,0,0
23159,-100,4,2,1,65,0,0
24344,-100,4,2,0,65,0,0
24422,-100,4,2,1,65,0,0
25607,-100,4,2,0,65,0,0
25686,-100,4,2,1,65,0,0
26870,-100,4,2,1,65,0,0
42028,-100,4,2,2,65,0,0
46449,-100,4,2,1,65,0,0
52133,-100,4,2,1,65,0,0
52449,-100,4,2,1,65,0,0
57186,-100,4,2,1,65,0,1
67291,-100,4,2,1,80,0,0
76133,-100,4,2,1,65,0,0
76765,-100,4,2,1,65,0,0
77396,-100,4,1,1,65,0,0
86238,-100,4,2,2,65,0,0
87501,-100,4,2,2,65,0,0
92554,-100,4,1,1,65,0,0
95080,-100,4,1,1,65,0,0
96344,-100,4,2,1,65,0,0
96975,-100,4,1,0,65,0,0
97291,-100,4,2,1,65,0,0
97607,-100,4,2,1,65,0,0
100133,-100,4,2,1,65,0,1
107238,-100,4,2,1,65,0,0
107712,-100,4,2,1,65,0,1
117817,-100,4,2,1,65,0,0
119080,-100,4,2,1,50,0,0
119712,-100,4,2,1,40,0,0
120344,-100,4,2,1,30,0,0
120975,-100,4,2,1,25,0,0
121291,-100,4,2,1,20,0,0
121607,-100,4,2,1,15,0,0
121922,-100,4,2,1,10,0,0
122238,-100,4,2,1,5,0,0

[Colours]
Combo1 : 92,46,46
Combo2 : 220,0,0
Combo3 : 220,151,151
Combo4 : 255,174,94

[HitObjects]
256,192,344,12,0,1291,0:0:0:0:
233,251,1607,5,2,0:0:0:0:
233,251,1765,2,0,L|447:177,2,217.5,2|2|2,0:0|0:0|0:0,0:0:0:0:
392,264,3028,6,0,L|178:190,2,217.5,2|2|2,0:0|0:0|0:0,0:0:0:0:
312,306,4133,5,2,0:0:0:0:
231,304,4291,2,0,L|17:230,2,217.5,2|2|2,0:0|0:0|0:0,0:0:0:0:
311,322,5396,5,2,0:0:0:0:
420,265,5712,1,8,0:0:0:0:
377,181,6028,1,2,0:0:0:0:
268,167,6344,1,8,0:0:0:0:
111,127,6659,5,6,1:0:0:0:
31,145,6817,2,0,P|75:260|175:261,1,217.5,2|2,0:0|0:0,0:0:0:0:
281,223,7607,1,10,0:0:0:0:
159,141,7922,6,0,P|57:174|40:293,2,217.5,2|2|10,0:0|0:0|0:0,0:0:0:0:
319,148,9186,5,14,1:0:0:0:
425,213,9501,1,10,0:0:0:0:
377,306,9817,1,10,0:0:0:0:
267,315,10133,1,10,0:0:0:0:
107,324,10449,6,0,P|60:255|203:167,1,290,10|8,0:0|0:0,0:0:0:0:
327,222,11396,1,2,0:0:0:0:
168,254,11712,5,6,0:0:0:0:
168,254,11870,2,0,L|377:180,2,217.5,2|2|2,0:0|0:0|0:0,0:0:0:0:
328,300,13133,6,0,L|119:226,2,217.5,2|2|2,0:0|0:0|0:0,0:0:0:0:
408,159,14238,6,0,P|449:179|399:240,1,145,2|8,0:0|0:0,0:0:0:0:
244,183,14870,2,0,P|201:219|288:316,1,217.5,2|2,0:0|0:0,0:0:0:0:
361,299,15501,5,2,0:0:0:0:
413,213,15817,1,8,0:0:0:0:
352,131,16133,1,2,0:0:0:0:
252,128,16449,1,8,0:0:0:0:
92,131,16765,5,14,1:0:0:0:
43,219,17080,1,10,0:0:0:0:
115,302,17396,1,10,0:0:0:0:
221,308,17712,1,10,0:0:0:0:
381,311,18028,5,14,1:0:0:0:
482,243,18344,1,10,0:0:0:0:
482,243,18659,1,10,0:0:0:0:
381,311,18975,1,10,0:0:0:0:
221,319,19291,6,0,P|77:287|150:45,1,435,14|10,1:0|0:0,0:0:0:0:
279,40,20554,6,0,P|468:125|271:325,1,580,2|6,0:0|1:0,0:0:0:0:
256,192,26870,5,6,0:0:0:0:
256,192,28133,5,6,0:0:0:0:
432,196,29396,5,6,1:0:0:0:
432,196,29554,1,6,1:0:0:0:
228,293,30028,1,6,1:0:0:0:
228,293,30186,1,6,1:0:0:0:
481,279,30817,5,6,1:0:0:0:
401,284,30975,1,6,1:0:0:0:
241,289,31291,2,0,P|170:229|249:163,1,217.5,6|6,1:0|1:0,0:0:0:0:
323,165,31922,5,6,1:0:0:0:
150,237,32554,1,2,0:0:0:0:
323,165,33186,5,2,0:0:0:0:
150,237,33817,1,2,0:0:0:0:
323,165,34449,5,2,0:0:0:0:
496,68,35080,1,2,0:0:0:0:
323,166,35712,5,2,0:0:0:0:
150,237,36344,1,2,0:0:0:0:
381,299,36975,5,6,1:0:0:0:
483,211,37291,1,2,0:0:0:0:
483,211,37607,1,2,0:0:0:0:
381,299,37922,1,2,0:0:0:0:
221,257,38238,5,6,1:0:0:0:
119,169,38554,1,2,0:0:0:0:
119,169,38870,1,2,0:0:0:0:
221,257,39185,1,2,0:0:0:0:
380,327,39501,6,0,P|463:217|272:48,1,435,6|2,1:0|0:0,0:0:0:0:
125,188,40765,5,6,1:0:0:0:
242,132,41080,1,6,1:0:0:0:
125,188,41396,1,6,1:0:0:0:
242,132,41712,1,6,1:0:0:0:
82,61,42028,6,0,P|30:144|246:324,1,435,12|8,0:0|0:0,0:0:0:0:
364,308,43291,6,0,L|362:138,1,145,8|8,0:0|0:0,0:0:0:0:
232,75,43922,2,0,L|233:268,1,145,8|8,0:0|0:0,0:0:0:0:
364,234,44554,6,0,L|199:233,1,145,8|0,0:0|0:0,0:0:0:0:
89,139,45186,2,0,L|263:137,1,145,8|0,0:0|0:0,0:0:0:0:
365,92,45817,6,0,L|366:247,1,145,8|0,0:0|0:0,0:0:0:0:
206,259,46449,1,12,0:0:0:0:
409,266,47080,5,2,0:0:0:0:
176,210,47712,1,8,0:0:0:0:
407,237,48344,5,2,0:0:0:0:
275,195,48659,1,2,0:0:0:0:
407,237,48975,2,0,P|466:180|359:118,1,217.5,8|0,0:0|0:0,0:0:0:0:
305,119,49607,5,2,0:0:0:0:
74,167,50238,1,8,0:0:0:0:
305,303,50870,6,0,P|377:250|289:181,1,217.5,2|2,0:0|0:0,0:0:0:0:
226,53,51501,2,0,P|154:106|242:175,1,217.5,8|0,0:0|0:0,0:0:0:0:
305,184,52133,5,6,1:0:0:0:
174,186,52449,1,6,1:0:0:0:
304,296,52765,1,8,0:0:0:0:
72,285,53396,5,4,1:0:0:0:
202,230,53712,1,2,0:0:0:0:
71,201,54028,2,0,L|71:49,1,145,8|10,0:0|0:0,0:0:0:0:
231,69,54659,6,0,L|391:69,1,145,2|8,0:0|0:0,0:0:0:0:
137,171,55449,2,0,L|48:172,1,72.5,2|10,1:0|1:0,0:0:0:0:
224,125,55922,6,0,L|376:183,2,145,2|10|2,0:0|0:0|0:0,0:0:0:0:
144,124,56712,1,6,1:0:0:0:
318,269,57186,6,0,L|318:108,1,145,6|8,0:0|0:0,0:0:0:0:
158,87,57817,2,0,L|312:88,1,145,2|8,0:0|0:0,0:0:0:0:
463,228,58449,6,0,L|462:60,1,145,2|8,0:0|0:0,0:0:0:0:
302,173,59080,2,0,L|456:173,1,145,2|8,0:0|0:0,0:0:0:0:
301,296,59712,6,0,L|106:297,1,145,2|8,0:0|0:0,0:0:0:0:
302,91,60344,2,0,L|303:248,1,145,2|8,0:0|0:0,0:0:0:0:
158,239,60975,5,2,0:0:0:0:
303,160,61291,1,8,0:0:0:0:
157,75,61607,2,0,L|172:240,1,145,2|8,0:0|0:0,0:0:0:0:
250,221,62080,1,2,0:0:0:0:
330,217,62238,6,0,L|343:57,1,145,2|8,0:0|0:0,0:0:0:0:
183,80,62870,2,0,P|133:119|194:124,1,145,2|8,0:0|0:0,0:0:0:0:
264,139,63344,1,10,0:0:0:0:
343,131,63501,5,10,0:0:0:0:
447,177,63816,1,10,0:0:0:0:
452,292,64132,1,10,0:0:0:0:
352,347,64448,1,10,0:0:0:0:
192,256,64765,5,10,0:0:0:0:
108,181,65080,1,10,0:0:0:0:
132,88,65396,1,10,0:0:0:0:
239,65,65712,1,10,0:0:0:0:
398,67,66028,6,0,P|466:115|381:185,1,217.5,10|10,0:0|0:0,0:0:0:0:
310,180,66659,2,0,P|237:225|311:303,1,217.5,10|10,0:0|0:0,0:0:0:0:
385,303,67291,5,6,0:1:0:0:
256,196,76133,5,4,0:0:0:0:
388,154,76449,1,2,0:0:0:0:
258,186,76765,2,0,P|185:254|273:299,1,217.5,2|2,0:0|0:0,0:0:0:0:
339,307,77396,6,0,L|339:151,1,145,6|6,0:0|0:0,0:0:0:0:
206,108,78028,2,0,P|204:171|333:239,1,217.5,6|6,0:0|0:0,0:0:0:0:
454,183,78817,5,6,0:0:0:0:
454,183,78975,1,6,0:0:0:0:
324,107,79291,2,0,P|258:144|334:232,1,217.5,6|6,0:0|0:0,0:0:0:0:
405,232,79922,6,0,P|401:164|326:133,1,145,6|6,0:0|0:0,0:0:0:0:
206,165,80554,2,0,P|131:216|211:270,1,217.5,6|6,0:0|0:0,0:0:0:0:
339,238,81344,5,6,0:0:0:0:
339,238,81501,1,6,0:0:0:0:
180,235,81817,2,0,P|121:140|197:131,1,217.5,6|6,0:0|0:0,0:0:0:0:
263,114,82449,5,6,0:0:0:0:
133,100,82765,1,6,0:0:0:0:
292,147,83080,2,0,P|363:176|284:253,1,217.5,6|6,0:0|0:0,0:0:0:0:
135,251,83870,5,6,0:0:0:0:
135,251,84028,1,6,0:0:0:0:
294,249,84344,2,0,P|368:217|276:164,1,217.5,6|6,0:0|0:0,0:0:0:0:
213,174,84975,5,6,0:0:0:0:
373,165,85291,1,6,0:0:0:0:
214,224,85607,2,0,P|189:173|298:90,1,217.5,6|6,0:0|0:0,0:0:0:0:
374,261,86238,5,10,0:0:0:0:
272,182,86554,1,10,0:0:0:0:
374,261,86870,1,10,0:0:0:0:
272,182,87186,1,10,0:0:0:0:
402,259,87501,5,10,0:0:0:0:
300,180,87817,1,10,0:0:0:0:
300,180,88133,1,10,0:0:0:0:
402,259,88449,1,10,0:0:0:0:
271,253,88765,5,10,0:0:0:0:
373,174,89081,1,10,0:0:0:0:
373,174,89397,1,10,0:0:0:0:
271,253,89713,1,10,0:0:0:0:
401,252,90028,5,10,0:0:0:0:
469,175,90343,1,10,0:0:0:0:
405,104,90659,1,10,0:0:0:0:
303,95,90975,1,10,0:0:0:0:
173,100,91291,5,10,0:0:0:0:
130,174,91606,1,10,0:0:0:0:
182,246,91922,1,10,0:0:0:0:
271,257,92238,1,10,0:0:0:0:
431,111,92554,6,0,L|430:269,1,145,6|2,0:0|0:0,0:0:0:0:
307,330,93186,2,0,L|307:151,1,145,6|2,0:0|0:0,0:0:0:0:
437,54,93817,6,0,L|437:222,1,145,6|2,0:0|0:0,0:0:0:0:
306,210,94449,2,0,L|147:210,1,145,6|2,0:0|0:0,0:0:0:0:
322,64,95080,5,6,0:0:0:0:
412,130,95396,1,6,0:0:0:0:
365,223,95712,1,6,0:0:0:0:
255,237,96028,1,6,0:0:0:0:
96,256,96344,6,0,P|61:147|199:89,1,290,0|2,0:0|0:0,0:0:0:0:
342,123,97291,1,2,1:0:0:0:
197,59,97607,5,6,1:0:0:0:
404,103,98238,1,6,1:0:0:0:
199,136,98870,5,6,1:0:0:0:
401,201,99501,2,0,L|399:348,1,145,6|8,1:0|0:0,0:0:0:0:
239,301,100133,6,0,P|191:251|265:252,1,145,2|8,0:0|0:0,0:0:0:0:
399,235,100765,2,0,L|221:235,1,145,2|8,0:0|0:0,0:0:0:0:
95,72,101396,6,0,L|95:247,1,145,2|8,0:0|0:0,0:0:0:0:
255,208,102028,2,0,L|406:208,1,145,2|8,0:0|0:0,0:0:0:0:
240,316,102659,6,0,P|270:224|326:215,1,145,2|8,0:0|0:0,0:0:0:0:
468,206,103291,2,0,L|296:206,1,145,2|8,0:0|0:0,0:0:0:0:
163,80,103922,6,0,L|163:247,1,145,2|8,0:0|0:0,0:0:0:0:
309,240,104554,1,2,0:0:0:0:
163,225,104870,1,8,0:0:0:0:
309,240,105186,5,2,0:0:0:0:
401,208,105501,1,8,0:0:0:0:
417,107,105817,1,2,0:0:0:0:
328,53,106133,1,8,0:0:0:0:
169,121,106449,6,0,L|20:196,2,145,2|8|2,0:0|0:0|0:0,0:0:0:0:
249,118,107238,1,6,1:0:0:0:
74,300,107712,6,0,L|74:139,1,145,6|8,0:0|0:0,0:0:0:0:
233,123,108343,2,0,L|377:122,1,145,2|8,0:0|0:0,0:0:0:0:
232,317,108975,6,0,L|233:149,1,145,2|8,0:0|0:0,0:0:0:0:
378,281,109607,2,0,L|378:108,1,145,2|8,0:0|0:0,0:0:0:0:
233,112,110238,5,2,0:0:0:0:
378,133,110554,1,8,0:0:0:0:
233,112,110870,2,0,L|232:269,1,145,2|8,0:0|0:0,0:0:0:0:
378,265,111501,5,2,0:0:0:0:
227,170,111817,1,8,0:0:0:0:
376,101,112133,2,0,L|365:273,1,145,2|8,0:0|0:0,0:0:0:0:
285,247,112606,1,2,0:0:0:0:
211,223,112764,6,0,L|226:63,1,145,2|8,0:0|0:0,0:0:0:0:
372,86,113396,2,0,P|422:125|361:130,1,145,2|8,0:0|0:0,0:0:0:0:
291,145,113870,1,10,0:0:0:0:
212,137,114027,5,10,0:0:0:0:
108,183,114344,1,10,0:0:0:0:
103,298,114659,1,10,0:0:0:0:
203,353,114975,1,10,0:0:0:0:
363,262,115291,5,10,0:0:0:0:
447,187,115606,1,10,0:0:0:0:
423,94,115922,1,10,0:0:0:0:
316,71,116238,1,10,0:0:0:0:
157,73,116554,6,0,P|87:129|114:182,1,145,2|10,0:0|0:0,0:0:0:0:
245,186,117185,2,0,P|318:231|244:309,1,217.5,10|10,0:0|0:0,0:0:0:0:
170,309,117817,5,14,0:0:0:0:
256,192,118133,12,0,122238,0:0:0:0:
