osu file format v14

[General]
AudioFilename: audio.mp3
AudioLeadIn: 0
PreviewTime: 72944
Countdown: 1
SampleSet: Soft
StackLeniency: 0.7
Mode: 0
LetterboxInBreaks: 0
WidescreenStoryboard: 1

[Editor]
Bookmarks: 11041,13209,13608,13740,14006,14271,14404,14802,15068,15333,15599,15732,15997,16130,16395,16661,16794,16926,17059,17192,17325,17457,17856,17988,18254,18519,18652,19050,19316,19581,19714,19847,19979,20112,20245,20643,20776,20909,21041,21174,21307,21440,21572,21705,22103,22236,22502,22767,22900,23298,23563,23829,24094,24227,24493,24625,24891,25156,25289,25422,25555,25687,25820,25953,26351,26484,26749,27015,27148,27546,27811,28077,28210,28342,28475,28608,28740,29006,29139,29271,29404,29537,29670,29802,29935,30068,30201,30599,30732,30997,31263,31395,31528,31661,31794,32059,32325,32457,32590,32723,32856,33121,33254,33386,33652,33785,33917,34183,34316,34448,34581,34714,34847,34979,35245,35378,35510,35776,35909,36041,36174,36307,36440,36572,36838,36971,37103,37369,37502,37634,37767,37900,38033,38165,38298,38431,38563,38696,38962,39094,39227,39493,39758,39891,40024,40156,40289,40555,40820,40953,41086,41218,41351,41617,41749,41882,42148,42280,42413,42679,42811,42944,43077,43210,43342,43475,43740,44006,44139,44271,44404,44537,44670,44802,44935,45068,45466,45599,45864,46130,46263,46395,46661,46794,46926,47059,47192,47457,47590,47723,47988,48254,48386,48519,48652,48785,49050,49183,49316,49581,49714,49847,50112,50245,50378,50510,50643,50776,50909,51174,51440,51572,51705,51838,51971,52236,52502,52634,52767,52900,53033,53298,53563,53696,53829,53962,54094,54360,54625,54758,54891,55024,55156,55289,55422,55555,55687,55953,56086,56218,56484,56749,56882,57015,57148,57280,57546,57679,57811,58077,58210,58342,58608,58873,59006,59139,59271,59404,59537,59670,59802,59935,60201,60333,60466,60732,60997,61130,61263,61395,61528,61794,62059,62192,62325,62457,62590,62856,63121,63254,63386,63519,63652,63785,63917,64050,64183
DistanceSpacing: 1
BeatDivisor: 4
GridSize: 4
TimelineZoom: 1.5

[Metadata]
Title:Watch You Crawl
TitleUnicode:Watch You Crawl
Artist:RED
ArtistUnicode:RED
Creator:AndreXi
Version:backup
Source:
Tags:red rock until we have faces watch you crawl
BeatmapID:1086997
BeatmapSetID:504121

[Difficulty]
HPDrainRate:6
CircleSize:4
OverallDifficulty:7
ApproachRate:8
SliderMultiplier:1.6
SliderTickRate:1

[Events]
//Background and Video events
0,0,"1296571939_00.-red-until-we-have-faces-2011-cover.jpg",0,0
//Break Periods
//Storyboard Layer 0 (Background)
//Storyboard Layer 1 (Fail)
//Storyboard Layer 2 (Pass)
//Storyboard Layer 3 (Foreground)
//Storyboard Sound Samples

[TimingPoints]
13210,530.973451327434,4,2,0,100,1,0

[Colours]
Combo1 : 213,106,0
Combo2 : 198,0,0

[HitObjects]
84,68,13209,6,0,P|128:48|212:68,1,120
232,76,13740,1,0,1:0:0:0:
304,112,14006,2,0,L|388:164,1,80
408,172,14404,1,0,0:0:0:0:
260,192,14802,5,0,1:0:0:0:
220,264,15068,1,0,0:0:0:0:
300,264,15333,1,0,0:0:0:0:
360,208,15599,2,0,L|324:160,1,40
156,208,15997,2,0,L|192:160,1,40
260,112,16395,1,0,0:0:0:0:
196,64,16661,2,0,P|212:48|236:40,5,40
100,76,17457,6,0,P|68:156|84:172,1,120
108,200,17988,1,0,1:0:0:0:
172,248,18254,2,0,L|252:296,1,80
276,308,18652,1,0,0:0:0:0:
352,304,19050,5,0,1:0:0:0:
412,248,19316,1,0,0:0:0:0:
360,188,19581,2,0,P|348:168|308:152,4,40
384,156,20245,2,0,P|372:76|384:36,1,120
360,8,20776,2,0,P|348:28|308:44,4,40
320,12,21440,1,0,0:0:0:0:
280,12,21572,1,0,0:0:0:0:
244,28,21705,6,0,P|212:108|228:124,1,120
252,152,22236,1,0,1:0:0:0:
316,204,22502,2,0,L|396:252,1,80
420,264,22900,1,0,0:0:0:0:
256,188,23298,5,0,1:0:0:0:
296,116,23564,1,0,0:0:0:0:
216,116,23829,1,0,0:0:0:0:
156,172,24095,2,0,L|192:220,1,40
360,172,24493,2,0,L|324:220,1,40
256,268,24891,1,0,0:0:0:0:
320,316,25157,2,0,P|304:332|280:340,5,40
248,344,25953,6,0,P|216:264|232:248,1,120
264,228,26484,1,0,1:0:0:0:
332,188,26750,2,0,L|412:140,1,80
436,128,27148,1,0,0:0:0:0:
256,192,27546,5,0,1:0:0:0:
176,192,27811,1,0,0:0:0:0:
344,192,28077,2,0,L|312:160,5,40
256,96,29006,1,0,0:0:0:0:
228,124,29139,2,0,L|180:176,5,40
176,184,29935,1,0,0:0:0:0:
152,216,30068,1,0,0:0:0:0:
128,248,30201,1,4,0:0:0:0:
272,176,30599,5,0,0:0:0:0:
272,176,30732,1,0,0:0:0:0:
272,176,30997,1,0,0:0:0:0:
272,176,31263,1,0,0:0:0:0:
272,176,31395,1,0,0:0:0:0:
272,176,31528,1,0,0:0:0:0:
272,176,31661,1,0,0:0:0:0:
216,184,31794,1,0,0:0:0:0:
272,176,32059,1,0,0:0:0:0:
272,176,32325,1,0,0:0:0:0:
272,176,32457,1,0,0:0:0:0:
272,176,32590,1,0,0:0:0:0:
272,176,32723,1,0,0:0:0:0:
272,176,32856,1,0,0:0:0:0:
272,176,33121,1,0,0:0:0:0:
272,176,33254,1,0,0:0:0:0:
272,176,33386,1,0,0:0:0:0:
272,176,33652,1,0,0:0:0:0:
272,176,33785,1,0,0:0:0:0:
272,176,33917,1,0,0:0:0:0:
272,176,34183,1,0,0:0:0:0:
272,176,34316,1,0,0:0:0:0:
272,176,34448,1,0,0:0:0:0:
272,176,34581,1,0,0:0:0:0:
272,176,34714,1,0,0:0:0:0:
272,176,34847,1,0,0:0:0:0:
272,176,34979,1,0,0:0:0:0:
272,176,35245,1,0,0:0:0:0:
248,200,35378,1,0,0:0:0:0:
272,176,35510,1,0,0:0:0:0:
272,176,35776,1,0,0:0:0:0:
272,176,35909,1,0,0:0:0:0:
272,176,36041,1,0,0:0:0:0:
272,176,36174,1,0,0:0:0:0:
272,176,36307,1,0,0:0:0:0:
272,176,36440,1,0,0:0:0:0:
272,176,36572,1,0,0:0:0:0:
272,176,36838,1,0,0:0:0:0:
248,200,36971,1,0,0:0:0:0:
272,176,37103,1,0,0:0:0:0:
272,176,37369,1,0,0:0:0:0:
272,176,37502,1,0,0:0:0:0:
272,176,37634,1,0,0:0:0:0:
304,176,37767,1,0,0:0:0:0:
272,176,37900,1,0,0:0:0:0:
272,176,38033,1,0,0:0:0:0:
272,176,38165,1,0,0:0:0:0:
240,200,38298,1,0,0:0:0:0:
272,176,38431,1,0,0:0:0:0:
272,176,38563,1,0,0:0:0:0:
272,176,38696,1,0,0:0:0:0:
240,200,38962,1,0,0:0:0:0:
272,176,39094,1,0,0:0:0:0:
272,176,39227,1,0,0:0:0:0:
272,176,39493,1,0,0:0:0:0:
272,176,39758,1,0,0:0:0:0:
272,176,39891,1,0,0:0:0:0:
272,176,40024,1,0,0:0:0:0:
272,176,40156,1,0,0:0:0:0:
216,184,40289,1,0,0:0:0:0:
272,176,40555,1,0,0:0:0:0:
272,176,40820,1,0,0:0:0:0:
272,176,40953,1,0,0:0:0:0:
272,176,41086,1,0,0:0:0:0:
272,176,41218,1,0,0:0:0:0:
272,176,41351,1,0,0:0:0:0:
272,176,41617,1,0,0:0:0:0:
272,176,41749,1,0,0:0:0:0:
272,176,41882,1,0,0:0:0:0:
272,176,42148,1,0,0:0:0:0:
272,176,42280,1,0,0:0:0:0:
272,176,42413,1,0,0:0:0:0:
248,72,42679,1,0,0:0:0:0:
248,72,42811,1,0,0:0:0:0:
248,72,42944,1,0,0:0:0:0:
216,88,43077,1,0,0:0:0:0:
248,72,43210,1,0,0:0:0:0:
248,72,43342,1,0,0:0:0:0:
256,112,43475,1,0,0:0:0:0:
272,184,43740,1,0,0:0:0:0:
312,152,44006,1,0,0:0:0:0:
312,152,44139,1,0,0:0:0:0:
312,152,44271,1,0,0:0:0:0:
312,152,44404,1,0,0:0:0:0:
312,152,44537,1,0,0:0:0:0:
312,192,44670,1,0,0:0:0:0:
312,152,44802,1,0,0:0:0:0:
312,152,44935,1,0,0:0:0:0:
312,152,45068,1,0,0:0:0:0:
240,208,45466,1,0,0:0:0:0:
224,224,45599,1,0,0:0:0:0:
256,216,45864,1,0,0:0:0:0:
192,184,46130,1,0,0:0:0:0:
192,184,46263,1,0,0:0:0:0:
192,184,46395,1,0,0:0:0:0:
264,184,46661,1,0,0:0:0:0:
288,184,46794,1,0,0:0:0:0:
320,192,46926,1,0,0:0:0:0:
320,192,47059,1,0,0:0:0:0:
320,192,47192,1,0,0:0:0:0:
248,192,47457,1,0,0:0:0:0:
272,280,47590,1,0,0:0:0:0:
288,256,47723,1,0,0:0:0:0:
288,256,47988,1,0,0:0:0:0:
288,256,48254,1,0,0:0:0:0:
288,256,48386,1,0,0:0:0:0:
288,240,48519,1,0,0:0:0:0:
288,256,48652,1,0,0:0:0:0:
288,256,48785,1,0,0:0:0:0:
216,256,49050,1,0,0:0:0:0:
184,248,49183,1,0,0:0:0:0:
144,248,49316,1,0,0:0:0:0:
160,176,49581,1,0,0:0:0:0:
112,144,49714,1,0,0:0:0:0:
120,176,49847,1,0,0:0:0:0:
288,256,50112,1,0,0:0:0:0:
288,256,50245,1,0,0:0:0:0:
288,240,50378,1,0,0:0:0:0:
288,256,50510,1,0,0:0:0:0:
288,256,50643,1,0,0:0:0:0:
288,256,50776,1,0,0:0:0:0:
288,240,50909,1,0,0:0:0:0:
240,192,51174,1,0,0:0:0:0:
336,144,51440,1,0,0:0:0:0:
336,144,51572,1,0,0:0:0:0:
336,144,51705,1,0,0:0:0:0:
336,144,51838,1,0,0:0:0:0:
336,144,51971,1,0,0:0:0:0:
264,144,52236,1,0,0:0:0:0:
336,144,52502,1,0,0:0:0:0:
336,144,52634,1,0,0:0:0:0:
336,144,52767,1,0,0:0:0:0:
336,144,52900,1,0,0:0:0:0:
336,144,53033,1,0,0:0:0:0:
264,144,53298,1,0,0:0:0:0:
336,144,53563,1,0,0:0:0:0:
336,144,53696,1,0,0:0:0:0:
336,144,53829,1,0,0:0:0:0:
336,144,53962,1,0,0:0:0:0:
336,144,54094,1,0,0:0:0:0:
368,144,54360,1,0,0:0:0:0:
296,144,54625,1,0,0:0:0:0:
264,144,54758,1,0,0:0:0:0:
296,144,54891,1,0,0:0:0:0:
296,144,55024,1,0,0:0:0:0:
296,144,55156,1,0,0:0:0:0:
296,144,55289,1,0,0:0:0:0:
296,144,55422,1,0,0:0:0:0:
224,136,55555,1,0,0:0:0:0:
224,136,55687,1,0,0:0:0:0:
152,144,55953,1,0,0:0:0:0:
152,144,56086,1,0,0:0:0:0:
152,144,56218,1,0,0:0:0:0:
224,136,56484,1,0,0:0:0:0:
336,144,56749,1,0,0:0:0:0:
336,144,56882,1,0,0:0:0:0:
336,144,57015,1,0,0:0:0:0:
336,144,57148,1,0,0:0:0:0:
336,144,57280,1,0,0:0:0:0:
336,216,57546,1,0,0:0:0:0:
312,192,57679,1,0,0:0:0:0:
336,216,57811,1,0,0:0:0:0:
336,216,58077,1,0,0:0:0:0:
336,216,58210,1,0,0:0:0:0:
336,216,58342,1,0,0:0:0:0:
336,216,58608,1,0,0:0:0:0:
368,280,58873,1,0,0:0:0:0:
336,144,59006,1,0,0:0:0:0:
336,144,59139,1,0,0:0:0:0:
336,144,59271,1,0,0:0:0:0:
336,144,59404,1,0,0:0:0:0:
336,144,59537,1,0,0:0:0:0:
336,144,59670,1,0,0:0:0:0:
336,144,59802,1,0,0:0:0:0:
336,144,59935,1,0,0:0:0:0:
264,144,60201,1,0,0:0:0:0:
264,144,60333,1,0,0:0:0:0:
264,144,60466,1,0,0:0:0:0:
264,144,60732,1,0,0:0:0:0:
336,144,60997,1,0,0:0:0:0:
336,144,61130,1,0,0:0:0:0:
336,144,61263,1,0,0:0:0:0:
336,144,61395,1,0,0:0:0:0:
336,144,61528,1,0,0:0:0:0:
264,144,61794,1,0,0:0:0:0:
336,144,62059,1,0,0:0:0:0:
336,144,62192,1,0,0:0:0:0:
336,144,62325,1,0,0:0:0:0:
336,144,62457,1,0,0:0:0:0:
336,144,62590,1,0,0:0:0:0:
264,136,62856,1,0,0:0:0:0:
336,144,63121,1,0,0:0:0:0:
336,144,63254,1,0,0:0:0:0:
336,144,63386,1,0,0:0:0:0:
336,144,63519,1,0,0:0:0:0:
336,144,63652,1,0,0:0:0:0:
336,144,63785,1,0,0:0:0:0:
336,144,63917,1,0,0:0:0:0:
336,144,64050,1,0,0:0:0:0:
336,144,64183,1,0,0:0:0:0:
