osu file format v14

[General]
AudioFilename: audio.mp3
AudioLeadIn: 0
PreviewTime: 33079
Countdown: 0
SampleSet: Soft
StackLeniency: 0.7
Mode: 0
LetterboxInBreaks: 0
WidescreenStoryboard: 1

[Editor]
DistanceSpacing: 1.2
BeatDivisor: 6
GridSize: 32
TimelineZoom: 3.099999

[Metadata]
Title:HEATSEEKER
TitleUnicode:HEATSEEKER
Artist:REAPER
ArtistUnicode:REAPER
Creator:keevy
Version:NORMAL
Source:
Tags:electronic english instrumental edm dance music monstercat dnb drum and n bass drumstep reapernoises anishina kodoku loreley tatemae sherrycherry RENEGADE
BeatmapID:3558899
BeatmapSetID:1739056

[Difficulty]
HPDrainRate:3
CircleSize:3
OverallDifficulty:5
ApproachRate:6
SliderMultiplier:1
SliderTickRate:1

[Events]
//Background and Video events
0,0,"bg.jpg",0,0
//Break Periods
//Storyboard Layer 0 (Background)
//Storyboard Layer 1 (Fail)
//Storyboard Layer 2 (Pass)
//Storyboard Layer 3 (Foreground)
//Storyboard Layer 4 (Overlay)
//Storyboard Sound Samples

[TimingPoints]
104,344.827586206897,4,2,1,40,1,0
1368,-100,4,2,0,5,0,0
1483,-100,4,2,1,40,0,0
11138,-100,4,2,1,55,0,0
27690,-100,4,2,1,60,0,0
30448,-100,4,2,1,65,0,0
32517,-100,4,2,1,70,0,0
33207,-100,4,2,1,66,0,0
55276,-100,4,2,1,70,0,0
60793,-100,4,2,1,65,0,0
62172,-100,4,2,1,75,0,0
62517,-100,4,2,1,65,0,0
62862,-100,4,2,1,55,0,0
63207,-100,4,2,1,45,0,0
63552,-100,4,2,1,50,0,0
65276,-100,4,2,1,60,0,0
65621,-100,4,2,1,65,0,0
65966,-100,4,2,1,70,0,0
66310,-100,4,2,1,95,0,1
88379,-100,4,2,1,65,0,0
104931,-100,4,2,1,70,0,0
107689,-100,4,2,1,75,0,0
109758,-100,4,2,1,70,0,0
110448,-100,4,2,1,66,0,0
132517,-100,4,2,1,70,0,0
138034,-100,4,2,1,65,0,0
139413,-100,4,2,1,75,0,0
139758,-100,4,2,1,65,0,0
140103,-100,4,2,1,55,0,0
140448,-100,4,2,1,45,0,0
140793,-100,4,2,1,50,0,0
142517,-100,4,2,1,60,0,0
142862,-100,4,2,1,65,0,0
143207,-100,4,2,1,70,0,0
143552,-100,4,2,1,95,0,1
164586,-100,4,2,1,80,0,1
165621,-100,4,2,1,60,0,0
176655,-100,4,2,1,45,0,0

[Colours]
Combo1 : 255,255,34
Combo2 : 67,133,133
Combo3 : 205,205,205

[HitObjects]
85,353,104,6,0,B|35:327|35:327|56:137|56:137|220:316|220:316|360:284|360:284|367:213,1,700,6|0,1:2|3:2,0:0:0:0:
450,132,2862,2,0,B|405:113|405:113|335:137,3,100,0|0|0|0,3:2|3:2|3:2|3:2,0:0:0:0:
319,15,4241,2,0,B|272:29|272:29|234:92,3,100,0|0|0|0,3:2|3:2|3:2|3:2,0:0:0:0:
142,10,5621,6,0,B|241:194|241:194|148:146,1,300,2|0,3:2|0:0,0:0:0:0:
110,261,7000,1,0,3:2:0:0:
316,316,8379,2,0,B|312:265|312:265|268:222,3,100,0|0|0|0,3:2|3:2|3:2|3:2,0:0:0:0:
380,168,9759,2,0,B|344:131|344:131|282:126,3,100,0|0|0|2,3:2|3:2|3:2|3:2,0:0:0:0:
261,12,11138,6,0,P|227:61|183:84,1,100,0|0,1:2|0:0,0:0:0:0:
80,123,11828,1,8,0:2:0:0:
185,178,12172,2,0,P|192:210|192:243,1,66.6666666666667,0|0,0:0|1:2,0:0:0:0:
164,272,12517,2,0,P|145:324|154:390,2,100,0|0|8,1:2|1:2|0:0,0:0:0:0:
239,365,13552,2,0,P|263:342|294:331,1,66.6666666666667,0|0,0:0|1:2,0:0:0:0:
330,348,13897,6,0,P|388:359|436:390,1,100,0|0,1:2|0:0,0:0:0:0:
421,258,14586,1,8,0:0:0:0:
337,169,14931,2,0,P|351:134|381:95,1,66.6666666666667,0|0,0:0|1:2,0:0:0:0:
368,69,15276,2,0,P|409:47|468:34,2,100,0|0|8,1:2|1:2|0:0,0:0:0:0:
279,150,16311,2,0,P|247:138|223:115,1,66.6666666666667,0|0,0:0|1:2,0:0:0:0:
221,75,16655,6,0,P|170:61|108:70,1,100,0|0,1:2|0:0,0:0:0:0:
3,76,17345,1,8,0:0:0:0:
68,178,17690,2,0,P|59:217|42:247,1,66.6666666666667,0|0,0:0|1:2,0:0:0:0:
72,271,18035,2,0,P|38:289|-1:347,2,100,0|0|8,1:2|1:2|0:0,0:0:0:0:
192,273,19069,2,0,P|235:296|253:315,1,66.6666666666667,0|0,0:0|1:2,0:0:0:0:
279,332,19414,6,0,P|283:275|309:220,1,100,0|0,1:2|0:0,0:0:0:0:
195,174,20104,1,8,0:0:0:0:
287,97,20448,2,0,P|262:59|232:42,1,66.6666666666667,0|0,0:0|1:2,0:0:0:0:
214,21,20793,2,0,P|161:13|104:24,2,100,0|0|8,1:2|1:2|0:0,0:0:0:0:
161,130,21828,2,0,P|126:126|92:112,1,66.6666666666667,0|0,0:0|1:2,0:0:0:0:
56,116,22172,6,0,P|77:166|80:227,1,100,0|0,1:2|0:0,0:0:0:0:
132,320,22862,1,8,0:0:0:0:
197,219,23207,2,0,P|230:214|269:223,1,66.6666666666667,0|0,0:0|1:2,0:0:0:0:
282,255,23552,2,0,P|326:276|362:311,2,100,0|0|8,1:2|1:2|0:0,0:0:0:0:
396,218,24586,2,0,P|376:177|374:145,1,66.6666666666667,0|0,0:0|1:2,0:0:0:0:
345,127,24931,6,0,P|368:82|411:43,1,100,0|0,1:2|0:0,0:0:0:0:
290,7,25621,1,8,0:0:0:0:
219,104,25966,2,0,P|180:134|157:141,1,66.6666666666667,0|0,0:0|1:2,0:0:0:0:
135,111,26310,2,0,P|85:105|36:113,2,100,0|0|8,1:2|1:2|0:0,0:0:0:0:
69,211,27345,2,0,P|105:218|140:216,1,66.6666666666667,0|0,0:0|1:2,0:0:0:0:
164,244,27690,6,0,P|203:220|265:207,1,100,0|0,1:2|0:0,0:0:0:0:
356,272,28379,1,8,0:0:0:0:
341,153,28724,2,0,P|351:108|369:83,1,66.6666666666667,0|0,0:0|1:2,0:0:0:0:
379,54,29069,2,0,P|322:36|255:41,2,100,0|0|8,1:2|1:2|0:0,0:0:0:0:
489,102,30104,2,0,P|471:130|463:162,1,66.6666666666667,0|0,0:0|1:2,0:0:0:0:
453,201,30448,6,0,P|400:206|344:227,1,100,0|0,1:2|0:0,0:0:0:0:
275,131,31138,1,8,0:0:0:0:
156,149,31483,2,0,P|131:179|118:222,1,66.6666666666667,0|0,0:0|1:2,0:0:0:0:
128,244,31828,6,0,P|78:249|34:271,2,100,0|0|8,1:2|1:2|0:0,0:0:0:0:
214,327,32862,2,0,P|261:320|289:298,1,66.6666666666667,0|0,3:2|0:0,0:0:0:0:
313,326,33207,6,0,P|376:298|449:30,1,366.666666666667,6|0,1:2|0:0,0:0:0:0:
411,32,34586,2,0,B|400:43|394:47|394:47|396:54|396:54|389:50|389:50|379:60|375:63|375:63|370:60|370:60|370:66|370:66|361:72|354:76|354:76|353:81|353:81|348:78|348:78|339:82|331:86|331:86|326:82|326:82|327:88|327:88|318:92|308:95|308:95|306:101|306:101|304:96|304:96|289:99|285:100|285:100|280:95|280:95|279:101|279:101|265:104|259:102|259:102|258:110|258:110|255:103|255:103|242:104|236:105|236:105|233:99|233:99|230:104|230:104|217:103|211:102|211:102|208:107|208:107|205:101|205:101|192:100|186:98|186:98|186:91|186:91|181:95|181:95|172:93|163:90|163:90|158:94|158:94|158:88|158:88|152:87|147:84,1,366.666666666667,2|0,0:0|0:0,0:0:0:0:
147,46,35966,6,0,P|33:95|169:201,1,366.666666666667,2|0,1:2|0:0,0:0:0:0:
203,188,37345,2,0,B|204:186|210:185|210:185|210:179|210:179|215:184|215:184|224:180|233:178|233:178|238:182|238:182|238:174|238:174|244:173|257:172|257:172|260:166|260:166|263:171|263:171|268:169|282:168|282:168|285:173|285:173|287:167|287:167|293:168|307:168|307:168|310:162|310:162|311:169|311:169|317:168|331:171|331:171|332:176|332:176|337:171|337:171|341:172|355:175|355:175|358:170|358:170|360:176|360:176|370:179|379:183|379:183|378:189|378:189|383:184|383:184|392:188|400:192|400:192|405:189|405:189|407:194|407:194|414:198|423:204|423:204|422:210|422:210|427:207|427:207|432:210|442:219|442:219|449:216|449:216|446:222|446:222|453:226|464:238,1,366.666666666667,2|0,0:0|0:0,0:0:0:0:
451,275,38724,6,0,P|407:319|134:268,1,366.666666666667,2|0,1:2|0:0,0:0:0:0:
98,282,40104,2,0,B|90:268|89:260|89:260|82:260|82:260|88:255|88:255|82:242|81:237|81:237|86:233|86:233|80:232|80:232|78:221|76:213|76:213|71:210|71:210|76:206|76:206|75:197|75:187|75:187|81:185|81:185|75:183|75:183|75:174|75:163|75:163|70:160|70:160|75:158|75:158|78:144|78:140|78:140|85:137|85:137|80:134|80:134|82:120|85:115|85:115|79:111|79:111|86:111|86:111|90:98|92:92|92:92|98:92|98:92|95:87|95:87|100:75|103:70|103:70|100:65|100:65|106:65|106:65|112:53|115:48|115:48|123:51|123:51|120:45|120:45|125:37|132:30|132:30|129:23|129:23|135:25|135:25|138:20|143:16,1,366.666666666667,2|0,0:0|0:0,0:0:0:0:
179,10,41483,2,0,P|281:153|293:346,1,366.666666666667,2|0,1:2|0:0,0:0:0:0:
285,378,42862,2,0,B|284:376|280:372|280:372|282:366|282:366|275:368|275:368|270:360|263:354|263:354|256:355|256:355|260:348|260:348|256:344|245:337|245:337|246:330|246:330|241:333|241:333|236:329|225:321|225:321|220:324|220:324|221:317|221:317|216:315|203:309|203:309|205:302|205:302|199:307|199:307|195:303|182:299|182:299|178:303|178:303|176:296|176:296|172:295|158:290|158:290|158:285|158:285|154:289|154:289|144:286|134:285|134:285|132:291|132:291|130:284|130:284|121:283|111:282|111:282|108:277|108:277|104:281|104:281|96:281|86:282|86:282|83:287|83:287|80:282|80:282|75:282|61:285|61:285|57:279|57:279|56:285|56:285|48:286|33:290,1,366.666666666667,2|0,0:0|0:0,0:0:0:0:
7,260,44241,6,0,B|7:258|11:254|11:254|9:248|9:248|16:250|16:250|21:242|28:236|28:236|35:237|35:237|31:230|31:230|35:226|46:219|46:219|45:212|45:212|50:215|50:215|55:211|66:203|66:203|71:206|71:206|70:199|70:199|75:197|88:191|88:191|86:184|86:184|92:189|92:189|96:185|109:181|109:181|113:185|113:185|115:178|115:178|119:177|133:172|133:172|133:167|133:167|137:171|137:171|147:168|157:167|157:167|159:173|159:173|161:166|161:166|170:165|180:164|180:164|183:159|183:159|187:163|187:163|195:163|205:164|205:164|208:169|208:169|211:164|211:164|216:164|230:167|230:167|234:161|234:161|235:167|235:167|243:168|258:172,1,366.666666666667,0|0,1:2|0:0,0:0:0:0:
276,136,45621,2,0,B|277:135|283:137|283:137|286:132|286:132|288:139|288:139|298:140|307:142|307:142|309:149|309:149|313:142|313:142|319:144|331:150|331:150|336:145|336:145|336:151|336:151|342:153|354:159|354:159|354:165|354:165|359:160|359:160|364:164|376:171|376:171|381:167|381:167|379:174|379:174|384:176|395:185|395:185|394:191|394:191|400:189|400:189|403:192|414:201|414:201|419:198|419:198|417:204|417:204|425:212|430:220|430:220|427:225|427:225|434:223|434:223|439:230|445:238|445:238|451:238|451:238|449:243|449:243|453:250|458:260|458:260|454:265|454:265|460:265|460:265|463:269|467:283|467:283|475:283|475:283|469:287|469:287|473:294|477:309,1,366.666666666667,2|0,1:2|0:0,0:0:0:0:
452,341,47000,6,0,B|450:341|444:339|444:339|441:344|441:344|439:337|439:337|429:336|420:334|420:334|418:327|418:327|414:334|414:334|408:332|396:326|396:326|391:331|391:331|391:325|391:325|385:323|373:317|373:317|373:311|373:311|368:316|368:316|363:312|351:305|351:305|346:309|346:309|348:302|348:302|343:300|332:291|332:291|333:285|333:285|327:287|327:287|324:284|313:275|313:275|308:278|308:278|310:272|310:272|302:264|297:256|297:256|300:251|300:251|293:253|293:253|288:246|282:238|282:238|276:238|276:238|278:233|278:233|274:226|269:216|269:216|273:211|273:211|267:211|267:211|264:207|260:193|260:193|252:193|252:193|258:189|258:189|254:182|250:167,1,366.666666666667,2|0,1:2|0:0,0:0:0:0:
225,136,48379,2,0,B|223:135|217:137|217:137|214:132|214:132|212:139|212:139|202:140|193:142|193:142|191:149|191:149|187:142|187:142|181:144|169:150|169:150|164:145|164:145|164:151|164:151|158:153|146:159|146:159|146:165|146:165|141:160|141:160|136:164|124:171|124:171|119:167|119:167|121:174|121:174|116:176|105:185|105:185|106:191|106:191|100:189|100:189|97:192|86:201|86:201|81:198|81:198|83:204|83:204|75:212|70:220|70:220|73:225|73:225|66:223|66:223|61:230|55:238|55:238|49:238|49:238|51:243|51:243|47:250|42:260|42:260|46:265|46:265|40:265|40:265|37:269|33:283|33:283|25:283|25:283|31:287|31:287|27:294|23:309,1,366.666666666667,2|0,1:2|0:0,0:0:0:0:
53,336,49759,6,0,B|54:336|60:334|60:334|63:339|63:339|65:332|65:332|75:331|84:329|84:329|86:322|86:322|90:329|90:329|96:327|108:321|108:321|113:326|113:326|113:320|113:320|119:318|131:312|131:312|131:306|131:306|136:311|136:311|141:307|153:300|153:300|158:304|158:304|156:297|156:297|161:295|172:286|172:286|171:280|171:280|177:282|177:282|180:279|191:270|191:270|196:273|196:273|194:267|194:267|202:259|207:251|207:251|204:246|204:246|211:248|211:248|216:241|222:233|222:233|228:233|228:233|226:228|226:228|230:221|235:211|235:211|231:206|231:206|237:206|237:206|240:202|244:188|244:188|252:188|252:188|246:184|246:184|250:177|254:162,1,366.666666666667,2|0,1:2|0:0,0:0:0:0:
258,122,51138,2,0,B|259:121|265:123|265:123|268:118|268:118|270:125|270:125|280:126|289:128|289:128|291:135|291:135|295:128|295:128|301:130|313:136|313:136|318:131|318:131|318:137|318:137|324:139|336:145|336:145|336:151|336:151|341:146|341:146|346:150|358:157|358:157|363:153|363:153|361:160|361:160|366:162|377:171|377:171|376:177|376:177|382:175|382:175|385:178|396:187|396:187|401:184|401:184|399:190|399:190|407:198|412:206|412:206|409:211|409:211|416:209|416:209|421:216|427:224|427:224|433:224|433:224|431:229|431:229|435:236|440:246|440:246|436:251|436:251|442:251|442:251|445:255|449:269|449:269|457:269|457:269|451:273|451:273|455:280|459:295,1,366.666666666667,2|0,1:2|0:0,0:0:0:0:
450,334,52517,6,0,B|437:343|430:346|430:346|431:353|431:353|425:348|425:348|413:355|408:357|408:357|404:353|404:353|403:359|403:359|393:363|386:366|386:366|384:372|384:372|379:368|379:368|370:370|361:372|361:372|357:367|357:367|357:372|357:372|347:375|336:376|336:376|334:382|334:382|332:377|332:377|318:377|313:377|313:377|310:371|310:371|307:376|307:376|293:376|288:374|288:374|285:381|285:381|283:374|283:374|270:373|264:372|264:372|262:366|262:366|259:370|259:370|246:367|240:364|240:364|236:369|236:369|235:362|235:362|222:359|217:357|217:357|218:349|218:349|212:353|212:353|204:349|196:343|196:343|190:347|190:347|190:341|190:341|185:339|184:337,1,366.666666666667,2|0,1:2|0:0,0:0:0:0:
149,358,53897,2,0,B|134:352|128:347|128:347|123:351|123:351|124:343|124:343|112:337|107:334|107:334|108:328|108:328|103:331|103:331|95:324|88:319|88:319|83:320|83:320|84:314|84:314|77:307|71:300|71:300|74:294|74:294|68:297|68:297|62:290|55:281|55:281|49:282|49:282|53:277|53:277|45:265|43:261|43:261|46:255|46:255|40:256|40:256|33:243|32:238|32:238|25:239|25:239|30:234|30:234|25:221|22:216|22:216|27:212|27:212|21:210|21:210|18:197|17:192|17:192|11:191|11:191|16:186|16:186|13:173|12:167|12:167|20:165|20:165|13:162|13:162|12:152|13:142|13:142|7:139|7:139|12:137|12:137|12:131|12:129,1,366.666666666667,2|0,1:2|0:0,0:0:0:0:
46,108,55276,6,0,L|169:109,1,100,0|2,1:2|1:2,0:0:0:0:
241,182,55966,1,0,1:2:0:0:
196,293,56310,1,0,1:2:0:0:
301,350,56655,2,0,P|287:296|292:227,1,100,0|2,1:2|1:2,0:0:0:0:
388,186,57345,2,0,P|387:136|374:88,1,100,2|2,1:2|1:2,0:0:0:0:
267,32,58035,6,0,L|148:48,1,100,2|2,1:2|1:2,0:0:0:0:
49,23,58724,1,2,1:2:0:0:
90,135,59069,1,2,1:2:0:0:
42,245,59414,2,0,P|112:217|152:215,1,100,2|2,1:2|1:2,0:0:0:0:
238,150,60104,2,0,P|309:173|341:197,1,100,2|2,1:2|1:2,0:0:0:0:
400,284,60793,1,2,1:2:0:0:
256,192,60908,12,6,63552,1:2:0:0:
62,162,65276,6,0,L|79:272,1,100,10|10,0:0|0:0,0:0:0:0:
126,370,65966,1,8,0:0:0:0:
245,362,66310,6,0,P|234:317|238:248,1,100,6|0,0:0|1:2,0:0:0:0:
144,184,67000,1,10,0:0:0:0:
246,121,67345,2,0,L|328:106,1,66.6666666666667,0|0,1:2|1:2,0:0:0:0:
349,122,67690,2,0,L|370:247,2,100,2|2|10,1:2|1:2|3:2,0:0:0:0:
449,188,68724,2,0,L|464:276,1,66.6666666666667,0|0,1:2|1:2,0:0:0:0:
452,293,69069,6,0,L|344:316,2,100,2|2|10,1:2|1:2|0:0,0:0:0:0:
351,226,70104,2,0,L|264:243,1,66.6666666666667,0|0,1:2|1:2,0:0:0:0:
256,265,70448,6,0,P|216:249|180:188,1,100,2|2,1:2|1:2,0:0:0:0:
148,88,71138,1,10,0:0:0:0:
49,19,71483,1,2,0:0:0:0:
38,140,71828,6,0,P|53:181|60:250,1,100,6|0,1:2|1:2,0:0:0:0:
59,356,72517,1,10,0:0:0:0:
167,303,72862,2,0,P|204:317|234:341,1,66.6666666666667,0|0,1:2|1:2,0:0:0:0:
259,354,73207,2,0,P|318:356|364:330,2,100,2|2|10,1:2|1:2|3:2,0:0:0:0:
227,238,74241,2,0,P|203:202|197:165,1,66.6666666666667,2|0,1:2|1:2,0:0:0:0:
159,165,74586,6,0,P|157:118|186:58,2,100,2|2|10,1:2|1:2|0:0,0:0:0:0:
279,160,75621,2,0,P|290:116|284:81,1,66.6666666666667,0|0,1:2|1:2,0:0:0:0:
278,55,75966,2,0,B|325:33|325:33|391:52,2,100,2|0|10,1:2|1:2|0:0,0:0:0:0:
40,20,77345,5,6,1:2:0:0:
36,260,78035,2,0,P|84:247|142:247,1,100,10|0,0:0|0:0,0:0:0:0:
189,352,78724,2,0,P|139:355|92:311,2,100,2|2|10,1:2|1:0|3:2,0:0:0:0:
273,266,79759,2,0,P|267:224|269:188,1,66.6666666666667,2|0,1:2|1:2,0:0:0:0:
259,160,80104,2,0,P|298:131|347:135,2,100,2|2|10,1:2|1:2|0:0,0:0:0:0:
166,237,81138,2,0,P|130:239|90:236,1,66.6666666666667,2|0,1:2|1:2,0:0:0:0:
73,206,81483,6,0,P|53:150|62:95,1,100,2|2,1:2|1:2,0:0:0:0:
133,18,82172,1,10,0:0:0:0:
237,77,82517,2,0,L|309:69,1,66.6666666666667,8|0,0:0|1:2,0:0:0:0:
342,78,82862,6,0,L|333:178,1,100,6|2,1:2|0:0,0:0:0:0:
405,274,83552,1,10,0:0:0:0:
327,365,83897,2,0,P|287:343|252:340,1,66.6666666666667,0|0,0:0|0:0,0:0:0:0:
229,355,84241,2,0,L|115:375,1,100,2|0,1:2|0:0,0:0:0:0:
57,276,84931,1,10,0:0:0:0:
164,221,85276,2,0,P|206:251|240:275,1,66.6666666666667,2|0,1:2|0:0,0:0:0:0:
256,272,85621,1,2,1:2:0:0:
344,191,85966,1,2,1:2:0:0:
239,132,86310,2,0,P|182:109|126:117,1,100,10|2,0:0|1:2,0:0:0:0:
37,165,86999,1,2,1:2:0:0:
83,273,87344,2,0,P|93:321|92:371,2,100,10|10|14,0:0|0:0|0:0,0:0:0:0:
190,326,88379,6,0,P|241:295|298:285,1,100,6|0,1:2|0:0,0:0:0:0:
399,299,89069,1,8,0:0:0:0:
316,212,89413,2,0,P|309:180|309:147,1,66.6666666666667,0|0,0:0|1:2,0:0:0:0:
344,126,89758,2,0,P|363:74|354:8,2,100,0|0|8,1:2|1:2|0:0,0:0:0:0:
274,27,90793,2,0,P|250:50|219:61,1,66.6666666666667,0|0,0:0|1:2,0:0:0:0:
184,40,91138,6,0,P|126:29|63:56,1,100,0|0,1:2|0:0,0:0:0:0:
36,148,91828,1,8,0:0:0:0:
138,209,92172,2,0,P|124:244|94:283,1,66.6666666666667,0|0,0:0|1:2,0:0:0:0:
113,307,92517,2,0,P|72:329|13:342,2,100,0|0|8,1:2|1:2|0:0,0:0:0:0:
226,268,93552,2,0,P|258:280|282:303,1,66.6666666666667,0|0,0:0|1:2,0:0:0:0:
298,338,93896,6,0,P|349:352|411:343,1,100,0|0,1:2|0:0,0:0:0:0:
508,307,94586,1,8,0:0:0:0:
444,206,94931,2,0,P|453:167|470:137,1,66.6666666666667,0|0,0:0|1:2,0:0:0:0:
440,113,95276,2,0,P|474:95|513:37,2,100,0|0|8,1:2|1:2|0:0,0:0:0:0:
320,111,96310,2,0,P|277:88|259:69,1,66.6666666666667,0|0,0:0|1:2,0:0:0:0:
233,52,96655,6,0,P|229:109|203:164,1,100,0|0,1:2|0:0,0:0:0:0:
323,196,97345,1,8,0:0:0:0:
239,277,97689,2,0,P|264:315|294:332,1,66.6666666666667,0|0,0:0|1:2,0:0:0:0:
301,363,98034,2,0,P|354:371|411:360,2,100,0|0|8,1:2|1:2|0:0,0:0:0:0:
351,254,99069,2,0,P|386:258|420:272,1,66.6666666666667,0|0,0:0|1:2,0:0:0:0:
456,268,99413,6,0,P|435:218|432:157,1,100,0|0,1:2|0:0,0:0:0:0:
379,63,100104,1,8,0:0:0:0:
315,165,100448,2,0,P|282:170|243:161,1,66.6666666666667,0|0,0:0|1:2,0:0:0:0:
230,129,100793,2,0,P|186:108|150:73,2,100,0|0|8,1:2|1:2|0:0,0:0:0:0:
116,166,101827,2,0,P|136:207|138:239,1,66.6666666666667,0|0,0:0|1:2,0:0:0:0:
167,257,102172,6,0,P|144:302|101:341,1,100,0|0,1:2|0:0,0:0:0:0:
224,369,102862,1,8,0:0:0:0:
282,264,103207,2,0,P|322:244|346:243,1,66.6666666666667,0|0,0:0|1:2,0:0:0:0:
370,272,103551,2,0,P|420:278|469:270,2,100,0|0|8,1:2|1:2|0:0,0:0:0:0:
441,175,104586,2,0,P|405:168|370:170,1,66.6666666666667,0|0,0:0|1:2,0:0:0:0:
348,140,104931,6,0,P|309:164|247:177,1,100,0|0,1:2|0:0,0:0:0:0:
153,113,105621,1,8,0:0:0:0:
171,231,105965,2,0,P|161:276|143:301,1,66.6666666666667,0|0,0:0|1:2,0:0:0:0:
133,330,106310,2,0,P|190:348|257:343,2,100,0|0|8,1:2|1:2|0:0,0:0:0:0:
23,282,107345,2,0,P|41:254|49:222,1,66.6666666666667,0|0,0:0|1:2,0:0:0:0:
59,183,107689,6,0,P|112:178|168:157,1,100,0|0,1:2|0:0,0:0:0:0:
271,130,108379,1,8,0:0:0:0:
345,224,108724,2,0,P|370:194|383:151,1,66.6666666666667,0|0,0:0|1:2,0:0:0:0:
389,129,109069,6,0,P|439:124|483:102,2,100,0|0|8,1:2|1:2|0:0,0:0:0:0:
298,50,110103,2,0,P|251:57|223:79,1,66.6666666666667,0|0,3:2|0:0,0:0:0:0:
196,57,110448,6,0,P|133:85|60:353,1,366.666666666667,6|0,1:2|0:0,0:0:0:0:
97,351,111827,2,0,B|107:339|113:335|113:335|111:328|111:328|118:332|118:332|128:322|132:319|132:319|137:322|137:322|137:316|137:316|146:310|153:306|153:306|154:301|154:301|159:304|159:304|168:300|176:296|176:296|181:300|181:300|180:294|180:294|189:290|199:287|199:287|201:281|201:281|203:286|203:286|218:283|222:282|222:282|227:287|227:287|228:281|228:281|242:278|248:280|248:280|249:272|249:272|252:279|252:279|265:278|271:277|271:277|274:283|274:283|277:278|277:278|290:279|296:280|296:280|299:275|299:275|302:281|302:281|315:282|321:284|321:284|321:291|321:291|326:287|326:287|335:289|344:292|344:292|349:288|349:288|349:294|349:294|355:295|360:298,1,366.666666666667,2|0,0:0|0:0,0:0:0:0:
365,335,113207,6,0,P|479:286|343:180,1,366.666666666667,2|0,1:2|0:0,0:0:0:0:
310,195,114586,2,0,B|308:196|302:197|302:197|302:203|302:203|297:198|297:198|288:202|279:204|279:204|274:200|274:200|274:208|274:208|268:209|255:210|255:210|252:216|252:216|249:211|249:211|244:213|230:214|230:214|227:209|227:209|225:215|225:215|219:214|205:214|205:214|202:220|202:220|201:213|201:213|195:214|181:211|181:211|180:206|180:206|175:211|175:211|171:210|157:207|157:207|154:212|154:212|152:206|152:206|142:203|133:199|133:199|134:193|134:193|129:198|129:198|120:194|112:190|112:190|107:193|107:193|105:188|105:188|98:184|89:178|89:178|90:172|90:172|85:175|85:175|80:172|70:163|70:163|63:166|63:166|66:160|66:160|59:156|48:144,1,366.666666666667,2|0,0:0|0:0,0:0:0:0:
61,109,115965,6,0,P|105:65|378:116,1,366.666666666667,2|0,1:2|0:0,0:0:0:0:
414,102,117345,2,0,B|421:115|422:123|422:123|429:123|429:123|423:128|423:128|429:141|430:146|430:146|425:150|425:150|431:151|431:151|433:162|435:170|435:170|440:173|440:173|435:177|435:177|436:186|436:196|436:196|430:198|430:198|436:200|436:200|436:209|436:220|436:220|441:223|441:223|436:225|436:225|433:239|433:243|433:243|426:246|426:246|431:249|431:249|429:263|426:268|426:268|432:272|432:272|425:272|425:272|421:285|419:291|419:291|413:291|413:291|416:296|416:296|411:308|408:313|408:313|411:318|411:318|405:318|405:318|399:330|396:335|396:335|388:332|388:332|391:338|391:338|386:346|379:353|379:353|382:360|382:360|376:358|376:358|373:363|368:367,1,366.666666666667,2|0,0:0|0:0,0:0:0:0:
333,374,118724,2,0,P|231:231|219:38,1,366.666666666667,2|0,1:2|0:0,0:0:0:0:
227,6,120103,6,0,B|227:7|231:11|231:11|229:17|229:17|236:15|236:15|241:23|248:29|248:29|255:28|255:28|251:35|251:35|255:39|266:46|266:46|265:53|265:53|270:50|270:50|275:54|286:62|286:62|291:59|291:59|290:66|290:66|295:68|308:74|308:74|306:81|306:81|312:76|312:76|316:80|329:84|329:84|333:80|333:80|335:87|335:87|339:88|353:93|353:93|353:98|353:98|357:94|357:94|367:97|377:98|377:98|379:92|379:92|381:99|381:99|390:100|400:101|400:101|403:106|403:106|407:102|407:102|415:102|425:101|425:101|428:96|428:96|431:101|431:101|436:101|450:98|450:98|454:104|454:104|455:98|455:98|463:97|478:93,1,366.666666666667,2|0,0:0|0:0,0:0:0:0:
505,124,121482,6,0,B|504:125|500:129|500:129|502:135|502:135|495:133|495:133|490:141|483:147|483:147|476:146|476:146|480:153|480:153|476:157|465:164|465:164|466:171|466:171|461:168|461:168|456:172|445:180|445:180|440:177|440:177|441:184|441:184|436:186|423:192|423:192|425:199|425:199|419:194|419:194|415:198|402:202|402:202|398:198|398:198|396:205|396:205|392:206|378:211|378:211|378:216|378:216|374:212|374:212|364:215|354:216|354:216|352:210|352:210|350:217|350:217|341:218|331:219|331:219|328:224|328:224|324:220|324:220|316:220|306:219|306:219|303:214|303:214|300:219|300:219|295:219|281:216|281:216|277:222|277:222|276:216|276:216|268:215|253:211,1,366.666666666667,0|0,1:2|0:0,0:0:0:0:
236,248,122862,2,0,B|234:248|228:246|228:246|225:251|225:251|223:244|223:244|213:243|204:241|204:241|202:234|202:234|198:241|198:241|192:239|180:233|180:233|175:238|175:238|175:232|175:232|169:230|157:224|157:224|157:218|157:218|152:223|152:223|147:219|135:212|135:212|130:216|130:216|132:209|132:209|127:207|116:198|116:198|117:192|117:192|111:194|111:194|108:191|97:182|97:182|92:185|92:185|94:179|94:179|86:171|81:163|81:163|84:158|84:158|77:160|77:160|72:153|66:145|66:145|60:145|60:145|62:140|62:140|58:133|53:123|53:123|57:118|57:118|51:118|51:118|48:114|44:100|44:100|36:100|36:100|42:96|42:96|38:89|34:74,1,366.666666666667,2|0,1:2|0:0,0:0:0:0:
60,43,124241,6,0,B|61:42|67:44|67:44|70:39|70:39|72:46|72:46|82:47|91:49|91:49|93:56|93:56|97:49|97:49|103:51|115:57|115:57|120:52|120:52|120:58|120:58|126:60|138:66|138:66|138:72|138:72|143:67|143:67|148:71|160:78|160:78|165:74|165:74|163:81|163:81|168:83|179:92|179:92|178:98|178:98|184:96|184:96|187:99|198:108|198:108|203:105|203:105|201:111|201:111|209:119|214:127|214:127|211:132|211:132|218:130|218:130|223:137|229:145|229:145|235:145|235:145|233:150|233:150|237:157|242:167|242:167|238:172|238:172|244:172|244:172|247:176|251:190|251:190|259:190|259:190|253:194|253:194|257:201|261:216,1,366.666666666667,2|0,1:2|0:0,0:0:0:0:
287,248,125620,2,0,B|288:248|294:246|294:246|297:251|297:251|299:244|299:244|309:243|318:241|318:241|320:234|320:234|324:241|324:241|330:239|342:233|342:233|347:238|347:238|347:232|347:232|353:230|365:224|365:224|365:218|365:218|370:223|370:223|375:219|387:212|387:212|392:216|392:216|390:209|390:209|395:207|406:198|406:198|405:192|405:192|411:194|411:194|414:191|425:182|425:182|430:185|430:185|428:179|428:179|436:171|441:163|441:163|438:158|438:158|445:160|445:160|450:153|456:145|456:145|462:145|462:145|460:140|460:140|464:133|469:123|469:123|465:118|465:118|471:118|471:118|474:114|478:100|478:100|486:100|486:100|480:96|480:96|484:89|488:74,1,366.666666666667,2|0,1:2|0:0,0:0:0:0:
459,48,127000,6,0,B|457:47|451:49|451:49|448:44|448:44|446:51|446:51|436:52|427:54|427:54|425:61|425:61|421:54|421:54|415:56|403:62|403:62|398:57|398:57|398:63|398:63|392:65|380:71|380:71|380:77|380:77|375:72|375:72|370:76|358:83|358:83|353:79|353:79|355:86|355:86|350:88|339:97|339:97|340:103|340:103|334:101|334:101|331:104|320:113|320:113|315:110|315:110|317:116|317:116|309:124|304:132|304:132|307:137|307:137|300:135|300:135|295:142|289:150|289:150|283:150|283:150|285:155|285:155|281:162|276:172|276:172|280:177|280:177|274:177|274:177|271:181|267:195|267:195|259:195|259:195|265:199|265:199|261:206|257:221,1,366.666666666667,2|0,1:2|0:0,0:0:0:0:
254,262,128379,2,0,B|252:262|246:260|246:260|243:265|243:265|241:258|241:258|231:257|222:255|222:255|220:248|220:248|216:255|216:255|210:253|198:247|198:247|193:252|193:252|193:246|193:246|187:244|175:238|175:238|175:232|175:232|170:237|170:237|165:233|153:226|153:226|148:230|148:230|150:223|150:223|145:221|134:212|134:212|135:206|135:206|129:208|129:208|126:205|115:196|115:196|110:199|110:199|112:193|112:193|104:185|99:177|99:177|102:172|102:172|95:174|95:174|90:167|84:159|84:159|78:159|78:159|80:154|80:154|76:147|71:137|71:137|75:132|75:132|69:132|69:132|66:128|62:114|62:114|54:114|54:114|60:110|60:110|56:103|52:88,1,366.666666666667,2|0,1:2|0:0,0:0:0:0:
62,50,129758,6,0,B|74:40|81:37|81:37|80:30|80:30|86:35|86:35|98:28|103:26|103:26|107:30|107:30|108:24|108:24|118:20|125:17|125:17|127:11|127:11|132:15|132:15|141:13|150:11|150:11|154:16|154:16|154:11|154:11|164:8|175:7|175:7|177:1|177:1|179:6|179:6|193:6|198:6|198:6|201:12|201:12|204:7|204:7|218:7|223:9|223:9|226:2|226:2|228:9|228:9|241:10|247:11|247:11|249:17|249:17|252:13|252:13|265:16|271:19|271:19|275:14|275:14|276:21|276:21|289:24|294:26|294:26|293:34|293:34|299:30|299:30|307:34|315:40|315:40|321:36|321:36|321:42|321:42|326:44|327:46,1,366.666666666667,2|0,1:2|0:0,0:0:0:0:
363,26,131138,2,0,B|377:31|383:36|383:36|388:32|388:32|387:40|387:40|399:46|404:49|404:49|403:55|403:55|408:52|408:52|416:59|423:64|423:64|428:63|428:63|427:69|427:69|434:76|440:83|440:83|437:89|437:89|443:86|443:86|449:93|456:102|456:102|462:101|462:101|458:106|458:106|466:118|468:122|468:122|465:128|465:128|471:127|471:127|478:140|479:145|479:145|486:144|486:144|481:149|481:149|486:162|489:167|489:167|484:171|484:171|490:173|490:173|493:186|494:191|494:191|500:192|500:192|495:197|495:197|498:210|499:216|499:216|491:218|491:218|498:221|498:221|499:231|498:241|498:241|504:244|504:244|499:246|499:246|499:252|499:254,1,366.666666666667,2|0,1:2|0:0,0:0:0:0:
466,276,132517,6,0,P|422:277|352:257,1,100,0|2,1:2|1:2,0:0:0:0:
262,206,133207,1,2,1:2:0:0:
295,90,133552,1,2,1:2:0:0:
190,31,133896,2,0,P|204:85|199:154,1,100,0|2,1:2|1:2,0:0:0:0:
110,205,134586,2,0,P|111:255|124:303,1,100,2|2,1:2|1:2,0:0:0:0:
236,346,135276,6,0,L|355:330,1,100,2|2,1:2|1:2,0:0:0:0:
449,370,135966,1,2,1:2:0:0:
437,250,136310,1,2,1:2:0:0:
478,137,136655,2,0,P|408:165|368:167,1,100,2|2,1:2|1:2,0:0:0:0:
280,228,137345,2,0,P|209:205|177:181,1,100,2|2,1:2|1:2,0:0:0:0:
111,100,138034,1,2,1:2:0:0:
256,192,138149,12,6,140793,1:2:0:0:
443,213,142517,6,0,L|426:103,1,100,10|10,0:0|0:0,0:0:0:0:
346,26,143207,2,0,L|393:14,2,33.3333333333333,8|0|0,0:0|1:2|1:2,0:0:0:0:
327,61,143552,5,6,1:2:0:0:
218,9,143897,2,0,B|155:32|155:32|87:114,1,166.666666666667,10|0,0:0|0:0,0:0:0:0:
53,120,144586,1,10,0:0:0:0:
145,196,144931,1,2,1:2:0:0:
80,297,145276,2,0,B|139:348|139:348|248:348,1,166.666666666667,2|0,0:0|1:2,0:0:0:0:
246,312,145966,1,10,0:0:0:0:
196,203,146310,5,2,1:2:0:0:
277,114,146655,2,0,B|333:133|333:133|391:228,1,166.666666666667,10|0,0:0|0:0,0:0:0:0:
425,242,147345,1,10,0:0:0:0:
428,361,147690,1,2,1:2:0:0:
308,375,148035,2,0,L|182:358,2,100,8|2|10,0:2|1:2|1:2,0:0:0:0:
373,274,149069,5,4,1:2:0:0:
258,237,149414,2,0,B|251:187|251:187|244:172|244:172|249:163|249:163|245:68,1,166.666666666667,10|0,0:0|0:0,0:0:0:0:
224,39,150104,1,8,0:0:0:0:
105,21,150448,1,2,1:2:0:0:
87,139,150793,2,0,B|93:188|93:188|100:203|100:203|94:211|94:211|107:316,1,166.666666666667,10|0,0:0|1:2,0:0:0:0:
78,331,151483,1,10,0:0:0:0:
188,283,151828,5,2,1:2:0:0:
305,305,152172,2,0,B|298:252|298:252|300:236|300:236|293:228|293:228|275:128,1,166.666666666667,10|0,0:0|0:0,0:0:0:0:
291,105,152862,1,10,0:0:0:0:
396,46,153207,1,2,1:2:0:0:
492,117,153552,1,10,0:0:0:0:
511,235,153897,1,2,0:0:0:0:
436,328,154241,1,10,0:0:0:0:
338,258,154586,5,6,1:2:0:0:
248,342,154931,2,0,B|199:336|199:336|176:344|176:344|69:331,1,166.666666666667,10|0,0:0|0:0,0:0:0:0:
47,315,155621,1,10,0:0:0:0:
3,203,155966,1,2,1:2:0:0:
96,130,156310,2,0,B|162:137|162:137|193:125|193:125|281:137,1,166.666666666667,10|0,0:0|1:2,0:0:0:0:
295,152,157000,1,10,0:0:0:0:
262,36,157345,5,2,1:2:0:0:
153,87,157690,2,0,B|145:141|145:141|155:167|155:167|145:253,1,166.666666666667,10|0,0:0|0:0,0:0:0:0:
164,286,158379,1,8,0:0:0:0:
272,338,158724,1,2,1:2:0:0:
356,252,159069,2,0,B|374:200|374:200|356:141,2,100,10|2|10,0:0|1:2|1:2,0:0:0:0:
272,338,160104,5,6,1:2:0:0:
196,245,160448,2,0,B|224:185|224:185|211:74,1,166.666666666667,10|0,0:0|0:0,0:0:0:0:
242,57,161138,1,10,0:0:0:0:
134,3,161483,1,2,1:2:0:0:
63,99,161828,2,0,B|25:178|25:178|45:282,1,166.666666666667,10|0,0:0|1:2,0:0:0:0:
53,293,162517,1,10,0:0:0:0:
147,367,162862,5,2,1:2:0:0:
260,327,163207,2,0,B|243:266|243:266|262:152,1,166.666666666667,10|0,0:0|0:0,0:0:0:0:
248,125,163897,1,10,0:0:0:0:
352,66,164241,1,2,1:2:0:0:
422,163,164586,5,10,0:0:0:0:
329,239,164931,1,10,0:0:0:0:
396,338,165276,2,0,P|418:305|416:238,1,100,14|4,0:0|1:2,0:0:0:0:
428,126,165966,6,0,L|218:96,1,200,10|10,0:0|0:0,0:0:0:0:
172,203,167000,1,2,1:2:0:0:
138,319,167345,2,0,P|107:301|70:173,1,166.666666666667,10|0,0:0|0:0,0:0:0:0:
57,144,168035,2,0,P|69:111|121:63,1,100,10|0,0:0|1:2,0:0:0:0:
218,125,168724,2,0,L|233:300,1,166.666666666667,10|0,0:0|0:0,0:0:0:0:
248,329,169414,1,10,0:0:0:0:
364,357,169759,1,2,1:2:0:0:
444,268,170104,2,0,P|419:184|426:92,1,166.666666666667,10|0,0:0|0:0,0:0:0:0:
419,66,170793,2,0,P|388:60|327:85,1,100,10|0,0:0|1:2,0:0:0:0:
215,39,171483,6,0,P|237:99|249:212,1,166.666666666667,10|0,0:0|0:0,0:0:0:0:
233,237,172172,2,0,P|197:225|126:223,1,100,10|2,0:0|1:2,0:0:0:0:
52,309,172862,2,0,P|120:312|217:355,1,166.666666666667,10|0,0:0|1:2,0:0:0:0:
247,365,173552,1,10,0:0:0:0:
355,312,173897,1,2,1:2:0:0:
470,343,174241,2,0,P|436:290|426:174,1,166.666666666667,10|0,0:0|0:0,0:0:0:0:
392,161,174931,2,0,P|400:115|433:67,1,100,10|0,0:0|1:2,0:0:0:0:
313,35,175621,2,0,P|266:28|214:140,1,166.666666666667,10|0,0:0|1:2,0:0:0:0:
222,151,176310,1,10,0:0:0:0:
256,266,176655,5,2,1:2:0:0:
158,335,177000,2,0,P|99:310|79:175,1,200,8|8,0:0|0:0,0:0:0:0:
131,82,178035,1,0,1:2:0:0:
244,44,178379,2,0,P|222:95|222:245,1,200,8|8,0:0|0:2,0:0:0:0:
325,175,179414,5,2,1:2:0:0:
366,287,179759,2,0,P|312:283|167:344,1,200,8|8,0:0|0:0,0:0:0:0:
59,329,180793,1,0,1:2:0:0:
35,211,181138,2,0,P|43:161|160:78,1,200,8|8,0:0|0:2,0:0:0:0:
250,6,182172,5,2,1:2:0:0:
328,96,182517,2,0,P|315:131|330:317,1,200,8|0,0:0|0:0,0:0:0:0:
394,384,183552,1,0,1:2:0:0:
461,284,183897,2,0,P|485:235|472:81,1,200,8|8,0:0|0:2,0:0:0:0:
389,11,184931,5,2,1:2:0:0:
316,106,185276,2,0,P|255:111|231:231,1,200,8|8,0:0|0:0,0:0:0:0:
332,287,186310,1,0,1:2:0:0:
223,338,186655,2,0,P|187:304|65:280,1,166.666666666667,8|0,0:0|1:2,0:0:0:0:
49,247,187345,2,0,P|10:203|71:151,1,150,12|0,0:0|0:0,0:0:0:0:
