osu file format v14

[General]
AudioFilename: audio.mp3
AudioLeadIn: 0
PreviewTime: 33079
Countdown: 0
SampleSet: Soft
StackLeniency: 0.4
Mode: 0
LetterboxInBreaks: 0
WidescreenStoryboard: 1

[Editor]
DistanceSpacing: 1.5
BeatDivisor: 6
GridSize: 32
TimelineZoom: 3.099999

[Metadata]
Title:HEATSEEKER
TitleUnicode:HEATSEEKER
Artist:REAPER
ArtistUnicode:REAPER
Creator:keevy
Version:LIGHT INSANE
Source:
Tags:electronic english instrumental edm dance music monstercat dnb drum and n bass drumstep reapernoises anishina kodoku loreley tatemae sherrycherry RENEGADE
BeatmapID:3647821
BeatmapSetID:1739056

[Difficulty]
HPDrainRate:4
CircleSize:4
OverallDifficulty:7.5
ApproachRate:8.2
SliderMultiplier:1.5
SliderTickRate:1

[Events]
//Background and Video events
0,0,"bg.jpg",0,0
//Break Periods
//Storyboard Layer 0 (Background)
//Storyboard Layer 1 (Fail)
//Storyboard Layer 2 (Pass)
//Storyboard Layer 3 (Foreground)
//Storyboard Layer 4 (Overlay)
//Storyboard Sound Samples

[TimingPoints]
104,344.827586206897,4,2,1,40,1,0
1368,-100,4,2,0,5,0,0
1483,-100,4,2,1,40,0,0
2862,-133.333333333333,4,2,1,40,0,0
10793,-90.9090909090909,4,2,1,40,0,0
11138,-111.111111111111,4,2,1,55,0,0
27690,-111.111111111111,4,2,1,60,0,0
30448,-111.111111111111,4,2,1,65,0,0
32517,-111.111111111111,4,2,1,70,0,0
33207,-133.333333333333,4,2,1,66,0,0
34241,-111.111111111111,4,2,1,66,0,0
34586,-100,4,2,1,66,0,0
35966,-133.333333333333,4,2,1,66,0,0
37000,-111.111111111111,4,2,1,66,0,0
37345,-100,4,2,1,66,0,0
38724,-133.333333333333,4,2,1,66,0,0
39759,-111.111111111111,4,2,1,66,0,0
40104,-100,4,2,1,66,0,0
41483,-133.333333333333,4,2,1,66,0,0
42517,-111.111111111111,4,2,1,66,0,0
42862,-100,4,2,1,66,0,0
44241,-100,4,2,1,66,0,0
49759,-83.3333333333333,4,2,1,66,0,0
55276,-83.3333333333333,4,2,1,70,0,0
60793,-76.9230769230769,4,2,1,65,0,0
62172,-100,4,2,1,75,0,0
62517,-125,4,2,1,65,0,0
62862,-166.666666666667,4,2,1,55,0,0
63207,-250,4,2,1,45,0,0
63552,-111.111111111111,4,2,1,50,0,0
65276,-111.111111111111,4,2,1,60,0,0
65621,-111.111111111111,4,2,1,65,0,0
65966,-111.111111111111,4,2,1,70,0,0
66310,-100,4,2,1,95,0,1
88379,-111.111111111111,4,2,1,65,0,0
104931,-111.111111111111,4,2,1,70,0,0
107689,-111.111111111111,4,2,1,75,0,0
109758,-111.111111111111,4,2,1,70,0,0
110448,-133.333333333333,4,2,1,66,0,0
111483,-111.111111111111,4,2,1,66,0,0
111828,-100,4,2,1,66,0,0
113207,-133.333333333333,4,2,1,66,0,0
114241,-111.111111111111,4,2,1,66,0,0
114586,-100,4,2,1,66,0,0
115966,-133.333333333333,4,2,1,66,0,0
117000,-111.111111111111,4,2,1,66,0,0
117345,-100,4,2,1,66,0,0
118724,-133.333333333333,4,2,1,66,0,0
119759,-111.111111111111,4,2,1,66,0,0
120104,-100,4,2,1,66,0,0
121483,-100,4,2,1,66,0,0
127000,-83.3333333333333,4,2,1,66,0,0
132517,-83.3333333333333,4,2,1,70,0,0
138035,-76.9230769230769,4,2,1,65,0,0
139414,-100,4,2,1,75,0,0
139759,-125,4,2,1,65,0,0
140104,-166.666666666667,4,2,1,55,0,0
140448,-250,4,2,1,45,0,0
140793,-100,4,2,1,50,0,0
142517,-100,4,2,1,60,0,0
142862,-100,4,2,1,65,0,0
143207,-100,4,2,1,70,0,0
143552,-100,4,2,1,95,0,1
154241,-83.3333333333333,4,2,1,95,0,1
154586,-100,4,2,1,95,0,1
164586,-100,4,2,1,80,0,1
165621,-125,4,2,1,60,0,0
176655,-133.333333333333,4,2,1,45,0,0

[Colours]
Combo1 : 255,255,34
Combo2 : 67,133,133
Combo3 : 205,205,205

[HitObjects]
256,192,104,12,0,2517,3:2:0:0:
50,207,2862,6,0,B|76:179|76:179|142:182,1,75.000002861023,0|0,3:2|0:0,0:0:0:0:
101,105,3207,2,0,B|138:100|138:100|187:144,1,75.000002861023,0|0,3:2|0:0,0:0:0:0:
204,60,3552,2,0,B|236:80|236:80|244:146,1,75.000002861023,0|0,3:2|0:0,0:0:0:0:
313,96,3897,2,0,B|324:132|324:132|288:188,1,75.000002861023,0|0,3:2|0:0,0:0:0:0:
355,265,4241,6,0,B|329:237|329:237|263:240,1,75.000002861023,0|0,3:2|0:0,0:0:0:0:
304,163,4586,2,0,B|266:158|266:158|217:202,1,75.000002861023,0|0,3:2|0:0,0:0:0:0:
201,118,4931,2,0,B|168:138|168:138|160:204,1,75.000002861023,0|0,3:2|0:0,0:0:0:0:
92,154,5276,2,0,B|80:190|80:190|116:246,1,75.000002861023,0|0,3:2|0:0,0:0:0:0:
41,268,5621,6,0,B|22:237|22:237|346:331|346:331|279:348,1,412.500015735627,2|0,3:2|0:0,0:0:0:0:
239,384,7000,6,0,L|228:305,1,75.000002861023,0|0,3:2|0:0,0:0:0:0:
203,238,7345,2,0,L|118:253,1,75.000002861023,0|0,3:2|0:0,0:0:0:0:
61,217,7690,2,0,L|51:137,1,75.000002861023,0|0,3:2|0:0,0:0:0:0:
58,66,8035,2,0,L|143:58,1,75.000002861023,0|0,3:2|0:0,0:0:0:0:
188,9,8379,6,0,B|218:53|218:53|217:80,1,75.000002861023,0|0,3:2|0:0,0:0:0:0:
292,64,8724,2,0,B|286:116|286:116|268:137,1,75.000002861023,0|0,3:2|0:0,0:0:0:0:
336,172,9069,2,0,B|297:209|297:209|271:212,1,75.000002861023,0|0,3:2|0:0,0:0:0:0:
300,283,9414,2,0,B|246:286|246:286|224:272,1,75.000002861023,0|0,3:2|0:0,0:0:0:0:
165,363,9759,6,0,B|135:319|135:319|136:292,1,75.000002861023,0|0,3:2|0:0,0:0:0:0:
61,308,10104,2,0,B|66:255|66:255|84:234,1,75.000002861023,0|0,3:2|0:0,0:0:0:0:
17,200,10449,2,0,B|55:162|55:162|81:159,1,75.000002861023,0|0,3:2|0:0,0:0:0:0:
79,41,10793,6,0,L|212:26,1,110.000003356934,2|0,3:2|0:0,0:0:0:0:
207,23,11138,6,0,B|227:61|227:61|211:140,1,89.999997253418,0|0,1:2|0:0,0:0:0:0:
240,181,11483,2,0,L|187:188,1,44.999998626709
117,203,11713,1,0,0:0:0:0:
98,206,11828,2,0,L|118:310,1,89.999997253418,8|0,0:0|0:0,0:0:0:0:
160,356,12172,2,0,L|216:338,1,44.999998626709
280,370,12402,1,0,1:2:0:0:
291,363,12517,6,0,B|282:308|282:308|256:272,1,89.999997253418,0|0,1:2|0:0,0:0:0:0:
284,268,12862,2,0,B|265:240|265:240|256:185,1,89.999997253418,0|0,1:2|0:0,0:0:0:0:
336,204,13207,2,0,L|443:184,1,89.999997253418,8|0,0:0|0:0,0:0:0:0:
504,197,13552,2,0,L|493:136,1,44.999998626709
461,85,13782,1,0,1:2:0:0:
466,70,13897,6,0,P|412:53|358:54,1,89.999997253418,0|0,1:2|0:0,0:0:0:0:
320,2,14241,2,0,P|303:39|303:60,1,44.999998626709
297,121,14471,1,0,1:2:0:0:
288,136,14586,2,0,L|405:139,1,89.999997253418,8|0,0:2|0:0,0:0:0:0:
390,214,14931,2,0,L|338:212,1,44.999998626709
285,261,15161,1,0,1:2:0:0:
274,273,15276,6,0,B|214:255|214:255|199:230,1,89.999997253418,0|0,1:2|0:0,0:0:0:0:
192,218,15621,2,0,B|167:204|167:204|107:218,1,89.999997253418,0|0,1:2|0:0,0:0:0:0:
39,253,15966,2,0,L|15:147,1,89.999997253418,8|0,0:0|0:0,0:0:0:0:
11,79,16310,1,0,0:0:0:0:
4,90,16425,2,0,L|72:71,1,44.999998626709,0|0,0:0|1:2,0:0:0:0:
96,18,16655,6,0,B|133:46|133:46|139:98,1,89.999997253418,0|0,1:2|0:0,0:0:0:0:
186,149,17000,2,0,L|246:139,1,44.999998626709
289,93,17230,1,0,1:2:0:0:
286,80,17345,2,0,L|394:64,1,89.999997253418,8|0,0:0|0:0,0:0:0:0:
443,31,17690,2,0,L|452:87,1,44.999998626709
485,155,17920,1,0,1:2:0:0:
480,165,18035,6,0,P|413:142|378:143,1,89.999997253418,0|0,1:2|0:0,0:0:0:0:
387,162,18379,2,0,P|342:167|302:185,1,89.999997253418,0|0,1:2|0:0,0:0:0:0:
241,105,18724,2,0,P|199:119|181:159,1,89.999997253418,8|0,0:0|0:0,0:0:0:0:
232,216,19069,2,0,L|224:260,1,44.999998626709
240,335,19299,1,0,1:2:0:0:
239,347,19414,6,0,P|298:325|335:328,1,89.999997253418,0|0,1:2|0:0,0:0:0:0:
399,350,19759,2,0,L|394:284,1,44.999998626709
443,249,19989,1,0,1:2:0:0:
442,234,20104,2,0,B|400:218|400:218|343:244,1,89.999997253418,8|0,0:0|0:0,0:0:0:0:
286,212,20448,2,0,L|278:150,1,44.999998626709
323,84,20678,1,0,1:2:0:0:
314,95,20793,6,0,B|235:91|235:91|240:81,1,89.999997253418,0|0,1:2|0:0,0:0:0:0:
238,60,21138,2,0,B|159:64|159:64|164:73,1,89.999997253418,0|0,1:2|0:0,0:0:0:0:
91,97,21483,2,0,P|119:136|130:198,1,89.999997253418,8|0,0:0|0:0,0:0:0:0:
112,248,21828,2,0,P|81:235|69:211,1,44.999998626709
20,280,22058,1,0,1:2:0:0:
21,293,22172,6,0,P|96:284|146:302,1,89.999997253418,0|0,1:2|0:0,0:0:0:0:
170,337,22517,2,0,P|202:337|224:331,1,44.999998626709
292,291,22747,1,0,1:2:0:0:
280,289,22862,2,0,P|264:231|263:193,1,89.999997253418,8|0,0:0|0:0,0:0:0:0:
200,159,23207,2,0,P|202:136|211:112,1,44.999998626709
266,60,23437,1,0,1:2:0:0:
262,48,23552,6,0,P|210:38|161:50,1,89.999997253418,0|0,1:2|0:0,0:0:0:0:
145,31,23897,2,0,P|114:64|99:105,1,89.999997253418,0|0,1:2|0:0,0:0:0:0:
41,157,24241,2,0,L|59:262,1,89.999997253418,8|0,0:0|0:0,0:0:0:0:
127,203,24586,2,0,L|189:211,1,44.999998626709
227,267,24816,1,0,1:2:0:0:
229,280,24931,6,0,L|352:266,1,89.999997253418,0|0,1:2|0:0,0:0:0:0:
391,293,25276,2,0,P|395:254|387:235,1,44.999998626709
337,194,25506,1,0,1:2:0:0:
327,188,25621,2,0,P|375:167|422:175,1,89.999997253418,8|0,0:0|0:0,0:0:0:0:
468,105,25966,2,0,P|437:101|414:93,1,44.999998626709
372,45,26195,1,0,1:2:0:0:
361,36,26310,6,0,B|315:44|315:44|292:93,1,89.999997253418,0|0,1:2|0:0,0:0:0:0:
273,68,26655,2,0,B|254:107|254:107|208:115,1,89.999997253418,0|0,1:2|0:0,0:0:0:0:
191,45,27000,2,0,L|81:38,1,89.999997253418,8|0,0:0|0:0,0:0:0:0:
21,68,27345,2,0,P|38:90|46:114,1,44.999998626709
21,178,27575,1,0,1:2:0:0:
23,189,27690,6,0,P|74:174|119:176,1,89.999997253418,0|0,1:2|0:0,0:0:0:0:
183,197,28035,2,0,L|187:245,1,44.999998626709
254,309,28264,1,0,1:2:0:0:
247,301,28379,2,0,P|178:322|144:316,1,89.999997253418,8|0,0:0|0:0,0:0:0:0:
186,241,28724,2,0,P|214:229|245:223,1,44.999998626709
309,242,28954,1,0,1:2:0:0:
321,253,29069,6,0,B|340:324|340:324|321:346,1,89.999997253418,0|0,1:2|0:0,0:0:0:0:
386,384,29414,2,0,B|366:312|366:312|385:290,1,89.999997253418,0|0,1:2|0:0,0:0:0:0:
450,266,29759,2,0,P|446:223|414:175,1,89.999997253418,8|0,0:0|0:0,0:0:0:0:
380,117,30104,2,0,L|328:125,1,44.999998626709
271,79,30333,1,0,1:2:0:0:
263,69,30448,6,0,P|315:50|366:46,1,89.999997253418,0|0,1:2|0:0,0:0:0:0:
206,13,30793,2,0,P|187:20|154:22,1,44.999998626709
96,88,31023,1,0,1:2:0:0:
109,83,31138,2,0,P|130:125|135:182,1,89.999997253418,8|0,0:0|0:0,0:0:0:0:
56,171,31483,2,0,P|59:193|69:214,1,44.999998626709
152,256,31713,1,0,1:2:0:0:
144,267,31828,6,0,B|125:282|125:282|216:255,1,89.999997253418,0|0,1:2|0:0,0:0:0:0:
199,249,32172,2,0,B|214:185|214:185|218:209,1,89.999997253418,0|0,1:2|0:0,0:0:0:0:
268,271,32517,2,0,L|370:255,1,89.999997253418,8|0,0:0|0:0,0:0:0:0:
425,221,32862,2,0,P|457:206|477:205,2,44.999998626709,0|0|0,3:2|3:2|0:0,0:0:0:0:
357,258,33207,6,0,B|236:117|236:117|264:48|264:48|325:33,1,300.000011444092,6|0,1:2|0:0,0:0:0:0:
315,41,34241,6,0,L|271:140,1,89.999997253418
154,167,34586,6,0,L|204:167,2,50,2|2|2,0:0|0:0|0:0,0:0:0:0:
125,201,34931,2,0,L|76:202,2,50,2|2|2,0:0|0:0|0:0,0:0:0:0:
154,243,35276,2,0,L|203:242,2,50,2|2|2,0:0|0:0|0:0,0:0:0:0:
132,282,35621,2,0,L|83:283,2,50,2|2|2,0:0|0:0|0:0,0:0:0:0:
215,361,35966,6,0,B|180:291|180:291|377:262|377:262|353:298,1,300.000011444092,2|0,1:2|0:0,0:0:0:0:
355,291,37000,6,0,P|332:245|338:200,1,89.999997253418
384,144,37345,6,0,L|444:134,2,50,2|2|2,0:0|0:0|0:0,0:0:0:0:
339,133,37690,2,0,L|289:141,2,50,2|2|2,0:0|0:0|0:0,0:0:0:0:
359,94,38035,2,0,L|419:84,2,50,2|2|2,0:0|0:0|0:0,0:0:0:0:
319,79,38380,2,0,L|269:87,2,50,2|2|2,0:0|0:0|0:0,0:0:0:0:
160,16,38724,6,0,B|205:126|205:126|59:60|59:60|74:100,1,300.000011444092,2|0,1:2|0:0,0:0:0:0:
62,102,39759,6,0,L|163:74,1,89.999997253418
203,137,40104,6,0,L|224:203,2,50,2|2|2,0:0|0:0|0:0,0:0:0:0:
239,102,40448,2,0,L|225:53,2,50,2|2|2,0:0|0:0|0:0,0:0:0:0:
284,115,40793,2,0,L|305:178,2,50,2|2|2,0:0|0:0|0:0,0:0:0:0:
319,82,41137,2,0,L|302:34,2,50,2|2|2,0:0|0:0|0:0,0:0:0:0:
423,87,41483,6,0,B|311:113|311:113|408:219|408:219|390:161,1,300.000011444092,2|0,1:2|0:0,0:0:0:0:
416,173,42517,6,0,L|322:174,1,89.999997253418
216,225,42862,6,0,L|266:224,2,50,2|2|2,0:0|0:0|0:0,0:0:0:0:
185,256,43207,2,0,L|136:258,2,50,2|2|2,0:0|0:0|0:0,0:0:0:0:
210,300,43552,2,0,L|260:299,2,50,2|2|2,0:0|0:0|0:0,0:0:0:0:
185,336,43897,2,0,L|136:339,2,50,2|2|2,0:0|0:0|0:0,0:0:0:0:
41,325,44241,6,0,P|30:290|30:267,11,50,0|0|0|2|0|0|2|0|0|2|0|0,1:2|0:0|0:0|0:0|0:0|0:0|0:0|0:0|0:0|0:0|0:0|0:0,0:0:0:0:
61,237,45621,2,0,P|75:203|89:185,11,50,2|0|0|2|0|0|2|0|0|2|0|0,1:2|0:0|0:0|0:0|0:0|0:0|0:0|0:0|0:0|0:0|0:0|0:0,0:0:0:0:
127,186,47000,2,0,P|159:169|182:165,11,50,2|0|0|2|0|0|2|0|0|2|0|0,1:2|0:0|0:0|0:0|0:0|0:0|0:0|0:0|0:0|0:0|0:0|0:0,0:0:0:0:
217,183,48379,2,0,P|252:190|272:202,11,50,2|0|0|2|0|0|2|0|0|2|0|0,1:2|0:0|0:0|0:0|0:0|0:0|0:0|0:0|0:0|0:0|0:0|0:0,0:0:0:0:
271,336,49759,6,0,P|235:328|215:316,11,59.9999981689454,2|0|0|2|0|0|2|0|0|2|0|0,1:2|0:0|0:0|0:0|0:0|0:0|0:0|0:0|0:0|0:0|0:0|0:0,0:0:0:0:
192,274,51139,2,0,P|169:244|161:223,11,59.9999981689454,2|0|0|2|0|0|2|0|0|2|0|0,1:2|0:0|0:0|0:0|0:0|0:0|0:0|0:0|0:0|0:0|0:0|0:0,0:0:0:0:
176,178,52518,2,0,P|177:141|185:119,11,59.9999981689454,2|0|0|2|0|0|2|0|0|2|0|0,1:2|0:0|0:0|0:0|0:0|0:0|0:0|0:0|0:0|0:0|0:0|0:0,0:0:0:0:
225,88,53897,2,0,P|249:60|269:49,11,59.9999981689454,2|0|0|2|0|0|2|0|0|2|0|0,1:2|0:0|0:0|0:0|0:0|0:0|0:0|0:0|0:0|0:0|0:0|0:0,0:0:0:0:
427,121,55276,6,0,P|402:104|372:97,2,59.9999981689454,0|0|2,1:2|0:0|0:0,0:0:0:0:
335,70,55621,2,0,P|305:73|278:87,2,59.9999981689454,2|0|2,1:2|0:0|0:0,0:0:0:0:
233,74,55966,2,0,P|212:95|200:123,2,59.9999981689454,2|0|2,1:2|0:0|0:0,0:0:0:0:
158,135,56310,2,0,P|156:164|164:193,2,59.9999981689454,2|0|2,1:2|0:0|0:0,0:0:0:0:
112,258,56655,6,0,P|136:241|166:234,2,59.9999981689454,0|0|2,1:2|0:0|0:0,0:0:0:0:
194,212,57000,2,0,P|223:215|250:229,2,59.9999981689454,2|0|2,1:2|0:0|0:0,0:0:0:0:
290,217,57345,2,0,P|310:238|322:266,2,59.9999981689454,2|0|2,1:2|0:0|0:0,0:0:0:0:
363,281,57689,2,0,P|364:310|356:339,2,59.9999981689454,2|0|2,1:2|0:0|0:0,0:0:0:0:
283,330,58035,6,0,P|258:347|228:354,2,59.9999981689454,2|0|2,1:2|0:0|0:0,0:0:0:0:
196,380,58380,2,0,P|166:377|139:363,2,59.9999981689454,2|0|2,1:2|0:0|0:0,0:0:0:0:
97,376,58725,2,0,P|76:355|64:327,2,59.9999981689454,2|0|2,1:2|0:0|0:0,0:0:0:0:
24,310,59069,2,0,P|22:281|30:252,2,59.9999981689454,2|0|2,1:2|0:0|0:0,0:0:0:0:
79,178,59414,6,0,P|103:195|133:202,2,59.9999981689454,2|0|2,1:2|0:0|0:0,0:0:0:0:
164,234,59759,2,0,P|193:231|220:217,2,59.9999981689454,2|0|2,1:2|0:0|0:0,0:0:0:0:
260,229,60104,2,0,P|279:208|292:180,2,59.9999981689454,2|0|2,1:2|0:0|0:0,0:0:0:0:
336,172,60448,2,0,P|337:143|329:114,2,59.9999981689454,2|2|2,1:2|0:0|0:0,0:0:0:0:
342,7,60793,6,0,P|324:33|293:39,2,64.9999970245363,2|2|2,1:2|1:2|1:2,0:0:0:0:
280,67,61138,2,0,P|249:76|222:60,2,64.9999970245363,2|2|2,1:2|1:2|1:2,0:0:0:0:
192,89,61483,2,0,P|162:76|151:46,2,64.9999970245363,2|2|2,1:2|1:2|1:2,0:0:0:0:
109,62,61828,2,0,P|94:33|105:3,2,64.9999970245363,2|2|2,1:2|1:2|1:2,0:0:0:0:
23,84,62172,6,0,P|37:112|26:142,2,50,2|2|2,1:2|1:2|1:2,0:0:0:0:
74,147,62517,2,0,P|66:177|39:194,2,40,2|2|2,1:2|1:2|1:2,0:0:0:0:
78,226,62862,2,0,P|60:239|38:235,2,29.9999990844727,2|2|2,1:2|1:2|1:2,0:0:0:0:
37,280,63207,2,0,P|19:279|7:265,2,20,2|2|2,1:2|1:2|1:2,0:0:0:0:
18,357,63552,5,6,1:2:0:0:
42,304,65161,1,0,1:2:0:0:
56,302,65276,2,0,L|42:201,1,89.999997253418,10|2,0:0|0:0,0:0:0:0:
119,199,65621,2,0,L|131:288,1,89.999997253418,10|2,0:0|0:0,0:0:0:0:
192,335,65966,1,8,0:0:0:0:
266,352,66081,1,0,1:2:0:0:
326,306,66195,1,0,1:2:0:0:
337,226,66310,6,0,B|255:245|255:245|222:233,1,100,6|0,0:0|0:0,0:0:0:0:
193,179,66655,2,0,L|177:119,1,50,0|0,1:2|0:0,0:0:0:0:
192,56,66885,1,0,1:2:0:0:
189,45,67000,2,0,B|272:27|272:27|272:50,1,100,10|0,0:0|0:0,0:0:0:0:
272,117,67345,2,0,L|329:102,1,50,0|0,1:2|0:0,0:0:0:0:
395,86,67575,1,0,1:2:0:0:
406,81,67690,6,0,B|426:126|426:126|417:154|417:154|434:198,1,100,2|0,1:2|0:0,0:0:0:0:
457,182,68035,2,0,B|443:229|443:229|418:244|418:244|403:289,1,100,2|0,1:2|0:0,0:0:0:0:
381,335,68379,2,0,L|267:310,1,100,10|0,3:2|3:2,0:0:0:0:
214,344,68724,2,0,B|203:318|203:318|214:282,1,50,0|0,1:2|0:0,0:0:0:0:
261,238,68954,1,0,1:2:0:0:
275,234,69069,6,0,B|269:201|269:201|284:166|284:166|259:117,1,100,2|0,1:2|0:0,0:0:0:0:
300,119,69414,2,0,B|284:89|284:89|250:72|250:72|238:19,1,100,2|0,1:2|0:0,0:0:0:0:
181,17,69759,2,0,L|41:68,1,150,10|0,0:0|1:2,0:0:0:0:
15,216,70333,1,0,1:2:0:0:
7,203,70448,6,0,B|52:173|52:173|110:173,1,100,2|0,1:2|0:0,0:0:0:0:
109,145,70793,2,0,B|164:146|164:146|207:188,1,100,2|0,1:2|0:0,0:0:0:0:
242,162,71138,2,0,L|261:66,2,50,10|2|2,0:0|0:0|0:0,0:0:0:0:
321,144,71483,1,2,0:0:0:0:
398,262,71713,1,0,1:2:0:0:
393,277,71828,6,0,B|369:289|369:289|321:296|321:296|284:278,1,100,6|0,1:2|0:0,0:0:0:0:
232,252,72172,2,0,L|222:303,1,50,0|0,1:2|0:0,0:0:0:0:
149,317,72402,1,0,1:2:0:0:
142,327,72517,2,0,L|18:307,1,100,10|0,0:0|0:0,0:0:0:0:
13,241,72862,2,0,L|8:189,1,50,0|0,1:2|0:0,0:0:0:0:
58,134,73092,1,0,1:2:0:0:
53,119,73207,6,0,B|129:105|129:105|89:148,1,100,2|0,1:2|0:0,0:0:0:0:
124,164,73552,2,0,B|108:180|108:180|184:166,1,100,2|0,1:2|0:0,0:0:0:0:
209,96,73897,2,0,L|325:100,1,100,10|0,3:2|3:2,0:0:0:0:
382,106,74241,2,0,L|380:173,1,50,2|0,1:2|0:0,0:0:0:0:
419,230,74471,1,0,1:2:0:0:
409,237,74586,6,0,B|361:253|361:253|319:213,1,100,2|0,1:2|0:0,0:0:0:0:
310,204,74931,2,0,B|269:171|269:171|216:195,1,100,2|0,1:2|0:0,0:0:0:0:
178,132,75276,2,0,P|110:156|74:239,1,150,10|0,0:0|1:2,0:0:0:0:
55,311,75851,1,0,1:2:0:0:
55,325,75966,6,0,B|97:320|97:320|113:303|113:303|205:287,2,150,2|0|10,1:2|1:2|0:0,0:0:0:0:
158,375,76885,2,0,L|276:358,1,100,2|2,0:0|0:0,0:0:0:0:
335,306,77345,5,6,1:2:0:0:
335,306,78035,2,0,P|350:229|328:181,1,100,10|0,0:0|0:0,0:0:0:0:
288,154,78379,2,0,L|224:163,1,50,0|0,0:0|0:2,0:0:0:0:
177,209,78609,1,2,1:2:0:0:
158,215,78724,6,0,B|139:169|139:169|149:139|125:98,1,100,2|0,1:2|0:0,0:0:0:0:
106,94,79069,2,0,B|92:74|102:44|102:44|83:-2,1,100,2|0,1:0|0:0,0:0:0:0:
163,0,79414,2,0,P|200:5|259:37,1,100,10|0,3:2|0:0,0:0:0:0:
272,105,79759,2,0,L|341:102,1,50,2|0,1:2|0:0,0:0:0:0:
394,58,79989,1,0,1:2:0:0:
409,60,80104,6,0,B|413:105|392:132|392:132|403:161,1,100,2|0,1:2|0:0,0:0:0:0:
431,160,80448,2,0,B|439:181|439:181|418:209|422:254,1,100,2|0,1:2|0:0,0:0:0:0:
446,326,80793,2,0,L|289:349,1,150,10|2,0:0|1:2,0:0:0:0:
163,297,81368,1,0,1:2:0:0:
153,301,81483,6,0,B|121:236|121:236|128:191,1,100,2|0,1:2|0:0,0:0:0:0:
91,205,81828,2,0,B|111:134|111:134|146:107,1,100,2|0,1:2|0:0,0:0:0:0:
145,46,82172,2,0,B|213:15|213:15|247:94,1,150,10|8,0:0|0:0,0:0:0:0:
370,49,82747,1,0,1:2:0:0:
355,40,82862,6,0,P|320:93|315:157,1,100,6|0,1:2|0:0,0:0:0:0:
372,175,83207,2,0,P|379:218|373:261,1,50,2|0,0:0|0:0,0:0:0:0:
342,290,83437,1,0,1:2:0:0:
336,302,83552,2,0,P|288:294|227:287,1,100,10|0,0:0|0:0,0:0:0:0:
177,334,83897,2,0,P|132:328|119:325,1,50,2|0,1:2|0:0,0:0:0:0:
53,316,84126,1,0,1:2:0:0:
37,316,84241,6,0,P|20:264|67:255,1,100,2|0,1:2|0:0,0:0:0:0:
62,225,84586,2,0,P|87:186|128:206,1,100,2|0,1:2|0:0,0:0:0:0:
182,254,84931,2,0,B|218:238|218:238|236:209|236:209|270:218|270:218|335:197,1,150,10|2,3:2|1:2,0:0:0:0:
351,39,85506,1,0,1:2:0:0:
337,39,85621,6,0,B|316:26|316:26|347:121,1,100,2|0,1:2|0:0,0:0:0:0:
369,108,85966,2,0,B|392:179|392:179|371:166,1,100,2|0,1:2|0:0,0:0:0:0:
300,193,86310,2,0,L|156:162,1,100,10|0,0:0|0:0,0:0:0:0:
151,118,86655,2,0,L|90:141,1,50,2|0,1:2|0:0,0:0:0:0:
123,219,86885,1,0,1:2:0:0:
126,206,87000,6,0,B|72:150|72:150|-21:151,2,150,2|10|10,1:2|0:0|0:0,0:0:0:0:
14,303,87920,1,0,1:2:0:0:
16,315,88035,2,0,L|159:311,1,100,14|0,0:0|0:0,0:0:0:0:
181,364,88379,6,0,B|201:326|201:326|185:247,1,89.999997253418,6|0,1:2|0:0,0:0:0:0:
234,210,88724,2,0,L|181:203,1,44.999998626709
117,181,88954,1,0,0:0:0:0:
98,178,89069,2,0,B|96:128|96:128|131:75,1,89.999997253418,8|0,0:0|0:0,0:0:0:0:
157,31,89413,2,0,L|213:49,1,44.999998626709
280,14,89643,1,0,1:2:0:0:
291,21,89758,6,0,B|282:76|282:76|256:112,1,89.999997253418,0|0,1:2|0:0,0:0:0:0:
308,217,90103,2,0,B|317:162|317:162|342:126,1,89.999997253418,0|0,1:2|0:0,0:0:0:0:
358,116,90448,2,0,B|404:109|404:109|457:144,1,89.999997253418,8|0,0:0|0:0,0:0:0:0:
504,187,90793,2,0,L|493:248,1,44.999998626709
461,299,91023,1,0,1:2:0:0:
466,314,91138,6,0,B|430:315|411:335|411:335|358:330,1,89.999997253418,0|0,1:2|0:0,0:0:0:0:
320,382,91482,2,0,P|303:345|303:324,1,44.999998626709
297,263,91712,1,0,1:2:0:0:
288,248,91827,2,0,B|353:251|353:251|403:232,1,89.999997253418,8|0,0:2|0:0,0:0:0:0:
390,170,92172,2,0,L|338:172,1,44.999998626709
285,123,92402,1,0,1:2:0:0:
274,111,92517,6,0,B|214:129|214:129|199:154,1,89.999997253418,0|0,1:2|0:0,0:0:0:0:
188,161,92862,2,0,B|202:222|202:222|189:246,1,89.999997253418,0|0,1:2|0:0,0:0:0:0:
117,219,93207,2,0,L|-3:228,1,89.999997253418,8|0,0:0|0:0,0:0:0:0:
11,305,93551,1,0,0:0:0:0:
4,294,93666,2,0,L|72:313,1,44.999998626709,0|0,0:0|1:2,0:0:0:0:
89,374,93896,6,0,B|126:346|126:346|132:294,1,89.999997253418,0|0,1:2|0:0,0:0:0:0:
189,246,94241,2,0,L|249:256,1,44.999998626709
290,310,94471,1,0,1:2:0:0:
287,323,94586,2,0,B|358:334|358:334|385:372,1,89.999997253418,8|0,0:0|0:0,0:0:0:0:
443,339,94931,2,0,L|452:283,1,44.999998626709
485,229,95161,1,0,1:2:0:0:
480,219,95276,6,0,P|436:217|378:241,1,89.999997253418,0|0,1:2|0:0,0:0:0:0:
379,215,95620,2,0,P|334:220|294:238,1,89.999997253418,0|0,1:2|0:0,0:0:0:0:
205,249,95965,2,0,P|167:225|158:182,1,89.999997253418,8|0,0:0|0:0,0:0:0:0:
161,111,96310,2,0,L|167:59,1,44.999998626709
240,49,96540,1,0,1:2:0:0:
239,37,96655,6,0,P|298:59|335:56,1,89.999997253418,0|0,1:2|0:0,0:0:0:0:
399,34,97000,2,0,L|394:100,1,44.999998626709
443,135,97230,1,0,1:2:0:0:
442,150,97345,2,0,B|400:166|400:166|343:140,1,89.999997253418,8|0,0:0|0:0,0:0:0:0:
286,172,97689,2,0,L|278:234,1,44.999998626709
288,300,97919,1,0,1:2:0:0:
297,289,98034,6,0,B|376:293|376:293|363:313,1,89.999997253418,0|0,1:2|0:0,0:0:0:0:
363,327,98379,2,0,B|284:323|284:323|297:303,1,89.999997253418,0|0,1:2|0:0,0:0:0:0:
193,305,98724,2,0,P|165:266|154:204,1,89.999997253418,8|0,0:0|0:0,0:0:0:0:
122,146,99069,2,0,P|91:159|79:183,1,44.999998626709
23,116,99299,1,0,1:2:0:0:
24,103,99413,6,0,P|99:112|149:94,1,89.999997253418,0|0,1:2|0:0,0:0:0:0:
165,56,99758,2,0,P|197:56|219:62,1,44.999998626709
292,93,99988,1,0,1:2:0:0:
280,95,100103,2,0,B|261:156|261:156|263:191,1,89.999997253418,8|0,0:0|0:0,0:0:0:0:
200,225,100448,2,0,B|199:249|199:249|211:272,1,44.999998626709
266,324,100678,1,0,1:2:0:0:
262,336,100793,6,0,P|210:346|161:334,1,89.999997253418,0|0,1:2|0:0,0:0:0:0:
148,369,101138,2,0,P|117:335|102:294,1,89.999997253418,0|0,1:2|0:0,0:0:0:0:
47,241,101482,2,0,B|64:195|64:195|112:229,1,89.999997253418,8|0,0:0|0:0,0:0:0:0:
109,135,101827,2,0,L|171:127,1,44.999998626709
227,117,102057,1,0,1:2:0:0:
229,104,102172,6,0,L|352:118,1,89.999997253418,0|0,1:2|0:0,0:0:0:0:
391,91,102517,2,0,P|395:130|387:149,1,44.999998626709
337,190,102747,1,0,1:2:0:0:
327,196,102862,2,0,P|375:217|422:209,1,89.999997253418,8|0,0:0|0:0,0:0:0:0:
468,279,103207,2,0,P|437:283|414:291,1,44.999998626709
372,339,103436,1,0,1:2:0:0:
361,348,103551,6,0,B|315:340|315:340|292:291,1,89.999997253418,0|0,1:2|0:0,0:0:0:0:
280,303,103896,2,0,B|261:263|261:263|215:255,1,89.999997253418,0|0,1:2|0:0,0:0:0:0:
194,331,104241,2,0,L|93:323,1,89.999997253418,8|0,0:0|0:0,0:0:0:0:
21,316,104586,2,0,P|38:294|46:270,1,44.999998626709
21,206,104816,1,0,1:2:0:0:
23,194,104931,6,0,P|74:209|119:207,1,89.999997253418,0|0,1:2|0:0,0:0:0:0:
183,187,105276,2,0,L|187:139,1,44.999998626709
254,75,105505,1,0,1:2:0:0:
247,83,105620,2,0,P|178:62|144:68,1,89.999997253418,8|0,0:0|0:0,0:0:0:0:
186,143,105965,2,0,P|214:155|245:161,1,44.999998626709
309,142,106195,1,0,1:2:0:0:
321,131,106310,6,0,B|340:60|340:60|321:38,1,89.999997253418,0|0,1:2|0:0,0:0:0:0:
380,0,106655,2,0,B|360:72|360:72|379:94,1,89.999997253418,0|0,1:2|0:0,0:0:0:0:
440,113,107000,2,0,P|436:156|404:204,1,89.999997253418,8|0,0:0|0:0,0:0:0:0:
380,267,107345,2,0,L|328:259,1,44.999998626709
338,333,107574,1,0,1:2:0:0:
334,342,107689,6,0,P|289:335|247:318,1,89.999997253418,0|0,1:2|0:0,0:0:0:0:
196,370,108034,2,0,P|177:363|144:361,1,44.999998626709
96,296,108264,1,0,1:2:0:0:
109,301,108379,2,0,P|130:259|135:202,1,89.999997253418,8|0,0:0|0:0,0:0:0:0:
56,213,108724,2,0,P|59:191|69:170,1,44.999998626709
135,110,108954,1,0,1:2:0:0:
128,100,109069,6,0,B|64:81|64:81|53:50,1,89.999997253418,0|0,1:2|0:0,0:0:0:0:
67,37,109414,2,0,B|130:55|130:55|149:85,1,89.999997253418,0|0,1:2|0:0,0:0:0:0:
215,19,109758,2,0,L|224:121,1,89.999997253418,8|0,0:0|0:0,0:0:0:0:
265,172,110103,2,0,P|297:187|317:188,2,44.999998626709,0|0|0,3:2|3:2|0:0,0:0:0:0:
357,126,110448,6,0,B|293:156|293:156|236:267|236:267|264:336|264:336|325:351,1,300.000011444092,2|0,1:2|0:0,0:0:0:0:
315,343,111483,6,0,L|271:244,1,89.999997253418
155,215,111828,6,0,L|204:215,2,50,2|2|2,0:0|0:0|0:0,0:0:0:0:
129,179,112172,2,0,L|80:178,2,50,2|2|2,0:0|0:0|0:0,0:0:0:0:
155,148,112517,2,0,L|204:148,2,50,2|2|2,0:0|0:0|0:0,0:0:0:0:
129,115,112862,2,0,L|80:114,2,50,2|2|2,0:0|0:0|0:0,0:0:0:0:
174,27,113207,6,0,B|139:97|139:97|313:142|313:142|336:126|336:126|312:90,1,300.000011444092,2|0,1:2|0:0,0:0:0:0:
317,106,114241,6,0,L|292:207,1,89.999997253418
363,241,114586,6,0,L|423:251,2,50,2|2|2,0:0|0:0|0:0,0:0:0:0:
327,270,114931,2,0,L|277:262,2,50,2|2|2,0:0|0:0|0:0,0:0:0:0:
350,308,115276,2,0,L|410:318,2,50,2|2|2,0:0|0:0|0:0,0:0:0:0:
313,340,115621,2,0,L|263:332,2,50,2|2|2,0:0|0:0|0:0,0:0:0:0:
198,376,115966,6,0,B|215:365|215:365|243:266|243:266|134:295|134:295|117:334|117:334|96:292,1,300.000011444092,2|0,1:2|0:0,0:0:0:0:
107,301,117000,2,0,L|212:321,1,89.999997253418
254,273,117345,6,0,L|275:207,2,50,2|2|2,0:0|0:0|0:0,0:0:0:0:
282,310,117689,2,0,L|269:359,2,50,2|2|2,0:0|0:0|0:0,0:0:0:0:
328,297,118034,2,0,L|349:234,2,50,2|2|2,0:0|0:0|0:0,0:0:0:0:
363,332,118378,2,0,L|346:379,2,50,2|2|2,0:0|0:0|0:0,0:0:0:0:
453,298,118724,6,0,B|402:312|402:312|341:272|341:272|334:241|334:241|433:172|433:172|423:212,1,300.000011444092,2|0,1:2|0:0,0:0:0:0:
416,211,119759,6,0,L|322:210,1,89.999997253418
216,159,120104,6,0,L|266:160,2,50,2|2|2,0:0|0:0|0:0,0:0:0:0:
181,131,120448,2,0,L|132:129,2,50,2|2|2,0:0|0:0|0:0,0:0:0:0:
205,95,120793,2,0,L|255:96,2,50,2|2|2,0:0|0:0|0:0,0:0:0:0:
179,58,121138,2,0,L|130:56,2,50,2|2|2,0:0|0:0|0:0,0:0:0:0:
41,59,121483,6,0,P|30:94|30:117,11,50,0|0|0|2|0|0|2|0|0|2|0|0,1:2|0:0|0:0|0:0|0:0|0:0|0:0|0:0|0:0|0:0|0:0|0:0,0:0:0:0:
61,147,122863,2,0,P|75:181|89:199,11,50,2|0|0|2|0|0|2|0|0|2|0|0,1:2|0:0|0:0|0:0|0:0|0:0|0:0|0:0|0:0|0:0|0:0|0:0,0:0:0:0:
127,198,124242,2,0,P|159:215|182:219,11,50,2|0|0|2|0|0|2|0|0|2|0|0,1:2|0:0|0:0|0:0|0:0|0:0|0:0|0:0|0:0|0:0|0:0|0:0,0:0:0:0:
217,201,125621,2,0,P|252:194|272:182,11,50,2|0|0|2|0|0|2|0|0|2|0|0,1:2|0:0|0:0|0:0|0:0|0:0|0:0|0:0|0:0|0:0|0:0|0:0,0:0:0:0:
271,48,127001,6,0,P|235:56|215:68,11,59.9999981689454,2|0|0|2|0|0|2|0|0|2|0|0,1:2|0:0|0:0|0:0|0:0|0:0|0:0|0:0|0:0|0:0|0:0|0:0,0:0:0:0:
192,110,128379,2,0,P|169:140|161:161,11,59.9999981689454,2|0|0|2|0|0|2|0|0|2|0|0,1:2|0:0|0:0|0:0|0:0|0:0|0:0|0:0|0:0|0:0|0:0|0:0,0:0:0:0:
176,206,129760,2,0,P|177:243|185:265,11,59.9999981689454,2|0|0|2|0|0|2|0|0|2|0|0,1:2|0:0|0:0|0:0|0:0|0:0|0:0|0:0|0:0|0:0|0:0|0:0,0:0:0:0:
225,296,131139,6,0,P|249:324|269:335,11,59.9999981689454,2|0|0|2|0|0|2|0|0|2|0|0,1:2|0:0|0:0|0:0|0:0|0:0|0:0|0:0|0:0|0:0|0:0|0:0,0:0:0:0:
427,263,132518,6,0,P|402:280|372:287,2,59.9999981689454,0|0|2,1:2|0:0|0:0,0:0:0:0:
335,314,132863,2,0,P|305:311|278:297,2,59.9999981689454,2|0|2,1:2|0:0|0:0,0:0:0:0:
233,310,133208,2,0,P|212:289|200:261,2,59.9999981689454,2|0|2,1:2|0:0|0:0,0:0:0:0:
158,249,133552,2,0,P|156:220|164:191,2,59.9999981689454,2|0|2,1:2|0:0|0:0,0:0:0:0:
112,126,133897,6,0,P|136:143|166:150,2,59.9999981689454,0|0|2,1:2|0:0|0:0,0:0:0:0:
194,172,134242,2,0,P|223:169|250:155,2,59.9999981689454,2|0|2,1:2|0:0|0:0,0:0:0:0:
290,167,134587,2,0,P|310:146|322:118,2,59.9999981689454,2|0|2,1:2|0:0|0:0,0:0:0:0:
363,103,134931,2,0,P|364:74|356:45,2,59.9999981689454,2|0|2,1:2|0:0|0:0,0:0:0:0:
283,54,135277,6,0,P|258:37|228:30,2,59.9999981689454,2|0|2,1:2|0:0|0:0,0:0:0:0:
196,4,135622,2,0,P|166:7|139:21,2,59.9999981689454,2|0|2,1:2|0:0|0:0,0:0:0:0:
97,8,135967,2,0,P|76:29|64:57,2,59.9999981689454,2|0|2,1:2|0:0|0:0,0:0:0:0:
24,74,136311,2,0,P|22:103|30:132,2,59.9999981689454,2|0|2,1:2|0:0|0:0,0:0:0:0:
79,206,136656,6,0,P|103:189|133:182,2,59.9999981689454,2|0|2,1:2|0:0|0:0,0:0:0:0:
164,150,137001,2,0,P|193:153|220:167,2,59.9999981689454,2|0|2,1:2|0:0|0:0,0:0:0:0:
260,155,137346,2,0,P|279:176|292:204,2,59.9999981689454,2|0|2,1:2|0:0|0:0,0:0:0:0:
336,212,137690,2,0,P|337:241|329:270,2,59.9999981689454,2|2|2,1:2|0:0|0:0,0:0:0:0:
342,377,138035,6,0,P|324:351|293:345,2,64.9999970245363,2|2|2,1:2|1:2|1:2,0:0:0:0:
280,317,138380,2,0,P|249:308|222:324,2,64.9999970245363,2|2|2,1:2|1:2|1:2,0:0:0:0:
192,295,138725,2,0,P|162:308|151:338,2,64.9999970245363,2|2|2,1:2|1:2|1:2,0:0:0:0:
109,322,139070,2,0,P|94:351|105:381,2,64.9999970245363,2|2|2,1:2|1:2|1:2,0:0:0:0:
23,300,139414,6,0,P|37:272|26:242,2,50,2|2|2,1:2|1:2|1:2,0:0:0:0:
74,237,139759,2,0,P|66:207|39:190,2,40,2|2|2,1:2|1:2|1:2,0:0:0:0:
78,158,140104,2,0,P|60:145|38:149,2,29.9999990844727,2|2|2,1:2|1:2|1:2,0:0:0:0:
37,104,140449,2,0,P|19:105|7:119,2,20,2|2|2,1:2|1:2|1:2,0:0:0:0:
18,27,140794,5,6,1:2:0:0:
55,173,142402,5,0,1:2:0:0:
60,159,142517,2,0,B|107:163|107:163|156:199,1,100,10|2,0:0|0:0,0:0:0:0:
176,184,142862,2,0,B|154:141|154:141|160:81,1,100,10|2,0:0|0:0,0:0:0:0:
211,34,143207,1,8,0:0:0:0:
284,19,143322,1,0,1:2:0:0:
351,51,143437,1,0,1:2:0:0:
370,127,143552,6,0,B|363:112|363:112|354:204,1,100,6|0,1:2|0:0,0:0:0:0:
361,248,143897,1,10,0:0:0:0:
361,248,144012,2,0,L|436:255,1,50,2|0,0:0|0:0,0:0:0:0:
430,296,144241,1,2,0:0:0:0:
430,296,144356,2,0,L|424:349,1,50,2|0,0:0|0:0,0:0:0:0:
392,375,144586,1,10,0:0:0:0:
392,375,144701,2,0,L|332:370,1,50,2|0,0:0|0:0,0:0:0:0:
268,330,144931,6,0,L|261:405,2,50,2|2|0,1:2|0:0|0:0,0:0:0:0:
228,310,145276,1,2,0:0:0:0:
228,310,145391,2,0,L|234:234,1,50,2|0,0:0|0:0,0:0:0:0:
255,223,145621,2,0,L|333:225,2,50,2|2|0,0:0|0:0|1:2,0:0:0:0:
217,194,145966,1,10,0:0:0:0:
217,194,146081,2,0,L|159:190,1,50,2|0,0:0|0:0,0:0:0:0:
109,134,146310,6,0,P|94:76|124:22,1,100,2|0,1:2|0:0,0:0:0:0:
158,24,146655,1,10,0:0:0:0:
158,24,146770,2,0,L|215:25,1,50,2|0,0:0|0:0,0:0:0:0:
252,61,147000,1,2,0:0:0:0:
252,61,147115,2,0,L|309:62,1,50,2|0,0:0|0:0,0:0:0:0:
342,28,147345,1,10,0:0:0:0:
342,28,147460,2,0,L|399:29,1,50,2|0,0:0|0:0,0:0:0:0:
433,126,147690,6,0,L|487:154,2,50,2|2|0,1:2|0:0|0:0,0:0:0:0:
385,148,148035,2,0,P|337:198|336:264,1,100,8|0,0:2|0:0,0:0:0:0:
294,293,148379,2,0,P|274:226|218:192,1,100,2|0,1:2|0:0,0:0:0:0:
208,145,148724,2,0,P|275:161|332:129,1,100,10|0,1:2|0:0,0:0:0:0:
214,57,149069,6,0,B|131:40|131:40|140:52,1,100,4|0,1:2|0:0,0:0:0:0:
123,89,149414,1,10,0:0:0:0:
123,89,149529,2,0,L|114:148,1,50,2|0,0:0|0:0,0:0:0:0:
91,188,149759,2,0,L|36:209,2,50,2|2|0,0:0|0:0|0:0,0:0:0:0:
130,228,150104,1,10,0:0:0:0:
130,228,150219,2,0,L|121:287,1,50,2|0,0:0|0:0,0:0:0:0:
78,339,150448,6,0,L|17:334,2,50,2|2|0,1:2|0:0|0:0,0:0:0:0:
115,371,150793,1,10,0:0:0:0:
115,371,150908,2,0,L|175:375,1,50,2|0,0:0|0:0,0:0:0:0:
208,342,151138,2,0,L|222:284,2,50,0|0|0,0:0|0:0|1:2,0:0:0:0:
257,377,151483,1,10,0:0:0:0:
257,377,151598,2,0,L|317:381,1,50,2|0,0:0|0:0,0:0:0:0:
396,377,151828,6,0,P|376:326|379:270,1,100,2|0,1:2|0:0,0:0:0:0:
405,246,152172,1,10,0:0:0:0:
405,246,152287,2,0,L|459:239,1,50,2|0,0:0|0:0,0:0:0:0:
487,210,152517,1,2,0:0:0:0:
487,210,152632,2,0,L|479:156,1,50,2|0,0:0|0:0,0:0:0:0:
440,140,152862,1,10,0:0:0:0:
440,140,152977,2,0,L|386:147,1,50,2|0,0:0|0:0,0:0:0:0:
340,72,153207,6,0,L|280:83,2,50,2|2|0,1:2|0:0|0:0,0:0:0:0:
220,41,153552,2,0,P|244:90|242:144,1,100,10|0,0:0|0:0,0:0:0:0:
218,156,153897,2,0,P|170:137|97:135,1,100,2|2,0:0|1:2,0:0:0:0:
42,147,154241,6,0,P|61:204|137:211,1,119.999996337891,10|2,0:0|0:0,0:0:0:0:
213,299,154586,6,0,B|196:228|196:228|186:254,1,100,6|0,1:2|0:0,0:0:0:0:
176,280,154931,1,10,0:0:0:0:
176,280,155046,2,0,L|184:341,1,50,2|0,0:0|0:0,0:0:0:0:
211,373,155276,1,2,0:0:0:0:
211,373,155391,2,0,L|272:365,1,50,2|0,0:0|0:0,0:0:0:0:
291,334,155621,1,10,0:0:0:0:
291,334,155736,2,0,L|283:273,1,50,2|0,0:0|0:0,0:0:0:0:
334,228,155966,6,0,L|396:220,2,50,2|2|0,1:2|0:0|0:0,0:0:0:0:
311,191,156310,1,10,0:0:0:0:
311,191,156425,2,0,L|297:124,1,50,2|0,0:0|0:0,0:0:0:0:
269,119,156655,6,0,L|207:127,2,50,2|2|0,0:0|0:0|1:2,0:0:0:0:
305,84,157000,1,10,0:0:0:0:
305,84,157114,2,0,L|291:17,1,50,2|0,0:0|0:0,0:0:0:0:
384,11,157345,6,0,B|374:39|374:39|390:108,1,100,2|0,1:2|0:0,0:0:0:0:
437,120,157690,1,10,0:0:0:0:
437,120,157805,2,0,L|450:177,1,50,2|0,0:0|0:0,0:0:0:0:
480,210,158035,1,2,0:0:0:0:
480,210,158150,2,0,L|423:223,1,50,2|0,0:0|0:0,0:0:0:0:
405,262,158379,1,10,0:0:0:0:
405,262,158494,2,0,L|348:275,1,50,2|0,0:0|0:0,0:0:0:0:
292,230,158724,6,0,L|280:173,2,50,2|2|0,1:2|0:0|0:0,0:0:0:0:
233,274,159069,2,0,P|183:241|121:237,1,100,10|0,0:0|0:0,0:0:0:0:
136,203,159414,2,0,P|76:209|26:246,1,100,2|0,1:2|0:0,0:0:0:0:
0,290,159759,2,0,P|61:285|63:243,1,100,10|0,1:2|0:0,0:0:0:0:
124,174,160104,6,0,B|107:86|107:86|134:49,1,100,6|0,1:2|0:0,0:0:0:0:
155,49,160448,1,10,0:0:0:0:
155,49,160563,2,0,L|172:110,1,50,2|0,0:0|0:0,0:0:0:0:
215,115,160793,1,2,0:0:0:0:
215,115,160908,2,0,L|198:54,1,50,2|0,0:0|0:0,0:0:0:0:
226,23,161138,1,10,0:0:0:0:
226,23,161253,2,0,L|243:84,1,50,2|0,0:0|0:0,0:0:0:0:
306,105,161483,6,0,L|368:90,2,50,2|2|0,1:2|0:0|0:0,0:0:0:0:
320,157,161828,1,10,0:0:0:0:
320,157,161943,2,0,L|252:172,1,50,2|0,0:0|0:0,0:0:0:0:
239,200,162172,2,0,L|257:262,2,50,2|2|0,0:0|0:0|1:2,0:0:0:0:
198,182,162517,1,10,0:0:0:0:
198,182,162632,2,0,L|130:197,1,50,2|0,0:0|0:0,0:0:0:0:
71,165,162862,6,0,B|59:174|59:174|85:275,1,100,2|0,1:2|0:0,0:0:0:0:
67,301,163207,1,10,0:0:0:0:
67,301,163322,2,0,L|136:315,1,50,2|0,0:0|0:0,0:0:0:0:
147,354,163552,1,2,0:0:0:0:
147,354,163667,2,0,L|216:340,1,50,2|0,0:0|0:0,0:0:0:0:
227,309,163897,1,10,0:0:0:0:
227,309,164012,2,0,L|296:323,1,50,2|0,0:0|0:0,0:0:0:0:
351,313,164241,6,0,L|337:368,2,50,2|2|0,1:2|0:0|0:0,0:0:0:0:
425,266,164586,6,0,B|416:242|416:242|326:221|326:221|303:245,2,150,10|10|14,0:0|0:0|0:0,0:0:0:0:
488,45,165621,6,0,L|378:58,1,80,4|0,1:2|0:0,0:0:0:0:
315,92,165966,2,0,L|327:137,2,40,10|0|0,0:0|0:0|0:0,0:0:0:0:
272,61,166310,2,0,L|261:22,2,40,2|0|0,0:0|0:0|0:0,0:0:0:0:
250,98,166655,2,0,L|198:109,1,40,10|0,0:0|0:0,0:0:0:0:
129,106,166885,1,0,0:0:0:0:
118,115,167000,6,0,P|116:154|138:196,1,80,2|0,1:2|0:0,0:0:0:0:
194,237,167345,2,0,L|242:221,2,40,10|0|0,0:0|0:0|0:0,0:0:0:0:
170,281,167690,2,0,L|132:293,2,40,2|0|0,0:0|0:0|0:0,0:0:0:0:
199,316,168035,2,0,L|251:298,1,40,10|0,0:0|0:0,0:0:0:0:
304,336,168264,1,0,0:0:0:0:
316,330,168379,6,0,P|314:274|323:234,1,80,2|0,1:2|0:0,0:0:0:0:
388,202,168724,2,0,L|443:205,2,40,10|0|0,0:0|0:0|0:0,0:0:0:0:
351,175,169069,2,0,L|311:172,2,40
378,135,169414,2,0,L|421:135,1,40,10|0,0:0|0:0,0:0:0:0:
460,71,169644,1,0,0:0:0:0:
460,60,169759,6,0,L|360:57,1,80,0|0,1:2|0:0,0:0:0:0:
304,9,170104,2,0,L|304:56,2,40,10|0|0,0:0|0:0|0:0,0:0:0:0:
259,56,170448,2,0,L|259:96,2,40
223,113,170793,2,0,L|175:110,1,40,10|0,0:0|0:0,0:0:0:0:
119,69,171023,1,0,0:0:0:0:
111,65,171138,6,0,P|98:112|103:154,1,80,2|0,1:2|0:0,0:0:0:0:
89,238,171483,2,0,L|137:237,2,40,10|0|0,0:0|0:0|0:0,0:0:0:0:
72,277,171828,2,0,L|32:277,2,40,2|0|0,0:0|0:0|0:0,0:0:0:0:
104,311,172172,2,0,L|159:309,1,40,10|0,0:0|0:0,0:0:0:0:
205,252,172402,1,0,0:0:0:0:
217,253,172517,6,0,B|235:254|235:254|241:342,1,80,2|0,1:2|0:0,0:0:0:0:
305,350,172862,2,0,L|360:345,2,40,10|0|0,0:0|0:0|0:0,0:0:0:0:
366,318,173207,2,0,L|421:313,2,40,0|0|0,0:0|0:0|1:2,0:0:0:0:
429,285,173552,2,0,L|468:281,1,40,10|0,0:0|0:0,0:0:0:0:
512,213,173782,1,0,0:0:0:0:
498,211,173897,6,0,L|489:121,1,80,2|0,1:2|0:0,0:0:0:0:
422,83,174241,2,0,L|383:89,2,40,10|0|0,0:0|0:0|0:0,0:0:0:0:
343,69,174586,2,0,L|303:74,2,40
280,114,174931,2,0,L|240:122,1,40,10|0,0:0|0:0,0:0:0:0:
148,84,175161,1,0,0:0:0:0:
157,92,175276,6,0,L|175:182,1,80,2|0,1:2|0:0,0:0:0:0:
228,217,175621,2,0,L|277:204,2,40,10|0|0,0:0|0:0|0:0,0:0:0:0:
198,258,175966,2,0,L|157:272,2,40,0|0|0,0:0|0:0|1:2,0:0:0:0:
243,285,176310,2,0,L|297:264,2,40,10|0|0,0:0|0:0|0:0,0:0:0:0:
198,350,176655,6,0,P|154:322|71:311,2,112.500004291535,6|8|0,1:2|0:0|0:0,0:0:0:0:
416,343,177690,2,0,P|438:306|440:269,1,75.000002861023,8|0,0:0|0:0,0:0:0:0:
416,237,178035,2,0,P|395:172|400:114,2,112.500004291535,0|8|0,1:2|0:0|0:0,0:0:0:0:
474,136,178954,1,0,1:2:0:0:
483,127,179069,2,0,P|480:83|452:41,1,75.000002861023,8|0,0:0|0:0,0:0:0:0:
385,16,179414,6,0,L|270:39,2,112.500004291535,2|8|0,1:2|0:0|0:0,0:0:0:0:
249,170,180448,2,0,P|196:157|173:133,1,75.000002861023,8|0,0:0|0:0,0:0:0:0:
142,154,180793,2,0,P|122:109|134:28,2,112.500004291535,0|8|0,1:2|0:0|0:0,0:0:0:0:
74,244,181713,1,0,1:2:0:0:
70,260,181828,2,0,P|122:252|172:262,1,75.000002861023,8|0,0:0|0:0,0:0:0:0:
223,235,182172,6,0,B|229:302|194:285|209:371,2,112.500004291535,2|8|0,1:2|0:0|0:0,0:0:0:0:
382,179,183207,2,0,P|331:174|303:184,1,75.000002861023
276,159,183552,2,0,P|320:148|368:84,2,112.500004291535,0|8|0,1:2|0:0|0:0,0:0:0:0:
121,137,184471,1,0,1:2:0:0:
109,143,184586,2,0,P|87:94|92:57,1,75.000002861023,8|0,0:0|0:0,0:0:0:0:
44,12,184931,6,0,P|90:28|174:33,2,112.500004291535,2|8|0,1:2|0:0|0:0,0:0:0:0:
30,180,185966,2,0,P|70:217|84:242,1,75.000002861023,8|0,0:0|0:0,0:0:0:0:
110,263,186310,2,0,P|56:277|13:312,2,112.500004291535,0|8|0,1:2|0:0|0:0,0:0:0:0:
265,246,187230,1,0,1:2:0:0:
275,233,187345,6,0,B|312:185|312:185|185:168|185:168|229:197,1,225.000008583069,12|0,0:0|0:0,0:0:0:0:
