osu file format v14

[General]
AudioFilename: audio.mp3
AudioLeadIn: 0
PreviewTime: 33079
Countdown: 0
SampleSet: Soft
StackLeniency: 0
Mode: 0
LetterboxInBreaks: 0
WidescreenStoryboard: 1

[Editor]
DistanceSpacing: 1.5
BeatDivisor: 6
GridSize: 32
TimelineZoom: 4.699997

[Metadata]
Title:HEATSEEKER
TitleUnicode:HEATSEEKER
Artist:REAPER
ArtistUnicode:REAPER
Creator:keevy
Version:INSANE
Source:
Tags:electronic english instrumental edm dance music monstercat dnb drum and n bass drumstep reapernoises anishina kodoku loreley tatemae sherrycherry RENEGADE
BeatmapID:3554262
BeatmapSetID:1739056

[Difficulty]
HPDrainRate:4.5
CircleSize:4
OverallDifficulty:8
ApproachRate:9
SliderMultiplier:1.7
SliderTickRate:1

[Events]
//Background and Video events
0,0,"bg.jpg",0,0
//Break Periods
//Storyboard Layer 0 (Background)
//Storyboard Layer 1 (Fail)
//Storyboard Layer 2 (Pass)
//Storyboard Layer 3 (Foreground)
//Storyboard Layer 4 (Overlay)
//Storyboard Sound Samples

[TimingPoints]
104,344.827586206897,4,2,1,40,1,0
1368,-100,4,2,0,5,0,0
1483,-100,4,2,1,40,0,0
2862,-133.333333333333,4,2,1,40,0,0
10793,-66.6666666666667,4,2,1,40,0,0
11138,-100,4,2,1,55,0,0
27690,-100,4,2,1,60,0,0
30448,-100,4,2,1,65,0,0
32517,-100,4,2,1,70,0,0
33207,-250,4,2,1,66,0,0
34241,-133.333333333333,4,2,1,66,0,0
34586,-100,4,2,1,66,0,0
34931,-83.3333333333333,4,2,1,66,0,0
35276,-71.4285714285714,4,2,1,66,0,0
35621,-62.5,4,2,1,66,0,0
35966,-250,4,2,1,66,0,0
37000,-133.333333333333,4,2,1,66,0,0
37345,-100,4,2,1,66,0,0
37690,-83.3333333333333,4,2,1,66,0,0
38035,-71.4285714285714,4,2,1,66,0,0
38379,-62.5,4,2,1,66,0,0
38724,-250,4,2,1,66,0,0
39759,-133.333333333333,4,2,1,66,0,0
40104,-100,4,2,1,66,0,0
40448,-83.3333333333333,4,2,1,66,0,0
40793,-71.4285714285714,4,2,1,66,0,0
41138,-62.5,4,2,1,66,0,0
41483,-250,4,2,1,66,0,0
42517,-133.333333333333,4,2,1,66,0,0
42862,-100,4,2,1,66,0,0
43207,-83.3333333333333,4,2,1,66,0,0
43552,-71.4285714285714,4,2,1,66,0,0
43897,-62.5,4,2,1,66,0,0
44241,-100,4,2,1,66,0,0
47000,-83.3333333333333,4,2,1,66,0,0
49759,-71.4285714285714,4,2,1,66,0,0
52517,-62.5,4,2,1,66,0,0
55276,-66.6666666666667,4,2,1,70,0,0
58035,-62.5,4,2,1,70,0,0
60793,-100,4,2,1,65,0,0
62172,-100,4,2,1,75,0,0
62517,-125,4,2,1,65,0,0
62862,-166.666666666667,4,2,1,55,0,0
63207,-250,4,2,1,45,0,0
63552,-100,4,2,1,50,0,0
64931,-83.3333333333333,4,2,1,50,0,0
65276,-83.3333333333333,4,2,1,60,0,0
65621,-83.3333333333333,4,2,1,65,0,0
65966,-83.3333333333333,4,2,1,70,0,0
66310,-66.6666666666667,4,2,1,85,0,0
66655,-83.3333333333333,4,2,1,85,0,0
67000,-66.6666666666667,4,2,1,85,0,0
67345,-83.3333333333333,4,2,1,85,0,0
67690,-66.6666666666667,4,2,1,85,0,0
68379,-133.333333333333,4,2,1,85,0,0
68724,-83.3333333333333,4,2,1,85,0,0
69069,-66.6666666666667,4,2,1,85,0,0
69759,-83.3333333333333,4,2,1,85,0,0
70448,-66.6666666666667,4,2,1,85,0,0
71138,-66.6666666666667,4,2,1,85,0,0
71828,-66.6666666666667,4,2,1,85,0,0
72172,-83.3333333333333,4,2,1,85,0,0
72517,-66.6666666666667,4,2,1,85,0,0
72862,-83.3333333333333,4,2,1,85,0,0
73207,-66.6666666666667,4,2,1,85,0,0
73897,-133.333333333333,4,2,1,85,0,0
74241,-83.3333333333333,4,2,1,85,0,0
74586,-66.6666666666667,4,2,1,85,0,0
75276,-83.3333333333333,4,2,1,85,0,0
75966,-66.6666666666667,4,2,1,85,0,0
77345,-76.9230769230769,4,2,1,85,0,0
78035,-133.333333333333,4,2,1,85,0,0
78494,-83.3333333333333,4,2,1,85,0,0
79414,-133.333333333333,4,2,1,85,0,0
79759,-83.3333333333333,4,2,1,85,0,0
80104,-83.3333333333333,4,2,1,85,0,0
80793,-66.6666666666667,4,2,1,85,0,0
81138,-83.3333333333333,4,2,1,85,0,0
81483,-66.6666666666667,4,2,1,85,0,0
82172,-133.333333333333,4,2,1,85,0,0
82517,-83.3333333333333,4,2,1,85,0,0
82862,-66.6666666666667,4,2,1,85,0,0
83552,-57.1428571428571,4,2,1,85,0,0
84931,-133.333333333333,4,2,1,85,0,0
85276,-57.1428571428571,4,2,1,85,0,0
85621,-66.6666666666667,4,2,1,85,0,0
86310,-57.1428571428571,4,2,1,85,0,0
86655,-83.3333333333333,4,2,1,85,0,0
87000,-66.6666666666667,4,2,1,85,0,0
87345,-83.3333333333333,4,2,1,85,0,0
88379,-100,4,2,1,65,0,0
104931,-100,4,2,1,70,0,0
107689,-100,4,2,1,75,0,0
109758,-100,4,2,1,70,0,0
110448,-200,4,2,1,66,0,0
111483,-133.333333333333,4,2,1,66,0,0
111828,-100,4,2,1,66,0,0
112172,-83.3333333333333,4,2,1,66,0,0
112517,-71.4285714285714,4,2,1,66,0,0
112862,-62.5,4,2,1,66,0,0
113207,-200,4,2,1,66,0,0
114241,-133.333333333333,4,2,1,66,0,0
114586,-100,4,2,1,66,0,0
114930,-83.3333333333333,4,2,1,66,0,0
115275,-71.4285714285714,4,2,1,66,0,0
115620,-62.5,4,2,1,66,0,0
115966,-200,4,2,1,66,0,0
117000,-133.333333333333,4,2,1,66,0,0
117345,-100,4,2,1,66,0,0
117689,-83.3333333333333,4,2,1,66,0,0
118034,-71.4285714285714,4,2,1,66,0,0
118379,-62.5,4,2,1,66,0,0
118724,-200,4,2,1,66,0,0
119759,-133.333333333333,4,2,1,66,0,0
120104,-100,4,2,1,66,0,0
120448,-83.3333333333333,4,2,1,66,0,0
120793,-71.4285714285714,4,2,1,66,0,0
121138,-62.5,4,2,1,66,0,0
121483,-100,4,2,1,66,0,0
124241,-83.3333333333333,4,2,1,66,0,0
127000,-71.4285714285714,4,2,1,66,0,0
129759,-62.5,4,2,1,66,0,0
132517,-66.6666666666667,4,2,1,70,0,0
135276,-62.5,4,2,1,70,0,0
138035,-100,4,2,1,65,0,0
139414,-100,4,2,1,75,0,0
139759,-125,4,2,1,65,0,0
140104,-166.666666666667,4,2,1,55,0,0
140448,-250,4,2,1,45,0,0
140793,-100,4,2,1,50,0,0
142517,-83.3333333333333,4,2,1,60,0,0
142862,-83.3333333333333,4,2,1,65,0,0
143207,-83.3333333333333,4,2,1,70,0,0
143552,-66.6666666666667,4,2,1,95,0,1
148035,-200,4,2,1,95,0,1
149069,-66.6666666666667,4,2,1,95,0,1
153552,-200,4,2,1,95,0,1
153897,-66.6666666666667,4,2,1,95,0,1
159069,-200,4,2,1,95,0,1
160104,-66.6666666666667,4,2,1,95,0,1
164586,-80,4,2,1,80,0,1
165276,-250,4,2,1,95,0,1
165621,-100,4,2,1,60,0,0
176655,-100,4,2,1,45,0,0

[Colours]
Combo1 : 255,255,34
Combo2 : 67,133,133
Combo3 : 205,205,205

[HitObjects]
256,192,104,12,0,2747,0:0:0:0:
20,346,2862,6,0,B|-5:312|-5:312|1:255,1,85.0000032424928,0|0,3:2|0:0,0:0:0:0:
78,258,3207,2,0,B|80:215|80:215|121:176,1,85.0000032424928,0|0,3:2|0:0,0:0:0:0:
174,231,3552,2,0,B|203:200|203:200|260:196,1,85.0000032424928,0|0,3:2|0:0,0:0:0:0:
256,273,3897,2,0,B|297:268|297:268|344:302,1,85.0000032424928,0|0,3:2|0:0,0:0:0:0:
481,270,4241,6,0,B|506:236|506:236|500:179,1,85.0000032424928,0|0,3:2|0:0,0:0:0:0:
423,182,4586,2,0,B|421:139|421:139|380:100,1,85.0000032424928,0|0,3:2|0:0,0:0:0:0:
327,155,4931,2,0,B|298:124|298:124|241:120,1,85.0000032424928,0|0,3:2|0:0,0:0:0:0:
245,197,5276,2,0,B|204:192|204:192|157:226,1,85.0000032424928,0|0,3:2|0:0,0:0:0:0:
95,300,5621,6,0,B|99:330|99:330|149:187|149:187|96:32|96:32|16:96|16:96|23:144,1,467.50001783371,2|0,3:2|0:0,0:0:0:0:
18,115,7000,6,0,L|103:140,1,85.0000032424928,0|0,3:2|0:0,0:0:0:0:
28,253,7345,2,0,L|108:217,1,85.0000032424928,0|0,3:2|0:0,0:0:0:0:
129,349,7690,2,0,L|168:270,1,85.0000032424928,0|0,3:2|0:0,0:0:0:0:
264,366,8035,2,0,L|243:280,1,85.0000032424928,0|0,3:2|0:0,0:0:0:0:
355,50,8379,6,0,L|270:74,1,85.0000032424928,0|0,3:2|0:0,0:0:0:0:
345,187,8724,2,0,L|264:151,1,85.0000032424928,0|0,3:2|0:0,0:0:0:0:
244,283,9069,2,0,L|204:204,1,85.0000032424928,0|0,3:2|0:0,0:0:0:0:
109,300,9414,2,0,L|129:214,1,85.0000032424928,0|0,3:2|0:0,0:0:0:0:
0,36,9759,6,0,L|84:60,1,85.0000032424928,0|0,3:2|0:0,0:0:0:0:
10,173,10104,2,0,L|90:137,1,85.0000032424928,0|0,3:2|0:0,0:0:0:0:
167,100,10448,2,0,L|247:64,1,85.0000032424928,0|0,3:2|0:0,0:0:0:0:
334,127,10793,6,0,L|152:97,1,170.000006484986,2|0,3:2|0:0,0:0:0:0:
87,139,11138,6,0,P|107:193|123:255,1,113.333333333333,0|0,1:2|0:0,0:0:0:0:
79,348,11483,2,0,P|68:321|60:294,1,56.6666666666667
192,300,11713,1,0,0:0:0:0:
192,300,11828,2,0,P|263:270|351:274,1,113.333333333333,8|0,0:0|0:0,0:0:0:0:
353,328,12172,2,0,P|317:342|273:340,1,56.6666666666667
224,193,12402,1,0,1:2:0:0:
213,179,12517,6,0,P|246:109|294:130,1,113.333333333333,0|0,1:2|0:0,0:0:0:0:
164,46,12862,2,0,P|234:13|257:60,1,113.333333333333,0|0,1:2|0:0,0:0:0:0:
425,96,13207,2,0,P|370:88|328:51,1,113.333333333333,8|0,0:0|0:0,0:0:0:0:
451,20,13552,2,0,P|425:49|417:77,1,56.6666666666667
391,194,13782,1,0,1:2:0:0:
393,215,13897,6,0,P|468:170|510:162,1,113.333333333333,0|0,1:2|0:0,0:0:0:0:
340,129,14241,2,0,P|310:177|297:220,1,56.6666666666667
293,272,14471,1,0,1:2:0:0:
293,272,14586,2,0,P|229:274|149:281,1,113.333333333333,8|0,0:2|0:0,0:0:0:0:
95,270,14931,2,0,P|104:297|109:325,1,56.6666666666667
43,372,15161,1,0,1:2:0:0:
32,360,15276,6,0,P|11:272|16:225,1,113.333333333333,0|0,1:2|0:0,0:0:0:0:
74,192,15621,2,0,P|114:111|148:78,1,113.333333333333,0|0,1:2|0:0,0:0:0:0:
197,49,15966,2,0,P|158:10|104:20,1,113.333333333333,8|0,0:0|0:0,0:0:0:0:
250,128,16310,2,0,P|222:129|195:138,1,56.6666666666667
121,255,16540,1,0,1:2:0:0:
139,266,16655,6,0,B|202:243|189:284|278:239,1,113.333333333333,0|0,1:2|0:0,0:0:0:0:
326,294,17000,2,0,P|333:259|325:229,1,56.6666666666667
455,177,17230,1,0,1:2:0:0:
440,191,17345,2,0,P|417:257|414:320,1,113.333333333333,8|0,0:0|0:0,0:0:0:0:
486,353,17690,2,0,P|493:317|491:290,1,56.6666666666667
488,107,17920,1,0,1:2:0:0:
475,94,18035,6,0,P|427:82|403:165,1,113.333333333333,0|0,1:2|0:0,0:0:0:0:
256,180,18379,2,0,P|300:158|265:79,1,113.333333333333,0|0,1:2|0:0,0:0:0:0:
170,12,18724,2,0,P|200:82|204:139,1,113.333333333333,8|0,0:0|0:0,0:0:0:0:
129,173,19069,2,0,P|108:152|103:117,1,56.6666666666667
44,215,19299,1,0,1:2:0:0:
52,234,19414,6,0,P|113:205|173:204,1,113.333333333333,0|0,1:2|0:0,0:0:0:0:
156,282,19759,2,0,P|184:278|209:265,1,56.6666666666667
289,371,19989,1,0,1:2:0:0:
289,371,20104,2,0,P|279:297|303:244,1,113.333333333333,8|0,0:0|0:0,0:0:0:0:
347,206,20448,2,0,P|325:190|297:184,1,56.6666666666667
200,189,20678,1,0,1:2:0:0:
194,170,20793,6,0,P|208:109|285:120,1,113.333333333333,0|0,1:2|0:0,0:0:0:0:
128,37,21138,2,0,P|168:0|219:19,1,113.333333333333,0|0,1:2|0:0,0:0:0:0:
106,136,21483,2,0,P|69:88|2:49,1,113.333333333333,8|0,0:0|0:0,0:0:0:0:
0,216,21828,2,0,P|47:204|71:207,1,56.6666666666667
153,318,22058,1,0,1:2:0:0:
146,333,22172,6,0,P|132:278|137:212,1,113.333333333333,0|0,1:2|0:0,0:0:0:0:
203,177,22517,2,0,P|214:214|212:246,1,56.6666666666667
319,346,22747,1,0,1:2:0:0:
319,346,22862,2,0,P|252:349|205:385,1,113.333333333333,8|0,0:0|0:0,0:0:0:0:
406,308,23207,2,0,P|373:290|357:263,1,56.6666666666667
492,277,23437,1,0,1:2:0:0:
496,260,23552,6,0,B|488:205|434:208|434:208|434:267,1,113.333333333333,0|0,1:2|0:0,0:0:0:0:
285,237,23897,2,0,B|335:257|360:209|360:209|309:180,1,113.333333333333,0|0,1:2|0:0,0:0:0:0:
442,128,24241,2,0,P|376:129|316:101,1,113.333333333333,8|0,0:0|0:0,0:0:0:0:
252,139,24586,2,0,P|217:108|208:80,1,56.6666666666667
90,17,24816,1,0,1:2:0:0:
108,17,24931,6,0,P|133:112|119:177,1,113.333333333333,0|0,1:2|0:0,0:0:0:0:
35,147,25276,2,0,P|19:109|19:79,1,56.6666666666667
23,244,25506,1,0,1:2:0:0:
23,244,25621,2,0,P|85:210|144:210,1,113.333333333333,8|0,0:0|0:0,0:0:0:0:
57,323,25966,2,0,P|101:310|119:298,1,56.6666666666667
230,376,26195,1,0,1:2:0:0:
210,361,26310,6,0,P|200:301|208:225,1,113.333333333333,0|0,1:2|0:0,0:0:0:0:
393,294,26655,2,0,P|354:335|326:384,1,113.333333333333,0|0,1:2|0:0,0:0:0:0:
476,281,27000,2,0,P|433:219|369:239,1,113.333333333333,8|0,0:0|0:0,0:0:0:0:
275,226,27345,2,0,P|313:210|332:183,1,56.6666666666667
467,150,27575,1,0,1:2:0:0:
471,138,27690,6,0,P|387:122|332:114,1,113.333333333333,0|0,1:2|0:0,0:0:0:0:
302,15,28035,2,0,P|292:55|286:84,1,56.6666666666667
179,163,28264,1,0,1:2:0:0:
179,163,28379,2,0,P|168:103|151:39,1,113.333333333333,8|0,0:0|0:0,0:0:0:0:
12,34,28724,2,0,P|60:24|71:22,1,56.6666666666667
71,167,28954,1,0,1:2:0:0:
75,180,29069,6,0,B|50:195|21:183|21:183|11:146|43:108,1,113.333333333333,0|0,1:2|0:0,0:0:0:0:
156,121,29414,2,0,B|127:116|112:88|112:88|128:53|177:45,1,113.333333333333,0|0,1:2|0:0,0:0:0:0:
308,8,29759,2,0,P|253:50|233:99,1,113.333333333333,8|0,0:0|0:0,0:0:0:0:
200,192,30104,2,0,P|235:182|259:181,1,56.6666666666667
222,306,30333,1,0,1:2:0:0:
216,289,30448,6,0,P|157:260|82:255,1,113.333333333333,0|0,1:2|0:0,0:0:0:0:
73,346,30793,2,0,P|112:331|135:328,1,56.6666666666667
300,367,31023,1,0,1:2:0:0:
300,367,31138,2,0,P|301:306|308:234,1,113.333333333333,8|0,0:0|0:0,0:0:0:0:
386,226,31483,2,0,P|383:258|381:296,1,56.6666666666667
457,190,31713,1,0,1:2:0:0:
455,172,31828,6,0,P|395:146|332:155,1,113.333333333333,0|0,1:2|0:0,0:0:0:0:
379,71,32172,2,0,P|314:78|263:117,1,113.333333333333,0|0,1:2|0:0,0:0:0:0:
175,18,32517,2,0,P|185:62|203:152,1,113.333333333333,8|0,0:0|0:0,0:0:0:0:
153,197,32862,2,0,L|84:211,2,56.6666666666667,0|0|0,3:2|3:2|0:0,0:0:0:0:
212,262,33207,6,0,P|299:242|396:229,1,181.333333333333,6|0,1:2|0:0,0:0:0:0:
469,262,34241,2,0,P|462:211|454:163,1,85.0000032424928
419,97,34586,6,0,L|440:44,2,56.6666666666667,2|2|2,0:0|0:0|0:0,0:0:0:0:
369,210,34931,2,0,L|342:275,2,67.9999979248048,2|2|2,0:0|0:0|0:0,0:0:0:0:
456,177,35276,2,0,L|531:210,2,79.3333309122722,2|2|2,0:0|0:0|0:0,0:0:0:0:
341,126,35621,2,0,L|256:91,2,90.6666666666667,2|2|2,0:0|0:0|0:0,0:0:0:0:
217,15,35966,6,0,P|232:101|249:202,1,181.333333333333,2|0,1:2|0:0,0:0:0:0:
254,205,37000,2,0,P|208:205|149:202,1,85.0000032424928
120,91,37345,6,0,L|98:38,2,56.6666666666667,2|2|2,0:0|0:0|0:0,0:0:0:0:
170,204,37690,2,0,L|198:271,2,67.9999979248048,2|2|2,0:0|0:0|0:0,0:0:0:0:
83,171,38035,2,0,L|4:201,2,79.3333309122722,2|2|2,0:0|0:0|0:0,0:0:0:0:
198,120,38380,2,0,L|283:85,2,90.6666666666667,2|2|2,0:0|0:0|0:0,0:0:0:0:
102,286,38724,6,0,P|203:289|301:297,1,181.333333333333,2|0,1:2|0:0,0:0:0:0:
300,294,39759,2,0,P|301:249|305:202,1,85.0000032424928
374,168,40104,6,0,L|429:180,2,56.6666666666667,2|2|2,0:0|0:0|0:0,0:0:0:0:
254,138,40449,2,0,L|183:122,2,67.9999979248048,2|2|2,0:0|0:0|0:0,0:0:0:0:
304,209,40794,2,0,L|288:292,2,79.3333309122722,2|2|2,0:0|0:0|0:0,0:0:0:0:
331,96,41139,2,0,L|350:6,2,90.6666666666667,2|2|2,0:0|0:0|0:0,0:0:0:0:
144,42,41483,6,0,P|166:130|185:219,1,181.333333333333,2|0,1:2|0:0,0:0:0:0:
187,238,42518,2,0,P|145:248|104:257,1,85.0000032424928
25,250,42862,6,0,P|34:281|47:323,2,56.6666666666667,2|2|2,0:0|0:0|0:0,0:0:0:0:
102,131,43207,2,0,P|91:97|82:63,2,67.9999979248048,2|2|2,0:0|0:0|0:0,0:0:0:0:
215,215,43552,2,0,P|225:253|237:291,2,79.3333309122722,2|2|2,0:0|0:0|0:0,0:0:0:0:
288,93,43897,2,0,P|274:49|262:6,2,90.6666666666667,2|2|2,0:0|0:0|0:0,0:0:0:0:
457,330,44241,6,0,P|485:330|512:338,2,56.6666666666667,0|0|0,1:2|0:0|0:0,0:0:0:0:
438,256,44586,2,0,P|459:238|485:226,2,56.6666666666667,2|0|0,0:0|0:0|0:0,0:0:0:0:
375,211,44931,2,0,P|380:183|392:158,2,56.6666666666667,2|0|0,0:0|0:0|0:0,0:0:0:0:
294,217,45276,2,0,P|280:192|273:164,2,56.6666666666667,2|0|0,0:0|0:0|0:0,0:0:0:0:
126,241,45621,6,0,P|97:241|70:249,2,56.6666666666667,2|0|0,1:2|0:0|0:0,0:0:0:0:
145,167,45966,2,0,P|123:149|97:137,2,56.6666666666667,2|0|0,0:0|0:0|0:0,0:0:0:0:
208,122,46311,2,0,P|202:94|190:69,2,56.6666666666667,2|0|0,0:0|0:0|0:0,0:0:0:0:
289,128,46656,2,0,P|302:103|309:75,2,56.6666666666667,2|0|0,0:0|0:0|0:0,0:0:0:0:
359,268,47000,6,0,P|376:296|400:319,2,67.9999979248048,2|0|0,1:2|0:0|0:0,0:0:0:0:
271,291,47345,2,0,P|265:324|269:357,2,67.9999979248048,2|0|0,0:0|0:0|0:0,0:0:0:0:
187,253,47690,2,0,P|161:274|143:302,2,67.9999979248048,2|0|0,0:0|0:0|0:0,0:0:0:0:
145,167,48035,2,0,P|111:167|79:177,2,67.9999979248048,2|0|0,0:0|0:0|0:0,0:0:0:0:
295,66,48379,6,0,P|311:36|319:4,2,67.9999979248048,2|0|0,1:2|0:0|0:0,0:0:0:0:
358,130,48724,2,0,P|389:118|416:98,2,67.9999979248048,2|0|0,0:0|0:0|0:0,0:0:0:0:
368,222,49069,2,0,P|399:233|432:234,2,67.9999979248048,2|0|0,0:0|0:0|0:0,0:0:0:0:
314,301,49414,2,0,P|331:329|355:352,2,67.9999979248048,2|0|0,0:0|0:0|0:0,0:0:0:0:
0,369,49759,6,0,P|37:357|77:357,2,79.3333309122722,2|0|0,1:2|0:0|0:0,0:0:0:0:
35,214,50104,2,0,P|72:229|103:255,2,79.3333309122722,2|0|0,0:0|0:0|0:0,0:0:0:0:
165,115,50449,2,0,P|183:151|191:190,2,79.3333309122722,2|0|0,0:0|0:0|0:0,0:0:0:0:
331,126,50794,2,0,P|322:165|303:200,2,79.3333309122722,2|0|0,0:0|0:0|0:0,0:0:0:0:
477,374,51138,6,0,P|439:362|399:361,2,79.3333309122722,2|0|0,1:2|0:0|0:0,0:0:0:0:
440,219,51483,2,0,P|403:234|372:259,2,79.3333309122722,2|0|0,0:0|0:0|0:0,0:0:0:0:
311,120,51828,2,0,P|292:155|285:194,2,79.3333309122722,2|0|0,0:0|0:0|0:0,0:0:0:0:
145,131,52173,2,0,P|153:169|173:204,2,79.3333309122722,2|0|0,0:0|0:0|0:0,0:0:0:0:
493,40,52517,6,0,P|448:53|402:54,2,90.6666666666667,2|0|0,1:2|0:0|0:0,0:0:0:0:
449,220,52862,2,0,P|406:202|370:172,2,90.6666666666667,2|0|0,0:0|0:0|0:0,0:0:0:0:
299,335,53207,2,0,P|277:294|269:248,2,90.6666666666667,2|0|0,0:0|0:0|0:0,0:0:0:0:
106,323,53552,2,0,P|116:278|138:237,2,90.6666666666667,2|0|0,0:0|0:0|0:0,0:0:0:0:
9,141,53897,6,0,P|51:123|87:93,2,90.6666666666667,2|0|0,1:2|0:0|0:0,0:0:0:0:
159,256,54242,2,0,P|180:215|188:169,2,90.6666666666667,2|0|0,0:0|0:0|0:0,0:0:0:0:
352,244,54587,2,0,P|341:199|319:158,2,90.6666666666667,2|0|0,0:0|0:0|0:0,0:0:0:0:
482,111,54931,2,0,P|445:83|402:66,2,90.6666666666667,2|0|0,0:0|0:0|0:0,0:0:0:0:
236,25,55276,6,0,P|253:60|260:120,1,85.0000032424928,0|0,1:2|0:0,0:0:0:0:
243,180,55506,1,2,0:0:0:0:
243,180,55621,2,0,P|221:212|172:248,1,85.0000032424928,2|0,1:2|0:0,0:0:0:0:
112,265,55851,1,2,0:0:0:0:
112,265,55966,2,0,P|73:262|17:238,1,85.0000032424928,2|0,1:2|0:0,0:0:0:0:
50,165,56195,1,2,0:0:0:0:
50,165,56310,2,0,P|88:167|144:191,1,85.0000032424928,2|0,1:2|0:0,0:0:0:0:
185,241,56540,1,2,0:0:0:0:
185,241,56655,6,0,P|202:275|209:335,1,85.0000032424928,0|0,1:2|0:0,0:0:0:0:
313,353,56885,1,2,0:0:0:0:
313,353,57000,2,0,P|295:318|288:258,1,85.0000032424928,2|0,1:2|0:0,0:0:0:0:
354,211,57230,1,2,0:0:0:0:
354,211,57345,2,0,P|371:245|378:305,1,85.0000032424928,2|0,1:2|0:0,0:0:0:0:
483,329,57575,1,2,0:0:0:0:
483,329,57690,2,0,P|465:294|458:234,1,85.0000032424928,2|0,1:2|0:0,0:0:0:0:
501,142,57920,1,2,0:0:0:0:
501,142,58035,6,0,P|466:159|406:166,1,90.6666666666667,2|0,1:2|0:0,0:0:0:0:
337,153,58264,1,2,0:0:0:0:
337,153,58379,2,0,P|304:131|268:82,1,90.6666666666667,2|0,1:2|0:0,0:0:0:0:
329,30,58609,1,2,0:0:0:0:
329,30,58724,2,0,P|361:51|397:100,1,90.6666666666667,2|0,1:2|0:0,0:0:0:0:
415,166,58954,1,2,0:0:0:0:
415,166,59069,2,0,P|412:204|388:260,1,90.6666666666667,2|0,1:2|0:0,0:0:0:0:
335,303,59299,1,2,0:0:0:0:
335,303,59414,6,0,P|300:320|239:327,1,90.6666666666667,2|0,1:2|0:0,0:0:0:0:
170,322,59644,1,2,0:0:0:0:
170,322,59759,2,0,P|137:300|101:251,1,90.6666666666667,2|0,1:2|0:0,0:0:0:0:
76,188,59989,1,2,0:0:0:0:
76,188,60104,2,0,P|78:149|102:93,1,90.6666666666667,2|0,1:2|0:0,0:0:0:0:
151,45,60333,1,2,0:0:0:0:
151,45,60448,2,0,P|185:27|246:20,2,90.6666666666667,2|2|2,1:2|0:0|0:0,0:0:0:0:
327,0,60793,5,2,1:2:0:0:
380,19,60907,1,2,1:2:0:0:
408,71,61022,1,2,1:2:0:0:
396,127,61137,1,2,1:2:0:0:
350,163,61252,1,2,1:2:0:0:
291,159,61367,1,2,1:2:0:0:
250,118,61483,5,2,1:2:0:0:
184,94,61597,1,2,1:2:0:0:
118,115,61712,1,2,1:2:0:0:
78,173,61827,1,2,1:2:0:0:
77,247,61942,1,2,1:2:0:0:
126,301,62057,1,2,1:2:0:0:
189,325,62172,6,0,L|198:228,2,56.6666666666667,2|2|2,1:2|1:2|1:2,0:0:0:0:
269,282,62517,6,0,L|264:327,2,45.3333333333333,2|2|2,1:2|1:2|1:2,0:0:0:0:
342,331,62862,6,0,L|345:297,2,33.9999989624024,2|2|2,1:2|1:2|1:2,0:0:0:0:
422,313,63207,6,0,L|419:335,2,22.6666666666667,2|2|2,1:2|1:2|1:2,0:0:0:0:
473,231,63552,6,0,P|445:223|418:214,1,56.6666666666667,6|0,1:2|0:0,0:0:0:0:
335,216,63782,1,0,0:0:0:0:
320,218,63897,2,0,P|337:171|342:155,1,56.6666666666667,2|2,0:0|0:0,0:0:0:0:
418,83,64126,1,2,0:0:0:0:
433,81,64241,2,0,P|416:128|411:143,1,56.6666666666667,2|0,0:0|0:0,0:0:0:0:
286,108,64471,1,2,0:0:0:0:
283,94,64586,2,0,P|317:78|347:83,1,56.6666666666667,2|0,0:0|0:0,0:0:0:0:
162,39,64816,1,2,0:0:0:0:
172,27,64931,6,0,P|198:79|210:190,1,135.99999584961,2|0,0:0|1:2,0:0:0:0:
72,55,65276,2,0,P|80:122|104:186,1,135.99999584961,10|2,0:0|0:0,0:0:0:0:
12,267,65621,2,0,P|95:261|141:337,1,135.99999584961,10|2,0:0|0:0,0:0:0:0:
167,362,65966,5,8,0:0:0:0:
225,306,66081,1,0,1:2:0:0:
243,227,66195,1,0,1:2:0:0:
227,137,66310,6,0,B|195:108|195:108|136:148|162:219,1,170.000006484986,6|0,0:0|0:0,0:0:0:0:
225,306,66655,2,0,P|284:314|305:323,1,67.9999979248048,0|0,1:2|0:0,0:0:0:0:
379,371,66885,1,0,1:2:0:0:
368,383,67000,6,0,P|331:267|348:191,1,170.000006484986,10|0,0:0|0:0,0:0:0:0:
417,245,67345,2,0,P|417:212|407:180,1,67.9999979248048,0|0,1:2|0:0,0:0:0:0:
354,20,67575,1,0,1:2:0:0:
342,13,67690,6,0,B|267:19|244:94|244:94|302:93,1,170.000006484986,2|0,1:2|0:0,0:0:0:0:
282,171,68035,2,0,P|225:114|129:107,1,170.000006484986,2|0,1:2|0:0,0:0:0:0:
60,110,68379,2,0,L|69:137,4,21.2500008106232,10|0|0|0|0,3:2|3:2|3:2|3:2|3:2,0:0:0:0:
139,104,68724,6,0,P|158:173|160:205,1,67.9999979248048,0|0,1:2|0:0,0:0:0:0:
10,213,68954,1,0,1:2:0:0:
22,213,69069,6,0,B|96:219|119:294|119:294|62:293,1,170.000006484986,2|0,1:2|0:0,0:0:0:0:
82,371,69414,2,0,P|139:314|235:307,1,170.000006484986,2|0,1:2|0:0,0:0:0:0:
446,208,69759,6,0,P|400:201|291:182,1,135.99999584961,10|0,0:0|0:0,0:0:0:0:
271,94,70104,2,0,P|237:99|203:103,1,67.9999979248048,0|0,1:2|0:0,0:0:0:0:
49,143,70333,1,0,1:2:0:0:
40,127,70448,6,0,P|135:148|147:245,1,170.000006484986,2|0,1:2|0:0,0:0:0:0:
231,176,70793,2,0,P|209:271|112:283,1,170.000006484986,2|0,1:2|0:0,0:0:0:0:
45,281,71138,6,0,B|15:279|15:279|68:265,2,85.0000032424928,10|2|2,0:0|0:0|0:0,0:0:0:0:
94,348,71483,1,2,0:0:0:0:
124,144,71713,1,0,1:2:0:0:
156,208,71828,6,0,P|173:296|190:415,1,170.000006484986,6|0,1:2|0:0,0:0:0:0:
267,376,72172,6,0,P|259:329|253:294,1,67.9999979248048,0|0,1:2|0:0,0:0:0:0:
430,240,72402,1,0,1:2:0:0:
442,223,72517,6,0,P|367:238|342:339,1,170.000006484986,10|0,0:0|0:0,0:0:0:0:
233,216,72862,2,0,P|291:204|314:198,1,67.9999979248048,0|0,1:2|0:0,0:0:0:0:
390,125,73092,1,0,1:2:0:0:
394,109,73207,6,0,B|339:34|243:73|366:106,1,170.000006484986,2|0,1:2|0:0,0:0:0:0:
238,14,73552,2,0,B|147:-8|99:83|214:29,1,170.000006484986,2|0,1:2|0:0,0:0:0:0:
69,47,73897,2,0,L|78:73,5,21.2500008106232,10|0|0|0|0|0,3:2|3:2|3:2|3:2|3:2|3:2,0:0:0:0:
3,124,74241,6,0,P|44:138|80:179,1,67.9999979248048,2|0,1:2|0:0,0:0:0:0:
21,286,74471,1,0,1:2:0:0:
26,272,74586,6,0,B|81:197|177:236|54:269,1,170.000006484986,2|0,1:2|0:0,0:0:0:0:
182,177,74931,2,0,B|273:155|321:246|206:192,1,170.000006484986,2|0,1:2|0:0,0:0:0:0:
233,370,75276,6,0,B|222:380|222:380|169:325|189:271,1,135.99999584961,10|0,0:0|0:0,0:0:0:0:
341,315,75621,2,0,P|307:309|272:304,1,67.9999979248048,0|0,1:2|0:0,0:0:0:0:
61,259,75851,1,0,1:2:0:0:
77,270,75966,6,0,B|108:276|108:276|270:168|270:168|268:140,2,255.000009727478,2|0|10,1:2|1:2|0:0,0:0:0:0:
101,190,76885,5,2,0:0:0:0:
371,246,77115,5,2,0:0:0:0:
450,14,77345,6,0,B|472:82|443:183|344:187|290:159|268:110|286:70|316:45|364:65,1,368.333316472372,6|0,1:2|0:0,0:0:0:0:
367,70,78035,2,0,P|376:107|327:128,1,85.0000032424928,10|0,0:0|0:0,0:0:0:0:
213,219,78379,1,0,0:0:0:0:
203,206,78494,2,0,P|186:163|188:133,1,67.9999979248048,0|2,0:2|1:2,0:0:0:0:
28,163,78724,6,0,B|-28:147|59:36|89:108,1,135.99999584961,2|0,1:2|0:0,0:0:0:0:
155,50,79069,2,0,B|121:1|260:-27|237:47,1,135.99999584961,2|0,1:0|0:0,0:0:0:0:
328,41,79414,2,0,P|327:51|322:61,4,21.2500008106232,10|0|0|0|0,3:2|3:2|3:2|3:2|3:2,0:0:0:0:
273,129,79759,6,0,L|338:147,1,67.9999979248048,2|0,1:2|0:0,0:0:0:0:
446,343,79989,1,0,1:2:0:0:
453,336,80104,6,0,B|509:320|421:209|391:281,1,135.99999584961,2|0,1:2|0:0,0:0:0:0:
326,223,80449,2,0,B|359:174|220:145|243:220,1,135.99999584961,2|0,1:0|0:0,0:0:0:0:
182,332,80793,6,0,B|235:309|298:334|298:334|309:299|236:288,1,170.000006484986,10|0,0:0|0:0,0:0:0:0:
241,202,81138,2,0,P|226:233|188:251,1,67.9999979248048,2|0,1:2|0:0,0:0:0:0:
68,264,81368,1,0,1:2:0:0:
53,247,81483,6,0,B|-9:123|9:98|57:69,1,170.000006484986,2|0,1:2|0:0,0:0:0:0:
92,0,81828,2,0,B|154:124|136:149|88:178,1,170.000006484986,2|0,1:2|0:0,0:0:0:0:
168,213,82172,2,0,P|187:207|196:195,5,21.2500008106232,10|0|0|0|0|0,3:2|3:2|3:2|3:2|3:2|3:2,0:0:0:0:
263,212,82517,6,0,P|256:178|236:152,1,67.9999979248048,8|0,0:0|0:0,0:0:0:0:
439,43,82747,1,0,1:2:0:0:
446,65,82862,6,0,P|418:172|362:218,1,170.000006484986,6|0,1:2|0:0,0:0:0:0:
243,71,83207,2,0,P|263:50|348:73,1,85.0000032424928,2|0,0:0|0:0,0:0:0:0:
500,206,83437,1,0,1:2:0:0:
487,193,83552,6,0,P|388:135|258:154,1,198.333335224787,10|0,0:0|0:0,0:0:0:0:
196,186,83897,2,0,P|166:141|153:75,1,99.1666676123937,2|0,1:2|0:0,0:0:0:0:
44,206,84126,1,0,1:2:0:0:
63,200,84241,6,0,B|149:152|241:267|166:298,1,198.333335224787,2|0,1:2|0:0,0:0:0:0:
280,214,84586,2,0,B|376:232|373:379|295:355,1,198.333335224787,2|0,1:2|0:0,0:0:0:0:
226,384,84931,2,0,P|238:356|242:351,4,21.2500008106232,10|0|2|0|2,3:2|3:2|3:2|3:2|3:2,0:0:0:0:
449,351,85276,6,0,P|419:308|345:314,1,99.1666676123937,2|0,1:2|0:0,0:0:0:0:
327,187,85506,1,0,1:2:0:0:
344,191,85621,6,0,B|398:227|477:181|461:95|406:179,1,170.000006484986,2|0,1:2|0:0,0:0:0:0:
279,24,85966,2,0,B|220:52|221:144|303:173|258:83,1,170.000006484986,2|0,1:2|0:0,0:0:0:0:
480,74,86310,6,0,P|381:27|267:27,1,198.333335224787,10|0,0:0|0:0,0:0:0:0:
214,188,86655,1,2,1:2:0:0:
195,174,86770,6,0,P|172:130|170:108,1,67.9999979248048,0|0,0:0|1:2,0:0:0:0:
9,13,87000,6,0,B|56:17|91:89|82:188,1,170.000006484986,2|0,1:2|0:0,0:0:0:0:
8,278,87345,2,0,B|-10:234|84:213|104:296,1,135.99999584961,10|0,0:0|0:0,0:0:0:0:
143,360,87690,2,0,B|113:397|48:326|110:267,1,135.99999584961,10|0,0:0|0:0,0:0:0:0:
173,97,88035,6,0,P|198:168|179:249,1,135.99999584961,14|0,0:0|0:0,0:0:0:0:
190,227,88379,1,6,1:2:0:0:
506,50,88724,6,0,P|467:81|451:84,1,56.6666666666667
280,25,88954,1,0,0:0:0:0:
280,25,89069,2,0,P|368:75|394:164,1,170,8|0,0:0|0:0,0:0:0:0:
498,284,89644,1,0,1:2:0:0:
480,276,89759,6,0,P|466:221|484:169,1,113.333333333333,0|0,1:2|0:0,0:0:0:0:
360,336,90104,2,0,P|362:273|394:210,1,113.333333333333,0|0,1:2|0:0,0:0:0:0:
210,143,90448,2,0,P|261:201|331:208,1,113.333333333333,8|0,0:0|0:0,0:0:0:0:
366,50,90793,2,0,P|331:47|283:84,1,56.6666666666667
228,48,91023,1,0,1:2:0:0:
224,66,91138,6,0,P|180:120|106:136,1,113.333333333333,0|0,1:2|0:0,0:0:0:0:
64,146,91483,2,0,P|75:92|98:77,1,56.6666666666667
22,302,91713,1,0,1:2:0:0:
22,302,91828,2,0,P|39:247|95:221,1,113.333333333333,8|0,0:2|0:0,0:0:0:0:
162,210,92172,2,0,P|162:244|147:268,1,56.6666666666667
109,8,92402,1,0,1:2:0:0:
99,27,92517,6,0,P|91:82|107:136,1,113.333333333333,0|0,1:2|0:0,0:0:0:0:
188,128,92862,2,0,P|251:148|282:105,1,113.333333333333,0|0,1:2|0:0,0:0:0:0:
388,87,93207,2,0,P|355:152|354:216,1,113.333333333333,8|0,0:0|0:0,0:0:0:0:
427,299,93552,2,0,P|409:265|376:253,1,56.6666666666667
277,229,93782,1,0,1:2:0:0:
261,243,93897,6,0,P|231:316|236:376,1,113.333333333333,0|0,1:2|0:0,0:0:0:0:
133,365,94241,2,0,P|155:315|181:309,1,56.6666666666667
48,227,94471,1,0,1:2:0:0:
48,227,94586,2,0,P|106:245|168:231,1,113.333333333333,8|0,0:0|0:0,0:0:0:0:
208,181,94931,2,0,P|173:160|145:167,1,56.6666666666667
24,20,95161,1,0,1:2:0:0:
31,36,95276,6,0,P|79:80|138:75,1,113.333333333333,0|0,1:2|0:0,0:0:0:0:
204,82,95621,2,0,P|264:40|246:-1,1,113.333333333333,0|0,1:2|0:0,0:0:0:0:
124,80,95966,2,0,P|109:156|132:239,1,113.333333333333,8|0,0:0|0:0,0:0:0:0:
0,314,96310,2,0,P|69:271|105:269,1,113.333333333333,0|0,0:0|1:2,0:0:0:0:
207,202,96655,6,0,P|175:293|175:355,1,113.333333333333,0|0,1:2|0:0,0:0:0:0:
140,379,97000,2,0,P|175:389|212:371,1,56.6666666666667
316,378,97230,1,0,1:2:0:0:
316,378,97345,2,0,P|300:332|231:293,1,113.333333333333,8|0,0:0|0:0,0:0:0:0:
173,309,97690,2,0,P|145:303|124:273,1,56.6666666666667
38,313,97920,1,0,1:2:0:0:
25,295,98035,6,0,P|9:232|22:167,1,113.333333333333,0|0,1:2|0:0,0:0:0:0:
77,63,98379,2,0,P|112:135|101:206,1,113.333333333333,0|0,1:2|0:0,0:0:0:0:
260,216,98724,2,0,P|225:143|158:150,1,113.333333333333,8|0,0:0|0:0,0:0:0:0:
200,136,99069,1,0,0:0:0:0:
202,359,99299,5,0,1:2:0:0:
214,345,99414,2,0,P|273:321|345:322,1,113.333333333333,0|0,1:2|0:0,0:0:0:0:
428,349,99759,1,0,0:0:0:0:
428,349,99874,2,0,P|458:324|461:298,1,56.6666666666667,0|0,0:0|1:2,0:0:0:0:
350,155,100104,2,0,P|388:231|435:249,1,113.333333333333,8|0,0:0|0:0,0:0:0:0:
487,238,100448,1,0,0:0:0:0:
495,129,100678,1,0,1:2:0:0:
488,110,100793,6,0,B|467:73|407:69|407:69|423:64|434:52,1,113.333333333333,0|0,1:2|0:0,0:0:0:0:
373,0,101138,2,0,B|330:-1|296:49|296:49|300:33|295:17,1,113.333333333333,0|0,1:2|0:0,0:0:0:0:
185,21,101483,2,0,P|230:89|246:158,1,113.333333333333,8|0,0:0|0:0,0:0:0:0:
138,198,101828,1,0,0:0:0:0:
138,198,101943,2,0,P|154:158|188:146,1,56.6666666666667,0|0,0:0|1:2,0:0:0:0:
412,236,102172,6,0,P|336:204|262:195,1,113.333333333333,0|0,1:2|0:0,0:0:0:0:
254,260,102517,2,0,P|226:211|232:187,1,56.6666666666667
40,130,102747,1,0,1:2:0:0:
54,144,102862,2,0,P|81:210|91:271,1,113.333333333333,8|0,0:0|0:0,0:0:0:0:
12,378,103207,2,0,P|56:330|125:344,1,113.333333333333,0|0,0:0|1:2,0:0:0:0:
182,278,103552,6,0,P|190:343|226:399,1,113.333333333333,0|0,1:2|0:0,0:0:0:0:
292,365,103897,2,0,P|284:300|248:244,1,113.333333333333,0|0,1:2|0:0,0:0:0:0:
439,285,104241,2,0,P|386:242|324:257,1,113.333333333333,8|0,0:0|0:0,0:0:0:0:
261,259,104586,1,0,0:0:0:0:
261,259,104701,2,0,P|259:229|271:206,1,56.6666666666667,0|0,0:0|1:2,0:0:0:0:
177,73,104931,6,0,P|253:116|329:120,1,113.333333333333,0|0,1:2|0:0,0:0:0:0:
345,157,105276,2,0,P|359:120|352:88,1,56.6666666666667
470,37,105506,1,0,1:2:0:0:
459,51,105621,2,0,P|436:119|432:175,1,113.333333333333,8|0,0:0|0:0,0:0:0:0:
378,240,105966,1,0,0:0:0:0:
378,240,106081,2,0,P|380:283|404:314,1,56.6666666666667,0|0,0:0|1:2,0:0:0:0:
317,357,106310,6,0,B|295:341|287:309|287:309|267:335|225:347,1,113.333333333333,0|0,1:2|0:0,0:0:0:0:
96,282,106655,2,0,B|120:288|140:314|140:314|148:282|170:266,1,113.333333333333,0|0,1:2|0:0,0:0:0:0:
276,118,107000,2,0,P|202:93|148:55,1,113.333333333333,8|0,0:0|0:0,0:0:0:0:
56,24,107345,1,0,0:0:0:0:
56,24,107460,2,0,P|83:74|84:107,1,56.6666666666667,0|0,0:0|1:2,0:0:0:0:
14,195,107690,6,0,P|115:154|162:151,1,113.333333333333,0|0,1:2|0:0,0:0:0:0:
180,203,108035,2,0,P|198:160|189:134,1,56.6666666666667
329,32,108264,1,0,1:2:0:0:
324,46,108379,2,0,P|330:93|365:152,1,113.333333333333,8|0,0:0|0:0,0:0:0:0:
433,199,108724,1,0,0:0:0:0:
433,199,108839,2,0,P|411:223|358:217,1,56.6666666666667,0|0,0:0|1:2,0:0:0:0:
319,335,109069,6,0,P|262:296|187:291,1,113.333333333333,0|0,1:2|0:0,0:0:0:0:
139,265,109414,2,0,P|85:300|108:382,1,113.333333333333,0|0,1:2|0:0,0:0:0:0:
36,210,109759,2,0,P|10:144|13:72,1,113.333333333333,8|0,0:0|0:0,0:0:0:0:
94,53,110104,2,0,P|115:28|142:6,2,56.6666666666667,0|0|0,3:2|3:2|0:0,0:0:0:0:
8,102,110448,6,0,L|243:130,1,226.666666666667,2|0,1:2|0:0,0:0:0:0:
292,78,111483,2,0,P|329:58|380:66,1,85.0000032424928
358,192,111828,6,0,L|344:137,2,56.6666666666667,2|2|2,0:0|0:0|0:0,0:0:0:0:
391,310,112172,2,0,L|410:386,2,67.9999979248048,2|2|2,0:0|0:0|0:0,0:0:0:0:
436,237,112517,2,0,L|512:217,2,79.3333309122722,2|2|2,0:0|0:0|0:0,0:0:0:0:
317,267,112862,2,0,L|216:292,2,90.6666666666667,2|2|2,0:0|0:0|0:0,0:0:0:0:
148,150,113207,6,0,L|204:374,1,226.666666666667,2|0,1:2|0:0,0:0:0:0:
206,383,114241,2,0,P|234:347|264:318,1,85.0000032424928
240,212,114586,6,0,L|294:198,2,56.6666666666667,2|2|2,0:0|0:0|0:0,0:0:0:0:
97,245,114930,2,0,L|20:264,2,67.9999979248048,2|2|2,0:0|0:0|0:0,0:0:0:0:
183,292,115275,2,0,L|202:368,2,79.3333309122722,2|2|2,0:0|0:0|0:0,0:0:0:0:
148,167,115620,2,0,L|122:66,2,90.6666666666667,2|2|2,0:0|0:0|0:0,0:0:0:0:
28,50,115966,6,0,L|252:13,1,226.666666666667,2|0,1:2|0:0,0:0:0:0:
247,22,117000,2,0,P|290:54|323:78,1,85.0000032424928
425,178,117345,6,0,L|480:164,2,56.6666666666667,2|2|2,0:0|0:0|0:0,0:0:0:0:
303,211,117689,2,0,L|227:230,2,67.9999979248048,2|2|2,0:0|0:0|0:0,0:0:0:0:
378,256,118034,2,0,L|398:332,2,79.3333309122722,2|2|2,0:0|0:0|0:0,0:0:0:0:
348,137,118379,2,0,L|323:36,2,90.6666666666667,2|2|2,0:0|0:0|0:0,0:0:0:0:
405,2,118724,6,0,L|183:49,1,226.666666666667,2|0,1:2|0:0,0:0:0:0:
179,35,119759,2,0,P|211:77|248:124,1,106.250004053116
59,267,120104,6,0,L|45:321,2,56.6666666666667,2|2|2,0:0|0:0|0:0,0:0:0:0:
138,199,120448,2,0,L|157:122,2,67.9999979248048,2|2|2,0:0|0:0|0:0,0:0:0:0:
206,308,120793,2,0,L|187:384,2,79.3333309122722,2|2|2,0:0|0:0|0:0,0:0:0:0:
322,219,121138,2,0,L|348:118,2,90.6666666666667,2|2|2,0:0|0:0|0:0,0:0:0:0:
55,54,121483,6,0,B|27:54|27:54|0:46,2,56.6666666666667,0|0|0,1:2|0:0|0:0,0:0:0:0:
74,128,121828,2,0,B|53:146|53:146|27:158,2,56.6666666666667,2|0|0,0:0|0:0|0:0,0:0:0:0:
137,173,122172,2,0,P|132:201|120:226,2,56.6666666666667,2|0|0,0:0|0:0|0:0,0:0:0:0:
218,167,122517,2,0,B|232:192|232:192|239:220,2,56.6666666666667,2|0|0,0:0|0:0|0:0,0:0:0:0:
386,143,122862,6,0,B|415:143|415:143|442:135,2,56.6666666666667,2|0|0,1:2|0:0|0:0,0:0:0:0:
367,217,123207,2,0,B|389:235|389:235|415:247,2,56.6666666666667,2|0|0,0:0|0:0|0:0,0:0:0:0:
304,262,123552,2,0,B|310:290|310:290|322:315,2,56.6666666666667,2|0|0,0:0|0:0|0:0,0:0:0:0:
223,256,123897,2,0,B|210:281|210:281|203:309,2,56.6666666666667,2|0|0,0:0|0:0|0:0,0:0:0:0:
153,116,124241,6,0,B|136:88|136:88|110:64,2,67.9999979248048,2|0|0,1:2|0:0|0:0,0:0:0:0:
241,93,124586,2,0,B|247:58|247:58|243:23,2,67.9999979248048,2|0|0,0:0|0:0|0:0,0:0:0:0:
325,131,124931,2,0,B|352:108|352:108|371:79,2,67.9999979248048,2|0|0,0:0|0:0|0:0,0:0:0:0:
367,217,125276,2,0,B|401:217|401:217|433:207,2,67.9999979248048,2|0|0,0:0|0:0|0:0,0:0:0:0:
217,318,125621,6,0,B|200:348|200:348|192:380,2,67.9999979248048,2|0|0,1:2|0:0|0:0,0:0:0:0:
154,254,125966,2,0,B|121:266|121:266|93:287,2,67.9999979248048,2|0|0,0:0|0:0|0:0,0:0:0:0:
144,162,126310,2,0,B|109:149|109:149|73:148,2,67.9999979248048,2|0|0,0:0|0:0|0:0,0:0:0:0:
198,83,126655,2,0,B|180:53|180:53|155:29,2,67.9999979248048,2|0|0,0:0|0:0|0:0,0:0:0:0:
512,15,127000,6,0,B|475:27|475:27|435:27,2,79.3333309122722,2|0|0,1:2|0:0|0:0,0:0:0:0:
477,170,127345,2,0,B|440:155|440:155|409:129,2,79.3333309122722,2|0|0,0:0|0:0|0:0,0:0:0:0:
347,269,127690,2,0,B|329:233|329:233|321:194,2,79.3333309122722,2|0|0,0:0|0:0|0:0,0:0:0:0:
181,258,128035,2,0,B|190:219|190:219|209:184,2,79.3333309122722,2|0|0,0:0|0:0|0:0,0:0:0:0:
35,10,128379,6,0,B|73:22|73:22|113:23,2,79.3333309122722,2|0|0,1:2|0:0|0:0,0:0:0:0:
72,165,128724,2,0,B|109:150|109:150|140:125,2,79.3333309122722,2|0|0,0:0|0:0|0:0,0:0:0:0:
201,264,129069,2,0,B|220:229|220:229|227:190,2,79.3333309122722,2|0|0,0:0|0:0|0:0,0:0:0:0:
366,252,129414,2,0,B|358:214|358:214|338:179,2,79.3333309122722,2|0|0,0:0|0:0|0:0,0:0:0:0:
19,344,129759,6,0,B|64:331|64:331|110:330,2,90.6666666666667,2|0|0,1:2|0:0|0:0,0:0:0:0:
63,164,130104,2,0,B|106:182|106:182|142:212,2,90.6666666666667,2|0|0,0:0|0:0|0:0,0:0:0:0:
213,49,130448,2,0,B|235:90|235:90|243:136,2,90.6666666666667,2|0|0,0:0|0:0|0:0,0:0:0:0:
406,61,130793,2,0,B|396:106|396:106|374:147,2,90.6666666666667,2|0|0,0:0|0:0|0:0,0:0:0:0:
503,243,131138,6,0,B|461:261|461:261|425:291,2,90.6666666666667,2|0|0,1:2|0:0|0:0,0:0:0:0:
353,128,131483,2,0,B|332:169|332:169|324:215,2,90.6666666666667,2|0|0,0:0|0:0|0:0,0:0:0:0:
160,140,131828,2,0,B|171:185|171:185|193:226,2,90.6666666666667,2|0|0,0:0|0:0|0:0,0:0:0:0:
30,273,132172,2,0,B|67:301|67:301|110:318,2,90.6666666666667,2|0|0,0:0|0:0|0:0,0:0:0:0:
276,359,132517,6,0,B|259:324|259:324|252:264,1,85.0000032424928,0|0,1:2|0:0,0:0:0:0:
269,204,132747,1,2,0:0:0:0:
269,204,132862,2,0,B|291:172|291:172|340:136,1,85.0000032424928,2|0,1:2|0:0,0:0:0:0:
400,119,133092,1,2,0:0:0:0:
400,119,133207,2,0,B|439:122|439:122|495:146,1,85.0000032424928,2|0,1:2|0:0,0:0:0:0:
462,219,133437,1,2,0:0:0:0:
462,219,133552,2,0,B|424:217|424:217|368:193,1,85.0000032424928,2|0,1:2|0:0,0:0:0:0:
327,143,133782,1,2,0:0:0:0:
327,143,133897,6,0,B|310:109|310:109|303:49,1,85.0000032424928,0|0,1:2|0:0,0:0:0:0:
199,31,134126,1,2,0:0:0:0:
199,31,134241,2,0,B|217:66|217:66|224:126,1,85.0000032424928,2|0,1:2|0:0,0:0:0:0:
158,173,134471,1,2,0:0:0:0:
158,173,134586,2,0,B|141:139|141:139|134:79,1,85.0000032424928,2|0,1:2|0:0,0:0:0:0:
29,55,134816,1,2,0:0:0:0:
29,55,134931,2,0,B|47:90|47:90|54:150,1,85.0000032424928,2|0,1:2|0:0,0:0:0:0:
11,242,135161,1,2,0:0:0:0:
11,242,135276,6,0,B|46:225|46:225|106:218,1,90.6666666666667,2|0,1:2|0:0,0:0:0:0:
175,231,135506,1,2,0:0:0:0:
175,231,135621,2,0,B|208:253|208:253|244:302,1,90.6666666666667,2|0,1:2|0:0,0:0:0:0:
183,354,135851,1,2,0:0:0:0:
183,354,135966,2,0,B|151:333|151:333|115:284,1,90.6666666666667,2|0,1:2|0:0,0:0:0:0:
97,218,136195,1,2,0:0:0:0:
97,218,136310,2,0,B|100:180|100:180|124:124,1,90.6666666666667,2|0,1:2|0:0,0:0:0:0:
177,81,136540,1,2,0:0:0:0:
177,81,136655,6,0,B|212:64|212:64|273:57,1,90.6666666666667,2|0,1:2|0:0,0:0:0:0:
342,62,136885,1,2,0:0:0:0:
342,62,137000,2,0,B|375:84|375:84|411:133,1,90.6666666666667,2|0,1:2|0:0,0:0:0:0:
436,196,137230,1,2,0:0:0:0:
436,196,137345,2,0,B|434:235|434:235|410:291,1,90.6666666666667,2|0,1:2|0:0,0:0:0:0:
361,339,137575,1,2,0:0:0:0:
361,339,137690,2,0,B|327:357|327:357|266:364,2,90.6666666666667,2|2|2,1:2|0:0|0:0,0:0:0:0:
185,384,138035,5,2,1:2:0:0:
132,365,138149,1,2,1:2:0:0:
104,313,138264,1,2,1:2:0:0:
116,257,138379,1,2,1:2:0:0:
162,221,138494,1,2,1:2:0:0:
221,225,138609,1,2,1:2:0:0:
262,266,138724,5,2,1:2:0:0:
328,290,138839,1,2,1:2:0:0:
394,269,138954,1,2,1:2:0:0:
434,211,139069,1,2,1:2:0:0:
435,137,139184,1,2,1:2:0:0:
386,83,139299,1,2,1:2:0:0:
323,59,139414,6,0,L|314:156,2,56.6666666666667,2|2|2,1:2|1:2|1:2,0:0:0:0:
243,102,139759,6,0,L|248:57,2,45.3333333333333,2|2|2,1:2|1:2|1:2,0:0:0:0:
170,53,140104,6,0,L|167:87,2,33.9999989624024,2|2|2,1:2|1:2|1:2,0:0:0:0:
90,71,140448,6,0,L|93:49,2,22.6666666666667,2|2|2,1:2|1:2|1:2,0:0:0:0:
31,139,140793,6,0,L|44:196,1,56.6666666666667,6|0,1:2|0:0,0:0:0:0:
16,290,141023,1,0,0:0:0:0:
31,296,141138,2,0,L|106:280,1,56.6666666666667,2|2,0:0|0:0,0:0:0:0:
203,189,141368,1,2,0:0:0:0:
188,183,141483,2,0,L|113:199,1,56.6666666666667,2|0,0:0|0:0,0:0:0:0:
170,345,141713,1,2,0:0:0:0:
183,330,141828,2,0,L|170:273,1,56.6666666666667,2|0,0:0|0:0,0:0:0:0:
285,288,142058,1,2,0:0:0:0:
272,273,142173,2,0,L|285:216,1,56.6666666666667,2|0,0:0|0:0,0:0:0:0:
306,72,142402,5,0,1:2:0:0:
349,138,142517,2,0,P|382:173|487:173,1,135.99999584961,10|2,0:0|0:0,0:0:0:0:
499,111,142862,2,0,P|466:76|361:76,1,135.99999584961,10|2,0:0|0:0,0:0:0:0:
210,173,143207,5,8,0:0:0:0:
122,105,143322,1,0,1:2:0:0:
49,155,143437,1,0,1:2:0:0:
83,31,143552,6,0,B|68:137|68:137|145:143,1,170.000006484986,6|0,1:2|0:0,0:0:0:0:
210,173,143897,1,10,0:0:0:0:
210,173,144012,2,0,B|216:105|216:105|189:100,1,85.0000032424928,2|0,0:0|0:0,0:0:0:0:
141,226,144241,1,2,0:0:0:0:
141,226,144356,2,0,B|135:294|135:294|162:299,1,85.0000032424928,2|0,0:0|0:0,0:0:0:0:
299,256,144586,1,10,0:0:0:0:
299,256,144701,2,0,B|230:250|230:250|226:277,1,85.0000032424928,2|0,0:0|0:0,0:0:0:0:
128,371,144931,5,2,1:2:0:0:
128,371,145046,2,0,B|196:377|196:377|200:350,1,85.0000032424928,2|0,0:0|0:0,0:0:0:0:
282,364,145276,1,2,0:0:0:0:
282,364,145391,2,0,B|288:296|288:296|261:291,1,85.0000032424928,2|0,0:0|0:0,0:0:0:0:
276,219,145621,1,2,0:0:0:0:
276,219,145736,2,0,B|208:213|208:213|203:240,1,85.0000032424928,2|0,0:0|1:2,0:0:0:0:
122,226,145966,1,10,0:0:0:0:
122,226,146081,2,0,B|116:293|116:293|143:298,1,85.0000032424928,2|0,0:0|0:0,0:0:0:0:
165,132,146310,6,0,B|38:112|38:112|107:144,1,170.000006484986,2|0,1:2|0:0,0:0:0:0:
38,239,146655,1,10,0:0:0:0:
38,239,146770,2,0,L|131:224,1,85.0000032424928,2|0,0:0|0:0,0:0:0:0:
215,105,147000,1,2,0:0:0:0:
215,105,147115,2,0,L|181:193,1,85.0000032424928,2|0,0:0|0:0,0:0:0:0:
246,331,147345,1,10,0:0:0:0:
246,331,147460,2,0,L|186:257,1,85.0000032424928,2|0,0:0|0:0,0:0:0:0:
72,358,147690,5,2,1:2:0:0:
72,358,147805,2,0,P|115:341|177:343,1,85.0000032424928,2|0,0:0|0:0,0:0:0:0:
331,311,148035,6,0,L|324:367,1,56.6666666666667,8|0,0:2|0:0,0:0:0:0:
348,176,148379,2,0,L|341:232,1,56.6666666666667,2|0,1:2|0:0,0:0:0:0:
363,39,148724,2,0,L|356:95,1,56.6666666666667,10|0,1:2|0:0,0:0:0:0:
348,176,149069,6,0,B|222:145|222:145|182:192,1,170.000006484986,4|0,1:2|0:0,0:0:0:0:
128,226,149414,1,10,0:0:0:0:
128,226,149529,2,0,L|109:132,1,85.0000032424928,2|0,0:0|0:0,0:0:0:0:
19,136,149759,1,2,0:0:0:0:
19,136,149874,2,0,L|109:166,1,85.0000032424928,2|0,0:0|0:0,0:0:0:0:
155,80,150104,1,10,0:0:0:0:
155,80,150219,2,0,L|83:143,1,85.0000032424928,2|0,0:0|0:0,0:0:0:0:
18,272,150448,5,2,1:2:0:0:
18,272,150563,2,0,L|122:251,1,85.0000032424928,2|0,0:0|0:0,0:0:0:0:
244,303,150793,1,10,0:0:0:0:
244,303,150908,2,0,L|140:324,1,85.0000032424928,2|0,0:0|0:0,0:0:0:0:
251,225,151138,1,0,0:0:0:0:
251,225,151253,2,0,L|355:204,1,85.0000032424928,0|0,0:0|1:2,0:0:0:0:
477,256,151483,1,10,0:0:0:0:
477,256,151598,2,0,L|373:277,1,85.0000032424928,2|0,0:0|0:0,0:0:0:0:
396,163,151828,6,0,B|418:168|418:168|346:76|346:76|374:85,1,170.000006484986,2|0,1:2|0:0,0:0:0:0:
489,19,152172,1,10,0:0:0:0:
489,19,152287,2,0,B|479:71|479:71|440:93,1,85.0000032424928,2|0,0:0|0:0,0:0:0:0:
269,79,152517,1,2,0:0:0:0:
269,79,152632,2,0,B|279:27|279:27|318:5,1,85.0000032424928,2|0,0:0|0:0,0:0:0:0:
374,85,152862,1,10,0:0:0:0:
374,85,152977,2,0,B|364:136|364:136|325:159,1,85.0000032424928,2|0,0:0|0:0,0:0:0:0:
258,248,153207,5,2,1:2:0:0:
258,248,153322,2,0,L|245:150,1,85.0000032424928,2|0,0:0|0:0,0:0:0:0:
177,28,153552,6,0,P|151:30|122:59,1,56.6666666666667,10|0,0:0|0:0,0:0:0:0:
31,40,153897,6,0,P|62:87|71:152,1,85.0000032424928,2|0,0:0|0:0,0:0:0:0:
98,233,154126,1,2,1:2:0:0:
25,252,154241,2,0,B|8:277|-10:229|42:189,2,85.0000032424928,10|2|2,0:0|0:0|0:0,0:0:0:0:
183,221,154586,6,0,B|154:329|154:329|77:310,1,170.000006484986,6|0,1:2|0:0,0:0:0:0:
196,143,154931,2,0,B|261:160|261:160|255:201,1,85.0000032424928,10|2,0:0|0:0,0:0:0:0:
350,249,155161,1,0,0:0:0:0:
350,249,155276,2,0,B|285:232|285:232|291:191,1,85.0000032424928,2|2,0:0|0:0,0:0:0:0:
432,217,155506,1,0,0:0:0:0:
432,217,155621,2,0,B|497:234|497:234|491:275,1,85.0000032424928,10|2,0:0|0:0,0:0:0:0:
398,361,155851,5,0,0:0:0:0:
398,361,155966,2,0,B|415:296|415:296|456:302,1,85.0000032424928,2|2,1:2|0:0,0:0:0:0:
359,171,156195,1,0,0:0:0:0:
359,171,156310,2,0,B|342:106|342:106|301:112,1,85.0000032424928,10|2,0:0|0:0,0:0:0:0:
476,62,156540,1,0,0:0:0:0:
476,62,156655,2,0,B|493:-3|493:-3|534:3,1,85.0000032424928,2|2,0:0|0:0,0:0:0:0:
359,171,156885,1,0,1:2:0:0:
359,171,157000,2,0,B|291:189|291:189|300:229,1,85.0000032424928,10|2,0:0|0:0,0:0:0:0:
184,135,157230,5,0,0:0:0:0:
184,135,157345,2,0,B|51:112|51:112|150:79,1,170.000006484986,2|0,1:2|0:0,0:0:0:0:
243,62,157690,2,0,B|270:114|270:114|267:145,1,85.0000032424928,10|2,0:0|0:0,0:0:0:0:
208,213,157920,1,0,0:0:0:0:
208,213,158035,2,0,B|181:161|181:161|184:130,1,85.0000032424928,2|2,0:0|0:0,0:0:0:0:
293,224,158264,1,0,0:0:0:0:
293,224,158379,2,0,B|345:197|345:197|376:200,1,85.0000032424928,10|2,0:0|0:0,0:0:0:0:
495,323,158609,1,0,0:0:0:0:
495,323,158724,2,0,P|446:319|412:299,1,85.0000032424928,2|2,1:2|0:0,0:0:0:0:
243,291,158954,5,0,0:0:0:0:
243,291,159069,2,0,L|228:352,1,56.6666666666667,10|0,0:0|0:0,0:0:0:0:
136,379,159414,2,0,L|151:318,1,56.6666666666667,2|0,1:2|0:0,0:0:0:0:
75,266,159759,2,0,L|60:327,1,56.6666666666667,10|0,1:2|0:0,0:0:0:0:
187,112,160104,6,0,B|219:168|219:168|176:246|176:246|146:240,1,170.000006484986,6|0,1:2|0:0,0:0:0:0:
21,213,160448,2,0,B|60:187|60:187|130:198,1,85.0000032424928,10|2,0:0|0:0,0:0:0:0:
187,112,160678,1,0,0:0:0:0:
187,112,160793,2,0,B|233:117|233:117|280:170,1,85.0000032424928,2|2,0:0|0:0,0:0:0:0:
376,139,161023,1,0,0:0:0:0:
376,139,161138,2,0,B|405:177|405:177|409:243,1,85.0000032424928,10|2,0:0|0:0,0:0:0:0:
261,258,161368,5,0,0:0:0:0:
261,258,161483,2,0,L|339:199,1,85.0000032424928,2|2,1:2|0:0,0:0:0:0:
420,346,161713,1,0,0:0:0:0:
420,346,161828,2,0,L|361:268,1,85.0000032424928,10|2,0:0|0:0,0:0:0:0:
475,162,162057,1,0,0:0:0:0:
475,162,162172,2,0,L|397:221,1,85.0000032424928,2|2,0:0|0:0,0:0:0:0:
325,71,162402,1,0,1:2:0:0:
325,71,162517,2,0,L|384:149,1,85.0000032424928,10|2,0:0|0:0,0:0:0:0:
475,162,162747,5,0,0:0:0:0:
475,162,162862,2,0,B|498:192|498:192|342:124,1,170.000006484986,2|0,1:2|0:0,0:0:0:0:
328,206,163207,2,0,L|224:239,1,85.0000032424928,10|2,0:0|0:0,0:0:0:0:
173,282,163437,1,0,0:0:0:0:
173,282,163552,2,0,L|69:249,1,85.0000032424928,2|2,0:0|0:0,0:0:0:0:
6,191,163782,1,0,0:0:0:0:
6,191,163897,2,0,L|110:158,1,85.0000032424928,10|2,0:0|0:0,0:0:0:0:
228,119,164126,1,0,0:0:0:0:
228,119,164241,2,0,L|124:86,1,85.0000032424928,2|2,1:2|0:0,0:0:0:0:
407,95,164471,5,0,0:0:0:0:
407,95,164586,2,0,P|370:174|317:211,1,141.666666666667,10|0,0:0|0:0,0:0:0:0:
285,316,164931,2,0,P|223:283|197:218,1,141.666666666667,10|0,0:0|0:0,0:0:0:0:
27,306,165276,6,0,P|54:309|80:329,1,45.3333333333333,14|0,0:0|0:0,0:0:0:0:
70,318,165621,6,0,P|62:256|51:188,1,113.333333333333,4|0,1:2|0:0,0:0:0:0:
0,145,165966,1,10,0:0:0:0:
44,110,166080,1,0,0:0:0:0:
99,108,166195,1,0,0:0:0:0:
146,139,166310,1,2,0:0:0:0:
196,161,166424,1,0,0:0:0:0:
249,144,166539,1,0,0:0:0:0:
276,95,166655,2,0,L|270:28,1,56.6666666666667,10|0,0:0|0:0,0:0:0:0:
361,14,166885,1,0,0:0:0:0:
368,27,167000,6,0,L|381:157,1,113.333333333333,2|0,1:2|0:0,0:0:0:0:
451,227,167345,1,10,0:0:0:0:
413,186,167459,1,0,0:0:0:0:
358,178,167574,1,0,0:0:0:0:
311,207,167689,1,2,0:0:0:0:
293,260,167804,1,0,0:0:0:0:
313,312,167919,1,0,0:0:0:0:
361,339,168035,2,0,L|352:275,1,56.6666666666667,10|0,0:0|0:0,0:0:0:0:
221,199,168264,1,0,0:0:0:0:
214,216,168379,6,0,L|98:242,1,113.333333333333,2|0,1:2|0:0,0:0:0:0:
75,317,168724,1,10,0:0:0:0:
30,282,168838,1,0,0:0:0:0:
10,230,168953,1,0,0:0:0:0:
17,174,169068,1,0,0:0:0:0:
52,130,169183,1,0,0:0:0:0:
104,109,169298,1,0,0:0:0:0:
159,117,169414,2,0,L|170:191,1,56.6666666666667,10|0,0:0|0:0,0:0:0:0:
273,273,169644,1,0,0:0:0:0:
263,276,169759,6,0,P|248:190|238:136,1,113.333333333333,0|0,1:2|0:0,0:0:0:0:
291,52,170104,1,10,0:0:0:0:
334,16,170218,1,0,0:0:0:0:
389,11,170333,1,0,0:0:0:0:
438,38,170448,1,0,0:0:0:0:
464,88,170563,1,0,0:0:0:0:
457,143,170678,1,0,0:0:0:0:
421,186,170793,2,0,L|342:180,1,56.6666666666667,10|0,0:0|0:0,0:0:0:0:
272,244,171023,1,0,0:0:0:0:
272,256,171138,6,0,B|276:294|276:294|295:210,1,113.333333333333,2|0,1:2|0:0,0:0:0:0:
217,183,171483,1,10,0:0:0:0:
178,223,171597,1,0,0:0:0:0:
124,237,171712,1,0,0:0:0:0:
71,220,171827,1,2,0:0:0:0:
35,177,171942,1,0,0:0:0:0:
28,122,172057,1,0,0:0:0:0:
51,71,172172,2,0,L|127:78,1,56.6666666666667,10|0,0:0|0:0,0:0:0:0:
178,23,172402,1,0,0:0:0:0:
191,22,172517,6,0,L|176:164,1,113.333333333333,2|0,1:2|0:0,0:0:0:0:
245,219,172862,1,10,0:0:0:0:
208,177,172976,1,0,0:0:0:0:
153,172,173091,1,0,0:0:0:0:
110,207,173206,1,0,0:0:0:0:
102,262,173321,1,0,0:0:0:0:
135,306,173436,1,0,1:2:0:0:
189,316,173552,2,0,L|196:245,1,56.6666666666667,10|0,0:0|0:0,0:0:0:0:
324,230,173782,1,0,0:0:0:0:
329,215,173897,6,0,L|212:207,1,113.333333333333,2|0,1:2|0:0,0:0:0:0:
167,138,174241,1,10,0:0:0:0:
187,85,174355,1,0,0:0:0:0:
229,48,174470,1,0,0:0:0:0:
283,35,174585,1,0,0:0:0:0:
338,48,174700,1,0,0:0:0:0:
380,86,174815,1,0,0:0:0:0:
400,138,174931,2,0,L|465:131,1,56.6666666666667,10|0,0:0|0:0,0:0:0:0:
512,200,175161,1,0,0:0:0:0:
510,218,175276,6,0,L|382:237,1,113.333333333333,2|0,1:2|0:0,0:0:0:0:
341,295,175621,5,10,0:0:0:0:
292,321,175736,1,0,0:0:0:0:
238,308,175851,1,0,0:0:0:0:
206,262,175966,1,0,0:0:0:0:
213,207,176081,1,0,0:0:0:0:
208,152,176195,1,0,1:2:0:0:
168,114,176310,1,10,0:0:0:0:
113,112,176425,1,0,0:0:0:0:
70,147,176540,1,0,0:0:0:0:
62,202,176655,6,0,P|146:189|253:175,2,170,6|8|0,1:2|0:0|0:0,0:0:0:0:
62,202,177690,2,0,P|77:251|97:323,1,113.333333333333,8|0,0:0|0:0,0:0:0:0:
171,384,178035,6,0,P|183:304|210:186,1,170,0|8,1:2|0:0,0:0:0:0:
201,216,178724,2,0,P|164:205|137:200,1,56.6666666666667
112,124,178954,1,0,1:2:0:0:
119,110,179069,2,0,P|156:120|233:143,1,113.333333333333,8|0,0:0|0:0,0:0:0:0:
345,48,179414,6,0,P|317:123|285:228,2,170,2|8|0,1:2|0:0|0:0,0:0:0:0:
345,48,180448,2,0,P|388:63|455:89,1,113.333333333333,8|0,0:0|0:0,0:0:0:0:
474,183,180793,6,0,P|392:153|298:121,2,170,0|8|0,1:2|0:0|0:0,0:0:0:0:
238,346,181713,1,0,1:2:0:0:
229,336,181828,2,0,P|245:294|275:210,1,113.333333333333,8|0,0:0|0:0,0:0:0:0:
70,135,182172,6,0,P|173:212|167:280,2,170,2|8|0,1:2|0:0|0:0,0:0:0:0:
69,136,183207,2,0,P|56:43|52:13,1,113.333333333333
203,75,183552,6,0,P|187:158|175:242,1,170,0|8,1:2|0:0,0:0:0:0:
176,243,184241,2,0,P|223:248|273:262,1,56.6666666666667
225,325,184471,1,0,1:2:0:0:
213,335,184586,2,0,P|166:330|78:317,1,113.333333333333,8|0,0:0|0:0,0:0:0:0:
50,251,184931,6,0,P|45:180|31:61,2,170,2|8|0,1:2|0:0|0:0,0:0:0:0:
50,251,185966,2,0,P|105:241|197:232,1,113.333333333333,8|0,0:0|0:0,0:0:0:0:
245,270,186310,6,0,P|232:205|220:141,1,113.333333333333,0|0,1:2|0:0,0:0:0:0:
286,66,186655,2,0,P|230:76|110:102,1,170,8|0,0:0|0:0,0:0:0:0:
40,174,187230,1,0,1:2:0:0:
25,176,187345,6,0,B|51:252|51:252|163:75|163:75|80:122,1,340,12|0,0:0|0:0,0:0:0:0:
