osu file format v14

[General]
AudioFilename: audio.mp3
AudioLeadIn: 0
PreviewTime: 33079
Countdown: 0
SampleSet: Soft
StackLeniency: 0
Mode: 0
LetterboxInBreaks: 0
WidescreenStoryboard: 1

[Editor]
DistanceSpacing: 1.5
BeatDivisor: 6
GridSize: 32
TimelineZoom: 4.199998

[Metadata]
Title:HEATSEEKER
TitleUnicode:HEATSEEKER
Artist:REAPER
ArtistUnicode:REAPER
Creator:keevy
Version:DETERMINATION
Source:
Tags:electronic english instrumental edm dance music monstercat dnb drum and n bass drumstep reapernoises anishina kodoku loreley tatemae sherrycherry RENEGADE
BeatmapID:3554263
BeatmapSetID:1739056

[Difficulty]
HPDrainRate:4
CircleSize:4
OverallDifficulty:9
ApproachRate:9.2
SliderMultiplier:1.8
SliderTickRate:1

[Events]
//Background and Video events
0,0,"bg.jpg",0,0
//Break Periods
//Storyboard Layer 0 (Background)
//Storyboard Layer 1 (Fail)
//Storyboard Layer 2 (Pass)
//Storyboard Layer 3 (Foreground)
//Storyboard Layer 4 (Overlay)
//Storyboard Sound Samples

[TimingPoints]
104,344.827586206897,4,2,1,40,1,0
1368,-100,4,2,0,5,0,0
1483,-125,4,2,1,40,0,0
5621,-100,4,2,1,40,0,0
7000,-125,4,2,1,40,0,0
10793,-66.6666666666667,4,2,1,40,0,0
11138,-83.3333333333333,4,2,1,55,0,0
27690,-83.3333333333333,4,2,1,60,0,0
30448,-83.3333333333333,4,2,1,65,0,0
32517,-71.4285714285714,4,2,1,70,0,0
33207,-1000,4,2,1,66,0,0
44241,-100,4,2,1,66,0,0
45621,-90.9090909090909,4,2,1,66,0,0
47000,-83.3333333333333,4,2,1,66,0,0
48379,-76.9230769230769,4,2,1,66,0,0
49759,-71.4285714285714,4,2,1,66,0,0
51138,-66.6666666666667,4,2,1,66,0,0
52517,-62.5,4,2,1,66,0,0
53897,-58.8235294117647,4,2,1,66,0,0
55276,-55.5555555555556,4,2,1,70,0,0
56655,-52.6315789473684,4,2,1,70,0,0
60793,-100,4,2,1,65,0,0
62172,-100,4,2,1,75,0,0
62517,-100,4,2,1,65,0,0
62862,-100,4,2,1,55,0,0
63207,-100,4,2,1,45,0,0
63552,-66.6666666666667,4,2,1,50,0,0
65276,-66.6666666666667,4,2,1,60,0,0
65621,-58.8235294117647,4,2,1,65,0,0
65966,-52.6315789473684,4,2,1,70,0,0
66310,-50,4,2,1,85,0,0
66655,-58.8235294117647,4,2,1,85,0,0
67000,-50,4,2,1,85,0,0
67345,-58.8235294117647,4,2,1,85,0,0
67690,-45.4545454545455,4,2,1,85,0,0
68379,-33.3333333333333,4,2,1,85,0,0
68724,-58.8235294117647,4,2,1,85,0,0
69069,-45.4545454545455,4,2,1,85,0,0
69759,-58.8235294117647,4,2,1,85,0,0
70448,-45.4545454545455,4,2,1,85,0,0
71138,-58.8235294117647,4,2,1,85,0,0
71828,-50,4,2,1,85,0,0
72172,-58.8235294117647,4,2,1,85,0,0
72517,-50,4,2,1,85,0,0
72862,-58.8235294117647,4,2,1,85,0,0
73207,-45.4545454545455,4,2,1,85,0,0
73897,-33.3333333333333,4,2,1,85,0,0
74241,-58.8235294117647,4,2,1,85,0,0
74586,-45.4545454545455,4,2,1,85,0,0
75276,-58.8235294117647,4,2,1,85,0,0
75621,-58.8235294117647,4,2,1,85,0,0
75966,-45.4545454545455,4,2,1,85,0,0
76655,-66.6666666666667,4,2,1,85,0,0
76885,-100,4,2,1,85,0,0
77115,-133.333333333333,4,2,1,85,0,0
77345,-100,4,2,1,85,0,0
78494,-66.6666666666667,4,2,1,85,0,0
78724,-45.4545454545455,4,2,1,85,0,0
79069,-38.4615384615385,4,2,1,85,0,0
79414,-66.6666666666667,4,2,1,85,0,0
79759,-43.4782608695652,4,2,1,85,0,0
80104,-57.1428571428571,4,2,1,85,0,0
80448,-54.054054054054,4,2,1,85,0,0
80793,-37.037037037037,4,2,1,85,0,0
81138,-50,4,2,1,85,0,0
82172,-33.3333333333333,4,2,1,85,0,0
82517,-50,4,2,1,85,0,0
82862,-40,4,2,1,85,0,0
83897,-45.4545454545455,4,2,1,85,0,0
84241,-50,4,2,1,85,0,0
84586,-35.7142857142857,4,2,1,85,0,0
85276,-66.6666666666667,4,2,1,85,0,0
85621,-50,4,2,1,85,0,0
86310,-35.7142857142857,4,2,1,85,0,0
86655,-50,4,2,1,85,0,0
87345,-41.6666666666667,4,2,1,85,0,0
87690,-50,4,2,1,85,0,0
88035,-100,4,2,1,85,0,0
88379,-133.333333333333,4,2,1,65,0,0
88724,-80,4,2,1,65,0,0
91138,-66.6666666666667,4,2,1,65,0,0
91828,-100,4,2,1,65,0,0
104931,-100,4,2,1,70,0,0
107689,-100,4,2,1,75,0,0
109069,-80,4,2,1,75,0,0
109758,-80,4,2,1,70,0,0
110104,-66.6666666666667,4,2,1,70,0,0
110448,-1000,4,2,1,66,0,0
121483,-100,4,2,1,66,0,0
122862,-90.9090909090909,4,2,1,66,0,0
124241,-83.3333333333333,4,2,1,66,0,0
125621,-76.9230769230769,4,2,1,66,0,0
127000,-71.4285714285714,4,2,1,66,0,0
128379,-66.6666666666667,4,2,1,66,0,0
129759,-62.5,4,2,1,66,0,0
131138,-58.8235294117647,4,2,1,66,0,0
132517,-55.5555555555556,4,2,1,70,0,0
133897,-52.6315789473684,4,2,1,70,0,0
138034,-52.6315789473684,4,2,1,65,0,0
139413,-52.6315789473684,4,2,1,75,0,0
139758,-52.6315789473684,4,2,1,65,0,0
140103,-52.6315789473684,4,2,1,55,0,0
140448,-52.6315789473684,4,2,1,45,0,0
140793,-52.6315789473684,4,2,1,50,0,0
142517,-52.6315789473684,4,2,1,60,0,0
142862,-52.6315789473684,4,2,1,65,0,0
143207,-52.6315789473684,4,2,1,70,0,0
143552,-50,4,2,1,85,0,0
143897,-66.6666666666667,4,2,1,85,0,0
146310,-50,4,2,1,85,0,0
146655,-66.6666666666667,4,2,1,85,0,0
148035,-45.4545454545455,4,2,1,85,0,0
149069,-50,4,2,1,85,0,0
149414,-66.6666666666667,4,2,1,85,0,0
151828,-50,4,2,1,85,0,0
152172,-66.6666666666667,4,2,1,85,0,0
153552,-45.4545454545455,4,2,1,85,0,0
153897,-66.6666666666667,4,2,1,85,0,0
154241,-100,4,2,1,85,0,0
154471,-133.333333333333,4,2,1,85,0,0
154586,-43.4782608695652,4,2,1,85,0,0
155046,-66.6666666666667,4,2,1,85,0,0
157345,-45.4545454545455,4,2,1,85,0,0
157805,-58.8235294117647,4,2,1,85,0,0
159069,-45.4545454545455,4,2,1,85,0,0
163207,-55.5555555555556,4,2,1,85,0,0
164586,-55.5555555555556,4,2,1,80,0,0
165276,-133.333333333333,4,2,1,80,0,0
165621,-133.333333333333,4,2,1,60,0,0
168379,-66.6666666666667,4,2,1,60,0,0
168724,-133.333333333333,4,2,1,60,0,0
171138,-66.6666666666667,4,2,1,60,0,0
171483,-133.333333333333,4,2,1,60,0,0
173897,-66.6666666666667,4,2,1,60,0,0
174241,-133.333333333333,4,2,1,60,0,0
176655,-133.333333333333,4,2,1,45,0,0
181828,-250,4,2,1,45,0,0
184586,-133.333333333333,4,2,1,45,0,0
187345,-333.333333333333,4,2,1,45,0,0

[Colours]
Combo1 : 255,255,34
Combo2 : 67,133,133
Combo3 : 205,205,205

[HitObjects]
256,192,104,12,0,1368,0:0:0:0:
63,320,1483,6,0,B|81:343|81:343|45:320|45:320|54:290,1,96,0|0,3:2|0:0,0:0:0:0:
137,248,1828,2,0,B|147:220|147:220|146:262|146:262|115:270,1,96,0|0,3:2|0:0,0:0:0:0:
38,222,2172,2,0,B|8:226|8:226|45:206|45:206|68:229,1,96,0|0,3:2|0:0,0:0:0:0:
63,320,2517,2,0,B|81:343|81:343|45:320|45:320|54:290,1,96,0|0,3:2|0:0,0:0:0:0:
229,227,2862,6,0,B|210:250|210:250|246:227|246:227|237:197,1,96,0|0,3:2|0:0,0:0:0:0:
155,155,3207,2,0,B|144:127|144:127|145:169|145:169|176:177,1,96,0|0,3:2|0:0,0:0:0:0:
254,129,3552,2,0,B|283:133|283:133|246:113|246:113|224:136,1,96,0|0,3:2|0:0,0:0:0:0:
229,227,3897,2,0,B|210:250|210:250|246:227|246:227|237:197,1,96,0|0,3:2|0:0,0:0:0:0:
33,154,4241,6,0,B|51:177|51:177|15:154|15:154|24:124,1,96,0|0,3:2|0:0,0:0:0:0:
107,82,4586,2,0,B|117:54|117:54|116:96|116:96|85:104,1,96,0|0,3:2|0:0,0:0:0:0:
8,56,4931,2,0,B|-21:60|-21:60|15:40|15:40|38:63,1,96,0|0,3:2|0:0,0:0:0:0:
33,154,5276,2,0,B|51:177|51:177|15:154|15:154|24:124,1,96,0|0,3:2|0:0,0:0:0:0:
183,46,5621,6,0,B|183:21|183:21|55:265|55:265|278:162|278:162|140:143,1,660,2|0,3:2|0:0,0:0:0:0:
165,146,7000,6,0,B|125:171|125:171|171:155,1,96,0|0,3:2|0:0,0:0:0:0:
234,199,7345,2,0,B|235:246|235:246|244:198,1,96,0|0,3:2|0:0,0:0:0:0:
319,187,7690,2,0,B|350:222|350:222|326:179,1,96,0|0,3:2|0:0,0:0:0:0:
355,110,8035,2,0,B|401:116|401:116|356:99,1,96,0|0,3:2|0:0,0:0:0:0:
240,93,8379,6,0,B|280:68|280:68|234:84,1,96,0|0,3:2|0:0,0:0:0:0:
171,40,8724,2,0,B|169:-7|169:-7|160:40,1,96,0|0,3:2|0:0,0:0:0:0:
86,52,9069,2,0,B|54:16|54:16|78:59,1,96,0|0,3:2|0:0,0:0:0:0:
50,129,9414,2,0,B|3:122|3:122|48:139,1,96,0|0,3:2|0:0,0:0:0:0:
164,351,9759,6,0,B|117:367|117:367|157:342,1,96,0|0,3:2|0:0,0:0:0:0:
154,263,10104,2,0,B|108:245|108:245|155:252,1,96,0|0,3:2|0:0,0:0:0:0:
194,186,10448,2,0,B|170:143|170:143|201:178,1,96,0|0,3:2|0:0,0:0:0:0:
418,333,10793,6,0,B|411:361|411:361|347:361|347:361|311:268,1,180.000006866455,2|0,3:2|0:0,0:0:0:0:
278,207,11138,6,0,B|299:190|299:190|377:216|377:216|387:249,1,143.999995605469,0|0,1:2|0:0,0:0:0:0:
225,353,11483,2,0,B|209:367|209:367|260:345,1,71.9999978027344
348,360,11713,1,0,0:0:0:0:
418,333,11828,2,0,B|443:222|443:222|399:176,1,143.999995605469,8|0,0:0|0:0,0:0:0:0:
278,207,12172,2,0,B|297:236|297:236|336:231,1,71.9999978027344
490,159,12402,1,0,1:2:0:0:
472,78,12517,6,0,B|461:46|461:46|384:57|384:57|389:108,1,143.999995605469,0|0,1:2|0:0,0:0:0:0:
330,139,12862,2,0,B|299:124|299:124|252:186|252:186|278:207,1,143.999995605469,0|0,1:2|0:0,0:0:0:0:
298,335,13207,2,0,B|345:320|345:320|251:303,1,143.999995605469,8|0,0:0|0:0,0:0:0:0:
154,256,13552,2,0,B|172:284|172:284|177:340,1,71.9999978027344
21,352,13782,1,0,1:2:0:0:
9,341,13897,6,0,B|30:289|30:289|58:264|58:264|87:201,1,143.999995605469,0|0,1:2|0:0,0:0:0:0:
1,110,14241,2,0,L|17:181,1,71.9999978027344
61,65,14471,1,0,1:2:0:0:
154,256,14586,2,0,B|251:231|251:231|198:205,1,143.999995605469,8|0,0:2|0:0,0:0:0:0:
152,154,14931,2,0,B|118:141|118:141|146:164,1,71.9999978027344
320,126,15161,1,0,1:2:0:0:
289,55,15276,6,0,B|250:59|250:59|227:119|227:119|253:88,1,143.999995605469,0|0,1:2|0:0,0:0:0:0:
410,153,15621,2,0,B|425:117|425:117|384:67|384:67|398:105,1,143.999995605469,0|0,1:2|0:0,0:0:0:0:
439,238,15966,2,0,B|445:253|445:253|269:225,1,143.999995605469,8|0,0:0|0:0,0:0:0:0:
261,291,16310,2,0,L|181:303,1,71.9999978027344
100,370,16540,1,0,1:2:0:0:
88,359,16655,6,0,B|70:342|70:342|119:269|119:269|92:238,1,143.999995605469,0|0,1:2|0:0,0:0:0:0:
0,272,17000,2,0,B|-19:285|-19:285|37:264,1,71.9999978027344
193,225,17230,1,0,1:2:0:0:
238,160,17345,2,0,B|199:147|199:147|175:152|175:152|64:129,1,143.999995605469,8|0,0:0|0:0,0:0:0:0:
96,58,17690,2,0,L|185:75,1,71.9999978027344
343,113,17920,1,0,1:2:0:0:
338,31,18035,6,0,B|354:33|354:33|314:0|314:0|297:50|297:50|323:28,1,143.999995605469,0|0,1:2|0:0,0:0:0:0:
347,194,18379,2,0,B|330:191|330:191|370:225|370:225|387:174|387:174|361:196,1,143.999995605469,0|0,1:2|0:0,0:0:0:0:
239,140,18724,2,0,B|253:202|253:202|249:207|249:207|255:210|255:210|275:286,1,143.999995605469,8|0,0:0|0:0,0:0:0:0:
125,287,19069,2,0,B|153:264|153:264|207:263,1,71.9999978027344
331,372,19299,1,0,1:2:0:0:
314,372,19414,6,0,B|200:365|200:365|172:326,1,143.999995605469,0|0,1:2|0:0,0:0:0:0:
41,384,19759,2,0,L|128:366,1,71.9999978027344
138,212,19989,1,0,1:2:0:0:
125,287,20104,2,0,B|26:307|26:307|83:274,1,143.999995605469,8|0,0:0|0:0,0:0:0:0:
194,155,20448,2,0,B|217:180|217:180|219:234,1,71.9999978027344
357,268,20678,1,0,1:2:0:0:
346,350,20793,6,0,B|346:362|346:362|270:306|270:306|280:270,1,143.999995605469,0|0,1:2|0:0,0:0:0:0:
193,258,21138,2,0,B|185:267|185:267|163:175|163:175|193:154,1,143.999995605469,0|0,1:2|0:0,0:0:0:0:
345,129,21483,2,0,B|374:154|374:154|271:128,1,143.999995605469,8|0,0:0|0:0,0:0:0:0:
130,91,21828,2,0,L|213:62,1,71.9999978027344
398,60,22058,1,0,1:2:0:0:
411,70,22172,6,0,L|449:235,1,143.999995605469,0|0,1:2|0:0,0:0:0:0:
380,285,22517,2,0,B|355:258|355:258|357:221,1,71.9999978027344
512,258,22747,1,0,1:2:0:0:
512,336,22862,2,0,B|409:309|409:309|446:348,1,143.999995605469,8|0,0:0|0:0,0:0:0:0:
315,373,23207,2,0,B|307:385|307:385|380:371,1,71.9999978027344
266,204,23437,1,0,1:2:0:0:
282,291,23552,6,0,B|276:301|276:301|238:237|238:237|182:227,1,143.999995605469,0|0,1:2|0:0,0:0:0:0:
189,143,23897,2,0,B|195:152|195:152|120:154|120:154|84:197,1,143.999995605469,0|0,1:2|0:0,0:0:0:0:
87,280,24241,2,0,B|116:347|116:347|105:259,1,143.999995605469,8|0,0:0|0:0,0:0:0:0:
82,198,24586,2,0,L|60:107,1,71.9999978027344
164,19,24816,1,0,1:2:0:0:
180,19,24931,6,0,B|154:124|154:124|215:108,1,143.999995605469,0|0,1:2|0:0,0:0:0:0:
303,86,25276,2,0,B|251:60|251:60|267:95,1,71.9999978027344
254,164,25506,1,0,1:2:0:0:
203,227,25621,2,0,B|327:191|327:191|332:162,1,143.999995605469,8|0,0:0|0:0,0:0:0:0:
441,272,25966,2,0,L|350:254,1,71.9999978027344
418,154,26195,1,0,1:2:0:0:
489,133,26310,6,0,B|492:115|492:115|453:75|453:75|395:71|395:71|376:100,1,143.999995605469,0|0,1:2|0:0,0:0:0:0:
211,146,26655,2,0,B|206:135|206:135|238:87|238:87|292:73|292:73|306:85,1,143.999995605469,0|0,1:2|0:0,0:0:0:0:
282,204,27000,2,0,L|116:177,1,143.999995605469,8|0,0:0|0:0,0:0:0:0:
65,57,27345,2,0,B|85:86|85:86|89:148,1,71.9999978027344
14,302,27575,1,0,1:2:0:0:
0,303,27690,6,0,B|0:225|0:225|89:230,1,143.999995605469,0|0,1:2|0:0,0:0:0:0:
90,354,28035,2,0,B|81:377|81:377|89:303,1,71.9999978027344
195,197,28264,1,0,1:2:0:0:
266,216,28379,2,0,B|265:252|265:252|163:290,1,143.999995605469,8|0,0:0|0:0,0:0:0:0:
130,152,28724,2,0,B|112:185|112:185|116:219,1,71.9999978027344
353,253,28954,1,0,1:2:0:0:
298,317,29069,6,0,B|292:337|292:337|259:184,1,143.999995605469,0|0,1:2|0:0,0:0:0:0:
294,69,29414,2,0,B|300:49|300:49|333:202,1,143.999995605469,0|0,1:2|0:0,0:0:0:0:
477,279,29759,2,0,B|420:232|420:232|327:260,1,143.999995605469,8|0,0:0|0:0,0:0:0:0:
391,384,30104,2,0,B|407:353|407:353|401:303,1,71.9999978027344
266,216,30333,1,0,1:2:0:0:
258,238,30448,6,0,L|91:250,1,143.999995605469,0|0,1:2|0:0,0:0:0:0:
55,192,30793,2,0,L|28:118,1,71.9999978027344
12,325,31023,1,0,1:2:0:0:
76,382,31138,2,0,B|121:265|121:265|102:220,1,143.999995605469,8|0,0:0|0:0,0:0:0:0:
99,64,31483,2,0,L|124:156,1,71.9999978027344
242,160,31713,1,0,1:2:0:0:
187,218,31828,6,0,B|195:241|195:241|230:251|230:251|304:214,1,143.999995605469,0|0,1:2|0:0,0:0:0:0:
315,368,32172,2,0,B|339:371|339:371|365:346|365:346|370:263,1,143.999995605469,0|0,1:2|0:0,0:0:0:0:
464,146,32517,6,0,B|475:159|475:159|349:124|349:124|372:122,1,167.999994873047,8|0,0:0|0:0,0:0:0:0:
267,104,32862,2,0,L|180:83,1,83.9999974365235,0|0,3:2|3:2,0:0:0:0:
85,42,33092,1,0,0:0:0:0:
69,29,33207,6,0,P|37:38|16:64,1,66,6|0,1:2|0:0,0:0:0:0:
69,29,34586,5,2,0:0:0:0:
81,31,34701,1,2,0:0:0:0:
96,35,34816,1,2,0:0:0:0:
117,41,34931,1,2,0:0:0:0:
143,53,35046,1,2,0:0:0:0:
174,68,35161,1,2,0:0:0:0:
205,88,35276,1,2,0:0:0:0:
243,114,35391,1,2,0:0:0:0:
279,149,35506,1,2,0:0:0:0:
314,192,35621,1,2,0:0:0:0:
341,248,35736,1,2,0:0:0:0:
355,314,35851,1,2,0:0:0:0:
343,384,35966,6,0,P|330:357|328:320,1,66,2|0,1:2|0:0,0:0:0:0:
343,384,37345,5,2,0:0:0:0:
331,382,37460,1,2,0:0:0:0:
316,378,37575,1,2,0:0:0:0:
295,372,37690,1,2,0:0:0:0:
269,361,37805,1,2,0:0:0:0:
238,346,37920,1,2,0:0:0:0:
207,326,38035,1,2,0:0:0:0:
170,300,38150,1,2,0:0:0:0:
133,265,38265,1,2,0:0:0:0:
98,221,38380,1,2,0:0:0:0:
71,166,38495,1,2,0:0:0:0:
58,100,38610,1,2,0:0:0:0:
69,29,38725,6,0,P|81:54|82:91,1,66,2|0,1:2|0:0,0:0:0:0:
69,29,40104,5,2,0:0:0:0:
81,31,40219,1,2,0:0:0:0:
96,35,40334,1,2,0:0:0:0:
117,41,40449,1,2,0:0:0:0:
143,53,40564,1,2,0:0:0:0:
174,68,40679,1,2,0:0:0:0:
205,88,40794,1,2,0:0:0:0:
243,114,40909,1,2,0:0:0:0:
279,149,41024,1,2,0:0:0:0:
314,192,41139,1,2,0:0:0:0:
341,248,41254,1,2,0:0:0:0:
355,314,41369,1,2,0:0:0:0:
343,384,41484,6,0,P|330:357|328:320,1,66,2|0,1:2|0:0,0:0:0:0:
343,384,42862,5,2,0:0:0:0:
331,382,42977,1,2,0:0:0:0:
316,378,43092,1,2,0:0:0:0:
295,372,43207,1,2,0:0:0:0:
269,361,43322,1,2,0:0:0:0:
238,346,43437,1,2,0:0:0:0:
207,326,43552,1,2,0:0:0:0:
170,300,43667,1,2,0:0:0:0:
133,265,43782,1,2,0:0:0:0:
98,221,43897,1,2,0:0:0:0:
71,166,44012,1,2,0:0:0:0:
58,100,44127,1,2,0:0:0:0:
74,34,44241,6,0,P|92:56|100:90,2,60,0|0|0,1:2|0:0|0:0,0:0:0:0:
189,30,44586,2,0,P|188:58|172:89,2,60,2|0|0,0:0|0:0|0:0,0:0:0:0:
282,98,44931,2,0,P|263:119|231:133,2,60,2|0|0,0:0|0:0|0:0,0:0:0:0:
306,211,45276,2,0,P|277:215|244:205,2,60,2|0|0,0:0|0:0|0:0,0:0:0:0:
171,372,45621,6,0,P|181:344|207:320,2,66.0000020141602,2|0|0,1:2|0:0|0:0,0:0:0:0:
108,271,45966,2,0,P|133:256|169:254,2,66.0000020141602,2|0|0,0:0|0:0|0:0,0:0:0:0:
120,153,46310,2,0,P|148:158|177:179,2,66.0000020141602,2|0|0,0:0|0:0|0:0,0:0:0:0:
208,74,46656,2,0,P|226:96|234:131,2,66.0000020141602,2|0|0,0:0|0:0|0:0,0:0:0:0:
442,110,47000,6,0,P|410:115|372:103,2,71.9999978027344,2|0|0,1:2|0:0|0:0,0:0:0:0:
380,225,47345,2,0,P|352:208|330:175,2,71.9999978027344,2|0|0,0:0|0:0|0:0,0:0:0:0:
260,278,47690,2,0,P|249:247|254:208,2,71.9999978027344,2|0|0,0:0|0:0|0:0,0:0:0:0:
137,237,48035,2,0,P|148:207|177:180,2,71.9999978027344,2|0|0,0:0|0:0|0:0,0:0:0:0:
67,33,48379,6,0,P|89:60|98:101,2,77.9999964294435,2|0|0,1:2|0:0|0:0,0:0:0:0:
209,28,48724,2,0,P|208:62|189:101,2,77.9999964294435,2|0|0,0:0|0:0|0:0,0:0:0:0:
324,113,49069,2,0,P|301:139|261:156,2,77.9999964294435,2|0|0,0:0|0:0|0:0,0:0:0:0:
353,251,49414,2,0,P|318:256|277:244,2,77.9999964294435,2|0|0,0:0|0:0|0:0,0:0:0:0:
142,358,49759,6,0,P|154:325|192:292,2,83.9999974365235,2|0|0,1:2|0:0|0:0,0:0:0:0:
66,237,50104,2,0,P|96:220|147:217,2,83.9999974365235,2|0|0,0:0|0:0|0:0,0:0:0:0:
82,94,50449,2,0,P|116:101|156:130,2,83.9999974365235,2|0|0,0:0|0:0|0:0,0:0:0:0:
187,0,50793,2,0,P|209:27|222:73,2,83.9999974365235,2|0|0,0:0|0:0|0:0,0:0:0:0:
43,348,51138,6,0,P|76:329|131:327,2,90.0000034332277,2|0|0,1:2|0:0|0:0,0:0:0:0:
63,193,51483,2,0,P|101:200|145:232,2,90.0000034332277,2|0|0,0:0|0:0|0:0,0:0:0:0:
176,85,51828,2,0,P|200:115|213:166,2,90.0000034332277,2|0|0,0:0|0:0|0:0,0:0:0:0:
330,81,52172,2,0,P|330:119|308:165,2,90.0000034332277,2|0|0,0:0|0:0|0:0,0:0:0:0:
29,321,52517,6,0,P|68:328|113:363,2,96,2|0|0,1:2|0:0|0:0,0:0:0:0:
149,209,52862,2,0,P|174:239|187:295,2,96,2|0|0,0:0|0:0|0:0,0:0:0:0:
313,199,53207,2,0,P|312:238|287:288,2,96,2|0|0,0:0|0:0|0:0,0:0:0:0:
440,300,53552,2,0,P|413:330|358:353,2,96,2|0|0,0:0|0:0|0:0,0:0:0:0:
12,98,53897,6,0,P|40:132|54:196,2,102.000001945496,2|0|0,1:2|0:0|0:0,0:0:0:0:
197,87,54241,2,0,P|196:132|167:189,2,102.000001945496,2|0|0,0:0|0:0|0:0,0:0:0:0:
345,197,54586,2,0,P|315:231|258:256,2,102.000001945496,2|0|0,0:0|0:0|0:0,0:0:0:0:
382,377,54931,2,0,P|337:384|273:364,2,102.000001945496,2|0|0,0:0|0:0|0:0,0:0:0:0:
463,348,55276,6,0,P|486:296|484:228,1,107.999996704102,0|0,1:2|0:0,0:0:0:0:
420,216,55506,1,2,0:0:0:0:
508,247,55621,2,0,P|492:192|446:141,1,107.999996704102,2|0,1:2|0:0,0:0:0:0:
391,181,55851,1,2,0:0:0:0:
478,148,55966,2,0,P|430:116|363:106,1,107.999996704102,2|0,1:2|0:0,0:0:0:0:
346,172,56195,1,2,0:0:0:0:
391,90,56310,2,0,P|334:96|276:131,1,107.999996704102,2|0,1:2|0:0,0:0:0:0:
216,220,56540,5,2,0:0:0:0:
261,302,56655,2,0,P|204:296|146:261,1,113.999996955872,0|0,1:2|0:0,0:0:0:0:
167,201,56885,1,2,0:0:0:0:
148,292,57000,2,0,P|108:250|86:186,1,113.999996955872,2|0,1:2|0:0,0:0:0:0:
149,160,57230,1,2,0:0:0:0:
75,217,57345,2,0,P|71:159|95:96,1,113.999996955872,2|0,1:2|0:0,0:0:0:0:
162,116,57575,1,2,0:0:0:0:
68,112,57690,2,0,P|101:65|161:32,1,113.999996955872,2|0,1:2|0:0,0:0:0:0:
305,232,57920,5,2,0:0:0:0:
276,150,58035,2,0,P|233:187|215:252,1,113.999996955872,2|0,1:2|0:0,0:0:0:0:
331,213,58264,1,2,0:0:0:0:
360,121,58379,2,0,P|303:121|247:159,1,113.999996955872,2|0,1:2|0:0,0:0:0:0:
358,203,58609,1,2,0:0:0:0:
439,151,58724,2,0,P|395:115|327:108,1,113.999996955872,2|0,1:2|0:0,0:0:0:0:
389,209,58954,1,2,0:0:0:0:
484,221,59069,2,0,P|473:165|426:117,1,113.999996955872,2|0,1:2|0:0,0:0:0:0:
302,295,59299,5,2,0:0:0:0:
331,213,59414,2,0,P|374:250|392:315,1,113.999996955872,2|0,1:2|0:0,0:0:0:0:
276,276,59643,1,2,0:0:0:0:
247,184,59759,2,0,P|303:184|359:222,1,113.999996955872,2|0,1:2|0:0,0:0:0:0:
249,266,59988,1,2,0:0:0:0:
168,214,60104,2,0,P|211:178|279:171,1,113.999996955872,2|0,1:2|0:0,0:0:0:0:
218,272,60333,1,2,0:0:0:0:
123,284,60448,2,0,P|133:228|180:180,2,113.999996955872,2|2|2,1:2|0:0|0:0,0:0:0:0:
50,372,60793,5,2,1:2:0:0:
38,372,60908,1,2,1:2:0:0:
42,360,61023,1,2,1:2:0:0:
123,313,61138,5,2,1:2:0:0:
110,302,61253,1,2,1:2:0:0:
124,291,61368,1,2,1:2:0:0:
245,300,61483,5,2,1:2:0:0:
240,272,61598,1,2,1:2:0:0:
266,275,61713,1,2,1:2:0:0:
365,375,61828,5,2,1:2:0:0:
385,336,61943,1,2,1:2:0:0:
412,366,62058,1,2,1:2:0:0:
271,288,62172,5,2,1:2:0:0:
292,286,62287,1,2,1:2:0:0:
286,305,62402,1,2,1:2:0:0:
273,177,62517,5,2,1:2:0:0:
280,182,62632,1,2,1:2:0:0:
273,188,62747,1,2,1:2:0:0:
282,86,62862,5,2,1:2:0:0:
284,91,62977,1,2,1:2:0:0:
277,91,63092,1,2,1:2:0:0:
310,11,63207,5,2,1:2:0:0:
308,12,63322,1,2,1:2:0:0:
305,10,63437,1,2,1:2:0:0:
378,82,63552,6,0,P|259:32|174:39,1,180.000006866455,6|0,1:2|0:0,0:0:0:0:
181,122,63897,2,0,P|117:112|86:83,1,90.0000034332277,2|2,0:0|0:0,0:0:0:0:
381,163,64126,1,2,0:0:0:0:
378,82,64241,2,0,P|329:91|315:157,1,90.0000034332277,2|0,0:0|0:0,0:0:0:0:
179,288,64471,1,2,0:0:0:0:
182,207,64586,2,0,P|231:216|245:282,1,90.0000034332277,2|0,0:0|0:0,0:0:0:0:
369,318,64816,1,2,0:0:0:0:
295,364,64931,6,0,P|297:265|355:187,1,180.000006866455,2|0,0:0|1:2,0:0:0:0:
430,196,65276,2,0,P|419:153|386:124,2,90.0000034332277,10|2|2,0:0|0:0|0:0,0:0:0:0:
444,370,65621,6,0,P|479:334|490:285,2,102.000001945496,10|2|2,0:0|0:0|0:0,0:0:0:0:
369,318,65966,5,8,0:0:0:0:
261,261,66081,1,0,1:2:0:0:
132,268,66195,1,0,1:2:0:0:
4,319,66310,6,0,B|41:195|69:255|165:254|168:155|112:73,1,240,6|0,0:0|0:0,0:0:0:0:
40,65,66655,2,0,P|57:125|70:170,1,102.000001945496,0|0,1:2|0:0,0:0:0:0:
204,236,66885,1,0,1:2:0:0:
231,160,67000,6,0,B|256:103|203:-8|88:42|88:76|155:64,1,240,10|0,0:0|0:0,0:0:0:0:
4,319,67345,2,0,P|55:290|115:286,1,102.000001945496,0|0,1:2|0:0,0:0:0:0:
324,297,67575,1,0,1:2:0:0:
364,148,67690,6,0,B|297:364|277:186|216:408,1,264.000008056641,2|0,1:2|0:0,0:0:0:0:
417,39,68035,2,0,B|504:247|375:123|471:333,1,264.000008056641,2|0,1:2|0:0,0:0:0:0:
442,368,68379,6,0,B|445:377|436:388|436:388|451:377|448:370,9,45.0000017166138,10|0|0|0|0|0|0|0|0|0,3:2|3:2|3:2|3:2|3:2|3:2|3:2|3:2|3:2|3:2,0:0:0:0:
453,292,68724,2,0,P|402:279|335:263,1,102.000001945496,0|0,1:2|0:0,0:0:0:0:
142,235,68954,1,0,1:2:0:0:
56,219,69069,6,0,B|-46:213|-31:41|123:87|117:184,1,264.000008056641,2|0,1:2|0:0,0:0:0:0:
191,129,69414,2,0,B|122:52|255:-58|332:83|258:147,1,264.000008056641,2|0,1:2|0:0,0:0:0:0:
271,384,69759,6,0,P|218:282|235:192,1,204.000003890991,10|0,0:0|0:0,0:0:0:0:
424,144,70104,2,0,P|427:108|361:84,1,102.000001945496,0|0,1:2|0:0,0:0:0:0:
276,124,70333,1,0,1:2:0:0:
232,197,70448,6,0,B|380:234|328:82|435:79|523:172,1,264.000008056641,2|0,1:2|0:0,0:0:0:0:
431,202,70793,2,0,P|282:121|174:129,1,264.000008056641,2|0,1:2|0:0,0:0:0:0:
34,30,71138,5,10,0:0:0:0:
95,102,71253,1,2,0:0:0:0:
109,223,71368,1,2,0:0:0:0:
46,337,71483,6,0,P|21:305|26:228,1,102.000001945496,2|0,0:0|0:0,0:0:0:0:
232,4,71713,1,0,1:2:0:0:
272,87,71828,6,0,B|345:43|244:-27|128:24|165:135|234:159,1,240,6|0,1:2|0:0,0:0:0:0:
189,232,72172,2,0,P|221:193|290:180,1,102.000001945496,0|0,1:2|0:0,0:0:0:0:
359,233,72402,1,0,1:2:0:0:
269,315,72517,6,0,P|168:250|51:229,1,240,10|0,0:0|0:0,0:0:0:0:
63,333,72862,2,0,P|111:318|105:258,1,102.000001945496,0|0,1:2|0:0,0:0:0:0:
117,144,73092,1,0,1:2:0:0:
101,31,73207,6,0,B|30:49|34:147|34:147|47:68|140:57,1,264.000008056641,2|0,1:2|0:0,0:0:0:0:
318,90,73552,2,0,B|266:37|184:89|184:89|258:61|314:136,1,264.000008056641,2|0,1:2|0:0,0:0:0:0:
368,184,73897,6,0,B|372:168|353:158|353:158|366:169|358:188,9,45.0000017166138,10|0|0|0|0|0|0|0|0|0,3:2|3:2|3:2|3:2|3:2|3:2|3:2|3:2|3:2|3:2,0:0:0:0:
448,5,74241,6,0,P|413:43|395:90,1,102.000001945496,2|0,1:2|0:0,0:0:0:0:
339,319,74471,1,0,1:2:0:0:
463,360,74586,6,0,B|468:322|433:294|433:294|190:247,1,264.000008056641,2|0,1:2|0:0,0:0:0:0:
503,170,74931,2,0,B|493:207|451:220|451:220|266:183,1,264.000008056641,2|0,1:2|0:0,0:0:0:0:
89,41,75276,6,0,B|239:24|239:24|214:50|203:97,1,204.000003890991,10|0,0:0|0:0,0:0:0:0:
134,207,75621,2,0,P|94:165|101:98,1,102.000001945496,0|0,1:2|0:0,0:0:0:0:
175,142,75851,1,0,1:2:0:0:
248,258,75966,6,0,B|261:269|337:209|220:199|21:134|-3:369|26:420|64:348,1,396.000012084961,2|0,1:2|1:2,0:0:0:0:
62,350,76655,6,0,P|61:324|38:252,1,90.0000034332277,10|0,0:0|0:0,0:0:0:0:
248,258,76885,6,0,P|254:227|280:186,1,60,2|0,0:0|0:0,0:0:0:0:
8,89,77115,6,0,P|31:101|51:103,1,45.0000017166138,2|0,0:0|0:0,0:0:0:0:
324,107,77345,6,0,B|367:147|367:147|119:84,1,300,6|0,1:2|0:0,0:0:0:0:
96,1,78035,2,0,B|45:69|45:69|52:113,1,120,10|0,0:0|0:0,0:0:0:0:
54,341,78379,1,0,0:0:0:0:
108,282,78494,2,0,B|174:259|174:259|236:277,1,90.0000034332277,0|2,0:2|1:2,0:0:0:0:
420,292,78724,6,0,B|376:236|376:236|334:217|334:217|340:317|340:317|388:329|388:329|421:332|432:306,1,264.000008056641,2|0,1:2|0:0,0:0:0:0:
450,377,79069,2,0,B|415:371|415:371|310:152|310:152|269:135,1,311.999985717774,2|0,1:0|0:0,0:0:0:0:
234,199,79414,6,0,B|232:213|232:213|242:202,9,22.5000008583069,10|0|0|0|0|0|0|0|0|0,3:2|3:2|3:2|3:2|3:2|3:2|3:2|3:2|3:2|3:2,0:0:0:0:
198,134,79759,2,0,B|189:119|189:119|209:73|209:73|258:51|258:51|277:55,1,138.000002632141,2|0,1:2|0:0,0:0:0:0:
406,102,79989,1,0,1:2:0:0:
468,158,80104,6,0,B|417:193|417:193|244:126,1,210.000002002716,2|0,1:2|0:0,0:0:0:0:
438,231,80448,2,0,B|387:266|387:266|214:199,1,221.999999153137,2|0,1:2|0:0,0:0:0:0:
87,180,80793,6,0,B|155:241|155:241|136:312|136:312|108:312|108:312|69:244|69:244|83:188|83:188,1,324.000001235962,10|0,0:0|0:0,0:0:0:0:
13,153,81138,2,0,B|18:123|18:123|80:91|80:91|118:104,1,120,2|0,1:2|0:0,0:0:0:0:
304,53,81368,1,0,1:2:0:0:
355,110,81483,6,0,B|386:126|386:126|480:45|480:45|391:-6,1,240,2|0,1:2|0:0,0:0:0:0:
385,221,81828,2,0,B|416:237|416:237|510:156|510:156|421:105,1,240,2|0,1:2|0:0,0:0:0:0:
304,53,82172,6,0,B|386:71|386:71|396:151|396:151|457:222|457:222|455:288|455:288|499:323,1,360.000013732911,10|0,0:0|0:0,0:0:0:0:
415,358,82517,2,0,B|336:350|336:350|275:381,1,120,8|0,0:0|0:0,0:0:0:0:
107,222,82747,1,0,1:2:0:0:
57,283,82862,6,0,B|97:309|97:309|299:245|299:245|322:161,1,300,6|0,1:2|0:0,0:0:0:0:
309,206,83207,1,2,0:0:0:0:
409,4,83437,1,0,1:2:0:0:
476,71,83552,6,0,B|251:18|251:18|176:61,1,300,10|0,0:0|0:0,0:0:0:0:
117,59,83897,2,0,B|110:75|110:75|135:122|135:122|188:133|188:133|205:122,1,132.00000402832,2|0,1:2|0:0,0:0:0:0:
369,256,84126,1,0,1:2:0:0:
309,206,84241,6,0,B|280:178|280:178|318:127|318:127|398:127|398:127|409:165|409:165|396:187,1,240,2|0,1:2|0:0,0:0:0:0:
477,71,84586,2,0,B|421:102|421:102|416:114|416:114|358:166|358:166|322:162|322:162|220:214|220:214|201:217|201:217|160:207,1,335.999989746094,2|0,1:2|0:0,0:0:0:0:
119,192,84931,6,0,B|98:203|98:203|124:214,9,41.9999987182618,10|0|2|0|2|0|2|0|2|0,3:2|3:2|3:2|3:2|3:2|3:2|3:2|3:2|3:2|3:2,0:0:0:0:
10,187,85276,2,0,B|26:252|26:252|57:290,1,90.0000034332277,2|0,1:2|0:0,0:0:0:0:
278,363,85506,1,0,1:2:0:0:
356,334,85621,6,0,B|393:308|393:308|176:252,1,240,2|0,1:2|0:0,0:0:0:0:
440,279,85966,2,0,B|477:253|477:253|260:197,1,240,2|0,1:2|0:0,0:0:0:0:
213,79,86310,6,0,B|230:106|230:106|221:155|221:155|142:197|142:197|121:143|121:143|165:87|165:87|206:76,1,335.999989746094,10|0,0:0|0:0,0:0:0:0:
218,0,86655,2,0,B|263:10|263:10|287:53|287:53|304:73,1,120,2|0,1:2|0:0,0:0:0:0:
474,120,86885,1,0,1:2:0:0:
488,196,87000,6,0,B|493:214|493:214|422:211|422:211|351:154|351:154|396:99,1,240,2|0,1:2|0:0,0:0:0:0:
474,120,87345,2,0,B|519:131|519:131|278:206,1,287.999991210938,10|0,0:0|0:0,0:0:0:0:
284,280,87690,2,0,B|294:316|294:316|140:174,1,240,10|0,0:0|1:2,0:0:0:0:
73,207,88035,6,0,B|52:227|52:227|88:70,1,180,14|6,0:0|1:2,0:0:0:0:
237,26,88724,6,0,P|293:34|336:65,1,75
378,83,88954,1,0,0:0:0:0:
503,69,89069,2,0,P|457:132|453:232,1,150,8|0,0:0|0:0,0:0:0:0:
377,247,89414,2,0,P|389:324|456:397,1,150,0|0,0:0|1:2,0:0:0:0:
511,362,89759,5,0,1:2:0:0:
511,362,90104,1,0,1:2:0:0:
295,264,90448,6,0,P|294:225|312:195,1,75,8|0,0:0|0:0,0:0:0:0:
393,167,90678,1,0,0:0:0:0:
330,113,90793,2,0,P|363:93|484:116,1,150,0|0,0:0|1:2,0:0:0:0:
512,218,91138,6,0,P|381:155|214:161,1,270.000010299683,0|0,1:2|0:0,0:0:0:0:
119,64,91713,1,0,1:2:0:0:
119,64,91828,2,0,P|149:126|149:210,1,120,8|0,0:2|0:0,0:0:0:0:
74,202,92172,2,0,P|44:140|44:56,1,120,0|0,0:0|1:2,0:0:0:0:
53,3,92517,5,0,1:2:0:0:
53,3,92862,1,0,1:2:0:0:
259,151,93207,6,0,P|246:214|228:238,1,60,8|0,0:0|0:0,0:0:0:0:
337,339,93437,1,0,0:0:0:0:
402,300,93552,2,0,P|383:243|318:221,1,120,0|0,0:0|1:2,0:0:0:0:
177,168,93897,6,0,P|139:92|146:-14,1,180,0|0,1:2|0:0,0:0:0:0:
29,15,94471,1,0,1:2:0:0:
29,15,94586,2,0,P|62:63|140:63,1,120,8|0,0:0|0:0,0:0:0:0:
196,90,94931,2,0,P|253:100|308:45,1,120,0|0,0:0|1:2,0:0:0:0:
344,0,95276,5,0,1:2:0:0:
344,0,95621,1,0,1:2:0:0:
414,117,95966,6,0,P|423:187|404:264,1,120,8|0,0:0|0:0,0:0:0:0:
512,356,96310,2,0,P|491:316|450:301,1,60
400,312,96540,1,0,1:2:0:0:
263,194,96655,6,0,P|301:277|309:368,1,180,0|0,1:2|0:0,0:0:0:0:
162,214,97230,1,0,1:2:0:0:
162,214,97345,2,0,P|170:303|208:384,1,180,8|0,0:0|0:0,0:0:0:0:
400,312,97920,5,0,1:2:0:0:
400,312,98035,2,0,P|424:261|416:178,1,120,0|0,1:2|0:0,0:0:0:0:
462,131,98379,2,0,P|442:77|378:24,1,120,0|0,1:2|0:0,0:0:0:0:
162,214,98724,6,0,P|228:222|263:164,1,120,8|0,0:0|0:0,0:0:0:0:
285,113,99069,1,0,0:0:0:0:
56,34,99299,5,0,1:2:0:0:
56,34,99414,2,0,P|39:128|80:257,1,180,0|0,1:2|0:0,0:0:0:0:
68,340,99874,1,0,0:0:0:0:
141,364,99989,1,0,1:2:0:0:
190,308,100104,2,0,P|167:236|102:214,1,120,8|0,0:0|0:0,0:0:0:0:
55,209,100448,1,0,0:0:0:0:
193,66,100678,5,0,1:2:0:0:
193,66,100793,1,0,1:2:0:0:
193,66,101138,1,0,1:2:0:0:
193,66,101483,2,0,P|262:32|369:20,1,180,8|0,0:0|0:0,0:0:0:0:
466,184,102058,5,0,1:2:0:0:
466,184,102172,2,0,P|379:180|339:81,1,180,0|0,1:2|0:0,0:0:0:0:
356,27,102632,1,0,0:0:0:0:
426,0,102747,1,0,1:2:0:0:
498,25,102862,2,0,P|469:90|411:113,1,120,8|0,0:0|0:0,0:0:0:0:
466,184,103207,2,0,P|386:200|334:173,1,120,0|0,0:0|1:2,0:0:0:0:
278,260,103552,5,0,1:2:0:0:
278,260,103897,1,0,1:2:0:0:
278,260,104241,6,0,P|220:246|188:256,1,60,8|0,0:0|0:0,0:0:0:0:
148,278,104471,1,0,0:0:0:0:
49,343,104586,2,0,P|73:272|59:189,1,120,0|0,0:0|1:2,0:0:0:0:
30,153,104931,5,0,1:2:0:0:
30,153,105276,2,0,P|81:120|174:131,1,120,0|0,0:0|1:2,0:0:0:0:
270,25,105621,2,0,P|234:105|245:207,1,180,8|0,0:0|0:0,0:0:0:0:
310,260,106196,5,0,1:2:0:0:
310,260,106310,1,0,1:2:0:0:
310,260,106655,1,0,1:2:0:0:
310,260,107000,2,0,P|382:228|456:231,1,120,8|0,0:0|0:0,0:0:0:0:
512,246,107345,1,0,0:0:0:0:
512,0,107575,5,0,1:2:0:0:
512,0,107690,2,0,P|467:55|475:166,1,180,0|0,1:2|0:0,0:0:0:0:
468,332,108264,1,0,1:2:0:0:
468,332,108379,2,0,P|428:270|427:191,1,120,8|0,0:0|0:0,0:0:0:0:
471,159,108724,1,0,0:0:0:0:
355,33,108954,5,0,1:2:0:0:
355,33,109069,2,0,P|274:94|193:113,1,150,0|0,1:2|0:0,0:0:0:0:
164,161,109414,2,0,P|79:149|20:112,1,150,0|0,1:2|0:0,0:0:0:0:
6,36,109759,1,8,0:0:0:0:
213,243,109989,5,0,0:0:0:0:
213,243,110104,2,0,P|222:309|205:363,1,90.0000034332277,0|0,3:2|3:2,0:0:0:0:
159,384,110333,1,0,0:0:0:0:
69,355,110448,6,0,B|37:346|37:346|16:320,1,66,2|0,1:2|0:0,0:0:0:0:
69,355,111827,5,2,0:0:0:0:
81,353,111942,1,2,0:0:0:0:
96,349,112057,1,2,0:0:0:0:
117,343,112172,1,2,0:0:0:0:
143,331,112287,1,2,0:0:0:0:
174,316,112402,1,2,0:0:0:0:
205,296,112517,1,2,0:0:0:0:
243,270,112632,1,2,0:0:0:0:
279,235,112747,1,2,0:0:0:0:
314,192,112862,1,2,0:0:0:0:
341,136,112977,1,2,0:0:0:0:
355,70,113092,1,2,0:0:0:0:
343,0,113207,6,0,B|330:27|330:27|328:64,1,66,2|0,1:2|0:0,0:0:0:0:
343,0,114586,5,2,0:0:0:0:
331,2,114701,1,2,0:0:0:0:
316,6,114816,1,2,0:0:0:0:
295,12,114931,1,2,0:0:0:0:
269,23,115046,1,2,0:0:0:0:
238,38,115161,1,2,0:0:0:0:
207,58,115276,1,2,0:0:0:0:
170,84,115391,1,2,0:0:0:0:
133,119,115506,1,2,0:0:0:0:
98,163,115621,1,2,0:0:0:0:
71,218,115736,1,2,0:0:0:0:
58,284,115851,1,2,0:0:0:0:
69,355,115966,6,0,B|81:330|81:330|81:290,1,66,2|0,1:2|0:0,0:0:0:0:
69,355,117345,5,2,0:0:0:0:
81,353,117460,1,2,0:0:0:0:
96,349,117575,1,2,0:0:0:0:
117,343,117690,1,2,0:0:0:0:
143,331,117805,1,2,0:0:0:0:
174,316,117920,1,2,0:0:0:0:
205,296,118035,1,2,0:0:0:0:
243,270,118150,1,2,0:0:0:0:
279,235,118265,1,2,0:0:0:0:
314,192,118380,1,2,0:0:0:0:
341,136,118495,1,2,0:0:0:0:
355,70,118610,1,2,0:0:0:0:
343,0,118725,6,0,B|330:27|330:27|328:64,1,66,2|0,1:2|0:0,0:0:0:0:
343,0,120103,5,2,0:0:0:0:
331,2,120218,1,2,0:0:0:0:
316,6,120333,1,2,0:0:0:0:
295,12,120448,1,2,0:0:0:0:
269,23,120563,1,2,0:0:0:0:
238,38,120678,1,2,0:0:0:0:
207,58,120793,1,2,0:0:0:0:
170,84,120908,1,2,0:0:0:0:
133,119,121023,1,2,0:0:0:0:
98,163,121138,1,2,0:0:0:0:
71,218,121253,1,2,0:0:0:0:
58,284,121368,1,2,0:0:0:0:
74,350,121483,6,0,B|92:328|92:328|100:294,2,60,0|0|0,1:2|0:0|0:0,0:0:0:0:
189,354,121828,2,0,B|188:326|188:326|172:295,2,60,2|0|0,0:0|0:0|0:0,0:0:0:0:
282,286,122172,2,0,B|263:265|263:265|231:251,2,60,2|0|0,0:0|0:0|0:0,0:0:0:0:
306,173,122517,2,0,B|277:169|277:169|244:179,2,60,2|0|0,0:0|0:0|0:0,0:0:0:0:
171,12,122862,6,0,B|181:40|181:40|207:64,2,66.0000020141602,2|0|0,1:2|0:0|0:0,0:0:0:0:
108,113,123207,2,0,B|133:128|133:128|169:130,2,66.0000020141602,2|0|0,0:0|0:0|0:0,0:0:0:0:
120,231,123552,2,0,B|148:225|148:225|178:204,2,66.0000020141602,2|0|0,0:0|0:0|0:0,0:0:0:0:
208,310,123897,2,0,B|226:287|226:287|234:250,2,66.0000020141602,2|0|0,0:0|0:0|0:0,0:0:0:0:
442,274,124241,6,0,B|410:269|410:269|372:281,2,71.9999978027344,2|0|0,1:2|0:0|0:0,0:0:0:0:
380,159,124586,2,0,B|352:176|352:176|330:209,2,71.9999978027344,2|0|0,0:0|0:0|0:0,0:0:0:0:
260,106,124931,2,0,B|249:137|249:137|254:176,2,71.9999978027344,2|0|0,0:0|0:0|0:0,0:0:0:0:
137,147,125276,2,0,B|148:177|148:177|177:204,2,71.9999978027344,2|0|0,0:0|0:0|0:0,0:0:0:0:
67,351,125621,6,0,B|89:323|89:323|98:281,2,77.9999964294435,2|0|0,1:2|0:0|0:0,0:0:0:0:
209,356,125966,2,0,B|208:322|208:322|189:283,2,77.9999964294435,2|0|0,0:0|0:0|0:0,0:0:0:0:
324,271,126310,2,0,B|301:245|301:245|261:228,2,77.9999964294435,2|0|0,0:0|0:0|0:0,0:0:0:0:
353,133,126655,2,0,B|318:128|318:128|277:140,2,77.9999964294435,2|0|0,0:0|0:0|0:0,0:0:0:0:
142,26,127000,6,0,B|154:59|154:59|192:92,2,83.9999974365235,2|0|0,1:2|0:0|0:0,0:0:0:0:
66,147,127345,2,0,B|96:164|96:164|147:167,2,83.9999974365235,2|0|0,0:0|0:0|0:0,0:0:0:0:
82,290,127690,2,0,B|116:283|116:283|156:254,2,83.9999974365235,2|0|0,0:0|0:0|0:0,0:0:0:0:
187,384,128035,2,0,B|209:357|209:357|223:309,2,83.9999974365235,2|0|0,0:0|0:0|0:0,0:0:0:0:
43,36,128379,6,0,B|76:55|76:55|131:57,2,90.0000034332277,2|0|0,1:2|0:0|0:0,0:0:0:0:
63,191,128724,2,0,B|101:184|101:184|145:152,2,90.0000034332277,2|0|0,0:0|0:0|0:0,0:0:0:0:
176,299,129069,2,0,B|200:269|200:269|213:218,2,90.0000034332277,2|0|0,0:0|0:0|0:0,0:0:0:0:
330,303,129414,2,0,B|330:265|330:265|307:217,2,90.0000034332277,2|0|0,0:0|0:0|0:0,0:0:0:0:
29,63,129759,6,0,B|68:56|68:56|113:21,2,96,2|0|0,1:2|0:0|0:0,0:0:0:0:
149,175,130104,2,0,B|174:145|174:145|187:89,2,96,2|0|0,0:0|0:0|0:0,0:0:0:0:
313,185,130448,2,0,B|312:146|312:146|286:96,2,96,2|0|0,0:0|0:0|0:0,0:0:0:0:
440,84,130793,2,0,B|413:54|413:54|358:31,2,96,2|0|0,0:0|0:0|0:0,0:0:0:0:
12,286,131138,6,0,B|40:252|40:252|54:188,2,102.000001945496,2|0|0,1:2|0:0|0:0,0:0:0:0:
197,297,131483,2,0,B|196:252|196:252|167:195,2,102.000001945496,2|0|0,0:0|0:0|0:0,0:0:0:0:
345,187,131828,2,0,B|315:153|315:153|258:128,2,102.000001945496,2|0|0,0:0|0:0|0:0,0:0:0:0:
382,7,132172,2,0,B|337:0|337:0|273:20,2,102.000001945496,2|0|0,0:0|0:0|0:0,0:0:0:0:
463,36,132517,6,0,B|486:88|486:88|484:156,1,107.999996704102,0|0,1:2|0:0,0:0:0:0:
420,168,132747,1,2,0:0:0:0:
508,137,132862,2,0,B|492:192|492:192|446:243,1,107.999996704102,2|0,1:2|0:0,0:0:0:0:
391,203,133092,1,2,0:0:0:0:
478,236,133207,2,0,B|430:268|430:268|363:278,1,107.999996704102,2|0,1:2|0:0,0:0:0:0:
346,212,133437,1,2,0:0:0:0:
391,294,133552,2,0,B|334:288|334:288|276:253,1,107.999996704102,2|0,1:2|0:0,0:0:0:0:
216,164,133782,5,2,0:0:0:0:
261,82,133897,2,0,B|204:88|204:88|146:123,1,113.999996955872,0|0,1:2|0:0,0:0:0:0:
167,183,134126,1,2,0:0:0:0:
148,92,134241,2,0,B|108:134|108:134|86:198,1,113.999996955872,2|0,1:2|0:0,0:0:0:0:
149,224,134471,1,2,0:0:0:0:
75,167,134586,2,0,B|71:225|71:225|95:288,1,113.999996955872,2|0,1:2|0:0,0:0:0:0:
162,268,134816,1,2,0:0:0:0:
68,272,134931,2,0,B|101:319|101:319|161:352,1,113.999996955872,2|0,1:2|0:0,0:0:0:0:
305,152,135161,5,2,0:0:0:0:
276,234,135276,2,0,B|233:197|233:197|215:132,1,113.999996955872,2|0,1:2|0:0,0:0:0:0:
331,171,135506,1,2,0:0:0:0:
360,263,135621,2,0,B|303:263|303:263|247:225,1,113.999996955872,2|0,1:2|0:0,0:0:0:0:
358,181,135851,1,2,0:0:0:0:
439,233,135966,2,0,B|395:269|395:269|327:276,1,113.999996955872,2|0,1:2|0:0,0:0:0:0:
389,175,136195,1,2,0:0:0:0:
484,163,136310,2,0,B|473:219|473:219|426:267,1,113.999996955872,2|0,1:2|0:0,0:0:0:0:
302,89,136540,5,2,0:0:0:0:
331,171,136655,2,0,B|374:134|374:134|392:69,1,113.999996955872,2|0,1:2|0:0,0:0:0:0:
276,108,136885,1,2,0:0:0:0:
247,200,137000,2,0,B|303:200|303:200|359:162,1,113.999996955872,2|0,1:2|0:0,0:0:0:0:
249,118,137230,1,2,0:0:0:0:
168,170,137345,2,0,B|211:206|211:206|279:213,1,113.999996955872,2|0,1:2|0:0,0:0:0:0:
218,112,137575,1,2,0:0:0:0:
123,100,137690,2,0,B|133:156|133:156|180:204,2,113.999996955872,2|2|2,1:2|0:0|0:0,0:0:0:0:
42,35,138035,5,2,1:2:0:0:
49,29,138149,1,2,1:2:0:0:
40,26,138264,1,2,1:2:0:0:
10,128,138379,5,2,1:2:0:0:
28,116,138494,1,2,1:2:0:0:
8,107,138609,1,2,1:2:0:0:
28,241,138724,5,2,1:2:0:0:
59,222,138839,1,2,1:2:0:0:
23,207,138954,1,2,1:2:0:0:
95,343,139069,5,2,1:2:0:0:
97,301,139184,1,2,1:2:0:0:
60,319,139299,1,2,1:2:0:0:
232,349,139414,5,2,1:2:0:0:
198,349,139529,1,2,1:2:0:0:
215,375,139644,1,2,1:2:0:0:
351,342,139759,5,2,1:2:0:0:
336,349,139874,1,2,1:2:0:0:
345,358,139989,1,2,1:2:0:0:
448,268,140104,5,2,1:2:0:0:
443,276,140218,1,2,1:2:0:0:
451,279,140333,1,2,1:2:0:0:
469,156,140448,5,2,1:2:0:0:
475,159,140563,1,2,1:2:0:0:
473,152,140678,1,2,1:2:0:0:
420,66,140793,6,0,B|355:118|355:118|305:101,1,113.999996955872,6|0,1:2|0:0,0:0:0:0:
254,74,141023,1,0,0:0:0:0:
214,157,141138,2,0,B|162:92|162:92|179:42,1,113.999996955872,2|2,0:0|0:0,0:0:0:0:
16,52,141368,5,2,0:0:0:0:
72,0,141483,1,2,0:0:0:0:
16,52,141598,2,0,B|52:134|52:134|33:197,1,113.999996955872,0|2,0:0|0:0,0:0:0:0:
31,322,141828,1,2,0:0:0:0:
102,344,141943,2,0,B|187:360|187:360|259:332,1,113.999996955872,0|2,0:0|0:0,0:0:0:0:
407,349,142172,1,2,0:0:0:0:
339,310,142287,2,0,B|345:216|345:216|326:172,1,113.999996955872,0|0,0:0|1:2,0:0:0:0:
281,82,142517,6,0,B|447:131|447:131|535:74,1,227.999993911743,10|2,0:0|0:0,0:0:0:0:
213,195,142862,2,0,B|47:244|47:244|116:176,1,227.999993911743,10|2,0:0|0:0,0:0:0:0:
364,90,143207,5,8,0:0:0:0:
251,110,143322,1,0,1:2:0:0:
216,34,143437,1,0,1:2:0:0:
130,67,143552,6,0,B|22:75|22:75|21:53|21:53|130:43,1,240,6|0,1:2|0:0,0:0:0:0:
281,82,143897,5,10,0:0:0:0:
364,90,144012,2,0,B|338:146|338:146|297:152,1,90.0000034332277,2|0,0:0|0:0,0:0:0:0:
251,110,144241,1,2,0:0:0:0:
216,34,144356,2,0,B|277:28|277:28|303:61,1,90.0000034332277,2|0,0:0|0:0,0:0:0:0:
285,127,144586,1,10,0:0:0:0:
236,195,144701,2,0,B|200:144|200:144|215:105,1,90.0000034332277,2|0,0:0|0:0,0:0:0:0:
49,94,144931,5,2,1:2:0:0:
98,26,145046,2,0,B|134:77|134:77|119:116,1,90.0000034332277,2|0,0:0|0:0,0:0:0:0:
104,176,145276,1,2,0:0:0:0:
185,155,145391,2,0,B|179:217|179:217|143:237,1,90.0000034332277,2|0,0:0|0:0,0:0:0:0:
171,379,145621,1,2,0:0:0:0:
87,370,145736,2,0,B|113:313|113:313|154:306,1,90.0000034332277,2|0,0:0|1:2,0:0:0:0:
214,290,145966,1,10,0:0:0:0:
155,230,146081,2,0,B|211:203|211:203|247:224,1,90.0000034332277,2|0,0:0|0:0,0:0:0:0:
445,318,146310,6,0,B|509:328|509:328|498:336|498:336|291:308,1,240,2|0,1:2|0:0,0:0:0:0:
337,206,146655,5,10,0:0:0:0:
378,131,146770,2,0,B|406:165|406:165|416:209,1,90.0000034332277,2|0,0:0|0:0,0:0:0:0:
194,142,147000,1,2,0:0:0:0:
235,217,147115,2,0,B|263:183|263:183|273:138,1,90.0000034332277,2|0,0:0|0:0,0:0:0:0:
111,13,147345,1,10,0:0:0:0:
94,96,147460,2,0,B|137:87|137:87|174:60,1,90.0000034332277,2|0,0:0|0:0,0:0:0:0:
351,104,147690,5,2,1:2:0:0:
368,21,147805,2,0,B|324:29|324:29|287:56,1,90.0000034332277,2|0,0:0|0:0,0:0:0:0:
105,195,148035,6,0,B|64:199|64:199|195:211|245:311,1,264.000008056641,8|0,0:2|0:0,0:0:0:0:
287,199,148379,2,0,B|252:176|252:176|345:269|319:378,1,264.000008056641,2|0,1:2|0:0,0:0:0:0:
172,384,148724,2,0,P|136:245|194:116,1,264.000008056641,10|0,1:2|0:0,0:0:0:0:
253,100,149069,6,0,B|279:55|279:55|233:-3|233:-3|166:18|166:18|152:83,1,240,4|0,1:2|0:0,0:0:0:0:
8,95,149414,5,10,0:0:0:0:
63,170,149529,2,0,B|87:114|87:114|80:74,1,90.0000034332277,2|0,0:0|0:0,0:0:0:0:
31,244,149759,1,2,0:0:0:0:
121,266,149874,2,0,B|103:207|103:207|72:181,1,90.0000034332277,2|0,0:0|0:0,0:0:0:0:
130,345,150104,1,10,0:0:0:0:
213,304,150218,2,0,B|162:270|162:270|121:270,1,90.0000034332277,2|0,0:0|0:0,0:0:0:0:
368,265,150448,5,2,1:2:0:0:
323,196,150563,2,0,B|289:246|289:246|289:287,1,90.0000034332277,2|0,0:0|0:0,0:0:0:0:
398,192,150793,1,10,0:0:0:0:
443,123,150908,2,0,B|476:173|476:173|476:214,1,90.0000034332277,2|0,0:0|0:0,0:0:0:0:
327,157,151138,1,0,0:0:0:0:
282,88,151253,2,0,B|248:138|248:138|248:179,1,90.0000034332277,0|0,0:0|1:2,0:0:0:0:
357,84,151483,1,10,0:0:0:0:
402,15,151598,2,0,B|435:65|435:65|435:106,1,90.0000034332277,2|0,0:0|0:0,0:0:0:0:
477,334,151828,6,0,B|471:298|471:298|312:246|312:246|289:275,1,240,2|0,1:2|0:0,0:0:0:0:
128,298,152172,5,10,0:0:0:0:
114,381,152287,2,0,B|180:363|180:363|193:328,1,90.0000034332277,2|0,0:0|0:0,0:0:0:0:
114,294,152517,1,2,0:0:0:0:
49,240,152632,2,0,B|31:306|31:306|55:334,1,90.0000034332277,2|0,0:0|0:0,0:0:0:0:
126,280,152862,1,10,0:0:0:0:
205,250,152977,2,0,B|156:201|156:201|119:208,1,90.0000034332277,2|0,0:0|0:0,0:0:0:0:
94,77,153207,5,2,1:2:0:0:
14,106,153322,2,0,B|62:154|62:154|99:147,1,90.0000034332277,2|0,0:0|0:0,0:0:0:0:
222,349,153552,6,0,B|244:229|244:229|275:205|275:205|297:106,1,264.000008056641,10|0,0:0|0:0,0:0:0:0:
398,65,153897,6,0,B|424:83|424:83|362:69,1,90.0000034332277,2|0,0:0|0:0,0:0:0:0:
191,83,154126,1,2,1:2:0:0:
178,9,154241,6,0,P|208:8|266:83,1,120,10|2,0:0|0:0,0:0:0:0:
72,215,154586,6,0,B|23:199|23:199|206:164|206:164|210:168|210:168|163:178|163:178,1,276.000005264282,6|0,1:2|0:0,0:0:0:0:
392,228,154931,5,10,0:0:0:0:
457,184,155046,2,0,B|460:134|460:134|419:81,1,90.0000034332277,2|0,0:0|0:0,0:0:0:0:
304,169,155276,1,2,0:0:0:0:
309,247,155391,2,0,B|350:274|350:274|417:265,1,90.0000034332277,2|0,0:0|0:0,0:0:0:0:
399,122,155621,1,10,0:0:0:0:
329,87,155736,2,0,B|284:109|284:109|258:171,1,90.0000034332277,2|0,0:0|0:0,0:0:0:0:
80,66,155966,5,2,1:2:0:0:
162,86,156081,2,0,B|139:130|139:130|77:156,1,90.0000034332277,2|0,0:0|0:0,0:0:0:0:
26,218,156310,1,10,0:0:0:0:
79,156,156425,2,0,B|106:197|106:197|97:264,1,90.0000034332277,2|0,0:0|0:0,0:0:0:0:
122,338,156655,1,2,0:0:0:0:
98,263,156770,2,0,B|147:260|147:260|201:301,1,90.0000034332277,2|0,0:0|1:2,0:0:0:0:
281,315,157000,1,10,0:0:0:0:
201,299,157115,2,0,B|223:254|223:254|285:228,1,90.0000034332277,2|0,0:0|0:0,0:0:0:0:
346,185,157345,6,0,B|483:145|483:145|469:137|469:137|349:170,1,264.000008056641,2|0,1:2|0:0,0:0:0:0:
197,93,157690,5,10,0:0:0:0:
218,168,157805,2,0,B|191:177|191:177|91:121,1,102.000001945496,2|0,0:0|0:0,0:0:0:0:
204,90,158035,1,2,0:0:0:0:
258,34,158150,2,0,B|279:52|279:52|280:167,1,102.000001945496,2|0,0:0|0:0,0:0:0:0:
197,85,158379,1,10,0:0:0:0:
122,66,158494,2,0,B|127:38|127:38|226:-20,1,102.000001945496,2|0,0:0|0:0,0:0:0:0:
381,203,158724,5,2,1:2:0:0:
362,278,158839,2,0,B|334:272|334:272|275:173,1,102.000001945496,2|0,0:0|0:0,0:0:0:0:
396,71,159069,6,0,B|479:56|479:56|254:157,1,264.000008056641,10|0,0:0|0:0,0:0:0:0:
147,221,159414,2,0,B|64:236|64:236|289:135,1,264.000008056641,2|0,1:2|0:0,0:0:0:0:
241,18,159759,6,0,B|271:53|271:53|274:235|274:235|301:267,1,264.000008056641,10|0,1:2|0:0,0:0:0:0:
508,273,160104,6,0,B|530:308|530:308|479:380|479:380|390:349|390:349|390:291,1,264.000008056641,6|0,1:2|0:0,0:0:0:0:
486,140,160448,5,10,0:0:0:0:
430,198,160563,2,0,B|390:122|390:122|406:60,1,132.00000402832,2|0,0:0|0:0,0:0:0:0:
387,269,160793,1,2,0:0:0:0:
334,208,160908,2,0,B|294:284|294:284|310:346,1,132.00000402832,2|0,0:0|0:0,0:0:0:0:
303,134,161138,1,10,0:0:0:0:
249,198,161253,2,0,B|209:122|209:122|225:60,1,132.00000402832,2|0,0:0|0:0,0:0:0:0:
95,341,161483,5,2,1:2:0:0:
48,253,161598,2,0,B|8:329|8:329|24:391,1,132.00000402832,2|0,0:0|0:0,0:0:0:0:
110,308,161828,1,10,0:0:0:0:
157,220,161943,2,0,B|197:296|197:296|181:358,1,132.00000402832,2|0,0:0|0:0,0:0:0:0:
99,278,162172,1,2,0:0:0:0:
52,190,162287,2,0,B|12:266|12:266|28:328,1,132.00000402832,2|0,0:0|1:2,0:0:0:0:
110,251,162517,1,10,0:0:0:0:
157,163,162632,2,0,B|197:239|197:239|181:301,1,132.00000402832,2|0,0:0|0:0,0:0:0:0:
63,15,162862,6,0,B|83:57|83:57|251:83|251:83|291:41,1,264.000008056641,2|0,1:2|0:0,0:0:0:0:
457,119,163207,5,10,0:0:0:0:
382,109,163322,2,0,B|326:164|326:164|323:199,1,107.999996704102,2|0,0:0|0:0,0:0:0:0:
247,199,163552,1,2,0:0:0:0:
275,268,163667,2,0,B|350:288|350:288|382:274,1,107.999996704102,2|0,0:0|0:0,0:0:0:0:
415,344,163897,1,10,0:0:0:0:
460,285,164012,2,0,B|440:209|440:209|411:188,1,107.999996704102,2|0,0:0|0:0,0:0:0:0:
206,120,164241,5,2,1:2:0:0:
158,177,164356,2,0,B|173:252|173:252|202:273,1,107.999996704102,2|0,0:0|0:0,0:0:0:0:
459,36,164586,6,0,B|297:-3|297:-3|256:29,1,215.999993408203,10|0,0:0|0:0,0:0:0:0:
179,20,164931,2,0,B|64:140|64:140|71:192,1,215.999993408203,10|0,0:0|0:0,0:0:0:0:
27,256,165276,2,0,B|57:359|57:359|88:371,1,135.000005149842,14|4,0:0|1:2,0:0:0:0:
254,384,165966,6,0,B|276:376|276:376|290:358,1,45.0000017166138,10|0,0:0|0:0,0:0:0:0:
357,325,166195,1,0,0:0:0:0:
433,341,166311,2,0,B|437:317|437:317|428:296,1,45.0000017166138,2|0,0:0|0:0,0:0:0:0:
433,222,166540,1,0,0:0:0:0:
353,122,166655,2,0,B|348:145|348:145|357:166,1,45.0000017166138,10|0,0:0|0:0,0:0:0:0:
353,241,166885,1,0,0:0:0:0:
491,51,167000,6,0,B|501:27|501:27|498:-1,2,45.0000017166138,2|0|0,1:2|0:0|0:0,0:0:0:0:
428,138,167345,2,0,B|453:134|453:134|476:118,2,45.0000017166138,10|0|0,0:0|0:0|0:0,0:0:0:0:
321,126,167690,2,0,B|336:146|336:146|362:158,2,45.0000017166138,2|0|0,0:0|0:0|0:0,0:0:0:0:
277,27,168035,2,0,B|266:50|266:50|270:78,2,45.0000017166138,10|0|0,0:0|0:0|0:0,0:0:0:0:
73,171,168379,6,0,B|138:109|138:109|229:144,1,180.000006866455,2|0,1:2|0:0,0:0:0:0:
279,202,168724,6,0,B|280:227|280:227|264:253,5,45.0000017166138,10|0|0|0|0|0,0:0|0:0|0:0|0:0|0:0|0:0,0:0:0:0:
232,313,169414,2,0,B|209:301|209:301|195:274,5,45.0000017166138,10|0|0|0|0|0,0:0|0:0|0:0|1:2|0:0|0:0,0:0:0:0:
159,216,170104,2,0,B|180:202|180:202|210:203,4,45.0000017166138,10|0|0|0|0,0:0|0:0|0:0|0:0|0:0,0:0:0:0:
116,283,170678,5,0,0:0:0:0:
116,283,170793,2,0,B|94:296|94:296|49:296,1,45.0000017166138,10|0,0:0|0:0,0:0:0:0:
0,50,171023,1,0,0:0:0:0:
0,50,171138,2,0,B|37:175|37:175|77:218,1,180.000006866455,2|0,1:2|0:0,0:0:0:0:
159,216,171483,6,0,B|176:200|176:200|198:196,1,45.0000017166138,10|0,0:0|0:0,0:0:0:0:
259,152,171712,1,0,0:0:0:0:
281,78,171828,2,0,B|303:85|303:85|317:102,1,45.0000017166138,2|0,0:0|0:0,0:0:0:0:
386,134,172057,1,0,0:0:0:0:
461,114,172173,2,0,B|465:136|465:136|458:158,1,45.0000017166138,10|0,0:0|0:0,0:0:0:0:
465,233,172402,1,0,0:0:0:0:
388,323,172517,6,0,B|372:283|372:283|371:268,2,45.0000017166138,2|0|0,1:2|0:0|0:0,0:0:0:0:
274,370,172862,2,0,B|290:330|290:330|291:315,2,45.0000017166138,10|0|0,0:0|0:0|0:0,0:0:0:0:
189,333,173207,2,0,B|173:293|173:293|172:278,2,45.0000017166138,0|0|0,0:0|0:0|1:2,0:0:0:0:
71,377,173552,2,0,B|87:337|87:337|88:322,2,45.0000017166138,10|0|0,0:0|0:0|0:0,0:0:0:0:
30,245,173897,6,0,B|70:248|70:248|202:188,1,180.000006866455,2|0,1:2|0:0,0:0:0:0:
278,204,174241,6,0,L|291:134,1,45.0000017166138,10|0,0:0|0:0,0:0:0:0:
282,259,174931,2,0,L|269:189,1,45.0000017166138,10|0,0:0|0:0,0:0:0:0:
280,313,175621,2,0,L|293:243,1,45.0000017166138,10|0,0:0|0:0,0:0:0:0:
286,366,176195,1,0,1:2:0:0:
286,366,176311,2,0,L|273:296,1,45.0000017166138,10|0,0:0|0:0,0:0:0:0:
175,291,176540,5,0,0:0:0:0:
175,291,176655,1,6,1:2:0:0:
50,188,177000,1,8,0:0:0:0:
45,164,177690,1,8,0:0:0:0:
120,121,178035,1,0,1:2:0:0:
40,140,178379,1,8,0:0:0:0:
35,116,178954,1,0,1:2:0:0:
35,116,179069,2,0,L|16:13,1,90.0000034332277,8|0,0:0|0:0,0:0:0:0:
19,28,179414,5,2,1:2:0:0:
163,186,179759,1,8,0:0:0:0:
158,210,180449,1,8,0:0:0:0:
233,253,180794,1,0,1:2:0:0:
153,234,181138,1,8,0:0:0:0:
148,258,181713,1,0,1:2:0:0:
148,258,181828,2,0,L|136:321,1,48,8|0,0:0|0:0,0:0:0:0:
125,378,182172,5,2,1:2:0:0:
233,253,182517,1,8,0:0:0:0:
238,229,183207,1,0,0:0:0:0:
163,186,183552,1,0,1:2:0:0:
243,205,183896,1,8,0:0:0:0:
248,181,184471,1,0,1:2:0:0:
248,181,184586,2,0,L|267:74,1,90.0000034332277,8|0,0:0|0:0,0:0:0:0:
264,92,184931,5,2,1:2:0:0:
376,156,185276,1,8,0:0:0:0:
371,132,185966,1,8,0:0:0:0:
446,89,186311,1,0,1:2:0:0:
366,108,186655,1,8,0:0:0:0:
361,84,187230,1,0,1:2:0:0:
361,84,187345,2,0,L|349:30,1,53.9999983520508,12|0,0:0|0:0,0:0:0:0:
