osu file format v14

[General]
AudioFilename: audio.mp3
AudioLeadIn: 0
PreviewTime: 42844
Countdown: 0
SampleSet: Soft
StackLeniency: 0.2
Mode: 0
LetterboxInBreaks: 0
EpilepsyWarning: 1
WidescreenStoryboard: 1

[Editor]
Bookmarks: 11120,22154,27672,33189,38706,44223,55258,66292,77327,88361,99396
DistanceSpacing: 1.1
BeatDivisor: 2
GridSize: 16
TimelineZoom: 2.899999

[Metadata]
Title:BARRICADE (Cut Ver.)
TitleUnicode:BARRICADE (Cut Ver.)
Artist:REAPER
ArtistUnicode:REAPER
Creator:Pandize
Version:Stingy's ADVANCED
Source:
Tags:Electronic Monstercat edm Instrumental DnB Dance Wub English JrSzZ Moko Garden Stingy
BeatmapID:2441474
BeatmapSetID:1157441

[Difficulty]
HPDrainRate:4
CircleSize:3.2
OverallDifficulty:5
ApproachRate:6
SliderMultiplier:1.4
SliderTickRate:1

[Events]
//Background and Video events
0,0,"khyzyl-saleem-rex-ny-final-web.jpg",0,0
//Break Periods
//Storyboard Layer 0 (Background)
//Storyboard Layer 1 (Fail)
//Storyboard Layer 2 (Pass)
//Storyboard Layer 3 (Foreground)
Sprite,Foreground,Centre,"SB\carbluenow.png",320,240 S,0,11120,,0.4850907 F,0,66206,66379,0,1 M,0,66379,,294.9818,265.6 F,0,66379,,1 F,0,66379,,1 F,0,66379,88275,1 F,0,88275,88448,1,0
Sprite,Foreground,Centre,"SB\bgflash.jpg",320,240 F,2,66206,66292,0,0.4472728 S,0,66206,66292,0.4821818,0.4879999 C,0,66206,66464,255,185,185,191,223,255 F,2,66292,66464,0.4472728,0 S,1,66292,66464,0.4879999,0.4996364
Sprite,Foreground,Centre,"SB\bgflash.jpg",320,240 F,2,88275,88361,0,0.4472728 S,0,88275,88361,0.4821818,0.4879999 C,0,88275,88533,255,185,185,191,223,255 F,2,88361,88533,0.4472728,0 S,1,88361,88533,0.4879999,0.4996364
//Storyboard Layer 4 (Overlay)
//Storyboard Sound Samples

[TimingPoints]
86,344.827586206897,4,2,1,50,1,0
11120,-100,4,2,1,60,0,0
22154,-100,4,2,1,70,0,0
46982,-90.9090909090909,4,2,1,90,0,1
53879,-100,4,2,1,90,0,0
55258,-100,4,2,1,70,0,0
58017,-90.9090909090909,4,2,1,90,0,1
64913,-100,4,2,1,70,0,0
66292,-90.9090909090909,4,2,1,90,0,1
75948,-100,4,2,1,100,0,0
77327,-100,4,2,1,70,0,0
80086,-90.9090909090909,4,2,1,90,0,1
86982,-100,4,2,1,90,0,1
88361,-100,4,2,1,70,0,0
99396,-100,4,2,1,60,0,0
104913,-100,4,2,1,50,0,0

[Colours]
Combo1 : 209,132,255
Combo2 : 255,0,0
Combo3 : 255,163,70
Combo4 : 141,70,63
Combo5 : 255,255,108
Combo6 : 0,128,255
Combo7 : 108,255,255
Combo8 : 33,92,152
SliderBorder : 255,255,255
SliderTrackOverride : 56,56,56

[HitObjects]
35,313,86,6,0,B|147:361|131:265|243:313,1,210,4|0,1:1|0:0,0:0:0:0:
308,362,775,1,0,0:0:0:0:
308,362,948,2,0,P|283:303|308:232,1,140,0|0,0:0|0:0,0:0:0:0:
363,172,1465,2,0,P|388:113|363:42,1,140,0|0,0:0|0:0,0:0:0:0:
286,13,1982,2,0,L|76:22,1,210,0|0,0:0|0:0,0:0:0:0:
0,172,2844,6,0,L|210:181,1,210,0|0,0:0|0:0,0:0:0:0:
285,229,3534,1,0,0:0:0:0:
285,229,3706,2,0,P|260:170|285:99,1,140,0|0,0:0|0:0,0:0:0:0:
362,71,4223,2,0,P|421:95|453:162,1,140,0|0,0:0|0:0,0:0:0:0:
437,243,4741,2,0,B|403:278|403:278|223:270,1,210,0|0,0:0|0:0,0:0:0:0:
95,352,5603,6,0,L|87:134,1,210,0|0,0:0|0:0,0:0:0:0:
28,83,6292,1,0,0:0:0:0:
28,83,6465,2,0,P|91:61|159:101,1,140,0|0,0:0|0:0,0:0:0:0:
185,170,6982,2,0,L|179:315,1,140,0|0,0:0|0:0,0:0:0:0:
246,361,7499,2,0,B|338:339|338:339|359:343|359:343|459:320,1,210,0|0,0:0|0:0,0:0:0:0:
455,152,8361,6,0,P|392:130|324:170,1,140,0|0,0:0|0:0,0:0:0:0:
274,226,8879,1,0,0:0:0:0:
274,226,9051,2,0,P|211:248|143:208,1,140,0|0,0:0|0:0,0:0:0:0:
104,151,9568,1,0,0:0:0:0:
104,151,9741,2,0,L|28:157,2,70,0|0|0,0:0|0:0|0:0,0:0:0:0:
159,88,10258,1,0,0:0:0:0:
159,88,10430,2,0,P|222:66|290:106,1,140,0|0,0:0|0:0,0:0:0:0:
231,288,11120,70,0,L|217:136,1,140,2|8,0:2|0:2,0:0:0:0:
371,218,11810,2,0,L|363:307,2,70,0|2|8,0:0|0:2|0:2,0:0:0:0:
448,68,12499,2,0,L|296:82,1,140,2|8,0:2|0:2,0:0:0:0:
146,33,13189,2,0,L|154:122,2,70,0|2|8,0:0|0:2|0:2,0:0:0:0:
245,169,13879,6,0,P|265:243|245:301,1,140,2|8,0:2|0:2,0:0:0:0:
88,238,14568,2,0,L|178:230,2,70,0|2|8,0:0|0:2|0:2,0:0:0:0:
180,96,15258,2,0,P|254:76|312:96,1,140,2|8,0:2|0:2,0:0:0:0:
440,204,15947,2,0,L|432:293,2,70,0|2|8,0:0|0:2|0:2,0:0:0:0:
378,151,16465,1,0,0:0:0:0:
378,151,16637,6,0,B|351:175|351:175|243:165,1,140,2|8,0:2|0:2,0:0:0:0:
132,42,17327,2,0,L|62:48,2,70,0|2|8,0:0|0:2|0:2,0:0:0:0:
7,155,18017,2,0,B|34:179|34:179|142:169,1,140,2|8,0:2|0:2,0:0:0:0:
253,46,18706,2,0,L|322:52,2,70,0|2|8,0:0|0:2|0:2,0:0:0:0:
137,169,19396,6,0,P|123:244|149:305,1,140,2|8,0:2|0:2,0:0:0:0:
295,222,20086,2,0,L|225:228,2,70,0|2|8,0:0|0:2|0:2,0:0:0:0:
366,265,20603,1,0,0:0:0:0:
366,265,20775,2,0,P|371:192|322:141,1,140,2|8,0:2|0:2,0:0:0:0:
371,71,21292,2,0,P|298:66|247:115,1,140,0|2,0:0|0:2,0:0:0:0:
259,191,21810,1,8,0:2:0:0:
120,97,22154,70,0,B|95:131|95:131|105:239,1,140,2|8,2:3|0:3,0:0:0:0:
58,299,22672,1,0,0:0:0:0:
58,299,22844,2,0,P|91:311|134:307,1,70,0|0,0:0|0:0,0:0:0:0:
186,251,23189,2,0,P|219:239|262:243,1,70,8|0,0:3|0:0,0:0:0:0:
323,287,23534,2,0,B|298:253|298:253|308:145,1,140,0|8,2:0|0:3,0:0:0:0:
350,83,24051,2,0,B|316:108|316:108|208:98,1,140,0|0,2:0|0:0,0:0:0:0:
134,90,24568,1,8,0:3:0:0:
91,252,24913,6,0,L|162:245,1,70,2|0,3:3|0:0,0:0:0:0:
219,184,25258,2,0,L|290:191,1,70,2|0,3:3|0:0,0:0:0:0:
288,190,26292,6,0,P|309:229|256:320,1,140,2|0,3:3|1:0,0:0:0:0:
189,302,26810,2,0,P|168:263|221:172,1,140,2|0,3:3|1:0,0:0:0:0:
288,190,27327,2,0,L|365:199,1,70,0|0,0:0|0:0,0:0:0:0:
424,249,27672,86,0,P|438:180|398:122,1,140,2|8,0:3|0:3,0:0:0:0:
326,99,28189,1,0,0:0:0:0:
326,99,28361,2,0,L|249:108,1,70,0|0,0:0|0:0,0:0:0:0:
187,155,28706,2,0,L|110:146,1,70,8|0,0:3|0:0,0:0:0:0:
50,95,29051,2,0,P|36:164|76:222,1,140,0|8,0:0|0:3,0:0:0:0:
20,286,29568,2,0,P|89:300|147:260,1,140,0|0,0:0|0:0,0:0:0:0:
146,179,30086,1,8,0:3:0:0:
264,297,30430,6,0,L|272:227,1,70,2|0,3:3|0:0,0:0:0:0:
356,234,30775,2,0,L|347:311,1,70,2|0,3:3|0:0,0:0:0:0:
347,303,31810,6,0,L|501:285,1,140,2|0,3:3|1:0,0:0:0:0:
497,203,32327,2,0,L|343:221,1,140,2|0,3:3|1:0,0:0:0:0:
370,135,32844,2,0,L|447:126,1,70,0|0,0:0|0:0,0:0:0:0:
471,48,33189,86,0,P|402:86|343:76,1,140,2|8,2:3|0:3,0:0:0:0:
267,40,33706,1,0,0:0:0:0:
267,40,33879,2,0,P|229:36|196:43,1,70,0|2,0:0|0:2,0:0:0:0:
146,108,34223,2,0,P|142:146|149:179,1,70,8|0,0:3|0:0,0:0:0:0:
200,243,34568,2,0,B|340:235,1,140,2|8,2:2|0:3,0:0:0:0:
358,317,35086,2,0,B|218:325,1,140,0|2,2:0|0:2,0:0:0:0:
146,369,35603,2,0,B|64:364,1,70,8|0,0:3|0:0,0:0:0:0:
12,309,35948,6,0,P|-7:240|18:166,1,140,2|8,0:2|0:3,0:0:0:0:
85,132,36465,1,0,0:0:0:0:
85,132,36637,2,0,B|167:137,1,70,0|2,0:0|0:2,0:0:0:0:
210,199,36982,2,0,B|292:194,1,70,8|0,0:3|0:0,0:0:0:0:
352,152,37327,2,0,P|358:222|311:272,1,140,2|8,2:2|0:3,0:0:0:0:
356,343,37844,2,0,P|286:349|236:302,1,140,0|2,2:0|0:2,0:0:0:0:
165,347,38361,2,0,P|155:316|160:274,1,70,8|0,0:3|0:0,0:0:0:0:
199,205,38706,6,0,P|131:198|80:243,1,140,2|2,0:2|0:2,0:0:0:0:
27,83,39396,2,0,L|180:91,1,140,2|2,0:2|0:2,0:0:0:0:
335,95,40086,2,0,P|325:126|330:168,1,70,2|2,0:2|0:2,0:0:0:0:
366,237,40430,2,0,P|376:268|371:310,1,70,2|2,0:2|0:2,0:0:0:0:
311,362,40775,2,0,L|221:357,1,70,2|2,0:2|0:2,0:0:0:0:
168,315,41120,2,0,L|78:319,1,70,2|2,0:2|0:2,0:0:0:0:
13,322,41465,5,2,2:3:0:0:
13,322,44223,86,0,B|7:288|7:288|19:252,1,70,2|0,1:3|0:0,0:0:0:0:
47,175,44568,2,0,B|53:141|53:141|41:105,1,70,2|0,1:3|0:0,0:0:0:0:
41,107,45603,6,0,B|62:125|62:125|178:116,1,140,2|0,0:3|0:0,0:0:0:0:
237,60,46120,2,0,B|258:42|258:42|374:51,1,140,2|0,0:3|0:0,0:0:0:0:
453,62,46637,1,0,0:0:0:0:
487,243,46982,86,0,B|407:211|407:275|327:243,1,154.000004699707,2|8,0:3|0:0,0:0:0:0:
198,344,47672,2,0,P|192:318|199:268,1,77.0000023498536,0|2,0:0|0:3,0:0:0:0:
234,191,48017,2,0,P|240:165|233:115,1,77.0000023498536,8|0,0:0|0:0,0:0:0:0:
191,42,48361,2,0,B|271:10|271:74|351:42,1,154.000004699707,2|8,0:3|0:0,0:0:0:0:
419,14,48879,2,0,L|432:171,1,154.000004699707,2|2,0:3|0:3,0:0:0:0:
437,252,49396,1,8,0:0:0:0:
307,361,49741,6,0,L|320:204,1,154.000004699707,2|8,0:3|0:0,0:0:0:0:
228,64,50430,2,0,L|235:155,1,77.0000023498536,0|2,0:0|0:3,0:0:0:0:
152,164,50775,2,0,L|144:72,1,77.0000023498536,8|0,0:0|0:0,0:0:0:0:
62,103,51120,2,0,L|75:260,1,154.000004699707,2|8,0:3|0:0,0:0:0:0:
27,327,51637,2,0,P|105:334|156:279,1,154.000004699707,2|2,0:3|0:3,0:0:0:0:
155,198,52154,1,8,0:0:0:0:
312,259,52499,6,0,L|320:167,1,77.0000023498536,2|0,0:3|0:0,0:0:0:0:
239,151,52844,2,0,L|231:243,1,77.0000023498536,8|0,0:0|0:0,0:0:0:0:
155,198,53189,2,0,L|163:106,1,77.0000023498536,0|2,0:0|0:3,0:0:0:0:
82,90,53534,2,0,L|74:182,1,77.0000023498536,8|0,0:0|0:0,0:0:0:0:
64,250,53879,5,2,0:3:0:0:
64,250,54913,1,8,2:1:0:0:
192,335,55258,70,0,B|202:321|202:321|195:263,1,70,2|0,0:3|0:0,0:0:0:0:
182,185,55603,2,0,B|175:132|175:132|185:118,1,70,2|0,0:3|0:0,0:0:0:0:
185,118,56637,6,0,B|246:114|246:114|269:122|269:122|325:118,1,140,2|0,0:3|0:0,0:0:0:0:
373,50,57154,2,0,P|344:110|373:176,1,140,2|0,0:3|2:0,0:0:0:0:
449,205,57672,1,0,3:0:0:0:
355,346,58017,102,0,L|195:337,1,154.000004699707,2|8,0:3|0:0,0:0:0:0:
79,219,58706,2,0,L|-17:224,2,77.0000023498536,0|2|8,0:3|0:3|0:0,0:0:0:0:
150,265,59223,1,0,0:0:0:0:
150,265,59396,2,0,P|156:185|102:134,1,154.000004699707,2|8,0:3|0:0,0:0:0:0:
23,122,59913,2,0,P|103:128|154:74,1,154.000004699707,2|2,0:3|0:3,0:0:0:0:
183,0,60430,1,8,0:0:0:0:
334,76,60775,6,0,L|326:233,1,154.000004699707,2|8,0:3|0:0,0:0:0:0:
163,278,61465,2,0,P|154:244|160:197,2,77.0000023498536,0|2|8,0:0|0:3|0:0,0:0:0:0:
231,337,61982,1,0,0:0:0:0:
231,337,62154,2,0,B|305:304|316:360|382:333,1,154.000004699707,2|8,0:3|0:0,0:0:0:0:
437,269,62672,2,0,L|429:112,1,154.000004699707,2|2,0:3|0:3,0:0:0:0:
423,30,63189,1,8,0:0:0:0:
313,159,63534,6,0,L|316:82,1,77.0000023498536,2|0,0:3|0:0,0:0:0:0:
232,91,63879,2,0,L|228:167,1,77.0000023498536,8|0,0:0|0:0,0:0:0:0:
144,177,64223,2,0,L|147:100,1,77.0000023498536,2|2,0:3|0:3,0:0:0:0:
63,109,64568,2,0,L|59:185,1,77.0000023498536,2|2,0:3|0:3,0:0:0:0:
53,270,64913,6,0,P|126:295|157:360,1,140,0|0,0:0|2:0,0:0:0:0:
239,347,65430,2,0,P|275:289|341:270,1,140,0|0,2:0|2:0,0:0:0:0:
421,296,65948,1,8,2:1:0:0:
446,216,66120,1,2,0:3:0:0:
379,164,66292,6,0,L|300:169,1,77.0000023498536,2|0,0:3|0:0,0:0:0:0:
233,219,66637,2,0,L|154:214,1,77.0000023498536,8|0,0:1|0:0,0:0:0:0:
86,262,66982,2,0,P|76:187|129:132,1,154.000004699707,0|8,0:0|0:1,0:0:0:0:
210,123,67499,1,0,0:0:0:0:
210,123,67672,6,0,L|289:128,1,77.0000023498536,2|0,0:3|0:0,0:0:0:0:
347,187,68017,2,0,L|426:182,1,77.0000023498536,8|0,0:1|0:0,0:0:0:0:
481,120,68361,1,0,0:0:0:0:
481,120,68534,2,0,L|469:276,1,154.000004699707,2|0,0:3|0:0,0:0:0:0:
400,324,69051,6,0,B|333:319|333:319|310:331|310:331|237:325,1,154.000004699707,2|8,0:3|0:1,0:0:0:0:
130,204,69741,2,0,L|125:125,1,77.0000023498536,0|2,0:0|0:3,0:0:0:0:
206,102,70086,2,0,L|211:181,1,77.0000023498536,8|0,0:1|0:0,0:0:0:0:
274,233,70430,6,0,L|444:225,1,154.000004699707,2|8,0:3|0:1,0:0:0:0:
446,142,70948,2,0,L|276:150,1,154.000004699707,2|2,0:3|0:3,0:0:0:0:
308,65,71465,2,0,L|415:59,1,77.0000023498536,8|0,0:1|0:0,0:0:0:0:
457,17,71810,70,0,P|467:57|463:95,1,77.0000023498536,2|0,0:3|0:0,0:0:0:0:
426,168,72154,2,0,P|416:208|420:246,1,77.0000023498536,8|0,0:1|0:0,0:0:0:0:
465,314,72499,2,0,P|404:276|333:306,1,154.000004699707,0|8,0:0|0:1,0:0:0:0:
277,369,73017,1,0,0:0:0:0:
277,369,73189,6,0,L|200:364,1,77.0000023498536,2|0,0:3|0:0,0:0:0:0:
171,283,73534,2,0,L|248:278,1,77.0000023498536,8|2,0:1|0:3,0:0:0:0:
308,218,73879,1,0,0:0:0:0:
308,218,74051,2,0,P|333:159|300:78,1,154.000004699707,2|0,0:3|0:0,0:0:0:0:
247,13,74568,6,0,P|222:46|215:81,1,77.0000023498536,2|0,0:3|0:0,0:0:0:0:
130,73,74913,2,0,P|135:114|155:143,1,77.0000023498536,8|0,0:1|0:0,0:0:0:0:
222,194,75258,2,0,P|189:219|154:226,1,77.0000023498536,0|2,0:0|0:3,0:0:0:0:
162,311,75603,2,0,P|120:305|91:285,1,77.0000023498536,8|0,0:1|0:0,0:0:0:0:
73,202,75948,5,2,0:3:0:0:
73,202,76982,1,8,0:2:0:0:
216,144,77327,70,0,L|222:219,1,70,2|0,0:3|0:0,0:0:0:0:
274,279,77672,2,0,L|268:354,1,70,2|0,0:3|0:0,0:0:0:0:
268,348,78706,6,0,P|297:355|339:350,1,70,2|0,0:3|0:0,0:0:0:0:
402,298,79051,2,0,P|431:291|473:296,1,70,2|0,0:3|0:0,0:0:0:0:
470,295,80086,102,0,B|447:256|447:256|459:142,1,154.000004699707,2|8,0:3|0:1,0:0:0:0:
336,53,80775,2,0,L|345:139,1,77.0000023498536,0|2,0:0|0:3,0:0:0:0:
263,155,81120,2,0,L|253:68,1,77.0000023498536,8|0,0:1|0:0,0:0:0:0:
172,98,81465,6,0,L|190:270,1,154.000004699707,2|8,0:3|0:1,0:0:0:0:
248,311,81982,2,0,P|185:334|111:285,1,154.000004699707,2|2,0:3|0:3,0:0:0:0:
32,313,82499,2,0,P|31:273|49:235,1,77.0000023498536,8|0,0:1|0:0,0:0:0:0:
25,157,82844,6,0,P|65:156|103:174,1,77.0000023498536,2|0,0:3|0:0,0:0:0:0:
165,222,83189,2,0,P|205:223|243:205,1,77.0000023498536,8|0,0:1|0:0,0:0:0:0:
294,144,83534,2,0,B|319:129|319:129|461:140,1,154.000004699707,0|8,0:0|0:1,0:0:0:0:
494,213,84051,1,0,0:0:0:0:
494,213,84223,6,0,P|495:253|477:291,1,77.0000023498536,2|0,0:3|0:0,0:0:0:0:
503,368,84568,2,0,P|463:369|425:351,1,77.0000023498536,8|2,0:1|0:3,0:0:0:0:
370,301,84913,1,0,0:0:0:0:
370,301,85086,2,0,P|291:279|223:308,1,154.000004699707,2|0,0:3|0:0,0:0:0:0:
162,360,85603,70,0,L|84:364,1,77.0000023498536,2|0,0:3|0:0,0:0:0:0:
69,280,85948,2,0,L|147:276,1,77.0000023498536,8|0,0:1|0:0,0:0:0:0:
132,192,86292,2,0,L|54:196,1,77.0000023498536,0|2,0:0|0:3,0:0:0:0:
39,112,86637,2,0,L|117:108,1,77.0000023498536,8|0,0:1|0:3,0:0:0:0:
148,30,86982,6,0,B|177:50|177:50|294:45,1,140,0|0,0:0|2:0,0:0:0:0:
329,115,87499,2,0,B|358:95|358:95|475:100,1,140,0|0,2:0|2:0,0:0:0:0:
496,176,88017,1,8,2:1:0:0:
449,245,88189,1,2,0:3:0:0:
401,313,88361,38,0,L|243:325,1,140,6|0,0:2|0:0,0:0:0:0:
192,284,88879,1,0,0:0:0:0:
192,284,89051,2,0,L|81:293,2,70,0|0|0,0:0|0:0|0:0,0:0:0:0:
266,241,89568,1,0,0:0:0:0:
266,241,89741,2,0,P|281:169|247:114,1,140,0|0,0:0|0:0,0:0:0:0:
303,51,90258,2,0,P|206:42|167:135,1,210,0|0,0:0|0:0,0:0:0:0:
202,297,91120,6,0,L|365:283,1,140,0|0,0:0|0:0,0:0:0:0:
413,239,91637,1,0,0:0:0:0:
413,239,91810,2,0,L|501:246,2,70,0|0|0,0:0|0:0|0:0,0:0:0:0:
342,203,92327,1,0,0:0:0:0:
342,203,92499,2,0,P|307:136|309:58,1,140,0|0,0:0|0:0,0:0:0:0:
220,71,93017,2,0,P|209:139|84:170,1,210,0|0,0:0|0:0,0:0:0:0:
24,327,93879,6,0,L|182:338,1,140,0|0,0:0|0:0,0:0:0:0:
244,306,94396,1,0,0:0:0:0:
244,306,94568,2,0,L|337:312,2,70,0|0|0,0:0|0:0|0:0,0:0:0:0:
174,257,95086,1,0,0:0:0:0:
174,257,95258,2,0,B|151:192|151:192|211:123,1,140,0|0,0:0|0:0,0:0:0:0:
194,54,95775,2,0,B|294:30|294:30|362:132,1,210,0|0,0:0|0:0,0:0:0:0:
438,264,96637,6,0,L|291:256,1,140,0|0,0:0|0:0,0:0:0:0:
227,301,97154,1,0,0:0:0:0:
227,301,97327,2,0,L|142:296,2,70,0|0|0,0:0|0:0|0:0,0:0:0:0:
298,256,97844,1,0,0:0:0:0:
298,256,98017,2,0,P|315:182|278:125,1,140,0|0,0:0|0:0,0:0:0:0:
236,60,98534,2,0,P|146:58|91:168,1,210,0|0,0:0|0:0,0:0:0:0:
35,313,99396,70,0,B|147:361|131:265|243:313,1,210,0|0,0:0|0:0,0:0:0:0:
308,362,100085,1,0,0:0:0:0:
308,362,100258,2,0,P|283:303|308:232,1,140,0|0,0:0|0:0,0:0:0:0:
363,172,100775,2,0,P|388:113|363:42,1,140,0|0,0:0|0:0,0:0:0:0:
286,13,101292,2,0,L|76:22,1,210,0|0,0:0|0:0,0:0:0:0:
0,172,102154,6,0,L|210:181,1,210,0|0,0:0|0:0,0:0:0:0:
285,229,102844,1,0,0:0:0:0:
285,229,103016,2,0,P|260:170|285:99,1,140,0|0,0:0|0:0,0:0:0:0:
362,71,103534,2,0,P|421:95|453:162,1,140,0|0,0:0|0:0,0:0:0:0:
437,243,104051,2,0,B|403:278|403:278|223:270,1,210,0|0,0:0|0:0,0:0:0:0:
95,352,104913,6,0,L|87:134,1,210,0|0,0:0|0:0,0:0:0:0:
28,83,105602,1,0,0:0:0:0:
28,83,105775,2,0,P|91:61|159:101,1,140,0|0,0:0|0:0,0:0:0:0:
185,170,106292,2,0,L|179:315,1,140,0|0,0:0|0:0,0:0:0:0:
246,361,106809,2,0,B|338:339|338:339|359:343|359:343|459:320,1,210,0|0,0:0|0:0,0:0:0:0:
455,152,107672,6,0,P|392:130|309:229,1,210,0|0,0:0|0:0,0:0:0:0:
243,277,108361,1,0,0:0:0:0:
243,277,108534,2,0,L|92:264,1,140,0|0,0:0|0:0,0:0:0:0:
89,181,109051,2,0,L|240:194,1,140,0|0,0:0|0:0,0:0:0:0:
255,113,109568,2,0,L|19:92,1,210,0|0,0:0|0:0,0:0:0:0:
14,16,110258,1,0,0:0:0:0:
