osu file format v14

[General]
AudioFilename: audio.mp3
AudioLeadIn: 0
PreviewTime: 42844
Countdown: 0
SampleSet: Soft
StackLeniency: 0.3
Mode: 0
LetterboxInBreaks: 0
EpilepsyWarning: 1
WidescreenStoryboard: 1

[Editor]
Bookmarks: 11120,12586,22154,23361,27672,33189,38706,44223,55258,66292,77327,88361,99396
DistanceSpacing: 1
BeatDivisor: 4
GridSize: 4
TimelineZoom: 3.399999

[Metadata]
Title:BARRICADE (Cut Ver.)
TitleUnicode:BARRICADE (Cut Ver.)
Artist:REAPER
ArtistUnicode:REAPER
Creator:Pandize
Version:LIGHT INSANE
Source:
Tags:Electronic Monstercat edm Instrumental DnB Dance Wub English JrSzZ Moko Garden Stingy
BeatmapID:2616114
BeatmapSetID:1157441

[Difficulty]
HPDrainRate:5
CircleSize:3.8
OverallDifficulty:7
ApproachRate:8.6
SliderMultiplier:1.4
SliderTickRate:1

[Events]
//Background and Video events
0,0,"khyzyl-saleem-rex-ny-final-web.jpg",0,0
//Break Periods
//Storyboard Layer 0 (Background)
//Storyboard Layer 1 (Fail)
//Storyboard Layer 2 (Pass)
//Storyboard Layer 3 (Foreground)
Sprite,Foreground,Centre,"SB\carbluenow.png",320,240 S,0,11120,,0.4850907 F,0,66206,66379,0,1 M,0,66379,,294.9818,265.6 F,0,66379,,1 F,0,66379,,1 F,0,66379,88275,1 F,0,88275,88448,1,0
Sprite,Foreground,Centre,"SB\bgflash.jpg",320,240 F,2,66206,66292,0,0.4472728 S,0,66206,66292,0.4821818,0.4879999 C,0,66206,66464,255,185,185,191,223,255 F,2,66292,66464,0.4472728,0 S,1,66292,66464,0.4879999,0.4996364
Sprite,Foreground,Centre,"SB\bgflash.jpg",320,240 F,2,88275,88361,0,0.4472728 S,0,88275,88361,0.4821818,0.4879999 C,0,88275,88533,255,185,185,191,223,255 F,2,88361,88533,0.4472728,0 S,1,88361,88533,0.4879999,0.4996364
//Storyboard Layer 4 (Overlay)
//Storyboard Sound Samples

[TimingPoints]
86,344.827586206897,4,2,1,100,1,0
86,-133.333333333333,4,2,1,100,0,0
430,-133.333333333333,4,2,1,40,0,0
2844,-133.333333333333,4,2,1,50,0,0
5603,-100,4,2,1,60,0,0
8361,-133.333333333333,4,2,1,70,0,0
11120,-80,4,2,1,100,0,0
22154,-80,4,2,1,100,0,0
22413,-80,4,2,1,5,0,0
22499,-80,4,2,1,100,0,0
22758,-80,4,2,1,5,0,0
22844,-80,4,2,1,100,0,0
22930,-80,4,2,1,5,0,0
23017,-80,4,2,1,100,0,0
23103,-80,4,2,1,5,0,0
23189,-80,4,2,1,100,0,0
23448,-80,4,2,1,5,0,0
23534,-80,4,2,1,100,0,0
23792,-80,4,2,1,5,0,0
23879,-80,4,2,1,100,0,0
24310,-80,4,2,1,5,0,0
24396,-80,4,2,1,100,0,0
24482,-80,4,2,1,5,0,0
24568,-80,4,2,1,100,0,0
24827,-80,4,2,1,5,0,0
24913,-80,4,2,1,100,0,0
25172,-80,4,2,1,5,0,0
25258,-80,4,2,1,100,0,0
25517,-80,4,2,1,5,0,0
25603,-80,4,2,1,100,0,0
26551,-80,4,2,1,5,0,0
26637,-80,4,2,1,100,0,0
26723,-80,4,2,1,5,0,0
26810,-80,4,2,1,100,0,0
27068,-80,4,2,1,5,0,0
27154,-80,4,2,1,100,0,0
27930,-80,4,2,1,100,0,0
27931,-80,4,2,1,5,0,0
28017,-80,4,2,1,100,0,0
28276,-80,4,2,1,5,0,0
28362,-80,4,2,1,100,0,0
28448,-80,4,2,1,5,0,0
28535,-80,4,2,1,100,0,0
28621,-80,4,2,1,5,0,0
28707,-80,4,2,1,100,0,0
28966,-80,4,2,1,5,0,0
29052,-80,4,2,1,100,0,0
29310,-80,4,2,1,5,0,0
29397,-80,4,2,1,100,0,0
29828,-80,4,2,1,5,0,0
29914,-80,4,2,1,100,0,0
30000,-80,4,2,1,5,0,0
30086,-80,4,2,1,100,0,0
30345,-80,4,2,1,5,0,0
30430,-80,4,2,1,100,0,0
30689,-80,4,2,1,100,0,0
30690,-80,4,2,1,5,0,0
30775,-80,4,2,1,5,0,0
30776,-80,4,2,1,100,0,0
31034,-80,4,2,1,100,0,0
31035,-80,4,2,1,5,0,0
31120,-80,4,2,1,100,0,0
32069,-80,4,2,1,5,0,0
32155,-80,4,2,1,100,0,0
32241,-80,4,2,1,5,0,0
32328,-80,4,2,1,100,0,0
32586,-80,4,2,1,5,0,0
32672,-80,4,2,1,100,0,0
33448,-80,4,2,1,5,0,0
33534,-80,4,2,1,100,0,0
34482,-80,4,2,1,5,0,0
34568,-80,4,2,1,100,0,0
34827,-80,4,2,1,5,0,0
34913,-80,4,2,1,100,0,0
35344,-80,4,2,1,5,0,0
35430,-80,4,2,1,100,0,0
35517,-80,4,2,1,5,0,0
35603,-80,4,2,1,100,0,0
35861,-80,4,2,1,5,0,0
35948,-80,4,2,1,100,0,0
36206,-80,4,2,1,5,0,0
36292,-80,4,2,1,100,0,0
36551,-80,4,2,1,5,0,0
36637,-80,4,2,1,100,0,0
36723,-80,4,2,1,5,0,0
36810,-80,4,2,1,100,0,0
36896,-80,4,2,1,5,0,0
36982,-80,4,2,1,100,0,0
37241,-80,4,2,1,5,0,0
37327,-80,4,2,1,100,0,0
37586,-80,4,2,1,5,0,0
37672,-80,4,2,1,100,0,0
38103,-80,4,2,1,5,0,0
38189,-80,4,2,1,100,0,0
38275,-80,4,2,1,5,0,0
38361,-80,4,2,1,100,0,0
38620,-80,4,2,1,5,0,0
38706,-80,4,2,1,100,0,0
41465,-100,4,2,1,100,0,0
44223,-100,4,1,1,100,0,0
44482,-100,4,1,1,5,0,0
44568,-100,4,1,1,100,0,0
44827,-100,4,1,1,5,0,0
44913,-100,4,1,1,100,0,0
44999,-100,4,1,1,5,0,0
45086,-100,4,1,1,100,0,0
45172,-100,4,1,1,5,0,0
45258,-100,4,1,1,100,0,0
45344,-100,4,1,1,5,0,0
45430,-100,4,1,1,100,0,0
45517,-100,4,1,1,5,0,0
45603,-100,4,1,1,100,0,0
45861,-100,4,1,1,5,0,0
45948,-100,4,1,1,100,0,0
46034,-100,4,1,1,5,0,0
46120,-100,4,1,1,100,0,0
46379,-100,4,1,1,5,0,0
46465,-100,4,1,1,100,0,0
46551,-100,4,1,1,5,0,0
46637,-100,4,1,1,100,0,0
46723,-100,4,1,1,5,0,0
46810,-100,4,1,1,100,0,0
46896,-100,4,1,1,5,0,0
46982,-66.6666666666667,4,1,1,100,0,1
47241,-66.6666666666667,4,1,1,5,0,1
47327,-66.6666666666667,4,1,1,100,0,1
47586,-66.6666666666667,4,1,1,5,0,1
47672,-66.6666666666667,4,1,1,100,0,1
47758,-66.6666666666667,4,1,1,5,0,1
47844,-66.6666666666667,4,1,1,100,0,1
47930,-66.6666666666667,4,1,1,5,0,1
48017,-66.6666666666667,4,1,1,100,0,1
48103,-66.6666666666667,4,1,1,5,0,1
48189,-66.6666666666667,4,1,1,100,0,1
48275,-66.6666666666667,4,1,1,5,0,1
48361,-66.6666666666667,4,1,1,100,0,1
48620,-66.6666666666667,4,1,1,5,0,1
48706,-66.6666666666667,4,1,1,100,0,1
48792,-66.6666666666667,4,1,1,5,0,1
48879,-66.6666666666667,4,1,1,100,0,1
49137,-66.6666666666667,4,1,1,5,0,1
49223,-66.6666666666667,4,1,1,100,0,1
49310,-66.6666666666667,4,1,1,5,0,1
49396,-66.6666666666667,4,1,1,100,0,1
49482,-66.6666666666667,4,1,1,5,0,1
49568,-66.6666666666667,4,1,1,100,0,1
49654,-66.6666666666667,4,1,1,5,0,1
49741,-66.6666666666667,4,1,1,100,0,1
49999,-66.6666666666667,4,1,1,5,0,1
50086,-66.6666666666667,4,1,1,100,0,1
50344,-66.6666666666667,4,1,1,5,0,1
50430,-66.6666666666667,4,1,1,100,0,1
50517,-66.6666666666667,4,1,1,5,0,1
50603,-66.6666666666667,4,1,1,100,0,1
50689,-66.6666666666667,4,1,1,5,0,1
50775,-66.6666666666667,4,1,1,100,0,1
50861,-66.6666666666667,4,1,1,5,0,1
50948,-66.6666666666667,4,1,1,100,0,1
51034,-66.6666666666667,4,1,1,5,0,1
51120,-66.6666666666667,4,1,1,100,0,1
51379,-66.6666666666667,4,1,1,5,0,1
51465,-66.6666666666667,4,1,1,100,0,1
51551,-66.6666666666667,4,1,1,5,0,1
51637,-66.6666666666667,4,1,1,100,0,1
51896,-66.6666666666667,4,1,1,5,0,1
51982,-66.6666666666667,4,1,1,100,0,1
52068,-66.6666666666667,4,1,1,5,0,1
52154,-66.6666666666667,4,1,1,100,0,1
52241,-66.6666666666667,4,1,1,5,0,1
52327,-66.6666666666667,4,1,1,100,0,1
52413,-66.6666666666667,4,1,1,5,0,1
52499,-66.6666666666667,4,1,1,100,0,1
52758,-66.6666666666667,4,1,1,5,0,1
52844,-66.6666666666667,4,1,1,100,0,1
53103,-66.6666666666667,4,1,1,5,0,1
53189,-66.6666666666667,4,1,1,100,0,1
53275,-66.6666666666667,4,1,1,5,0,1
53361,-66.6666666666667,4,1,1,100,0,1
53448,-66.6666666666667,4,1,1,5,0,1
53534,-66.6666666666667,4,1,1,100,0,1
53620,-66.6666666666667,4,1,1,5,0,1
53706,-66.6666666666667,4,1,1,100,0,1
53792,-66.6666666666667,4,1,1,5,0,1
53879,-100,4,1,1,100,0,0
54051,-100,4,1,1,5,0,0
54137,-100,4,1,1,100,0,0
54310,-100,4,1,1,5,0,0
54396,-100,4,1,1,100,0,0
54568,-100,4,1,1,5,0,0
54654,-100,4,1,1,100,0,0
54827,-100,4,1,1,5,0,0
54913,-133.333333333333,4,1,1,100,0,0
55172,-200,4,1,1,5,0,0
55258,-100,4,1,1,100,0,0
55517,-100,4,1,1,5,0,0
55603,-100,4,1,1,100,0,0
55861,-100,4,1,1,100,0,0
55862,-100,4,1,1,5,0,0
55948,-100,4,1,1,100,0,0
56896,-100,4,1,1,5,0,0
56983,-100,4,1,1,100,0,0
57069,-100,4,1,1,5,0,0
57155,-100,4,1,1,100,0,0
57414,-100,4,1,1,5,0,0
57500,-100,4,1,1,100,0,0
57586,-100,4,1,1,5,0,0
57672,-100,4,1,1,100,0,0
57758,-100,4,1,1,5,0,0
57845,-100,4,1,1,100,0,0
57931,-100,4,1,1,5,0,0
58017,-66.6666666666667,4,1,1,100,0,1
58275,-66.6666666666667,4,1,1,100,0,1
58276,-66.6666666666667,4,1,1,5,0,1
58361,-66.6666666666667,4,1,1,100,0,1
58620,-66.6666666666667,4,1,1,100,0,1
58621,-66.6666666666667,4,1,1,5,0,1
58706,-66.6666666666667,4,1,1,5,0,1
58707,-66.6666666666667,4,1,1,100,0,1
58793,-66.6666666666667,4,1,1,5,0,1
58879,-66.6666666666667,4,1,1,100,0,1
58965,-66.6666666666667,4,1,1,5,0,1
59052,-66.6666666666667,4,1,1,100,0,1
59138,-66.6666666666667,4,1,1,5,0,1
59224,-66.6666666666667,4,1,1,100,0,1
59310,-66.6666666666667,4,1,1,5,0,1
59396,-66.6666666666667,4,1,1,100,0,1
59655,-66.6666666666667,4,1,1,5,0,1
59741,-66.6666666666667,4,1,1,100,0,1
59827,-66.6666666666667,4,1,1,5,0,1
59914,-66.6666666666667,4,1,1,100,0,1
60172,-66.6666666666667,4,1,1,5,0,1
60258,-66.6666666666667,4,1,1,100,0,1
60345,-66.6666666666667,4,1,1,5,0,1
60431,-66.6666666666667,4,1,1,100,0,1
60517,-66.6666666666667,4,1,1,5,0,1
60603,-66.6666666666667,4,1,1,100,0,1
60689,-66.6666666666667,4,1,1,5,0,1
60776,-66.6666666666667,4,1,1,100,0,1
61034,-66.6666666666667,4,1,1,5,0,1
61120,-66.6666666666667,4,1,1,5,0,1
61121,-66.6666666666667,4,1,1,100,0,1
61379,-66.6666666666667,4,1,1,5,0,1
61465,-66.6666666666667,4,1,1,100,0,1
61552,-66.6666666666667,4,1,1,5,0,1
61638,-66.6666666666667,4,1,1,100,0,1
61724,-66.6666666666667,4,1,1,5,0,1
61810,-66.6666666666667,4,1,1,100,0,1
61896,-66.6666666666667,4,1,1,5,0,1
61983,-66.6666666666667,4,1,1,100,0,1
62069,-66.6666666666667,4,1,1,5,0,1
62155,-66.6666666666667,4,1,1,100,0,1
62414,-66.6666666666667,4,1,1,5,0,1
62500,-66.6666666666667,4,1,1,100,0,1
62586,-66.6666666666667,4,1,1,5,0,1
62672,-66.6666666666667,4,1,1,100,0,1
62931,-66.6666666666667,4,1,1,5,0,1
63017,-66.6666666666667,4,1,1,100,0,1
63103,-66.6666666666667,4,1,1,5,0,1
63189,-66.6666666666667,4,1,1,100,0,1
63276,-66.6666666666667,4,1,1,5,0,1
63362,-66.6666666666667,4,1,1,100,0,1
63448,-66.6666666666667,4,1,1,5,0,1
63534,-66.6666666666667,4,1,1,100,0,1
63792,-66.6666666666667,4,1,1,100,0,1
63793,-66.6666666666667,4,1,1,5,0,1
63879,-66.6666666666667,4,1,1,100,0,1
64137,-66.6666666666667,4,1,1,100,0,1
64138,-66.6666666666667,4,1,1,5,0,1
64223,-66.6666666666667,4,1,1,5,0,1
64224,-66.6666666666667,4,1,1,100,0,1
64310,-66.6666666666667,4,1,1,5,0,1
64396,-66.6666666666667,4,1,1,100,0,1
64483,-66.6666666666667,4,1,1,5,0,1
64569,-66.6666666666667,4,1,1,100,0,1
64655,-66.6666666666667,4,1,1,5,0,1
64741,-66.6666666666667,4,1,1,100,0,1
64827,-66.6666666666667,4,1,1,5,0,1
64913,-100,4,1,1,100,0,0
66207,-100,4,1,1,5,0,0
66292,-57.1428571428571,4,3,1,100,0,1
66551,-57.1428571428571,4,3,1,5,0,1
66637,-57.1428571428571,4,3,1,100,0,1
66896,-57.1428571428571,4,3,1,5,0,1
66982,-57.1428571428571,4,3,1,100,0,1
67068,-57.1428571428571,4,3,1,5,0,1
67154,-57.1428571428571,4,3,1,100,0,1
67241,-57.1428571428571,4,3,1,5,0,1
67327,-57.1428571428571,4,3,1,100,0,1
67413,-57.1428571428571,4,3,1,5,0,1
67499,-57.1428571428571,4,3,1,100,0,1
67586,-57.1428571428571,4,3,1,5,0,1
67672,-57.1428571428571,4,3,1,100,0,1
67930,-57.1428571428571,4,3,1,5,0,1
68017,-57.1428571428571,4,3,1,100,0,1
68275,-57.1428571428571,4,3,1,5,0,1
68361,-57.1428571428571,4,3,1,100,0,1
68448,-57.1428571428571,4,3,1,5,0,1
68534,-57.1428571428571,4,3,1,100,0,1
68620,-57.1428571428571,4,3,1,5,0,1
68706,-57.1428571428571,4,3,1,100,0,1
68792,-57.1428571428571,4,3,1,5,0,1
68879,-57.1428571428571,4,3,1,100,0,1
68965,-57.1428571428571,4,3,1,5,0,1
69051,-57.1428571428571,4,3,1,100,0,1
69310,-57.1428571428571,4,3,1,5,0,1
69396,-57.1428571428571,4,3,1,100,0,1
69654,-57.1428571428571,4,3,1,5,0,1
69741,-57.1428571428571,4,3,1,100,0,1
69827,-57.1428571428571,4,3,1,5,0,1
69913,-57.1428571428571,4,3,1,100,0,1
69999,-57.1428571428571,4,3,1,5,0,1
70086,-57.1428571428571,4,3,1,100,0,1
70172,-57.1428571428571,4,3,1,5,0,1
70258,-57.1428571428571,4,3,1,100,0,1
70344,-57.1428571428571,4,3,1,5,0,1
70430,-57.1428571428571,4,3,1,100,0,1
70689,-57.1428571428571,4,3,1,5,0,1
70775,-57.1428571428571,4,3,1,100,0,1
70861,-57.1428571428571,4,3,1,5,0,1
70948,-57.1428571428571,4,3,1,100,0,1
71206,-57.1428571428571,4,3,1,5,0,1
71292,-57.1428571428571,4,3,1,100,0,1
71379,-57.1428571428571,4,3,1,5,0,1
71465,-57.1428571428571,4,3,1,100,0,1
71551,-57.1428571428571,4,3,1,5,0,1
71637,-57.1428571428571,4,3,1,100,0,1
71723,-57.1428571428571,4,3,1,5,0,1
71810,-57.1428571428571,4,3,1,100,0,1
72068,-57.1428571428571,4,3,1,5,0,1
72154,-57.1428571428571,4,3,1,100,0,1
72413,-57.1428571428571,4,3,1,5,0,1
72499,-57.1428571428571,4,3,1,100,0,1
72586,-57.1428571428571,4,3,1,5,0,1
72672,-57.1428571428571,4,3,1,100,0,1
72758,-57.1428571428571,4,3,1,5,0,1
72844,-57.1428571428571,4,3,1,100,0,1
72930,-57.1428571428571,4,3,1,5,0,1
73017,-57.1428571428571,4,3,1,100,0,1
73103,-57.1428571428571,4,3,1,5,0,1
73189,-57.1428571428571,4,3,1,100,0,1
73448,-57.1428571428571,4,3,1,5,0,1
73534,-57.1428571428571,4,3,1,100,0,1
73620,-57.1428571428571,4,3,1,5,0,1
73706,-57.1428571428571,4,3,1,100,0,1
73792,-57.1428571428571,4,3,1,5,0,1
73879,-57.1428571428571,4,3,1,100,0,1
73965,-57.1428571428571,4,3,1,5,0,1
74051,-57.1428571428571,4,3,1,100,0,1
74137,-57.1428571428571,4,3,1,5,0,1
74223,-57.1428571428571,4,3,1,100,0,1
74310,-57.1428571428571,4,3,1,5,0,1
74396,-57.1428571428571,4,3,1,100,0,1
74482,-57.1428571428571,4,3,1,5,0,1
74568,-57.1428571428571,4,3,1,100,0,1
74827,-57.1428571428571,4,3,1,5,0,1
74913,-57.1428571428571,4,3,1,100,0,1
75172,-57.1428571428571,4,3,1,5,0,1
75258,-57.1428571428571,4,3,1,100,0,1
75344,-57.1428571428571,4,3,1,5,0,1
75430,-57.1428571428571,4,3,1,100,0,1
75517,-57.1428571428571,4,3,1,5,0,1
75603,-57.1428571428571,4,3,1,100,0,1
75689,-57.1428571428571,4,3,1,5,0,1
75775,-57.1428571428571,4,3,1,100,0,1
75861,-57.1428571428571,4,3,1,5,0,1
75948,-100,4,3,1,100,0,0
76120,-100,4,3,1,5,0,0
76206,-100,4,3,1,100,0,0
76379,-100,4,3,1,5,0,0
76465,-100,4,3,1,100,0,0
76637,-100,4,3,1,5,0,0
76723,-100,4,3,1,100,0,0
76896,-100,4,3,1,5,0,0
76982,-133.333333333333,4,3,1,100,0,0
77241,-200,4,3,1,5,0,0
77327,-100,4,3,1,100,0,0
77586,-100,4,3,1,5,0,0
77672,-100,4,3,1,100,0,0
77930,-100,4,3,1,100,0,0
77931,-100,4,3,1,5,0,0
78017,-100,4,3,1,100,0,0
78103,-100,4,3,1,5,0,0
78189,-100,4,3,1,100,0,0
78275,-100,4,3,1,5,0,0
78361,-100,4,3,1,100,0,0
78448,-100,4,3,1,5,0,0
78534,-100,4,3,1,100,0,0
78620,-100,4,3,1,5,0,0
78706,-100,4,3,1,100,0,0
78965,-100,4,3,1,5,0,0
79051,-100,4,3,1,5,0,0
79052,-100,4,3,1,100,0,0
79310,-100,4,3,1,5,0,0
79396,-100,4,3,1,100,0,0
79483,-100,4,3,1,5,0,0
79569,-100,4,3,1,100,0,0
79655,-100,4,3,1,5,0,0
79741,-100,4,3,1,100,0,0
79827,-100,4,3,1,5,0,0
79914,-100,4,3,1,100,0,0
80000,-100,4,3,1,5,0,0
80086,-57.1428571428571,4,3,1,100,0,1
80345,-57.1428571428571,4,3,1,5,0,1
80430,-57.1428571428571,4,3,1,100,0,1
80689,-57.1428571428571,4,3,1,5,0,1
80775,-57.1428571428571,4,3,1,100,0,1
80862,-57.1428571428571,4,3,1,5,0,1
80948,-57.1428571428571,4,3,1,100,0,1
81034,-57.1428571428571,4,3,1,5,0,1
81121,-57.1428571428571,4,3,1,100,0,1
81207,-57.1428571428571,4,3,1,5,0,1
81293,-57.1428571428571,4,3,1,100,0,1
81379,-57.1428571428571,4,3,1,5,0,1
81465,-57.1428571428571,4,3,1,100,0,1
81724,-57.1428571428571,4,3,1,5,0,1
81810,-57.1428571428571,4,3,1,100,0,1
81896,-57.1428571428571,4,3,1,5,0,1
81983,-57.1428571428571,4,3,1,100,0,1
82241,-57.1428571428571,4,3,1,5,0,1
82327,-57.1428571428571,4,3,1,100,0,1
82414,-57.1428571428571,4,3,1,5,0,1
82500,-57.1428571428571,4,3,1,100,0,1
82586,-57.1428571428571,4,3,1,5,0,1
82672,-57.1428571428571,4,3,1,100,0,1
82758,-57.1428571428571,4,3,1,5,0,1
82844,-57.1428571428571,4,3,1,100,0,1
83103,-57.1428571428571,4,3,1,5,0,1
83189,-57.1428571428571,4,3,1,100,0,1
83448,-57.1428571428571,4,3,1,5,0,1
83534,-57.1428571428571,4,3,1,100,0,1
83621,-57.1428571428571,4,3,1,5,0,1
83707,-57.1428571428571,4,3,1,100,0,1
83793,-57.1428571428571,4,3,1,5,0,1
83879,-57.1428571428571,4,3,1,100,0,1
83965,-57.1428571428571,4,3,1,5,0,1
84052,-57.1428571428571,4,3,1,100,0,1
84138,-57.1428571428571,4,3,1,5,0,1
84223,-57.1428571428571,4,3,1,100,0,1
84483,-57.1428571428571,4,3,1,5,0,1
84569,-57.1428571428571,4,3,1,100,0,1
84655,-57.1428571428571,4,3,1,5,0,1
84741,-57.1428571428571,4,3,1,100,0,1
84827,-57.1428571428571,4,3,1,5,0,1
84914,-57.1428571428571,4,3,1,100,0,1
85000,-57.1428571428571,4,3,1,5,0,1
85086,-57.1428571428571,4,3,1,100,0,1
85172,-57.1428571428571,4,3,1,5,0,1
85258,-57.1428571428571,4,3,1,100,0,1
85345,-57.1428571428571,4,3,1,5,0,1
85431,-57.1428571428571,4,3,1,100,0,1
85517,-57.1428571428571,4,3,1,5,0,1
85603,-57.1428571428571,4,3,1,100,0,1
85862,-57.1428571428571,4,3,1,5,0,1
85948,-57.1428571428571,4,3,1,100,0,1
86207,-57.1428571428571,4,3,1,5,0,1
86292,-57.1428571428571,4,3,1,100,0,1
86379,-57.1428571428571,4,3,1,5,0,1
86465,-57.1428571428571,4,3,1,100,0,1
86552,-57.1428571428571,4,3,1,5,0,1
86638,-57.1428571428571,4,3,1,100,0,1
86724,-57.1428571428571,4,3,1,5,0,1
86810,-57.1428571428571,4,3,1,100,0,1
86896,-57.1428571428571,4,3,1,5,0,1
86982,-100,4,3,1,100,0,1
88361,-100,4,2,1,100,0,0
91120,-100,4,2,1,90,0,0
93879,-100,4,2,1,80,0,0
96637,-100,4,2,1,70,0,0
99396,-133.333333333333,4,2,1,60,0,0
102154,-133.333333333333,4,2,1,50,0,0
104913,-142.857142857143,4,2,1,40,0,0
107672,-153.846153846154,4,2,1,30,0,0
110430,-153.846153846154,4,2,1,5,0,0

[Colours]
Combo1 : 209,132,255
Combo2 : 255,0,0
Combo3 : 255,163,70
Combo4 : 141,70,63
Combo5 : 255,255,108
Combo6 : 0,128,255
Combo7 : 108,255,255
Combo8 : 33,92,152
SliderBorder : 255,255,255
SliderTrackOverride : 56,56,56

[HitObjects]
387,203,86,6,0,P|355:245|306:261,1,105.000004005432,4|0,1:1|0:0,0:0:0:0:
221,218,603,2,0,P|193:220|160:233,2,52.5000020027161,0|0|0,0:0|0:0|0:0,0:0:0:0:
300,165,1120,1,0,0:0:0:0:
300,165,1293,1,0,0:0:0:0:
247,86,1465,6,8,L|137:78,1,105.000004005432,0|0,0:0|0:0,0:0:0:0:
252,79,1982,2,8,L|142:71,1,105.000004005432,0|0,0:0|0:0,0:0:0:0:
83,0,2500,2,0,L|22:11,1,52.5000020027161,0|0,0:0|0:0,0:0:0:0:
58,95,2844,6,0,P|25:135|22:187,1,105.000004005432,0|0,0:0|0:0,0:0:0:0:
102,238,3361,2,0,P|126:233|150:219,2,52.5000020027161,0|0|0,0:0|0:0|0:0,0:0:0:0:
23,278,3879,1,0,0:0:0:0:
23,278,4051,1,0,0:0:0:0:
58,353,4224,6,0,B|98:319|98:319|161:316,1,105.000004005432,0|0,0:0|0:0,0:0:0:0:
56,346,4741,2,0,B|96:312|96:312|149:310,1,105.000004005432,0|0,0:0|0:0,0:0:0:0:
216,242,5258,2,0,L|269:245,1,52.5000020027161,0|0,0:0|0:0,0:0:0:0:
415,308,5603,70,0,P|366:270|350:188,1,140,0|0,0:0|0:0,0:0:0:0:
448,143,6121,2,0,P|475:164|495:192,2,70,0|0|0,0:0|0:0|0:0,0:0:0:0:
354,90,6638,1,0,0:0:0:0:
354,90,6810,1,0,0:0:0:0:
241,91,6983,6,0,B|273:153|273:153|267:223,1,140,0|0,0:0|0:0,0:0:0:0:
233,94,7500,2,0,B|265:155|265:155|259:225,1,140,0|0,0:0|0:0,0:0:0:0:
385,161,8017,2,0,B|390:242,1,70,0|0,0:0|0:0,0:0:0:0:
349,331,8361,6,0,P|320:342|291:367,2,52.5000020027161,0|0|0,0:0|0:0|0:0,0:0:0:0:
447,323,8879,2,0,P|476:330|508:351,2,52.5000020027161,0|0|0,0:0|0:0|0:0,0:0:0:0:
389,230,9396,2,0,B|384:160,1,52.5000020027161,0|0,0:0|0:0,0:0:0:0:
309,207,9741,6,0,P|288:223|264:233,2,52.5000020027161,0|0|0,0:0|0:0|0:0,0:0:0:0:
376,97,10258,1,0,0:0:0:0:
466,194,10430,2,0,P|487:208|512:216,2,52.5000020027161,0|0|0,0:0|0:0|0:0,0:0:0:0:
376,97,10948,1,0,0:0:0:0:
249,134,11120,70,0,P|247:69|151:16,1,175,2|8,0:2|0:2,0:0:0:0:
87,62,11637,5,0,0:0:0:0:
87,62,11810,2,0,P|80:110|101:153,1,87.5,0|2,0:0|0:2,0:0:0:0:
175,182,12154,2,0,L|181:279,1,87.5,8|0,0:2|0:0,0:0:0:0:
110,322,12499,6,0,P|149:296|259:337,1,175,2|8,0:2|0:2,0:0:0:0:
108,313,13017,6,0,P|147:288|261:327,1,175,0|2,0:0|0:2,0:0:0:0:
347,314,13534,1,8,0:2:0:0:
347,314,13706,1,0,0:0:0:0:
365,171,13879,70,0,B|363:221|397:247|397:247|432:274|431:327,1,175,2|8,0:2|0:2,0:0:0:0:
261,327,14396,5,0,0:0:0:0:
261,327,14569,2,0,P|264:283|289:248,1,87.5,0|2,0:0|0:2,0:0:0:0:
275,157,14913,2,0,P|244:126|233:84,1,87.5,8|0,0:2|0:0,0:0:0:0:
463,70,15258,6,0,P|424:44|314:85,1,175,2|8,0:2|0:2,0:0:0:0:
465,61,15776,6,0,P|425:36|311:75,1,175,0|2,0:0|0:2,0:0:0:0:
275,157,16292,1,8,0:2:0:0:
275,157,16465,1,0,0:0:0:0:
188,16,16637,70,0,B|194:103|194:103|183:132|183:132|189:208,1,175,2|8,0:2|0:2,0:0:0:0:
104,255,17154,5,0,0:0:0:0:
104,255,17327,2,0,P|97:166|97:166,1,87.5,0|2,0:0|0:2,0:0:0:0:
275,157,17672,2,0,P|281:245|281:245,1,87.5,8|0,0:2|0:0,0:0:0:0:
373,362,18017,6,0,B|335:327|335:327|206:318,1,175,2|8,0:2|0:2,0:0:0:0:
376,355,18534,6,0,B|338:320|338:320|209:311,1,175,0|2,0:0|0:2,0:0:0:0:
112,309,19051,1,8,0:2:0:0:
112,309,19223,1,0,0:0:0:0:
13,368,19396,70,0,L|6:193,1,175,2|8,0:2|0:2,0:0:0:0:
98,190,19913,5,0,0:0:0:0:
98,190,20086,2,0,L|103:101,1,87.5,0|2,0:0|0:2,0:0:0:0:
3,111,20430,2,0,L|-1:22,1,87.5,8|0,0:2|0:0,0:0:0:0:
143,15,20775,6,0,B|192:45|192:45|316:49,1,175,2|8,0:2|0:2,0:0:0:0:
140,22,21292,6,0,B|189:52|189:52|313:56,1,175,0|2,0:0|0:2,0:0:0:0:
409,61,21810,1,8,0:2:0:0:
409,61,21982,1,0,0:0:0:0:
387,195,22154,70,0,P|345:182|316:150,1,87.5,2|0,2:3|0:0,0:0:0:0:
306,55,22499,1,8,0:3:0:0:
226,177,22672,1,0,0:0:0:0:
226,177,22845,2,0,L|138:174,1,87.5,0|0,0:0|0:0,0:0:0:0:
39,173,23188,1,8,0:3:0:0:
39,173,23361,1,0,0:0:0:0:
116,344,23534,6,8,B|118:272|118:272|135:246|135:246|138:161,1,175,0|8,2:0|0:3,0:0:0:0:
123,346,24051,2,8,B|125:274|125:274|142:248|142:248|145:176,1,175,0|0,2:0|0:0,0:0:0:0:
238,90,24568,2,8,B|235:184|235:184,1,87.5,8|0,0:3|0:0,0:0:0:0:
363,257,24913,6,0,B|417:228|417:228|493:249,1,131.25,2|0,3:3|0:0,0:0:0:0:
483,238,25258,2,0,B|416:220|416:220|362:249,1,131.25,2|0,3:3|0:0,0:0:0:0:
302,310,25603,5,0,0:0:0:0:
302,310,25776,1,0,2:0:0:0:
207,264,25948,1,0,1:0:0:0:
207,264,26121,1,0,0:0:0:0:
375,104,26293,70,8,P|319:169|234:176,1,175,2|0,3:3|1:0,0:0:0:0:
247,48,26810,6,0,P|205:97|143:115,1,131.25,2|0,3:3|0:0,0:0:0:0:
137,109,27155,2,0,L|40:106,2,87.5,0|0|0,1:0|0:0|0:0,0:0:0:0:
32,191,27672,6,0,P|73:203|102:235,1,87.5,2|0,0:3|0:0,0:0:0:0:
113,331,28017,1,8,0:3:0:0:
193,209,28190,1,0,0:0:0:0:
193,209,28361,2,0,L|280:211,1,87.5,0|0,0:0|0:0,0:0:0:0:
380,219,28706,1,8,0:3:0:0:
380,219,28879,1,0,0:0:0:0:
398,366,29051,6,0,B|396:315|430:290|430:290|465:262|464:210,1,175,0|8,0:0|0:3,0:0:0:0:
404,372,29568,2,0,B|402:321|436:296|436:296|471:268|472:215,1,175,0|0,0:0|0:0,0:0:0:0:
369,136,30086,2,0,P|328:151|299:184,1,87.5,8|0,0:3|0:0,0:0:0:0:
273,306,30430,70,0,B|216:303|216:303|191:306|191:306|139:304,1,131.25,2|0,3:3|0:0,0:0:0:0:
142,296,30775,2,0,B|191:298|191:298|216:295|216:295|273:298,1,131.25,2|0,3:3|0:0,0:0:0:0:
380,308,31120,5,0,1:0:0:0:
380,308,31293,1,0,2:0:0:0:
334,213,31465,1,0,1:0:0:0:
334,213,31638,1,0,2:0:0:0:
432,134,31810,6,0,B|388:170|388:170|259:164,1,175,2|0,3:3|1:0,0:0:0:0:
305,40,32327,6,0,B|258:72|258:72|145:55,1,131.25,2|0,3:3|0:0,0:0:0:0:
179,54,32672,2,0,B|62:36,2,87.5,0|0|0,1:0|0:0|0:0,0:0:0:0:
66,132,33189,70,0,P|107:144|136:176,1,87.5,2|0,2:3|0:0,0:0:0:0:
147,272,33534,1,8,0:3:0:0:
257,184,33707,1,0,0:0:0:0:
257,184,33880,2,0,L|254:271,1,87.5,0|0,0:0|0:0,0:0:0:0:
254,370,34223,1,8,0:3:0:0:
254,370,34396,1,0,0:0:0:0:
431,367,34568,6,0,P|380:336|353:222,1,175,2|8,2:2|0:3,0:0:0:0:
424,373,35086,2,0,P|375:343|345:228,1,175,0|2,2:0|0:2,0:0:0:0:
298,150,35603,2,0,L|313:58,1,87.5,8|0,0:3|0:0,0:0:0:0:
119,29,35948,6,8,P|152:56|166:96,1,87.5,2|0,0:2|0:0,0:0:0:0:
131,209,36293,1,8,0:3:0:0:
298,150,36466,1,0,0:0:0:0:
298,150,36637,2,0,L|280:262,1,87.5,0|2,0:0|0:2,0:0:0:0:
264,357,36982,1,8,0:3:0:0:
264,357,37155,1,0,0:0:0:0:
399,373,37327,6,0,B|362:339|362:295|362:295|375:251|418:235,1,175,2|8,2:2|0:3,0:0:0:0:
389,374,37844,2,0,B|353:340|353:295|353:295|365:249|409:230,1,175,0|2,2:0|0:2,0:0:0:0:
459,134,38361,2,0,L|373:151,1,87.5,8|0,0:3|0:0,0:0:0:0:
276,292,38706,69,2,0:2:0:0:
283,205,38878,1,2,0:2:0:0:
176,266,39051,5,2,0:2:0:0:
169,179,39223,1,2,0:2:0:0:
290,118,39396,5,2,0:2:0:0:
297,31,39568,1,2,0:2:0:0:
162,92,39741,5,2,0:2:0:0:
155,5,39913,1,2,0:2:0:0:
76,112,40086,70,0,L|18:105,3,43.75,2|2|2|2,0:2|0:2|0:2|0:2,0:0:0:0:
169,179,40430,2,0,L|111:186,3,43.75,2|2|2|2,0:2|0:2|0:2|0:2,0:0:0:0:
289,226,40775,5,2,0:2:0:0:
295,195,40861,1,2,0:2:0:0:
283,166,40948,1,2,0:2:0:0:
264,142,41034,1,2,0:2:0:0:
246,118,41121,1,2,0:2:0:0:
241,89,41206,1,2,0:2:0:0:
251,60,41293,1,2,0:2:0:0:
274,39,41379,1,2,0:2:0:0:
297,31,41465,6,0,B|302:83|326:134|405:149|479:136|522:104|527:24|441:-18|395:22|393:91|393:91|392:202|390:241|390:241|430:213|478:236|508:314|435:338|377:362|298:334,1,840,2|0,2:3|0:0,0:0:0:0:
31,308,43879,5,8,0:1:0:0:
80,139,44051,1,2,1:2:0:0:
99,256,44223,70,0,P|45:227|-11:235,1,105,2|0,1:3|0:0,0:0:0:0:
1,224,44568,2,0,P|51:221|97:246,1,105,2|0,1:3|0:0,0:0:0:0:
106,347,44913,5,0,0:0:0:0:
106,347,45086,1,0,0:0:0:0:
190,295,45258,1,0,0:0:0:0:
190,295,45431,1,0,0:0:0:0:
311,341,45603,6,8,P|271:285|270:217,1,140,2|0,0:3|0:0,0:0:0:0:
379,212,46120,6,0,P|342:173|334:109,1,105,2|0,0:3|0:0,0:0:0:0:
335,118,46465,2,0,L|337:35,2,70,0|0|0,0:0|0:0|0:0,0:0:0:0:
155,108,46982,70,0,P|163:49|250:12,1,157.500006008148,2|0,0:3|0:0,0:0:0:0:
242,3,47327,2,0,P|170:27|147:101,1,157.500006008148,8|0,0:0|0:0,0:0:0:0:
236,167,47672,5,0,0:0:0:0:
236,167,47844,2,0,P|231:191|218:215,1,52.5000020027161,2|0,0:3|0:0,0:0:0:0:
94,190,48017,1,8,0:0:0:0:
94,190,48189,2,0,P|104:214|122:232,1,52.5000020027161,0|0,0:0|0:0,0:0:0:0:
104,372,48361,6,0,P|131:319|232:304,1,157.500006008148,2|0,0:3|0:0,0:0:0:0:
228,307,48706,1,8,0:0:0:0:
236,167,48879,6,0,P|293:184|329:278,1,157.500006008148,2|0,0:3|0:0,0:0:0:0:
326,275,49223,1,2,0:3:0:0:
442,331,49396,2,0,L|428:210,1,105.000004005432,8|0,0:0|0:0,0:0:0:0:
512,94,49741,70,0,B|488:139|442:142|442:142|329:149,1,157.500006008148,2|0,0:3|0:0,0:0:0:0:
370,139,50086,2,0,B|438:134|438:134|484:131|508:86,1,157.500006008148,8|0,0:0|0:0,0:0:0:0:
455,3,50430,5,0,0:0:0:0:
455,3,50602,2,0,P|430:7|406:20,1,52.5000020027161,2|0,0:3|0:0,0:0:0:0:
310,60,50775,1,8,0:0:0:0:
310,60,50947,2,0,P|285:55|261:42,1,52.5000020027161,0|0,0:0|0:0,0:0:0:0:
164,0,51120,6,0,P|166:58|86:122,1,157.500006008148,2|0,0:3|0:0,0:0:0:0:
89,117,51465,1,8,0:0:0:0:
230,185,51637,6,0,P|216:241|123:283,1,157.500006008148,2|0,0:3|0:0,0:0:0:0:
126,277,51982,1,2,0:3:0:0:
39,205,52154,2,0,L|169:192,1,105.000004005432,8|0,0:0|0:0,0:0:0:0:
321,178,52499,70,0,B|298:214|316:255|316:255|332:291|316:331,1,157.500006008148,2|0,0:3|0:0,0:0:0:0:
323,329,52844,2,0,B|339:291|323:255|323:255|305:214|328:178,1,157.500006008148,8|0,0:0|0:0,0:0:0:0:
411,139,53189,5,0,0:0:0:0:
411,139,53361,2,0,P|434:148|453:164,1,52.5000020027161,2|0,0:3|0:0,0:0:0:0:
463,30,53534,1,8,0:0:0:0:
463,30,53706,2,0,P|441:43|416:49,1,52.5000020027161,0|0,0:0|0:0,0:0:0:0:
281,44,53879,6,0,P|287:69|275:115,1,70,2|0,0:3|0:0,0:0:0:0:
329,181,54137,6,0,P|307:194|259:197,1,70,0|0,3:0|3:0,0:0:0:0:
213,269,54396,70,0,P|193:252|176:208,1,70,0|0,3:0|3:0,0:0:0:0:
94,186,54654,6,0,P|103:162|140:132,1,70,0|0,3:0|3:0,0:0:0:0:
199,46,54913,6,0,L|139:52,1,52.5000020027161,8|0,2:1|0:0,0:0:0:0:
34,96,55258,86,0,B|68:61|59:22|59:22|51:-16,1,105,2|0,0:3|0:0,0:0:0:0:
61,0,55603,2,0,B|65:23|65:23|74:62|41:99,1,105,2|0,0:3|0:0,0:0:0:0:
18,190,55948,5,0,0:0:0:0:
18,190,56120,1,0,3:0:0:0:
116,203,56292,1,0,0:0:0:0:
116,203,56464,1,0,3:0:0:0:
215,305,56637,6,0,B|194:266|194:266|209:159,1,140,2|0,0:3|0:0,0:0:0:0:
341,257,57154,6,0,B|310:224|310:224|299:145,1,105,2|0,0:3|0:0,0:0:0:0:
307,158,57499,2,0,L|296:78,2,70,0|0|0,2:0|3:0|2:0,0:0:0:0:
67,186,58017,70,0,B|138:188|138:188|163:202|163:202|223:204,1,157.500006008148,2|0,0:3|0:0,0:0:0:0:
223,197,58361,2,0,B|165:194|165:194|141:181|141:181|69:178,1,157.500006008148,8|0,0:0|0:0,0:0:0:0:
0,134,58706,5,0,0:3:0:0:
0,134,58878,2,8,P|14:114|35:99,1,52.5000020027161,2|0,0:3|0:0,0:0:0:0:
103,16,59051,1,8,0:0:0:0:
103,16,59223,2,8,P|117:35|138:50,1,52.5000020027161,0|0,0:0|0:0,0:0:0:0:
260,46,59396,6,0,B|225:84|225:84|216:201,1,157.500006008148,2|0,0:3|0:0,0:0:0:0:
223,197,59741,1,8,0:0:0:0:
348,109,59913,6,0,B|324:154|324:154|345:270,1,157.500006008148,2|0,0:3|0:0,0:0:0:0:
351,264,60258,1,2,0:3:0:0:
504,217,60430,2,0,P|451:174|398:170,1,105.000004005432,8|0,0:0|0:0,0:0:0:0:
227,312,60775,70,0,B|240:271|275:250|275:250|316:244|350:263,1,157.500006008148,2|0,0:3|0:0,0:0:0:0:
355,273,61120,2,0,B|320:251|278:257|278:257|245:278|232:316,1,157.500006008148,8|0,0:0|0:0,0:0:0:0:
130,309,61465,5,0,0:0:0:0:
130,309,61637,2,8,P|125:284|112:263,1,52.5000020027161,2|0,0:3|0:0,0:0:0:0:
10,244,61810,1,8,0:0:0:0:
10,244,61982,2,8,P|14:219|27:198,1,52.5000020027161,0|0,0:0|0:0,0:0:0:0:
81,88,62154,6,0,B|119:123|119:123|236:132,1,157.500006008148,2|0,0:3|0:0,0:0:0:0:
232,125,62499,1,8,0:0:0:0:
91,249,62671,6,0,B|136:272|136:272|252:251,1,157.500006008148,2|0,0:3|0:0,0:0:0:0:
246,246,63016,1,2,0:3:0:0:
308,63,63189,2,0,P|257:84|231:126,1,105.000004005432,8|0,0:0|0:0,0:0:0:0:
331,299,63534,70,0,B|328:225|328:225|315:199|315:199|313:144,1,157.500006008148,2|0,0:3|0:0,0:0:0:0:
320,142,63879,2,0,B|322:197|322:197|335:223|335:223|338:297,1,157.500006008148,8|0,0:0|0:0,0:0:0:0:
415,268,64223,5,2,0:3:0:0:
399,171,64396,1,2,0:3:0:0:
253,254,64568,5,2,0:3:0:0:
202,155,64741,1,2,0:3:0:0:
59,248,64913,5,0,0:0:0:0:
59,248,65258,70,0,P|64:213|81:180,1,70,0|0,2:0|2:0,0:0:0:0:
148,289,65603,2,0,P|170:261|201:241,1,70,0|0,2:0|2:0,0:0:0:0:
361,291,65948,5,8,2:1:0:0:
228,324,66120,1,2,0:3:0:0:
412,356,66292,38,0,L|384:175,1,183.750001752377,2|0,0:3|0:0,0:0:0:0:
391,169,66637,2,0,L|419:350,1,183.750001752377,8|0,0:1|0:1,0:0:0:0:
316,367,66982,6,0,P|304:339|279:317,1,61.2500005841255,0|0,0:0|2:0,0:0:0:0:
321,361,67154,2,0,P|309:333|284:311,1,61.2500005841255,2|0,0:3|2:0,0:0:0:0:
277,217,67327,2,0,P|247:220|219:236,1,61.2500005841255,8|0,0:1|2:1,0:0:0:0:
273,210,67499,2,0,P|243:213|215:229,1,61.2500005841255,0|0,0:0|2:0,0:0:0:0:
28,326,67672,6,0,B|111:289|111:289|201:315,1,183.750001752377,2|0,0:3|0:0,0:0:0:0:
200,308,68017,2,0,B|111:281|111:281|28:318,1,183.750001752377,8|0,0:1|0:1,0:0:0:0:
37,214,68361,6,0,P|23:187|0:167,1,61.2500005841255,0|0,0:0|2:0,0:0:0:0:
107,128,68534,1,2,0:3:0:0:
183,214,68706,1,8,0:1:0:0:
183,214,68879,2,0,P|198:185|220:165,1,61.2500005841255,0|0,0:0|2:0,0:0:0:0:
356,293,69051,70,0,P|299:338|197:301,1,183.750001752377,2|0,0:3|0:0,0:0:0:0:
197,314,69396,2,0,P|278:349|359:303,1,183.750001752377,8|0,0:1|0:1,0:0:0:0:
437,253,69741,5,0,0:0:0:0:
437,253,69913,2,0,P|428:224|408:200,1,61.2500005841255,2|0,0:3|0:0,0:0:0:0:
278,238,70086,1,8,0:1:0:0:
278,238,70258,2,0,P|292:211|315:192,1,61.2500005841255,0|0,0:0|0:0,0:0:0:0:
479,29,70430,6,0,P|431:103|342:111,1,183.750001752377,2|0,0:3|0:0,0:0:0:0:
338,105,70775,1,8,0:1:0:0:
251,0,70948,6,0,P|238:87|162:133,1,183.750001752377,2|0,0:3|0:0,0:0:0:0:
156,129,71293,1,2,0:3:0:0:
51,69,71465,2,0,L|62:201,1,122.500001168251,8|0,0:1|0:0,0:0:0:0:
200,287,71810,70,0,B|158:259|109:281|109:281|66:300|18:281,1,183.750001752377,2|0,0:3|0:0,0:0:0:0:
20,289,72155,2,0,B|66:308|109:289|109:289|158:267|201:294,1,183.750001752377,8|0,0:1|0:1,0:0:0:0:
263,367,72499,6,0,P|275:339|300:317,1,61.2500005841255,0|0,0:0|0:0,0:0:0:0:
258,362,72671,2,0,P|270:334|295:312,1,61.2500005841255,2|0,0:3|0:0,0:0:0:0:
296,174,72844,2,0,P|284:202|259:224,1,61.2500005841255,8|0,0:1|0:1,0:0:0:0:
301,179,73016,2,0,P|289:207|264:229,1,61.2500005841255,0|0,0:0|0:0,0:0:0:0:
37,130,73189,6,0,B|121:132|121:132|151:148|151:148|222:151,1,183.750001752377,2|0,0:3|0:0,0:0:0:0:
222,157,73534,1,8,0:1:0:0:
252,52,73706,5,2,0:3:0:0:
252,52,73879,2,8,P|275:29|287:0,1,61.2500005841255,0|0,0:0|0:0,0:0:0:0:
357,78,74052,1,2,0:3:0:0:
330,182,74224,1,8,0:1:0:0:
330,182,74396,2,8,P|360:173|390:177,1,61.2500005841255,0|0,0:0|0:0,0:0:0:0:
359,290,74568,70,0,B|331:334|279:334|279:334|191:334,1,183.750001752377,2|0,0:3|0:0,0:0:0:0:
193,341,74913,2,0,B|282:341|282:341|334:341|363:299,1,183.750001752377,8|0,0:1|0:1,0:0:0:0:
325,209,75258,5,0,0:0:0:0:
325,209,75430,2,0,P|355:200|385:203,1,61.2500005841255,2|0,0:3|0:0,0:0:0:0:
511,267,75603,1,8,0:1:0:0:
511,267,75775,2,0,P|482:275|452:272,1,61.2500005841255,0|0,0:0|0:0,0:0:0:0:
351,359,75948,6,0,L|361:281,1,70,2|0,0:3|0:0,0:0:0:0:
209,323,76206,6,0,L|287:307,1,70,0|0,3:0|3:0,0:0:0:0:
199,176,76465,70,0,L|238:244,1,70,0|0,3:0|3:0,0:0:0:0:
336,121,76723,6,0,L|283:178,1,70,0|0,3:0|3:0,0:0:0:0:
360,212,76982,6,0,P|387:212|423:200,1,52.5000020027161,8|0,0:2|0:0,0:0:0:0:
464,68,77327,86,0,B|468:141|468:141|488:167,1,105,2|0,0:3|0:0,0:0:0:0:
481,170,77672,2,0,B|461:144|461:144|457:71,1,105,2|0,0:3|0:0,0:0:0:0:
379,17,78017,6,0,P|367:45|342:67,1,35,0|0,2:0|0:0,0:0:0:0:
385,22,78189,2,0,P|373:50|348:72,1,35,0|0,2:0|0:0,0:0:0:0:
266,15,78361,2,0,P|271:31|281:46,1,35,0|0,2:0|0:0,0:0:0:0:
260,20,78534,2,0,P|265:36|275:51,1,35,0|0,2:0|0:0,0:0:0:0:
312,148,78706,6,0,L|200:164,1,105,2|0,0:3|0:0,0:0:0:0:
204,171,79051,2,0,L|308:156,1,105,2|0,0:3|0:0,0:0:0:0:
381,200,79396,6,0,P|371:213|357:225,1,35,0|0,2:0|2:0,0:0:0:0:
282,248,79569,1,0,2:0:0:0:
333,306,79741,1,0,2:0:0:0:
333,306,79914,2,0,P|323:334|304:357,1,35,0|0,2:0|2:0,0:0:0:0:
165,342,80086,70,0,B|200:321|202:272|202:272|206:161,1,183.750001752377,2|0,0:3|0:0,0:0:0:0:
212,170,80430,2,0,B|209:272|209:272|207:325|174:344,1,183.750001752377,8|0,0:1|0:1,0:0:0:0:
70,332,80775,5,0,0:0:0:0:
71,332,80947,2,0,P|48:312|32:286,1,61.2500005841255,2|0,0:3|0:0,0:0:0:0:
106,214,81120,1,8,0:1:0:0:
106,214,81292,2,0,P|91:187|67:168,1,61.2500005841255,0|0,0:0|0:0,0:0:0:0:
77,30,81465,6,0,P|126:104|215:112,1,183.750001752377,2|0,0:3|0:0,0:0:0:0:
218,106,81810,1,8,0:1:0:0:
305,1,81983,6,0,P|319:88|395:134,1,183.750001752377,2|0,0:3|0:0,0:0:0:0:
400,130,82328,1,2,0:3:0:0:
504,78,82500,2,0,L|493:210,1,122.500001168251,8|0,0:1|0:0,0:0:0:0:
423,315,82844,70,0,L|395:134,1,183.750001752377,2|0,0:3|0:0,0:0:0:0:
402,128,83189,2,0,L|430:309,1,183.750001752377,8|0,0:1|0:1,0:0:0:0:
359,374,83534,6,0,P|340:350|333:321,1,61.2500005841255,0|0,0:0|0:0,0:0:0:0:
353,379,83706,2,0,P|334:355|327:326,1,61.2500005841255,2|0,0:3|0:0,0:0:0:0:
303,185,83879,2,0,P|322:208|330:238,1,61.2500005841255,8|0,0:1|0:1,0:0:0:0:
309,179,84051,2,0,P|328:202|336:232,1,61.2500005841255,0|0,0:0|0:0,0:0:0:0:
242,350,84223,6,0,B|185:347|185:347|156:360|156:360|30:355,1,183.750001752377,2|0,0:3|0:0,0:0:0:0:
57,348,84568,1,8,0:1:0:0:
52,233,84740,5,2,0:3:0:0:
52,233,84913,2,0,P|74:254|102:266,1,61.2500005841255,0|0,0:0|0:0,0:0:0:0:
195,207,85086,1,2,0:3:0:0:
281,271,85258,1,8,0:1:0:0:
281,271,85431,2,0,P|309:259|331:237,1,61.2500005841255,0|0,0:0|0:0,0:0:0:0:
265,62,85603,70,0,B|273:108|310:139|310:139|357:155|404:139,1,183.750001752377,2|0,0:3|0:0,0:0:0:0:
403,132,85948,2,0,B|359:147|312:132|312:132|278:100|271:54,1,183.750001752377,8|0,0:1|0:1,0:0:0:0:
371,1,86293,5,0,0:0:0:0:
371,1,86465,2,0,P|370:31|358:58,1,61.2500005841255,2|0,0:3|0:0,0:0:0:0:
444,89,86637,1,8,0:1:0:0:
444,88,86809,2,0,P|429:113|403:131,1,61.2500005841255,0|0,0:3|0:0,0:0:0:0:
195,207,86982,5,0,0:0:0:0:
195,207,87327,2,0,P|231:238|245:266,1,70,0|0,2:0|2:0,0:0:0:0:
335,297,87672,2,0,P|351:342|348:373,1,70,0|0,2:0|2:0,0:0:0:0:
154,290,88017,5,8,2:1:0:0:
325,199,88189,1,2,0:3:0:0:
116,107,88361,6,0,P|137:172|196:206,1,140,6|0,0:2|0:0,0:0:0:0:
274,86,88879,2,0,P|240:93|210:110,2,70,0|0|0,0:0|0:0|0:0,0:0:0:0:
359,110,89396,1,0,0:0:0:0:
359,110,89568,1,0,0:0:0:0:
478,219,89741,6,0,B|446:157|446:157|452:87,1,140,0|0,0:0|0:0,0:0:0:0:
486,216,90258,2,0,B|454:155|454:155|460:85,1,140,0|0,0:0|0:0,0:0:0:0:
371,0,90775,2,0,B|365:69,1,70,0|0,0:0|0:0,0:0:0:0:
375,208,91120,6,0,P|342:168|237:149,1,140,0|0,0:0|0:0,0:0:0:0:
166,201,91637,2,0,P|106:188|78:169,2,70,0|0|0,0:0|0:0|0:0,0:0:0:0:
259,144,92154,1,0,0:0:0:0:
259,144,92327,1,0,0:0:0:0:
161,50,92499,6,0,L|325:55,1,140,0|0,0:0|0:0,0:0:0:0:
156,57,93017,2,0,L|320:62,1,140,0|0,0:0|0:0,0:0:0:0:
400,80,93534,2,0,L|402:10,1,70,0|0,0:0|0:0,0:0:0:0:
494,90,93879,70,0,P|476:140|387:174,1,140,0|0,0:0|0:0,0:0:0:0:
319,128,94396,2,0,P|307:88|310:49,2,70,0|0|0,0:0|0:0|0:0,0:0:0:0:
319,219,94913,1,0,0:0:0:0:
319,219,95086,1,0,0:0:0:0:
219,288,95258,6,0,B|263:291|263:291|286:305|286:305|355:310,1,140,0|0,0:0|0:0,0:0:0:0:
216,295,95775,2,0,B|260:298|260:298|283:312|283:312|352:317,1,140,0|0,0:0|0:0,0:0:0:0:
438,366,96292,2,0,B|527:372,1,70,0|0,0:0|0:0,0:0:0:0:
512,278,96637,6,0,P|465:265|412:187,1,140,0|0,0:0|0:0,0:0:0:0:
336,132,97154,2,0,P|331:174|310:204,2,70,0|0|0,0:0|0:0|0:0,0:0:0:0:
290,55,97672,1,0,0:0:0:0:
290,55,97844,1,0,0:0:0:0:
225,170,98017,6,0,B|232:137|212:106|212:106|194:76|201:35,1,140,0|0,0:0|0:0,0:0:0:0:
232,168,98534,2,0,B|239:135|219:104|219:104|201:74|208:33,1,140,0|0,0:0|0:0,0:0:0:0:
118,0,99051,2,0,L|112:83,1,70,0|0,0:0|0:0,0:0:0:0:
68,212,99396,70,0,P|100:170|149:154,1,105.000004005432,0|0,0:0|0:0,0:0:0:0:
232,168,99913,2,0,P|260:166|293:153,2,52.5000020027161,0|0|0,0:0|0:0|0:0,0:0:0:0:
202,89,100430,1,0,0:0:0:0:
202,89,100603,1,0,0:0:0:0:
46,134,100775,6,0,L|154:155,1,105.000004005432,0|0,0:0|0:0,0:0:0:0:
40,140,101292,2,0,L|148:161,1,105.000004005432,0|0,0:0|0:0,0:0:0:0:
202,89,101810,2,0,L|263:100,1,52.5000020027161,0|0,0:0|0:0,0:0:0:0:
275,179,102154,6,0,P|227:195|195:236,1,105.000004005432,0|0,0:0|0:0,0:0:0:0:
102,238,102672,2,0,P|78:251|44:259,2,52.5000020027161,0|0|0,0:0|0:0|0:0,0:0:0:0:
144,160,103189,1,0,0:0:0:0:
144,160,103361,1,0,0:0:0:0:
195,236,103534,6,0,B|239:207|239:207|302:211,1,105.000004005432,0|0,0:0|0:0,0:0:0:0:
193,228,104051,2,0,B|237:199|237:199|290:202,1,105.000004005432,0|0,0:0|0:0,0:0:0:0:
360,155,104568,2,0,L|413:158,1,52.5000020027161,0|0,0:0|0:0,0:0:0:0:
421,243,104913,70,0,P|371:250|327:288,1,97.9999970092774,0|0,0:0|0:0,0:0:0:0:
318,360,105430,2,0,P|343:360|367:353,2,48.9999985046387,0|0|0,0:0|0:0|0:0,0:0:0:0:
251,309,105948,1,0,0:0:0:0:
251,309,106120,1,0,0:0:0:0:
144,355,106292,6,0,P|93:365|45:352,1,97.9999970092774,0|0,0:0|0:0,0:0:0:0:
144,348,106810,2,0,P|93:358|45:345,1,97.9999970092774,0|0,0:0|0:0,0:0:0:0:
0,260,107327,2,0,L|50:261,1,48.9999985046387,0|0,0:0|0:0,0:0:0:0:
145,175,107672,6,0,P|134:219|148:262,1,90.9999958343508,0|0,0:0|0:0,0:0:0:0:
233,299,108189,2,0,P|219:325|189:347,2,45.4999979171754,0|0|0,0:0|0:0|0:0,0:0:0:0:
220,216,108706,1,0,0:0:0:0:
220,216,108879,1,0,0:0:0:0:
304,245,109051,6,0,L|414:249,1,90.9999958343508,0|0,0:0|0:0,0:0:0:0:
308,253,109568,2,0,L|418:257,1,90.9999958343508,0|0,0:0|0:0,0:0:0:0:
486,260,110086,1,0,0:0:0:0:
486,260,110259,1,0,0:0:0:0:
