osu file format v14

[General]
AudioFilename: audio.mp3
AudioLeadIn: 0
PreviewTime: 42844
Countdown: 0
SampleSet: Soft
StackLeniency: 0.3
Mode: 0
LetterboxInBreaks: 0
EpilepsyWarning: 1
WidescreenStoryboard: 1

[Editor]
Bookmarks: 11120,12586,22154,27672,33189,38706,44223,55258,66292,77327,88361,99396
DistanceSpacing: 1
BeatDivisor: 4
GridSize: 8
TimelineZoom: 3.399999

[Metadata]
Title:BARRICADE (Cut Ver.)
TitleUnicode:BARRICADE (Cut Ver.)
Artist:REAPER
ArtistUnicode:REAPER
Creator:Pandize
Version:HARD
Source:
Tags:Electronic Monstercat edm Instrumental DnB Dance Wub English JrSzZ Moko Garden Stingy
BeatmapID:2418495
BeatmapSetID:1157441

[Difficulty]
HPDrainRate:5
CircleSize:3.8
OverallDifficulty:6
ApproachRate:7.5
SliderMultiplier:1.28
SliderTickRate:1

[Events]
//Background and Video events
0,0,"khyzyl-saleem-rex-ny-final-web.jpg",0,0
//Break Periods
//Storyboard Layer 0 (Background)
//Storyboard Layer 1 (Fail)
//Storyboard Layer 2 (Pass)
//Storyboard Layer 3 (Foreground)
Sprite,Foreground,Centre,"SB\carbluenow.png",320,240 S,0,11120,,0.4850907 F,0,66206,66379,0,1 M,0,66379,,294.9818,265.6 F,0,66379,,1 F,0,66379,,1 F,0,66379,88275,1 F,0,88275,88448,1,0
Sprite,Foreground,Centre,"SB\bgflash.jpg",320,240 F,2,66206,66292,0,0.4472728 S,0,66206,66292,0.4821818,0.4879999 C,0,66206,66464,255,185,185,191,223,255 F,2,66292,66464,0.4472728,0 S,1,66292,66464,0.4879999,0.4996364
Sprite,Foreground,Centre,"SB\bgflash.jpg",320,240 F,2,88275,88361,0,0.4472728 S,0,88275,88361,0.4821818,0.4879999 C,0,88275,88533,255,185,185,191,223,255 F,2,88361,88533,0.4472728,0 S,1,88361,88533,0.4879999,0.4996364
//Storyboard Layer 4 (Overlay)
//Storyboard Sound Samples

[TimingPoints]
86,344.827586206897,4,2,1,100,1,0
86,-133.333333333333,4,2,1,100,0,0
430,-133.333333333333,4,2,1,40,0,0
2844,-133.333333333333,4,2,1,50,0,0
5603,-100,4,2,1,60,0,0
8361,-133.333333333333,4,2,1,70,0,0
11120,-100,4,2,1,100,0,0
22154,-80,4,2,1,100,0,0
22413,-80,4,2,1,5,0,0
22499,-80,4,2,1,100,0,0
25172,-80,4,2,1,5,0,0
25258,-80,4,2,1,100,0,0
25517,-80,4,2,1,5,0,0
25603,-80,4,2,1,100,0,0
27930,-80,4,2,1,5,0,0
28017,-80,4,2,1,100,0,0
30689,-80,4,2,1,5,0,0
30775,-80,4,2,1,100,0,0
31034,-80,4,2,1,5,0,0
31120,-80,4,2,1,100,0,0
33448,-80,4,2,1,5,0,0
33534,-80,4,2,1,100,0,0
36206,-80,4,2,1,5,0,0
36292,-80,4,2,1,100,0,0
41465,-100,4,1,1,100,0,0
44482,-100,4,1,1,5,0,0
44568,-100,4,1,1,100,0,0
44827,-100,4,1,1,5,0,0
44913,-100,4,1,1,100,0,0
46982,-66.6666666666667,4,1,1,100,0,1
47241,-66.6666666666667,4,1,1,5,0,1
47327,-66.6666666666667,4,1,1,100,0,1
47586,-66.6666666666667,4,1,1,5,0,1
47672,-66.6666666666667,4,1,1,100,0,1
49999,-66.6666666666667,4,1,1,5,0,1
50086,-66.6666666666667,4,1,1,100,0,1
50344,-66.6666666666667,4,1,1,5,0,1
50430,-66.6666666666667,4,1,1,100,0,1
52758,-66.6666666666667,4,1,1,5,0,1
52844,-66.6666666666667,4,1,1,100,0,1
53103,-66.6666666666667,4,1,1,5,0,1
53189,-66.6666666666667,4,1,1,100,0,1
53879,-100,4,1,1,100,0,0
55517,-100,4,1,1,5,0,0
55603,-100,4,1,1,100,0,0
55861,-100,4,1,1,5,0,0
55948,-100,4,1,1,100,0,0
58017,-66.6666666666667,4,1,1,100,0,1
58275,-66.6666666666667,4,1,1,5,0,1
58361,-66.6666666666667,4,1,1,100,0,1
58620,-66.6666666666667,4,1,1,5,0,1
58706,-66.6666666666667,4,1,1,100,0,1
61034,-66.6666666666667,4,1,1,5,0,1
61120,-66.6666666666667,4,1,1,100,0,1
61379,-66.6666666666667,4,1,1,5,0,1
61465,-66.6666666666667,4,1,1,100,0,1
63792,-66.6666666666667,4,1,1,5,0,1
63879,-66.6666666666667,4,1,1,100,0,1
64137,-66.6666666666667,4,1,1,5,0,1
64223,-66.6666666666667,4,1,1,100,0,1
64913,-100,4,1,1,100,0,0
66292,-66.6666666666667,4,3,1,100,0,1
75948,-100,4,3,1,100,0,0
77586,-100,4,3,1,5,0,0
77672,-100,4,3,1,100,0,0
77930,-100,4,3,1,5,0,0
78017,-100,4,3,1,100,0,0
78965,-100,4,3,1,5,0,0
79051,-100,4,3,1,100,0,0
79310,-100,4,3,1,5,0,0
79396,-100,4,3,1,100,0,0
80086,-66.6666666666667,4,3,1,100,0,1
80344,-66.6666666666667,4,3,1,5,0,1
80430,-66.6666666666667,4,3,1,100,0,1
80689,-66.6666666666667,4,3,1,5,0,1
80775,-66.6666666666667,4,3,1,100,0,1
83103,-66.6666666666667,4,3,1,5,0,1
83189,-66.6666666666667,4,3,1,100,0,1
83448,-66.6666666666667,4,3,1,5,0,1
83534,-66.6666666666667,4,3,1,100,0,1
85861,-66.6666666666667,4,3,1,5,0,1
85948,-66.6666666666667,4,3,1,100,0,1
86206,-66.6666666666667,4,3,1,5,0,1
86292,-66.6666666666667,4,3,1,100,0,1
87327,-100,4,3,1,100,0,1
88361,-100,4,2,1,100,0,0
91120,-100,4,2,1,90,0,0
93879,-100,4,2,1,80,0,0
96637,-100,4,2,1,70,0,0
99396,-133.333333333333,4,2,1,60,0,0
102154,-133.333333333333,4,2,1,50,0,0
104913,-142.857142857143,4,2,1,40,0,0
107672,-153.846153846154,4,2,1,30,0,0
110430,-153.846153846154,4,2,1,5,0,0

[Colours]
Combo1 : 209,132,255
Combo2 : 255,0,0
Combo3 : 255,163,70
Combo4 : 141,70,63
Combo5 : 255,255,108
Combo6 : 0,128,255
Combo7 : 108,255,255
Combo8 : 33,92,152
SliderBorder : 255,255,255
SliderTrackOverride : 56,56,56

[HitObjects]
421,194,86,6,0,L|431:303,1,96.0000036621095,4|0,1:1|0:0,0:0:0:0:
419,369,603,2,0,P|443:367|465:360,2,48.0000018310548,0|0|0,0:0|0:0|0:0,0:0:0:0:
360,319,1120,2,0,P|337:321|314:329,1,48.0000018310548,0|0,0:0|0:0,0:0:0:0:
245,362,1465,6,0,L|137:353,1,96.0000036621095,0|0,0:0|0:0,0:0:0:0:
143,278,1982,2,0,L|35:269,1,96.0000036621095,0|0,0:0|0:0,0:0:0:0:
21,197,2499,1,0,0:0:0:0:
21,197,2672,1,0,0:0:0:0:
86,150,2844,6,0,L|77:42,1,96.0000036621095,0|0,0:0|0:0,0:0:0:0:
156,55,3362,2,0,P|164:78|177:98,2,48.0000018310548,0|0|0,0:0|0:0|0:0,0:0:0:0:
213,3,3879,2,0,P|236:11|256:24,1,48.0000018310548,0|0,0:0|0:0,0:0:0:0:
295,91,4224,6,0,L|404:82,1,96.0000036621095,0|0,0:0|0:0,0:0:0:0:
416,156,4741,2,0,L|524:147,1,96.0000036621095,0|0,0:0|0:0,0:0:0:0:
498,231,5258,1,0,0:0:0:0:
498,231,5430,1,0,0:0:0:0:
458,297,5603,70,0,L|319:287,1,128,0|0,0:0|0:0,0:0:0:0:
287,223,6120,2,0,P|263:244|252:274,2,64,0|0|0,0:0|0:0|0:0,0:0:0:0:
362,208,6637,2,0,P|350:178|327:156,1,64,0|0,0:0|0:0,0:0:0:0:
250,150,6982,6,0,L|240:11,1,128,0|0,0:0|0:0,0:0:0:0:
163,22,7499,2,0,L|173:161,1,128,0|0,0:0|0:0,0:0:0:0:
179,230,8017,1,0,0:0:0:0:
179,230,8189,1,0,0:0:0:0:
251,262,8361,6,0,L|302:257,1,48.0000018310548,0|0,0:0|0:0,0:0:0:0:
375,250,8706,2,0,L|426:245,1,48.0000018310548,0|0,0:0|0:0,0:0:0:0:
430,168,9051,2,0,L|379:173,1,48.0000018310548,0|0,0:0|0:0,0:0:0:0:
306,180,9396,2,0,L|255:185,1,48.0000018310548,0|0,0:0|0:0,0:0:0:0:
180,191,9741,6,0,L|185:140,1,48.0000018310548,0|0,0:0|0:0,0:0:0:0:
192,67,10086,2,0,L|197:16,1,48.0000018310548,0|0,0:0|0:0,0:0:0:0:
274,12,10430,2,0,L|269:63,1,48.0000018310548,0|0,0:0|0:0,0:0:0:0:
262,136,10775,2,0,L|257:187,1,48.0000018310548,0|0,0:0|0:0,0:0:0:0:
252,260,11120,70,0,L|403:247,1,128,2|8,0:2|0:2,0:0:0:0:
412,179,11637,2,0,P|437:197|453:225,2,64,0|0|2,0:0|0:0|0:2,0:0:0:0:
335,172,12154,2,0,P|319:144|317:112,1,64,8|0,0:2|0:0,0:0:0:0:
321,35,12499,6,0,B|259:39|259:39|242:31|242:31|166:36,1,128,2|8,0:2|0:2,0:0:0:0:
211,114,13017,2,0,B|164:118|164:118|147:110|147:110|85:114,1,128,0|2,0:0|0:2,0:0:0:0:
8,122,13534,1,8,0:2:0:0:
8,122,13706,1,0,0:0:0:0:
16,198,13879,6,0,L|152:205,1,128,2|8,0:2|0:2,0:0:0:0:
218,242,14396,2,0,P|197:266|169:281,2,64,0|0|2,0:0|0:0|0:2,0:0:0:0:
290,215,14913,2,0,P|318:230|339:254,1,64,8|0,0:2|0:0,0:0:0:0:
392,309,15258,6,0,B|361:336|324:331|324:331|248:321,1,128,2|8,0:2|0:2,0:0:0:0:
199,353,15775,2,0,B|145:346|145:346|108:341|77:368,1,128,0|2,0:0|0:2,0:0:0:0:
15,322,16292,1,8,0:2:0:0:
15,322,16465,1,0,0:0:0:0:
54,256,16637,70,0,L|43:112,1,128,2|8,0:2|0:2,0:0:0:0:
99,74,17154,2,0,P|72:55|41:50,2,64,0|0|2,0:0|0:0|0:2,0:0:0:0:
141,138,17672,2,0,P|165:161|201:173,1,64,8|0,0:2|0:0,0:0:0:0:
263,140,18017,6,0,B|278:175|266:206|266:206|251:240|260:270,1,128,2|8,0:2|0:2,0:0:0:0:
338,254,18534,2,0,B|346:278|331:312|331:312|319:343|333:378,1,128,0|2,0:0|0:2,0:0:0:0:
406,349,19051,1,8,0:2:0:0:
406,349,19223,1,0,0:0:0:0:
482,345,19396,6,0,L|473:216,1,128,2|8,0:2|0:2,0:0:0:0:
445,145,19913,2,0,P|418:161|400:189,2,64,0|0|2,0:0|0:0|0:2,0:0:0:0:
447,67,20430,2,0,P|418:55|395:31,1,64,8|0,0:2|0:0,0:0:0:0:
321,53,20775,6,0,B|346:111|346:111|324:174,1,128,2|8,0:2|0:2,0:0:0:0:
247,153,21292,2,0,B|226:214|226:214|251:272,1,128,0|2,0:0|0:2,0:0:0:0:
222,346,21810,1,8,0:2:0:0:
222,346,21982,1,0,0:0:0:0:
148,312,22154,70,0,L|134:160,1,120,2|0,2:3|2:0,0:0:0:0:
134,152,22499,1,8,0:3:0:0:
193,97,22672,2,0,P|159:76|119:73,2,80,0|0|0,0:0|0:0|0:0,0:0:0:0:
212,176,23189,2,0,P|246:197|286:200,1,80,8|0,0:3|0:0,0:0:0:0:
357,151,23534,6,0,B|330:182|336:219|336:219|350:319,1,160,0|8,2:0|0:3,0:0:0:0:
269,319,24051,2,0,B|255:235|255:235|249:198|213:177,1,160,0|0,2:0|0:0,0:0:0:0:
134,159,24568,2,0,P|96:170|63:204,1,80,8|0,0:3|0:0,0:0:0:0:
40,272,24913,102,0,B|46:302|75:316|75:316|108:316|128:291,1,120,2|0,3:3|0:0,0:0:0:0:
155,260,25258,2,0,B|174:235|206:235|206:235|236:249|243:279,1,120,2|0,3:3|0:0,0:0:0:0:
266,312,25602,6,0,L|276:212,1,80,0|0,0:0|2:0,0:0:0:0:
354,226,25948,2,0,L|344:126,1,80,0|0,1:0|0:0,0:0:0:0:
396,84,26292,6,0,B|371:117|371:117|253:122,1,160,2|0,3:3|1:0,0:0:0:0:
176,148,26810,2,0,B|199:114|199:114|317:109,1,160,2|0,3:3|1:0,0:0:0:0:
342,29,27326,2,0,P|377:48|395:83,1,80,0|0,0:0|0:0,0:0:0:0:
380,162,27672,86,0,L|366:314,1,120,2|0,0:3|0:0,0:0:0:0:
364,322,28017,1,8,0:3:0:0:
286,278,28190,2,0,P|249:290|222:319,2,80,0|0|0,0:0|0:0|0:0,0:0:0:0:
296,198,28706,2,0,P|258:189|227:164,1,80,8|0,0:3|0:0,0:0:0:0:
196,89,29051,6,0,P|181:163|110:190,1,160,0|8,0:0|0:3,0:0:0:0:
47,138,29568,2,0,P|31:213|83:269,1,160,0|0,0:0|0:0,0:0:0:0:
141,325,30086,2,0,P|160:291|159:240,1,80,8|0,0:3|0:0,0:0:0:0:
109,190,30430,102,0,B|136:212|176:208|176:208|226:198,1,120,2|0,3:3|0:0,0:0:0:0:
260,186,30775,2,0,B|306:176|306:176|346:172|374:195,1,120,2|0,3:3|0:0,0:0:0:0:
414,200,31120,6,0,L|421:293,1,80,0|0,1:0|2:0,0:0:0:0:
339,285,31465,2,0,L|332:378,1,80,0|0,1:0|2:0,0:0:0:0:
257,338,31810,6,0,B|214:307|169:319|169:319|132:326|97:305,1,160,2|0,3:3|1:0,0:0:0:0:
29,325,32327,2,0,B|76:301|120:322|120:322|154:335|193:319,1,160,2|0,3:3|1:0,0:0:0:0:
220,250,32844,2,0,P|251:275|269:311,1,80,0|0,0:0|0:0,0:0:0:0:
336,353,33189,86,0,L|489:341,1,120,2|0,2:3|2:0,0:0:0:0:
496,341,33534,1,8,0:3:0:0:
469,265,33707,2,0,P|475:226|498:195,2,80,0|0|2,0:0|0:0|0:2,0:0:0:0:
389,272,34223,2,0,P|375:235|345:209,1,80,8|0,0:3|0:0,0:0:0:0:
272,242,34568,6,0,B|239:213|239:213|245:93,1,160,2|8,2:2|0:3,0:0:0:0:
164,93,35086,2,0,B|157:207|157:207|122:233,1,160,0|2,2:0|0:2,0:0:0:0:
48,199,35603,2,0,P|39:237|51:275,1,80,8|0,0:3|0:0,0:0:0:0:
99,339,35948,6,0,L|252:327,1,120,2|0,0:2|0:0,0:0:0:0:
259,327,36293,1,8,0:3:0:0:
236,250,36465,2,0,P|267:227|283:190,2,80,0|0|2,0:0|0:0|0:2,0:0:0:0:
156,242,36982,2,0,P|129:213|121:174,1,80,8|0,0:3|0:0,0:0:0:0:
138,95,37327,6,0,B|210:96|210:96|229:112|229:112|310:114,1,160,2|8,2:2|0:3,0:0:0:0:
289,33,37844,2,0,B|354:35|354:35|373:50|373:50|444:52,1,160,0|2,2:0|0:2,0:0:0:0:
501,107,38361,2,0,P|467:128|428:130,1,80,8|0,0:3|0:0,0:0:0:0:
375,189,38706,70,0,L|288:194,1,80,2|2,0:2|0:2,0:0:0:0:
275,115,39051,2,0,L|188:110,1,80,2|2,0:2|0:2,0:0:0:0:
118,111,39396,5,2,0:2:0:0:
118,111,39568,1,2,0:2:0:0:
140,192,39741,1,2,0:2:0:0:
140,192,39913,1,2,0:2:0:0:
116,268,40086,6,0,P|97:261|82:248,2,40,2|2|2,0:2|0:2|0:2,0:0:0:0:
194,251,40430,2,0,P|208:237|217:219,2,40,2|2|2,0:2|0:2|0:2,0:0:0:0:
128,325,40775,6,0,P|113:338|104:356,2,40,2|2|2,0:2|0:2|0:2,0:0:0:0:
206,308,41120,2,0,P|224:314|240:327,2,40,2|2|2,0:2|0:2|0:2,0:0:0:0:
160,286,41465,1,2,2:3:0:0:
111,311,43879,101,8,0:1:0:0:
26,297,44051,1,2,1:2:0:0:
5,373,44223,86,0,B|45:384|75:359|75:359|102:335,1,96,2|0,1:3|0:0,0:0:0:0:
111,311,44568,2,0,B|127:296|127:296|157:271|197:282,1,96,2|0,1:3|0:0,0:0:0:0:
233,297,44913,6,0,L|315:287,1,64,0|0,0:0|0:0,0:0:0:0:
276,373,45257,2,0,L|358:383,1,64,0|0,0:0|0:0,0:0:0:0:
423,342,45603,6,0,B|383:301|383:301|386:213,1,128,2|0,0:3|0:0,0:0:0:0:
337,169,46120,2,0,B|377:210|377:210|374:298,1,128,2|0,0:3|0:0,0:0:0:0:
296,289,46637,6,0,L|232:296,1,64,0|0,0:0|0:0,0:0:0:0:
157,362,46982,70,0,B|198:331|188:278|188:278|178:222,1,144.000005493164,2|0,0:3|0:0,0:0:0:0:
166,183,47327,2,0,B|157:134|157:134|147:81|188:50,1,144.000005493164,8|0,0:0|0:0,0:0:0:0:
234,44,47672,6,0,L|255:149,1,96.0000036621095,0|2,0:0|0:3,0:0:0:0:
326,200,48017,2,0,L|305:305,1,96.0000036621095,8|0,0:0|0:0,0:0:0:0:
355,376,48361,6,0,B|304:319|304:319|185:329,1,192.000007324219,2|8,0:3|0:0,0:0:0:0:
103,283,48879,2,0,B|154:340|154:340|269:330,1,192.000007324219,2|2,0:3|0:3,0:0:0:0:
356,291,49396,6,0,P|325:254|281:236,1,96.0000036621095,8|0,0:0|0:0,0:0:0:0:
186,236,49741,70,0,B|169:201|185:167|185:167|215:139|251:141,1,144.000005493164,2|0,0:3|0:0,0:0:0:0:
299,141,50086,2,0,B|335:139|363:110|363:110|376:75|357:41,1,144.000005493164,8|0,0:0|0:0,0:0:0:0:
331,2,50430,6,0,L|231:12,1,96.0000036621095,0|2,0:0|0:3,0:0:0:0:
163,75,50775,2,0,L|63:65,1,96.0000036621095,8|0,0:0|0:0,0:0:0:0:
0,0,51120,6,0,B|37:51|22:105|22:105|14:149|39:191,1,192.000007324219,2|8,0:3|0:0,0:0:0:0:
15,275,51637,2,0,B|43:218|18:166|18:166|2:125|21:79,1,192.000007324219,2|2,0:3|0:3,0:0:0:0:
0,0,52154,6,0,P|47:1|88:25,1,96.0000036621095,8|0,0:0|0:0,0:0:0:0:
123,115,52499,70,0,B|180:112|180:112|205:133|205:133|260:130,1,144.000005493164,2|0,0:3|0:0,0:0:0:0:
307,128,52844,2,0,B|361:124|361:124|384:100|384:100|441:96,1,144.000005493164,8|0,0:0|0:0,0:0:0:0:
488,93,53189,6,0,L|470:193,1,96.0000036621095,0|2,0:0|0:3,0:0:0:0:
386,215,53534,2,0,L|404:315,1,96.0000036621095,8|0,0:0|0:0,0:0:0:0:
449,384,53879,6,0,P|479:347|486:301,3,96,2|0|0|0,0:3|3:0|3:0|3:0,0:0:0:0:
386,215,54913,6,0,L|374:146,1,64,8|0,2:1|0:0,0:0:0:0:
409,80,55258,70,0,B|379:109|346:105|346:105|336:66,1,96,2|0,0:3|0:0,0:0:0:0:
333,48,55603,2,0,B|326:23|326:23|293:19|263:48,1,96,2|0,0:3|0:0,0:0:0:0:
245,75,55948,5,0,0:0:0:0:
245,75,56120,1,0,3:0:0:0:
242,156,56292,1,0,0:0:0:0:
242,156,56464,1,0,3:0:0:0:
312,121,56637,6,0,L|454:123,1,128,2|0,0:3|0:0,0:0:0:0:
512,132,57154,2,0,L|370:130,1,128,2|0,0:3|2:0,0:0:0:0:
354,208,57672,5,0,3:0:0:0:
354,208,57844,1,0,2:0:0:0:
374,283,58017,70,0,B|337:304|334:338|334:338|337:304|308:274,1,144.000005493164,2|0,0:3|0:0,0:0:0:0:
273,239,58362,2,0,B|244:208|247:174|247:174|244:208|207:230,1,144.000005493164,8|0,0:0|0:0,0:0:0:0:
160,243,58707,5,0,0:3:0:0:
160,243,58879,1,2,0:3:0:0:
95,178,59052,1,8,0:0:0:0:
95,178,59224,1,0,0:0:0:0:
41,257,59396,6,0,B|82:232|86:184|86:184|94:76,1,192.000007324219,2|8,0:3|0:0,0:0:0:0:
148,3,59914,2,0,B|106:27|102:75|102:75|94:183,1,192.000007324219,2|2,0:3|0:3,0:0:0:0:
160,243,60430,5,8,0:0:0:0:
160,243,60603,1,0,0:0:0:0:
145,337,60775,70,0,B|140:296|169:274|169:274|204:271|234:300,1,144.000005493164,2|0,0:3|0:0,0:0:0:0:
266,338,61120,2,0,B|296:367|331:364|331:364|360:342|355:301,1,144.000005493164,8|0,0:0|0:0,0:0:0:0:
349,256,61465,5,0,0:0:0:0:
349,256,61637,1,2,0:3:0:0:
441,222,61810,1,8,0:0:0:0:
441,222,61982,1,0,0:0:0:0:
477,310,62155,6,0,B|436:280|436:280|431:138,1,192.000007324219,2|8,0:3|0:0,0:0:0:0:
395,50,62672,2,0,B|436:79|436:79|441:221,1,192.000007324219,2|2,0:3|0:3,0:0:0:0:
477,310,63189,5,8,0:0:0:0:
477,310,63362,1,0,0:0:0:0:
411,379,63534,70,0,B|371:390|341:365|341:365|314:341|278:341,1,144.000005493164,2|0,0:3|0:0,0:0:0:0:
229,342,63879,2,0,B|194:344|167:368|167:368|138:394|97:385,1,144.000005493164,8|0,0:0|0:0,0:0:0:0:
51,366,64224,5,2,0:3:0:0:
0,284,64397,1,2,0:3:0:0:
80,240,64568,1,2,0:3:0:0:
27,159,64741,1,2,0:3:0:0:
110,116,64912,1,0,0:0:0:0:
227,286,65258,6,0,P|176:253|181:165,2,128,0|0|8,2:0|2:0|2:1,0:0:0:0:
417,313,66292,22,0,B|420:233|420:233|393:188|393:188|397:123,1,192.000007324219,2|8,0:3|0:1,0:0:0:0:
288,0,66982,6,0,P|307:58|301:97,1,96.0000036621095,0|2,0:0|0:3,0:0:0:0:
215,131,67327,2,0,P|211:178|229:222,1,96.0000036621095,8|0,0:1|0:0,0:0:0:0:
304,283,67672,6,0,B|251:257|215:278|215:278|172:300|117:281,1,192.000007324219,2|8,0:3|0:1,0:0:0:0:
0,132,68361,6,0,P|46:161|112:160,1,96.0000036621095,0|2,0:0|0:3,0:0:0:0:
143,87,68706,2,0,P|190:93|229:120,1,96.0000036621095,8|0,0:1|0:0,0:0:0:0:
278,203,69051,70,8,B|233:166|248:95|248:95|265:9,1,192.000007324219,2|8,0:3|0:1,0:0:0:0:
453,0,69741,6,0,L|431:110,1,96.0000036621095,0|2,0:0|0:3,0:0:0:0:
360,156,70086,2,0,L|382:266,1,96.0000036621095,8|0,0:1|0:0,0:0:0:0:
467,267,70430,6,0,B|415:229|361:244|361:244|317:252|275:227,1,192.000007324219,2|8,0:3|0:1,0:0:0:0:
192,252,70947,2,0,B|248:223|300:248|300:248|341:264|387:245,1,192.000007324219,2|2,0:3|0:3,0:0:0:0:
451,177,71464,5,8,0:1:0:0:
451,177,71637,1,0,0:0:0:0:
419,80,71810,70,0,B|371:119|371:119|378:263,1,192.000007324219,2|8,0:3|0:1,0:0:0:0:
512,372,72499,6,0,P|454:353|415:359,1,96.0000036621095,0|2,0:0|0:3,0:0:0:0:
333,326,72844,2,0,P|285:329|241:311,1,96.0000036621095,8|0,0:1|0:0,0:0:0:0:
186,231,73189,6,0,B|223:253|223:253|200:357|200:357|158:361,1,192.000007324219,2|8,0:3|0:1,0:0:0:0:
65,364,73706,5,2,0:3:0:0:
65,364,73879,2,0,P|52:313|74:262,1,96.0000036621095,0|2,0:0|0:3,0:0:0:0:
6,197,74223,2,0,P|19:146|-3:95,1,96.0000036621095,8|0,0:1|0:0,0:0:0:0:
0,0,74568,70,8,B|37:45|107:30|107:30|194:13,1,192.000007324219,2|8,0:3|0:1,0:0:0:0:
372,1,75258,6,0,L|348:115,1,96.0000036621095,0|2,0:0|0:3,0:0:0:0:
444,123,75603,2,0,L|468:237,1,96.0000036621095,8|0,0:1|0:0,0:0:0:0:
478,318,75948,6,0,P|431:311|394:281,3,96,2|0|0|0,0:3|3:0|3:0|3:0,0:0:0:0:
321,171,76982,6,0,L|233:181,1,64,8|0,0:2|0:0,0:0:0:0:
196,234,77327,70,0,B|231:199|218:144,1,96,2|0,0:3|0:0,0:0:0:0:
213,113,77672,2,0,B|200:58|235:23,1,96,2|0,0:3|0:0,0:0:0:0:
264,11,78017,6,0,P|295:24|317:52,1,64,0|0,2:0|2:0,0:0:0:0:
339,119,78361,2,0,P|336:152|316:182,1,64,0|0,2:0|2:0,0:0:0:0:
285,243,78706,6,0,B|314:223|314:223|382:230,1,96,2|0,0:3|0:0,0:0:0:0:
406,233,79051,2,0,B|466:240|466:240|490:266,1,96,2|0,0:3|0:0,0:0:0:0:
512,340,79396,6,0,P|487:362|452:370,1,64,0|0,2:0|2:0,0:0:0:0:
382,363,79740,2,0,P|352:346|334:315,1,64,0|0,2:0|2:0,0:0:0:0:
334,224,80086,70,0,B|234:231|234:231|196:264,1,144.000005493164,2|0,0:3|0:0,0:0:0:0:
168,294,80430,2,0,B|134:322|134:322|34:329,1,144.000005493164,8|0,0:1|0:1,0:0:0:0:
5,331,80775,6,0,L|27:221,1,96.0000036621095,0|2,0:0|0:3,0:0:0:0:
98,175,81120,2,0,L|76:65,1,96.0000036621095,8|0,0:1|0:0,0:0:0:0:
0,28,81465,6,0,B|25:69|73:73|73:73|181:81,1,192.000007324219,2|8,0:3|0:1,0:0:0:0:
254,135,81982,2,0,B|230:93|182:89|182:89|74:81,1,192.000007324219,2|2,0:3|0:3,0:0:0:0:
14,147,82498,5,8,0:1:0:0:
14,147,82671,1,0,0:0:0:0:
67,227,82844,70,0,P|112:173|182:167,1,144.000005493164,2|0,0:3|0:0,0:0:0:0:
228,180,83189,2,0,P|297:173|343:120,1,144.000005493164,8|0,0:1|0:1,0:0:0:0:
341,71,83534,6,0,P|386:56|432:67,1,96.0000036621095,0|2,0:0|0:3,0:0:0:0:
491,143,83879,2,0,P|480:189|448:224,1,96.0000036621095,8|0,0:1|0:0,0:0:0:0:
426,317,84223,6,0,B|379:284|379:284|223:302,1,192.000007324219,2|8,0:3|0:1,0:0:0:0:
156,309,84741,5,2,0:3:0:0:
156,309,84913,2,0,P|163:262|194:225,1,96.0000036621095,0|2,0:0|0:3,0:0:0:0:
283,188,85258,2,0,P|319:157|335:113,1,96.0000036621095,8|0,0:1|0:0,0:0:0:0:
389,33,85603,70,0,B|322:32|322:32|297:16|297:16|228:15,1,144.000005493164,2|0,0:3|0:0,0:0:0:0:
201,13,85948,2,0,B|153:12|153:12|128:27|128:27|61:25,1,144.000005493164,8|0,0:1|0:1,0:0:0:0:
13,27,86292,6,0,L|35:137,1,96.0000036621095,0|2,0:0|0:3,0:0:0:0:
106,183,86637,2,0,L|84:293,1,96.0000036621095,8|0,0:1|0:3,0:0:0:0:
58,369,86982,1,0,0:0:0:0:
237,267,87327,6,0,P|180:290|148:353,2,128,0|0|8,2:0|2:0|2:1,0:0:0:0:
306,299,88189,1,2,0:3:0:0:
326,372,88361,22,0,L|458:361,1,128,6|0,0:2|0:0,0:0:0:0:
454,283,88879,2,0,P|484:289|511:307,2,64,0|0|0,0:0|0:0|0:0,0:0:0:0:
458,206,89396,2,0,P|427:197|401:178,1,64,0|0,0:0|0:0,0:0:0:0:
349,123,89741,6,0,L|217:134,1,128,0|0,0:0|0:0,0:0:0:0:
211,210,90258,2,0,L|79:221,1,128,0|0,0:0|0:0,0:0:0:0:
25,166,90775,1,0,0:0:0:0:
25,166,90948,1,0,0:0:0:0:
99,143,91120,6,0,L|110:11,1,128,0|0,0:0|0:0,0:0:0:0:
183,38,91637,2,0,P|203:13|231:-1,2,64,0|0|0,0:0|0:0|0:0,0:0:0:0:
177,114,92154,2,0,P|197:138|225:153,1,64,0|0,0:0|0:0,0:0:0:0:
298,126,92499,6,0,L|309:258,1,128,0|0,0:0|0:0,0:0:0:0:
383,248,93017,2,0,L|394:380,1,128,0|0,0:0|0:0,0:0:0:0:
320,384,93534,1,0,0:0:0:0:
320,384,93706,1,0,0:0:0:0:
261,333,93879,70,0,L|129:344,1,128,0|0,0:0|0:0,0:0:0:0:
75,291,94396,2,0,P|59:319|56:351,2,64,0|0|0,0:0|0:0|0:0,0:0:0:0:
148,266,94913,2,0,P|163:238|169:206,1,64,0|0,0:0|0:0,0:0:0:0:
137,136,95258,6,0,L|269:125,1,128,0|0,0:0|0:0,0:0:0:0:
279,49,95775,2,0,L|411:38,1,128,0|0,0:0|0:0,0:0:0:0:
460,100,96292,1,0,0:0:0:0:
460,100,96465,1,0,0:0:0:0:
425,168,96637,6,0,L|293:157,1,128,0|0,0:0|0:0,0:0:0:0:
230,119,97154,2,0,P|199:114|171:98,2,64,0|0|0,0:0|0:0|0:0,0:0:0:0:
228,196,97672,2,0,P|197:200|169:216,1,64,0|0,0:0|0:0,0:0:0:0:
156,292,98017,6,0,L|288:303,1,128,0|0,0:0|0:0,0:0:0:0:
300,227,98534,2,0,L|432:238,1,128,0|0,0:0|0:0,0:0:0:0:
508,248,99051,1,0,0:0:0:0:
508,248,99223,1,0,0:0:0:0:
473,176,99396,70,0,L|483:67,1,96.0000036621095,0|0,0:0|0:0,0:0:0:0:
439,12,99913,2,0,P|462:4|486:3,2,48.0000018310548,0|0|0,0:0|0:0|0:0,0:0:0:0:
405,81,100430,2,0,P|382:79|359:71,1,48.0000018310548,0|0,0:0|0:0,0:0:0:0:
299,21,100775,6,0,L|191:30,1,96.0000036621095,0|0,0:0|0:0,0:0:0:0:
157,91,101292,2,0,L|49:100,1,96.0000036621095,0|0,0:0|0:0,0:0:0:0:
6,154,101810,2,0,P|14:176|16:200,1,48.0000018310548,0|0,0:0|0:0,0:0:0:0:
85,232,102154,6,0,L|76:340,1,96.0000036621095,0|0,0:0|0:0,0:0:0:0:
156,329,102672,2,0,P|164:306|177:286,2,48.0000018310548,0|0|0,0:0|0:0|0:0,0:0:0:0:
213,381,103189,2,0,P|236:373|256:360,1,48.0000018310548,0|0,0:0|0:0,0:0:0:0:
295,293,103534,6,0,L|404:302,1,96.0000036621095,0|0,0:0|0:0,0:0:0:0:
416,228,104051,2,0,L|524:237,1,96.0000036621095,0|0,0:0|0:0,0:0:0:0:
510,158,104568,2,0,P|488:150|468:137,1,48.0000018310548,0|0,0:0|0:0,0:0:0:0:
427,72,104913,70,0,L|319:81,1,89.5999972656251,0|0,0:0|0:0,0:0:0:0:
264,59,105430,2,0,P|273:35|291:16,2,44.7999986328125,0|0|0,0:0|0:0|0:0,0:0:0:0:
277,134,105948,2,0,P|268:158|250:177,1,44.7999986328125,0|0,0:0|0:0,0:0:0:0:
182,190,106292,6,0,L|192:298,1,89.5999972656251,0|0,0:0|0:0,0:0:0:0:
267,277,106810,2,0,L|277:385,1,89.5999972656251,0|0,0:0|0:0,0:0:0:0:
201,383,107327,2,0,P|187:362|164:348,1,44.7999986328125,0|0,0:0|0:0,0:0:0:0:
117,299,107672,6,0,L|28:306,1,83.1999961914064,0|0,0:0|0:0,0:0:0:0:
28,231,108189,2,0,P|12:218|1:200,2,41.5999980957032,0|0|0,0:0|0:0|0:0,0:0:0:0:
103,224,108706,2,0,P|120:211|131:193,1,41.5999980957032,0|0,0:0|0:0,0:0:0:0:
134,118,109051,6,0,L|224:125,1,83.1999961914064,0|0,0:0|0:0,0:0:0:0:
272,73,109568,2,0,L|362:80,1,83.1999961914064,0|0,0:0|0:0,0:0:0:0:
427,104,110086,2,0,P|433:83|431:63,1,41.5999980957032,0|0,0:0|0:0,0:0:0:0:
