osu file format v14

[General]
AudioFilename: audio.mp3
AudioLeadIn: 0
PreviewTime: 173350
Countdown: 0
SampleSet: Normal
StackLeniency: 0.7
Mode: 1
LetterboxInBreaks: 0
EpilepsyWarning: 1
WidescreenStoryboard: 1

[Editor]
Bookmarks: 20200,77800,135400,193000,269960,324314,386713,439513,477923
DistanceSpacing: 0.2
BeatDivisor: 4
GridSize: 32
TimelineZoom: 3.870002

[Metadata]
Title:RS Neutralaiza II
TitleUnicode:RS Neutralaiza Ⅱ
Artist:REAL SHIT BASTARDS
ArtistUnicode:REAL SHIT BASTARDS
Creator:Dekovner
Version:So Crazy Collab
Source:
Tags:ahocore hardtek breakcore frenchcore d&b drum and bass construction electronic instrumental ulko ulqui -ImaHitoKato 4nzu spire supire supaia
BeatmapID:4342873
BeatmapSetID:2074704

[Difficulty]
HPDrainRate:4
CircleSize:5
OverallDifficulty:7.3
ApproachRate:10
SliderMultiplier:1.4
SliderTickRate:1

[Events]
//Background and Video events
0,0,"6255868714.jpg",0,70
//Break Periods
//Storyboard Layer 0 (Background)
//Storyboard Layer 1 (Fail)
//Storyboard Layer 2 (Pass)
//Storyboard Layer 3 (Foreground)
//Storyboard Layer 4 (Overlay)
//Storyboard Sound Samples

[TimingPoints]
1000,300,4,1,0,100,1,0
1000,-20,4,1,0,100,0,0
2195,-22.2222222222222,4,1,0,100,0,0
3395,-25,4,1,0,100,0,0
4595,-28.5714285714286,4,1,0,100,0,0
5795,-33.3333333333333,4,1,0,100,0,0
6995,-40,4,1,0,100,0,0
8195,-50,4,1,0,100,0,0
9395,-66.6666666666667,4,1,0,100,0,0
10595,-90.9090909090909,4,1,0,100,0,0
10745,-91.254752851711,4,1,0,100,0,0
10820,-91.4285714285714,4,1,0,100,0,0
10895,-91.6030534351145,4,1,0,100,0,0
10970,-91.7782026768642,4,1,0,100,0,0
11045,-91.9540229885057,4,1,0,100,0,0
11195,-92.3076923076923,4,1,0,100,0,0
11270,-92.485549132948,4,1,0,100,0,0
11345,-92.6640926640926,4,1,0,100,0,0
11420,-92.8433268858801,4,1,0,100,0,0
11495,-93.0232558139535,4,1,0,100,0,0
11645,-93.3852140077821,4,1,0,100,0,0
11795,-93.75,4,1,0,100,0,0
11945,-94.1176470588235,4,1,0,100,0,0
12020,-94.3025540275049,4,1,0,100,0,0
12095,-94.488188976378,4,1,0,100,0,0
12170,-94.6745562130177,4,1,0,100,0,0
12245,-94.8616600790514,4,1,0,100,0,0
12395,-95.2380952380952,4,1,0,100,0,0
12470,-95.427435387674,4,1,0,100,0,0
12545,-95.6175298804781,4,1,0,100,0,0
12620,-95.8083832335329,4,1,0,100,0,0
12695,-96,4,1,0,100,0,0
12845,-96.3855421686747,4,1,0,100,0,0
12920,-96.579476861167,4,1,0,100,0,0
12995,-96.7741935483871,4,1,0,100,0,0
13145,-97.165991902834,4,1,0,100,0,0
13220,-97.3630831643002,4,1,0,100,0,0
13295,-97.5609756097561,4,1,0,100,0,0
13370,-97.7596741344196,4,1,0,100,0,0
13445,-97.9591836734694,4,1,0,100,0,0
13595,-98.3606557377049,4,1,0,100,0,0
13670,-98.5626283367556,4,1,0,100,0,0
13745,-98.7654320987654,4,1,0,100,0,0
13820,-98.9690721649484,4,1,0,100,0,0
13895,-99.1735537190083,4,1,0,100,0,0
13932,-99.2747428508397,4,1,0,100,0,0
14045,-99.5850622406639,4,1,0,100,0,0
14082,-99.6870932905048,4,1,0,100,0,0
14195,-100,4,1,0,100,0,0
14345,-96.7741935483871,4,1,0,100,0,0
14420,-95.2380952380952,4,1,0,100,0,0
14495,-93.75,4,1,0,100,0,0
14645,-90.9090909090909,4,1,0,100,0,0
14720,-89.5522388059701,4,1,0,100,0,0
14795,-88.2352941176471,4,1,0,100,0,0
14870,-86.9565217391304,4,1,0,100,0,0
14945,-85.7142857142857,4,1,0,100,0,0
15020,-84.5070422535211,4,1,0,100,0,0
15095,-83.3333333333333,4,1,0,100,0,0
15395,-90.9090909090909,4,1,0,100,0,0
15545,-91.4285714285714,4,1,0,100,0,0
15620,-91.6905444126074,4,1,0,100,0,0
15695,-91.9540229885057,4,1,0,100,0,0
15770,-92.2190201729107,4,1,0,100,0,0
15845,-92.485549132948,4,1,0,100,0,0
15995,-93.0232558139535,4,1,0,100,0,0
16070,-93.2944606413994,4,1,0,100,0,0
16145,-93.5672514619883,4,1,0,100,0,0
16220,-93.841642228739,4,1,0,100,0,0
16295,-94.1176470588235,4,1,0,100,0,0
16445,-94.6745562130177,4,1,0,100,0,0
16595,-95.2380952380952,4,1,0,100,0,0
16745,-95.8083832335329,4,1,0,100,0,0
16820,-96.0960960960961,4,1,0,100,0,0
16895,-96.3855421686747,4,1,0,100,0,0
16970,-96.6767371601208,4,1,0,100,0,0
17045,-96.969696969697,4,1,0,100,0,0
17120,-97.2644376899696,4,1,0,100,0,0
17195,-97.5609756097561,4,1,0,100,0,0
17270,-97.8593272171254,4,1,0,100,0,0
17345,-98.159509202454,4,1,0,100,0,0
17495,-98.7654320987654,4,1,0,100,0,0
17570,-99.0712074303406,4,1,0,100,0,0
17645,-99.3788819875776,4,1,0,100,0,0
17720,-99.6884735202492,4,1,0,100,0,0
17795,-100,4,1,0,100,0,0
17945,-101.26582278481,4,1,0,100,0,0
18095,-102.564102564103,4,1,0,100,0,0
18245,-103.896103896104,4,1,0,100,0,0
18395,-105.263157894737,4,1,0,100,0,0
18545,-106.666666666667,4,1,0,100,0,0
18695,-108.108108108108,4,1,0,100,0,0
18845,-109.58904109589,4,1,0,100,0,0
18995,-111.111111111111,4,1,0,100,0,0
19145,-108.108108108108,4,1,0,100,0,0
19295,-105.263157894737,4,1,0,100,0,0
19445,-102.564102564103,4,1,0,100,0,0
19520,-101.26582278481,4,1,0,100,0,0
19595,-90.9090909090909,4,1,0,100,0,0
19895,-90.9090909090909,4,1,0,100,0,0
19970,-93.0232558139535,4,1,0,100,0,0
20045,-95.2380952380952,4,1,0,100,0,0
20120,-97.5609756097561,4,1,0,100,0,0
20195,-100,4,1,0,100,0,0
20270,-97.5609756097561,4,1,0,100,0,0
20345,-95.2380952380952,4,1,0,100,0,0
20420,-93.0232558139535,4,1,0,100,0,0
20495,-90.9090909090909,4,1,0,100,0,0
20645,-100,4,1,0,100,0,0
20720,-99.009900990099,4,1,0,100,0,0
20795,-98.0392156862745,4,1,0,100,0,0
20870,-97.0873786407767,4,1,0,100,0,0
20945,-96.1538461538461,4,1,0,100,0,0
21020,-95.2380952380952,4,1,0,100,0,0
21095,-94.3396226415094,4,1,0,100,0,0
21170,-93.4579439252336,4,1,0,100,0,0
21245,-92.5925925925926,4,1,0,100,0,0
21320,-91.743119266055,4,1,0,100,0,0
21395,-90.9090909090909,4,1,0,100,0,0
21545,-90.9090909090909,4,1,0,100,0,0
21620,-91.743119266055,4,1,0,100,0,0
21695,-92.5925925925926,4,1,0,100,0,0
21770,-93.4579439252336,4,1,0,100,0,0
21845,-94.3396226415094,4,1,0,100,0,0
21920,-95.2380952380952,4,1,0,100,0,0
21995,-96.1538461538461,4,1,0,100,0,0
22070,-97.0873786407767,4,1,0,100,0,0
22145,-98.0392156862745,4,1,0,100,0,0
22220,-99.009900990099,4,1,0,100,0,0
22295,-100,4,1,0,100,0,0
22445,-100,4,1,0,100,0,0
22520,-99.290780141844,4,1,0,100,0,0
22595,-98.5915492957747,4,1,0,100,0,0
22670,-97.9020979020979,4,1,0,100,0,0
22745,-97.2222222222222,4,1,0,100,0,0
22820,-96.551724137931,4,1,0,100,0,0
22895,-95.8904109589041,4,1,0,100,0,0
22970,-95.2380952380952,4,1,0,100,0,0
23045,-94.5945945945946,4,1,0,100,0,0
23120,-93.9597315436242,4,1,0,100,0,0
23195,-93.3333333333333,4,1,0,100,0,0
23270,-92.7152317880794,4,1,0,100,0,0
23345,-92.1052631578947,4,1,0,100,0,0
23420,-91.5032679738562,4,1,0,100,0,0
23495,-90.9090909090909,4,1,0,100,0,0
23645,-90.9090909090909,4,1,0,100,0,0
23720,-91.3705583756345,4,1,0,100,0,0
23795,-91.8367346938775,4,1,0,100,0,0
23870,-92.3076923076923,4,1,0,100,0,0
23945,-92.7835051546392,4,1,0,100,0,0
24020,-93.2642487046632,4,1,0,100,0,0
24095,-93.75,4,1,0,100,0,0
24170,-94.2408376963351,4,1,0,100,0,0
24245,-94.7368421052632,4,1,0,100,0,0
24320,-95.2380952380952,4,1,0,100,0,0
24395,-95.7446808510638,4,1,0,100,0,0
24470,-96.2566844919786,4,1,0,100,0,0
24545,-96.7741935483871,4,1,0,100,0,0
24695,-97.8260869565217,4,1,0,100,0,0
24770,-98.3606557377049,4,1,0,100,0,0
24845,-98.9010989010989,4,1,0,100,0,0
24920,-99.4475138121547,4,1,0,100,0,0
24995,-100,4,1,0,100,0,0
25145,-98.5915492957747,4,1,0,100,0,0
25220,-97.9020979020979,4,1,0,100,0,0
25295,-97.2222222222222,4,1,0,100,0,0
25370,-96.551724137931,4,1,0,100,0,0
25445,-95.8904109589041,4,1,0,100,0,0
25520,-95.2380952380952,4,1,0,100,0,0
25595,-94.5945945945946,4,1,0,100,0,0
25670,-93.9597315436242,4,1,0,100,0,0
25745,-93.3333333333333,4,1,0,100,0,0
25820,-92.7152317880794,4,1,0,100,0,0
25895,-92.1052631578947,4,1,0,100,0,0
26045,-90.9090909090909,4,1,0,100,0,0
26120,-91.3705583756345,4,1,0,100,0,0
26195,-91.8367346938775,4,1,0,100,0,0
26270,-92.3076923076923,4,1,0,100,0,0
26345,-92.7835051546392,4,1,0,100,0,0
26420,-93.2642487046632,4,1,0,100,0,0
26495,-93.75,4,1,0,100,0,0
26570,-94.2408376963351,4,1,0,100,0,0
26645,-94.7368421052632,4,1,0,100,0,0
26720,-95.2380952380952,4,1,0,100,0,0
26795,-95.7446808510638,4,1,0,100,0,0
26870,-96.2566844919786,4,1,0,100,0,0
26945,-96.7741935483871,4,1,0,100,0,0
27020,-97.2972972972973,4,1,0,100,0,0
27095,-97.8260869565217,4,1,0,100,0,0
27245,-98.9010989010989,4,1,0,100,0,0
27320,-99.4475138121547,4,1,0,100,0,0
27395,-100,4,1,0,100,0,0
27545,-98.5915492957747,4,1,0,100,0,0
27620,-97.9020979020979,4,1,0,100,0,0
27695,-97.2222222222222,4,1,0,100,0,0
27770,-96.551724137931,4,1,0,100,0,0
27845,-95.8904109589041,4,1,0,100,0,0
27920,-95.2380952380952,4,1,0,100,0,0
27995,-94.5945945945946,4,1,0,100,0,0
28070,-93.9597315436242,4,1,0,100,0,0
28145,-93.3333333333333,4,1,0,100,0,0
28220,-92.7152317880794,4,1,0,100,0,0
28295,-92.1052631578947,4,1,0,100,0,0
28445,-90.9090909090909,4,1,0,100,0,0
28520,-90.3225806451613,4,1,0,100,0,0
28595,-89.7435897435897,4,1,0,100,0,0
28670,-89.171974522293,4,1,0,100,0,0
28745,-88.6075949367089,4,1,0,100,0,0
28820,-88.0503144654088,4,1,0,100,0,0
28895,-87.5,4,1,0,100,0,0
28970,-86.9565217391304,4,1,0,100,0,0
29045,-86.4197530864197,4,1,0,100,0,0
29120,-85.8895705521472,4,1,0,100,0,0
29195,-85.3658536585366,4,1,0,100,0,0
29270,-84.8484848484848,4,1,0,100,0,0
29345,-84.3373493975904,4,1,0,100,0,0
29495,-83.3333333333333,4,1,0,100,0,0
29645,-85.1063829787234,4,1,0,100,0,0
29720,-86.0215053763441,4,1,0,100,0,0
29795,-100,4,1,0,100,0,0
29870,-97.5609756097561,4,1,0,100,0,0
29945,-95.2380952380952,4,1,0,100,0,0
30020,-93.0232558139535,4,1,0,100,0,0
30095,-90.9090909090909,4,1,0,100,0,0
30245,-100,4,1,0,100,0,0
30320,-99.009900990099,4,1,0,100,0,0
30395,-98.0392156862745,4,1,0,100,0,0
30470,-97.0873786407767,4,1,0,100,0,0
30545,-96.1538461538461,4,1,0,100,0,0
30620,-95.2380952380952,4,1,0,100,0,0
30695,-94.3396226415094,4,1,0,100,0,0
30770,-93.4579439252336,4,1,0,100,0,0
30845,-92.5925925925926,4,1,0,100,0,0
30920,-91.743119266055,4,1,0,100,0,0
30995,-90.9090909090909,4,1,0,100,0,0
31145,-90.9090909090909,4,1,0,100,0,0
31220,-91.5032679738562,4,1,0,100,0,0
31295,-92.1052631578947,4,1,0,100,0,0
31370,-92.7152317880794,4,1,0,100,0,0
31445,-93.3333333333333,4,1,0,100,0,0
31520,-93.9597315436242,4,1,0,100,0,0
31595,-94.5945945945946,4,1,0,100,0,0
31670,-95.2380952380952,4,1,0,100,0,0
31745,-95.8904109589041,4,1,0,100,0,0
31820,-96.551724137931,4,1,0,100,0,0
31895,-97.2222222222222,4,1,0,100,0,0
32045,-98.5915492957747,4,1,0,100,0,0
32120,-99.290780141844,4,1,0,100,0,0
32195,-100,4,1,0,100,0,0
32345,-98.5915492957747,4,1,0,100,0,0
32420,-97.9020979020979,4,1,0,100,0,0
32495,-97.2222222222222,4,1,0,100,0,0
32570,-96.551724137931,4,1,0,100,0,0
32645,-95.8904109589041,4,1,0,100,0,0
32720,-95.2380952380952,4,1,0,100,0,0
32795,-94.5945945945946,4,1,0,100,0,0
32870,-93.9597315436242,4,1,0,100,0,0
32945,-93.3333333333333,4,1,0,100,0,0
33020,-92.7152317880794,4,1,0,100,0,0
33095,-92.1052631578947,4,1,0,100,0,0
33245,-90.9090909090909,4,1,0,100,0,0
33320,-91.3705583756345,4,1,0,100,0,0
33395,-91.8367346938775,4,1,0,100,0,0
33470,-92.3076923076923,4,1,0,100,0,0
33545,-92.7835051546392,4,1,0,100,0,0
33620,-93.2642487046632,4,1,0,100,0,0
33695,-93.75,4,1,0,100,0,0
33770,-94.2408376963351,4,1,0,100,0,0
33845,-94.7368421052632,4,1,0,100,0,0
33920,-95.2380952380952,4,1,0,100,0,0
33995,-95.7446808510638,4,1,0,100,0,0
34070,-96.2566844919786,4,1,0,100,0,0
34145,-96.7741935483871,4,1,0,100,0,0
34220,-97.2972972972973,4,1,0,100,0,0
34295,-97.8260869565217,4,1,0,100,0,0
34370,-98.3606557377049,4,1,0,100,0,0
34445,-98.9010989010989,4,1,0,100,0,0
34520,-99.4475138121547,4,1,0,100,0,0
34595,-100,4,1,0,100,0,0
34745,-98.5915492957747,4,1,0,100,0,0
34820,-97.9020979020979,4,1,0,100,0,0
34895,-97.2222222222222,4,1,0,100,0,0
35045,-95.8904109589041,4,1,0,100,0,0
35120,-95.2380952380952,4,1,0,100,0,0
35195,-94.5945945945946,4,1,0,100,0,0
35270,-93.9597315436242,4,1,0,100,0,0
35345,-93.3333333333333,4,1,0,100,0,0
35420,-92.7152317880794,4,1,0,100,0,0
35495,-92.1052631578947,4,1,0,100,0,0
35645,-90.9090909090909,4,1,0,100,0,0
35720,-91.4285714285714,4,1,0,100,0,0
35795,-91.9540229885057,4,1,0,100,0,0
35870,-92.485549132948,4,1,0,100,0,0
35945,-93.0232558139535,4,1,0,100,0,0
36020,-93.5672514619883,4,1,0,100,0,0
36095,-94.1176470588235,4,1,0,100,0,0
36170,-94.6745562130177,4,1,0,100,0,0
36245,-95.2380952380952,4,1,0,100,0,0
36320,-95.8083832335329,4,1,0,100,0,0
36395,-96.3855421686747,4,1,0,100,0,0
36470,-96.969696969697,4,1,0,100,0,0
36545,-97.5609756097561,4,1,0,100,0,0
36620,-98.159509202454,4,1,0,100,0,0
36695,-98.7654320987654,4,1,0,100,0,0
36845,-100,4,1,0,100,0,0
36920,-99.4475138121547,4,1,0,100,0,0
36995,-98.9010989010989,4,1,0,100,0,0
37070,-98.3606557377049,4,1,0,100,0,0
37145,-97.8260869565217,4,1,0,100,0,0
37220,-97.2972972972973,4,1,0,100,0,0
37295,-96.7741935483871,4,1,0,100,0,0
37370,-96.2566844919786,4,1,0,100,0,0
37445,-95.7446808510638,4,1,0,100,0,0
37520,-95.2380952380952,4,1,0,100,0,0
37595,-94.7368421052632,4,1,0,100,0,0
37670,-94.2408376963351,4,1,0,100,0,0
37745,-93.75,4,1,0,100,0,0
37820,-93.2642487046632,4,1,0,100,0,0
37895,-92.7835051546392,4,1,0,100,0,0
38045,-91.8367346938775,4,1,0,100,0,0
38120,-91.3705583756345,4,1,0,100,0,0
38195,-90.9090909090909,4,1,0,100,0,0
38275,-117.647058823529,4,1,0,100,0,0
38945,-115.942028985507,4,1,0,100,0,0
39095,-114.285714285714,4,1,0,100,0,0
39170,-113.475177304965,4,1,0,100,0,0
39245,-112.676056338028,4,1,0,100,0,0
39320,-111.888111888112,4,1,0,100,0,0
39395,-111.111111111111,4,1,0,100,0,0
39545,-110.671936758893,4,1,0,100,0,0
39620,-110.453648915187,4,1,0,100,0,0
39695,-110.236220472441,4,1,0,100,0,0
39845,-109.803921568628,4,1,0,100,0,0
39995,-109.375,4,1,0,100,0,0
40070,-109.16179337232,4,1,0,100,0,0
40145,-108.949416342412,4,1,0,100,0,0
40295,-108.527131782946,4,1,0,100,0,0
40445,-108.108108108108,4,1,0,100,0,0
40595,-107.692307692308,4,1,0,100,0,0
40745,-107.27969348659,4,1,0,100,0,0
40820,-107.074569789675,4,1,0,100,0,0
40895,-106.870229007634,4,1,0,100,0,0
41045,-106.463878326996,4,1,0,100,0,0
41195,-106.060606060606,4,1,0,100,0,0
41270,-105.86011342155,4,1,0,100,0,0
41345,-105.660377358491,4,1,0,100,0,0
41495,-105.263157894737,4,1,0,100,0,0
41645,-104.868913857678,4,1,0,100,0,0
41720,-104.672897196262,4,1,0,100,0,0
41795,-104.477611940299,4,1,0,100,0,0
41945,-104.089219330855,4,1,0,100,0,0
42020,-103.896103896104,4,1,0,100,0,0
42095,-103.703703703704,4,1,0,100,0,0
42245,-103.321033210332,4,1,0,100,0,0
42395,-102.941176470588,4,1,0,100,0,0
42470,-102.752293577982,4,1,0,100,0,0
42545,-102.564102564103,4,1,0,100,0,0
42695,-102.189781021898,4,1,0,100,0,0
42770,-102.00364298725,4,1,0,100,0,0
42845,-101.818181818182,4,1,0,100,0,0
42920,-101.633393829401,4,1,0,100,0,0
42995,-101.449275362319,4,1,0,100,0,0
43145,-101.083032490975,4,1,0,100,0,0
43220,-100.900900900901,4,1,0,100,0,0
43295,-100.719424460432,4,1,0,100,0,0
43445,-100.358422939068,4,1,0,100,0,0
43595,-100,4,1,0,100,0,0
43670,-99.8217468805704,4,1,0,100,0,0
43745,-99.644128113879,4,1,0,100,0,0
43895,-90.9090909090909,4,1,0,100,0,0
44045,-98.9399293286219,4,1,0,100,0,0
44120,-98.7654320987654,4,1,0,100,0,0
44195,-98.5915492957747,4,1,0,100,0,0
44345,-98.2456140350877,4,1,0,100,0,0
44420,-98.0735551663748,4,1,0,100,0,0
44495,-97.9020979020979,4,1,0,100,0,0
44645,-97.5609756097561,4,1,0,100,0,0
44795,-97.2222222222222,4,1,0,100,0,0
44870,-97.053726169844,4,1,0,100,0,0
44945,-96.8858131487889,4,1,0,100,0,0
45095,-96.551724137931,4,1,0,100,0,0
45245,-96.2199312714777,4,1,0,100,0,0
45395,-95.8904109589041,4,1,0,100,0,0
45545,-95.5631399317406,4,1,0,100,0,0
45620,-95.4003407155026,4,1,0,100,0,0
45695,-95.2380952380952,4,1,0,100,0,0
45845,-94.9152542372881,4,1,0,100,0,0
45995,-94.5945945945946,4,1,0,100,0,0
46070,-94.4350758853288,4,1,0,100,0,0
46145,-94.2760942760943,4,1,0,100,0,0
46295,-93.9597315436242,4,1,0,100,0,0
46445,-93.6454849498328,4,1,0,100,0,0
46520,-93.4891485809683,4,1,0,100,0,0
46595,-93.3333333333333,4,1,0,100,0,0
46745,-93.0232558139535,4,1,0,100,0,0
46820,-92.8689883913764,4,1,0,100,0,0
46895,-92.7152317880794,4,1,0,100,0,0
47045,-92.4092409240924,4,1,0,100,0,0
47195,-92.1052631578947,4,1,0,100,0,0
47270,-91.9540229885057,4,1,0,100,0,0
47345,-91.8032786885246,4,1,0,100,0,0
47495,-91.5032679738562,4,1,0,100,0,0
47570,-91.3539967373572,4,1,0,100,0,0
47645,-91.2052117263844,4,1,0,100,0,0
47720,-91.0569105691057,4,1,0,100,0,0
47795,-90.9090909090909,4,1,0,100,0,0
47945,-93.0232558139535,4,1,0,100,0,0
48095,-95.2380952380952,4,1,0,100,0,0
48245,-97.5609756097561,4,1,0,100,0,0
48320,-98.7654320987654,4,1,0,100,0,0
48395,-100,4,1,0,100,0,0
48545,-97.5609756097561,4,1,0,100,0,0
48620,-96.3855421686747,4,1,0,100,0,0
48695,-95.2380952380952,4,1,0,100,0,0
48845,-93.0232558139535,4,1,0,100,0,0
48920,-91.9540229885057,4,1,0,100,0,0
48995,-90.9090909090909,4,1,0,100,0,0
49145,-90.9002419767353,4,1,0,100,0,0
49220,-90.8891854537536,4,1,0,100,0,0
49295,-90.8737149819328,4,1,0,100,0,0
49370,-90.8538392090915,4,1,0,100,0,0
49445,-90.8295692359786,4,1,0,100,0,0
49595,-90.7679032735793,4,1,0,100,0,0
49670,-90.7305416158057,4,1,0,100,0,0
49745,-90.6888543797177,4,1,0,100,0,0
49820,-90.6428646729673,4,1,0,100,0,0
49895,-90.5925979333034,4,1,0,100,0,0
50045,-90.4793465735429,4,1,0,100,0,0
50195,-90.3493491965106,4,1,0,100,0,0
50345,-90.2028897908403,4,1,0,100,0,0
50420,-90.1235848486426,4,1,0,100,0,0
50495,-90.0402861227711,4,1,0,100,0,0
50570,-89.9530383731401,4,1,0,100,0,0
50645,-89.8618882819512,4,1,0,100,0,0
50795,-89.6680771004186,4,1,0,100,0,0
50870,-89.5655185080996,4,1,0,100,0,0
50945,-89.4592624580217,4,1,0,100,0,0
51020,-89.3493644294826,4,1,0,100,0,0
51095,-89.2358814882193,4,1,0,100,0,0
51245,-88.99839669869,4,1,0,100,0,0
51320,-88.8745163648037,4,1,0,100,0,0
51395,-88.7472940214993,4,1,0,100,0,0
51545,-88.4830808077073,4,1,0,100,0,0
51620,-88.3462216506144,4,1,0,100,0,0
51695,-88.206283781271,4,1,0,100,0,0
51770,-88.063335727183,4,1,0,100,0,0
51845,-87.9174469668919,4,1,0,100,0,0
51995,-87.6171296061139,4,1,0,100,0,0
52070,-87.4628441320781,4,1,0,100,0,0
52145,-87.3059040754818,4,1,0,100,0,0
52220,-87.1463826966513,4,1,0,100,0,0
52295,-86.9843538199499,4,1,0,100,0,0
52370,-86.819891770899,4,1,0,100,0,0
52445,-86.6530713140021,4,1,0,100,0,0
52520,-86.4839675913542,4,1,0,100,0,0
52595,-86.3126560621143,4,1,0,100,0,0
52745,-85.9637126492858,4,1,0,100,0,0
52820,-85.7862327381363,4,1,0,100,0,0
52895,-85.6068488513957,4,1,0,100,0,0
52970,-85.4256371608325,4,1,0,100,0,0
53045,-85.2426738141285,4,1,0,100,0,0
53195,-84.8717963081689,4,1,0,100,0,0
53270,-84.684033856954,4,1,0,100,0,0
53345,-84.4948230673073,4,1,0,100,0,0
53420,-84.3042392045405,4,1,0,100,0,0
53495,-84.1123572150447,4,1,0,100,0,0
53570,-83.9192516822701,4,1,0,100,0,0
53645,-83.7249967842404,4,1,0,100,0,0
53720,-83.5296662526176,4,1,0,100,0,0
53795,-83.3333333333333,4,1,0,100,0,0
53945,-82.9379506616852,4,1,0,100,0,0
54020,-82.7390446403267,4,1,0,100,0,0
54095,-82.5394236256657,4,1,0,100,0,0
54245,-82.1383170562158,4,1,0,100,0,0
54395,-81.7351847778104,4,1,0,100,0,0
54545,-81.3305687279836,4,1,0,100,0,0
54620,-81.127870199627,4,1,0,100,0,0
54695,-80.9249981758952,4,1,0,100,0,0
54845,-80.5189890377989,4,1,0,100,0,0
54995,-80.1130432867273,4,1,0,100,0,0
55070,-79.9102471106236,4,1,0,100,0,0
55145,-79.7076484532335,4,1,0,100,0,0
55220,-79.5053059316945,4,1,0,100,0,0
55295,-79.3032772136215,4,1,0,100,0,0
55370,-79.1016190087455,4,1,0,100,0,0
55445,-78.9003870617603,4,1,0,100,0,0
55520,-78.6996361463411,4,1,0,100,0,0
55595,-78.4994200603005,4,1,0,100,0,0
55670,-78.2997916218457,4,1,0,100,0,0
55745,-78.1008026669004,4,1,0,100,0,0
55820,-77.9025040474555,4,1,0,100,0,0
55895,-77.7049456309107,4,1,0,100,0,0
55970,-77.5081763003721,4,1,0,100,0,0
56045,-77.3122439558661,4,1,0,100,0,0
56120,-77.1171955164349,4,1,0,100,0,0
56195,-76.9230769230769,4,1,0,100,0,0
57325,-133.333333333333,4,1,0,100,0,0
57475,-100,4,1,0,100,0,0
58370,-88.8888888888889,4,1,0,100,0,0
58445,-80,4,1,0,100,0,0
58520,-72.7272727272727,4,1,0,100,0,0
58595,-66.6666666666667,4,1,0,100,0,0
58675,-76.9230769230769,4,1,0,100,0,0
58970,-77.2200772200772,4,1,0,100,0,0
59045,-77.5193798449612,4,1,0,100,0,0
59120,-77.8210116731517,4,1,0,100,0,0
59195,-78.125,4,1,0,100,0,0
59270,-78.4313725490196,4,1,0,100,0,0
59345,-78.740157480315,4,1,0,100,0,0
59420,-79.0513833992095,4,1,0,100,0,0
59495,-79.3650793650794,4,1,0,100,0,0
59570,-79.6812749003984,4,1,0,100,0,0
59645,-80,4,1,0,100,0,0
59720,-80.3212851405623,4,1,0,100,0,0
59795,-80.6451612903226,4,1,0,100,0,0
59870,-80.9716599190284,4,1,0,100,0,0
59945,-81.3008130081301,4,1,0,100,0,0
60020,-81.6326530612245,4,1,0,100,0,0
60095,-81.9672131147541,4,1,0,100,0,0
60170,-82.3045267489712,4,1,0,100,0,0
60245,-82.6446280991736,4,1,0,100,0,0
60320,-82.9875518672199,4,1,0,100,0,0
60395,-83.3333333333333,4,1,0,100,0,0
60545,-81.6326530612245,4,1,0,100,0,0
60620,-80.8080808080808,4,1,0,100,0,0
60695,-80,4,1,0,100,0,0
60845,-78.4313725490196,4,1,0,100,0,0
60995,-76.9230769230769,4,1,0,100,0,0
61070,-77.1704180064309,4,1,0,100,0,0
61145,-77.4193548387097,4,1,0,100,0,0
61220,-77.6699029126214,4,1,0,100,0,0
61295,-77.9220779220779,4,1,0,100,0,0
61370,-78.1758957654723,4,1,0,100,0,0
61445,-78.4313725490196,4,1,0,100,0,0
61520,-78.6885245901639,4,1,0,100,0,0
61595,-78.9473684210526,4,1,0,100,0,0
61670,-79.2079207920792,4,1,0,100,0,0
61745,-79.4701986754967,4,1,0,100,0,0
61820,-79.734219269103,4,1,0,100,0,0
61895,-80,4,1,0,100,0,0
61970,-80.2675585284281,4,1,0,100,0,0
62045,-80.5369127516778,4,1,0,100,0,0
62120,-80.8080808080808,4,1,0,100,0,0
62195,-81.0810810810811,4,1,0,100,0,0
62270,-81.3559322033898,4,1,0,100,0,0
62345,-81.6326530612245,4,1,0,100,0,0
62420,-81.9112627986348,4,1,0,100,0,0
62495,-82.1917808219178,4,1,0,100,0,0
62570,-82.4742268041237,4,1,0,100,0,0
62645,-82.7586206896552,4,1,0,100,0,0
62720,-83.0449826989619,4,1,0,100,0,0
62795,-83.3333333333333,4,1,0,100,0,0
62945,-81.6326530612245,4,1,0,100,0,0
63020,-80.8080808080808,4,1,0,100,0,0
63095,-80,4,1,0,100,0,0
63245,-78.4313725490196,4,1,0,100,0,0
63295,-77.9220779220779,4,1,0,100,0,0
63345,-77.4193548387097,4,1,0,100,0,0
63395,-76.9230769230769,4,1,0,100,0,0
63470,-77.1704180064309,4,1,0,100,0,0
63545,-77.4193548387097,4,1,0,100,0,0
63620,-77.6699029126214,4,1,0,100,0,0
63695,-77.9220779220779,4,1,0,100,0,0
63770,-78.1758957654723,4,1,0,100,0,0
63845,-78.4313725490196,4,1,0,100,0,0
63920,-78.6885245901639,4,1,0,100,0,0
63995,-78.9473684210526,4,1,0,100,0,0
64070,-79.2079207920792,4,1,0,100,0,0
64145,-79.4701986754967,4,1,0,100,0,0
64220,-79.734219269103,4,1,0,100,0,0
64295,-80,4,1,0,100,0,0
64370,-80.2675585284281,4,1,0,100,0,0
64445,-80.5369127516778,4,1,0,100,0,0
64520,-80.8080808080808,4,1,0,100,0,0
64595,-81.0810810810811,4,1,0,100,0,0
64670,-81.3559322033898,4,1,0,100,0,0
64745,-81.6326530612245,4,1,0,100,0,0
64820,-81.9112627986348,4,1,0,100,0,0
64895,-82.1917808219178,4,1,0,100,0,0
64970,-82.4742268041237,4,1,0,100,0,0
65045,-82.7586206896552,4,1,0,100,0,0
65120,-83.0449826989619,4,1,0,100,0,0
65195,-83.3333333333333,4,1,0,100,0,0
65345,-81.6326530612245,4,1,0,100,0,0
65495,-80,4,1,0,100,0,0
65570,-79.2079207920792,4,1,0,100,0,0
65645,-78.4313725490196,4,1,0,100,0,0
65720,-77.6699029126214,4,1,0,100,0,0
65795,-76.9230769230769,4,1,0,100,0,0
65870,-77.2946859903382,4,1,0,100,0,0
65945,-77.6699029126214,4,1,0,100,0,0
66020,-78.0487804878049,4,1,0,100,0,0
66095,-78.4313725490196,4,1,0,100,0,0
66170,-78.8177339901478,4,1,0,100,0,0
66245,-79.2079207920792,4,1,0,100,0,0
66320,-79.6019900497512,4,1,0,100,0,0
66395,-80,4,1,0,100,0,0
66470,-80.4020100502513,4,1,0,100,0,0
66545,-80.8080808080808,4,1,0,100,0,0
66620,-81.2182741116751,4,1,0,100,0,0
66695,-81.6326530612245,4,1,0,100,0,0
66770,-82.0512820512821,4,1,0,100,0,0
66845,-82.4742268041237,4,1,0,100,0,0
66920,-82.9015544041451,4,1,0,100,0,0
66995,-83.3333333333333,4,1,0,100,0,0
67145,-86.1339844608327,4,1,0,100,0,0
67220,-87.5700401398599,4,1,0,100,0,0
67295,-89.0104721675883,4,1,0,100,0,0
67445,-91.8369822735929,4,1,0,100,0,0
67520,-93.1861067126429,4,1,0,100,0,0
67595,-94.4662926927683,4,1,0,100,0,0
67670,-95.6573560246874,4,1,0,100,0,0
67745,-96.7392977296099,4,1,0,100,0,0
67820,-97.6929089654458,4,1,0,100,0,0
67895,-98.5004203904094,4,1,0,100,0,0
67970,-99.1461599280118,4,1,0,100,0,0
68045,-99.6171767762445,4,1,0,100,0,0
68120,-99.9037871916379,4,1,0,100,0,0
68195,-100,4,1,0,100,0,0
68275,-76.9230769230769,4,1,0,100,0,0
68420,-77.1929824561404,4,1,0,100,0,0
68495,-77.4647887323944,4,1,0,100,0,0
68570,-77.7385159010601,4,1,0,100,0,0
68645,-78.0141843971631,4,1,0,100,0,0
68720,-78.2918149466192,4,1,0,100,0,0
68795,-78.5714285714286,4,1,0,100,0,0
68870,-78.8530465949821,4,1,0,100,0,0
68945,-79.136690647482,4,1,0,100,0,0
69020,-79.4223826714802,4,1,0,100,0,0
69095,-79.7101449275362,4,1,0,100,0,0
69170,-80,4,1,0,100,0,0
69245,-80.2919708029197,4,1,0,100,0,0
69320,-80.5860805860806,4,1,0,100,0,0
69395,-80.8823529411765,4,1,0,100,0,0
69470,-81.1808118081181,4,1,0,100,0,0
69545,-81.4814814814815,4,1,0,100,0,0
69620,-81.7843866171004,4,1,0,100,0,0
69695,-82.089552238806,4,1,0,100,0,0
69770,-82.3970037453184,4,1,0,100,0,0
69845,-82.7067669172932,4,1,0,100,0,0
69920,-83.0188679245283,4,1,0,100,0,0
69995,-83.3333333333333,4,1,0,100,0,0
70145,-81.6326530612245,4,1,0,100,0,0
70220,-80.8080808080808,4,1,0,100,0,0
70295,-80,4,1,0,100,0,0
70445,-78.4313725490196,4,1,0,100,0,0
70595,-76.9230769230769,4,1,0,100,0,0
70670,-77.1704180064309,4,1,0,100,0,0
70745,-77.4193548387097,4,1,0,100,0,0
70820,-77.6699029126214,4,1,0,100,0,0
70895,-77.9220779220779,4,1,0,100,0,0
70970,-78.1758957654723,4,1,0,100,0,0
71045,-78.4313725490196,4,1,0,100,0,0
71120,-78.6885245901639,4,1,0,100,0,0
71195,-78.9473684210526,4,1,0,100,0,0
71270,-79.2079207920792,4,1,0,100,0,0
71345,-79.4701986754967,4,1,0,100,0,0
71420,-79.734219269103,4,1,0,100,0,0
71495,-80,4,1,0,100,0,0
71570,-80.2675585284281,4,1,0,100,0,0
71645,-80.5369127516778,4,1,0,100,0,0
71720,-80.8080808080808,4,1,0,100,0,0
71795,-81.0810810810811,4,1,0,100,0,0
71870,-81.3559322033898,4,1,0,100,0,0
71945,-81.6326530612245,4,1,0,100,0,0
72020,-81.9112627986348,4,1,0,100,0,0
72095,-82.1917808219178,4,1,0,100,0,0
72170,-82.4742268041237,4,1,0,100,0,0
72245,-82.7586206896552,4,1,0,100,0,0
72320,-83.0449826989619,4,1,0,100,0,0
72395,-83.3333333333333,4,1,0,100,0,0
72545,-85.1063829787234,4,1,0,100,0,0
72620,-86.0215053763441,4,1,0,100,0,0
72695,-86.9565217391304,4,1,0,100,0,0
72770,-87.9120879120879,4,1,0,100,0,0
72845,-88.8888888888889,4,1,0,100,0,0
72895,-89.5522388059701,4,1,0,100,0,0
72945,-90.2255639097744,4,1,0,100,0,0
72995,-90.9090909090909,4,1,0,100,0,0
73145,-91.9540229885057,4,1,0,100,0,0
73220,-92.485549132948,4,1,0,100,0,0
73295,-93.0232558139535,4,1,0,100,0,0
73445,-94.1176470588235,4,1,0,100,0,0
73520,-94.6745562130177,4,1,0,100,0,0
73595,-95.2380952380952,4,1,0,100,0,0
73745,-96.3855421686747,4,1,0,100,0,0
73820,-96.969696969697,4,1,0,100,0,0
73895,-97.5609756097561,4,1,0,100,0,0
74045,-98.7654320987654,4,1,0,100,0,0
74120,-99.3788819875776,4,1,0,100,0,0
74195,-100,4,1,0,100,0,0
74345,-96.3855421686747,4,1,0,100,0,0
74495,-93.0232558139535,4,1,0,100,0,0
74645,-89.8876404494382,4,1,0,100,0,0
74795,-86.9565217391304,4,1,0,100,0,0
74870,-85.5614973262032,4,1,0,100,0,0
74945,-84.2105263157895,4,1,0,100,0,0
75020,-82.9015544041451,4,1,0,100,0,0
75095,-81.6326530612245,4,1,0,100,0,0
75170,-80.4020100502513,4,1,0,100,0,0
75245,-79.2079207920792,4,1,0,100,0,0
75320,-78.0487804878049,4,1,0,100,0,0
75395,-76.9230769230769,4,1,0,100,0,0
76595,-76.9230769230769,4,1,0,100,0,0
76745,-80,4,1,0,100,0,0
76820,-81.6326530612245,4,1,0,100,0,0
76895,-83.3333333333333,4,1,0,100,0,0
77045,-86.9565217391304,4,1,0,100,0,0
77195,-90.9090909090909,4,1,0,100,0,0
77495,-100,4,1,0,100,0,0
77570,-97.5609756097561,4,1,0,100,0,0
77645,-95.2380952380952,4,1,0,100,0,0
77720,-93.0232558139535,4,1,0,100,0,0
77795,-90.9090909090909,4,1,0,100,0,0
77945,-91.5032679738562,4,1,0,100,0,0
78095,-92.1052631578947,4,1,0,100,0,0
78170,-92.4092409240924,4,1,0,100,0,0
78245,-92.7152317880794,4,1,0,100,0,0
78395,-93.3333333333333,4,1,0,100,0,0
78545,-93.9597315436242,4,1,0,100,0,0
78695,-94.5945945945946,4,1,0,100,0,0
78770,-94.9152542372881,4,1,0,100,0,0
78845,-95.2380952380952,4,1,0,100,0,0
78920,-95.5631399317406,4,1,0,100,0,0
78995,-95.8904109589041,4,1,0,100,0,0
79145,-96.551724137931,4,1,0,100,0,0
79220,-96.8858131487889,4,1,0,100,0,0
79295,-97.2222222222222,4,1,0,100,0,0
79445,-97.9020979020979,4,1,0,100,0,0
79595,-98.5915492957747,4,1,0,100,0,0
79670,-98.9399293286219,4,1,0,100,0,0
79745,-99.290780141844,4,1,0,100,0,0
79820,-99.644128113879,4,1,0,100,0,0
79895,-100,4,1,0,100,0,0
80045,-95.2380952380952,4,1,0,100,0,0
80195,-90.9090909090909,4,1,0,100,0,0
80270,-91.254752851711,4,1,0,100,0,0
80345,-91.6030534351145,4,1,0,100,0,0
80495,-92.3076923076923,4,1,0,100,0,0
80645,-93.0232558139535,4,1,0,100,0,0
80720,-93.3852140077821,4,1,0,100,0,0
80795,-93.75,4,1,0,100,0,0
80945,-94.488188976378,4,1,0,100,0,0
81095,-95.2380952380952,4,1,0,100,0,0
81245,-96,4,1,0,100,0,0
81320,-96.3855421686747,4,1,0,100,0,0
81395,-96.7741935483871,4,1,0,100,0,0
81545,-97.5609756097561,4,1,0,100,0,0
81620,-97.9591836734694,4,1,0,100,0,0
81695,-98.3606557377049,4,1,0,100,0,0
81770,-98.7654320987654,4,1,0,100,0,0
81845,-99.1735537190083,4,1,0,100,0,0
81995,-100,4,1,0,100,0,0
82070,-98.7654320987654,4,1,0,100,0,0
82145,-97.5609756097561,4,1,0,100,0,0
82295,-95.2380952380952,4,1,0,100,0,0
82445,-93.0232558139535,4,1,0,100,0,0
82520,-91.9540229885057,4,1,0,100,0,0
82595,-90.9090909090909,4,1,0,100,0,0
82745,-91.5492957746479,4,1,0,100,0,0
82895,-92.1985815602837,4,1,0,100,0,0
82970,-92.5266903914591,4,1,0,100,0,0
83045,-92.8571428571428,4,1,0,100,0,0
83195,-93.5251798561151,4,1,0,100,0,0
83270,-93.8628158844765,4,1,0,100,0,0
83345,-94.2028985507246,4,1,0,100,0,0
83420,-94.5454545454545,4,1,0,100,0,0
83495,-94.8905109489051,4,1,0,100,0,0
83645,-95.5882352941176,4,1,0,100,0,0
83795,-96.2962962962963,4,1,0,100,0,0
83870,-96.6542750929368,4,1,0,100,0,0
83945,-97.0149253731343,4,1,0,100,0,0
84095,-97.7443609022557,4,1,0,100,0,0
84245,-98.4848484848485,4,1,0,100,0,0
84320,-98.8593155893536,4,1,0,100,0,0
84395,-99.236641221374,4,1,0,100,0,0
84470,-99.6168582375479,4,1,0,100,0,0
84545,-100,4,1,0,100,0,0
84695,-96.7741935483871,4,1,0,100,0,0
84845,-93.75,4,1,0,100,0,0
84920,-92.3076923076923,4,1,0,100,0,0
84995,-90.9090909090909,4,1,0,100,0,0
85145,-91.9540229885057,4,1,0,100,0,0
85220,-92.485549132948,4,1,0,100,0,0
85295,-93.0232558139535,4,1,0,100,0,0
85445,-94.1176470588235,4,1,0,100,0,0
85595,-95.2380952380952,4,1,0,100,0,0
85670,-95.8083832335329,4,1,0,100,0,0
85745,-96.3855421686747,4,1,0,100,0,0
85820,-96.969696969697,4,1,0,100,0,0
85895,-97.5609756097561,4,1,0,100,0,0
86045,-98.7654320987654,4,1,0,100,0,0
86195,-100,4,1,0,100,0,0
86795,-100,4,1,0,100,0,0
86945,-97.5609756097561,4,1,0,100,0,0
87095,-95.2380952380952,4,1,0,100,0,0
87245,-93.0232558139535,4,1,0,100,0,0
87320,-91.9540229885057,4,1,0,100,0,0
87395,-90.9090909090909,4,1,0,100,0,0
87545,-91.5492957746479,4,1,0,100,0,0
87695,-92.1985815602837,4,1,0,100,0,0
87845,-92.8571428571428,4,1,0,100,0,0
87920,-93.1899641577061,4,1,0,100,0,0
87995,-93.5251798561151,4,1,0,100,0,0
88145,-94.2028985507246,4,1,0,100,0,0
88295,-94.8905109489051,4,1,0,100,0,0
88370,-95.2380952380952,4,1,0,100,0,0
88445,-95.5882352941176,4,1,0,100,0,0
88520,-95.9409594095941,4,1,0,100,0,0
88595,-96.2962962962963,4,1,0,100,0,0
88745,-97.0149253731343,4,1,0,100,0,0
88895,-97.7443609022557,4,1,0,100,0,0
89045,-98.4848484848485,4,1,0,100,0,0
89120,-98.8593155893536,4,1,0,100,0,0
89195,-99.236641221374,4,1,0,100,0,0
89345,-100,4,1,0,100,0,0
89495,-96.7741935483871,4,1,0,100,0,0
89570,-95.2380952380952,4,1,0,100,0,0
89645,-93.75,4,1,0,100,0,0
89795,-90.9090909090909,4,1,0,100,0,0
89870,-91.4285714285714,4,1,0,100,0,0
90020,-92.485549132948,4,1,0,100,0,0
90095,-93.0232558139535,4,1,0,100,0,0
90245,-94.1176470588235,4,1,0,100,0,0
90395,-95.2380952380952,4,1,0,100,0,0
90470,-95.8083832335329,4,1,0,100,0,0
90545,-96.3855421686747,4,1,0,100,0,0
90695,-97.5609756097561,4,1,0,100,0,0
90845,-98.7654320987654,4,1,0,100,0,0
90920,-99.3788819875776,4,1,0,100,0,0
90995,-100,4,1,0,100,0,0
91145,-101.694915254237,4,1,0,100,0,0
91295,-103.448275862069,4,1,0,100,0,0
91370,-104.347826086957,4,1,0,100,0,0
91445,-105.263157894737,4,1,0,100,0,0
91595,-107.142857142857,4,1,0,100,0,0
91670,-108.108108108108,4,1,0,100,0,0
91745,-109.090909090909,4,1,0,100,0,0
91895,-111.111111111111,4,1,0,100,0,0
92045,-107.142857142857,4,1,0,100,0,0
92120,-105.263157894737,4,1,0,100,0,0
92195,-103.448275862069,4,1,0,100,0,0
92270,-101.694915254237,4,1,0,100,0,0
92345,-100,4,1,0,100,0,0
93395,-100,4,1,0,100,0,0
93470,-100.62893081761,4,1,0,100,0,0
93545,-101.26582278481,4,1,0,100,0,0
93695,-102.564102564103,4,1,0,100,0,0
93770,-103.225806451613,4,1,0,100,0,0
93845,-103.896103896104,4,1,0,100,0,0
93995,-105.263157894737,4,1,0,100,0,0
94145,-106.666666666667,4,1,0,100,0,0
94220,-107.382550335571,4,1,0,100,0,0
94295,-108.108108108108,4,1,0,100,0,0
94445,-109.58904109589,4,1,0,100,0,0
94595,-111.111111111111,4,1,0,100,0,0
94670,-109.58904109589,4,1,0,100,0,0
94745,-108.108108108108,4,1,0,100,0,0
94820,-106.666666666667,4,1,0,100,0,0
94895,-105.263157894737,4,1,0,100,0,0
94970,-103.896103896104,4,1,0,100,0,0
95045,-102.564102564103,4,1,0,100,0,0
95120,-101.26582278481,4,1,0,100,0,0
95195,-100,4,1,0,100,0,0
95270,-98.7654320987654,4,1,0,100,0,0
95345,-97.5609756097561,4,1,0,100,0,0
95420,-96.3855421686747,4,1,0,100,0,0
95495,-95.2380952380952,4,1,0,100,0,0
95570,-94.1176470588235,4,1,0,100,0,0
95645,-93.0232558139535,4,1,0,100,0,0
95720,-91.9540229885057,4,1,0,100,0,0
95795,-90.9090909090909,4,1,0,100,0,0
96025,-88.7472940214993,4,1,0,100,0,0
96245,-86.3126560621143,4,1,0,100,0,0
96320,-84.8717963081689,4,1,0,100,0,0
96395,-83.3333333333333,4,1,0,100,0,0
96470,-81.7351847778104,4,1,0,100,0,0
96545,-80.1130432867273,4,1,0,100,0,0
96620,-78.4994200603005,4,1,0,100,0,0
96695,-66.6666666666667,4,1,0,100,0,0
96925,-76.9230769230769,4,1,0,100,0,0
97070,-77.1604938271605,4,1,0,100,0,0
97145,-77.3993808049536,4,1,0,100,0,0
97220,-77.639751552795,4,1,0,100,0,0
97295,-77.8816199376947,4,1,0,100,0,0
97370,-78.125,4,1,0,100,0,0
97445,-78.3699059561128,4,1,0,100,0,0
97520,-78.6163522012579,4,1,0,100,0,0
97595,-78.8643533123028,4,1,0,100,0,0
97670,-79.1139240506329,4,1,0,100,0,0
97745,-79.3650793650794,4,1,0,100,0,0
97820,-79.6178343949045,4,1,0,100,0,0
97895,-79.8722044728434,4,1,0,100,0,0
97970,-80.1282051282051,4,1,0,100,0,0
98045,-80.3858520900322,4,1,0,100,0,0
98120,-80.6451612903226,4,1,0,100,0,0
98195,-80.9061488673139,4,1,0,100,0,0
98270,-81.1688311688312,4,1,0,100,0,0
98345,-81.4332247557003,4,1,0,100,0,0
98420,-81.6993464052288,4,1,0,100,0,0
98495,-81.9672131147541,4,1,0,100,0,0
98570,-82.2368421052632,4,1,0,100,0,0
98645,-82.5082508250825,4,1,0,100,0,0
98720,-82.7814569536424,4,1,0,100,0,0
98795,-83.0564784053156,4,1,0,100,0,0
98870,-83.3333333333333,4,1,0,100,0,0
98945,-83.6120401337792,4,1,0,100,0,0
99020,-83.8926174496644,4,1,0,100,0,0
99095,-84.1750841750842,4,1,0,100,0,0
99170,-84.4594594594595,4,1,0,100,0,0
99245,-84.7457627118644,4,1,0,100,0,0
99320,-85.0340136054422,4,1,0,100,0,0
99395,-85.3242320819112,4,1,0,100,0,0
99470,-85.6164383561644,4,1,0,100,0,0
99545,-85.9106529209622,4,1,0,100,0,0
99620,-86.2068965517241,4,1,0,100,0,0
99695,-86.5051903114187,4,1,0,100,0,0
99770,-86.8055555555555,4,1,0,100,0,0
99845,-87.1080139372822,4,1,0,100,0,0
99920,-87.4125874125874,4,1,0,100,0,0
99995,-87.719298245614,4,1,0,100,0,0
100070,-88.0281690140845,4,1,0,100,0,0
100145,-88.339222614841,4,1,0,100,0,0
100220,-88.6524822695035,4,1,0,100,0,0
100295,-88.9679715302491,4,1,0,100,0,0
100370,-89.2857142857143,4,1,0,100,0,0
100445,-89.6057347670251,4,1,0,100,0,0
100520,-89.9280575539568,4,1,0,100,0,0
100595,-90.2527075812274,4,1,0,100,0,0
100670,-90.5797101449275,4,1,0,100,0,0
100745,-90.9090909090909,4,1,0,100,0,0
100895,-88.6075949367089,4,1,0,100,0,0
100970,-87.5,4,1,0,100,0,0
101045,-86.4197530864197,4,1,0,100,0,0
101120,-85.3658536585366,4,1,0,100,0,0
101195,-84.3373493975904,4,1,0,100,0,0
101270,-83.3333333333333,4,1,0,100,0,0
101345,-82.3529411764706,4,1,0,100,0,0
101495,-80.4597701149425,4,1,0,100,0,0
101645,-78.6516853932584,4,1,0,100,0,0
101695,-78.0669144981413,4,1,0,100,0,0
101745,-77.4907749077491,4,1,0,100,0,0
101795,-76.9230769230769,4,1,0,100,0,0
101870,-77.2727272727273,4,1,0,100,0,0
101945,-77.6255707762557,4,1,0,100,0,0
102020,-77.9816513761468,4,1,0,100,0,0
102095,-78.3410138248848,4,1,0,100,0,0
102170,-78.7037037037037,4,1,0,100,0,0
102245,-79.0697674418605,4,1,0,100,0,0
102320,-79.4392523364486,4,1,0,100,0,0
102395,-79.81220657277,4,1,0,100,0,0
102470,-80.188679245283,4,1,0,100,0,0
102545,-80.5687203791469,4,1,0,100,0,0
102620,-80.9523809523809,4,1,0,100,0,0
102695,-81.3397129186603,4,1,0,100,0,0
102770,-81.7307692307692,4,1,0,100,0,0
102845,-82.1256038647343,4,1,0,100,0,0
102920,-82.5242718446602,4,1,0,100,0,0
102995,-82.9268292682927,4,1,0,100,0,0
103070,-83.3333333333333,4,1,0,100,0,0
103145,-83.743842364532,4,1,0,100,0,0
103220,-84.1584158415842,4,1,0,100,0,0
103295,-84.5771144278607,4,1,0,100,0,0
103370,-85,4,1,0,100,0,0
103445,-85.4271356783919,4,1,0,100,0,0
103520,-85.8585858585859,4,1,0,100,0,0
103595,-86.2944162436548,4,1,0,100,0,0
103670,-86.734693877551,4,1,0,100,0,0
103745,-87.1794871794872,4,1,0,100,0,0
103820,-87.6288659793814,4,1,0,100,0,0
103895,-88.0829015544041,4,1,0,100,0,0
103970,-88.5416666666667,4,1,0,100,0,0
104045,-89.0052356020942,4,1,0,100,0,0
104120,-89.4736842105263,4,1,0,100,0,0
104195,-89.9470899470899,4,1,0,100,0,0
104270,-90.4255319148936,4,1,0,100,0,0
104345,-90.9090909090909,4,1,0,100,0,0
104495,-92.1985815602837,4,1,0,100,0,0
104645,-93.5251798561151,4,1,0,100,0,0
104795,-94.8905109489051,4,1,0,100,0,0
104870,-95.5882352941176,4,1,0,100,0,0
104945,-96.2962962962963,4,1,0,100,0,0
105020,-97.0149253731343,4,1,0,100,0,0
105095,-97.7443609022556,4,1,0,100,0,0
105245,-99.236641221374,4,1,0,100,0,0
105320,-100,4,1,0,100,0,0
105395,-100.77519379845,4,1,0,100,0,0
105470,-101.5625,4,1,0,100,0,0
105545,-102.362204724409,4,1,0,100,0,0
105695,-104,4,1,0,100,0,0
105845,-105.691056910569,4,1,0,100,0,0
105995,-107.438016528926,4,1,0,100,0,0
106070,-108.333333333333,4,1,0,100,0,0
106145,-109.243697478992,4,1,0,100,0,0
106220,-110.169491525424,4,1,0,100,0,0
106295,-111.111111111111,4,1,0,100,0,0
106525,-76.9230769230769,4,1,0,100,0,0
106670,-77.4193548387097,4,1,0,100,0,0
106745,-77.9220779220779,4,1,0,100,0,0
106820,-78.4313725490196,4,1,0,100,0,0
106895,-78.9473684210526,4,1,0,100,0,0
106970,-79.4701986754967,4,1,0,100,0,0
107045,-80,4,1,0,100,0,0
107120,-80.5369127516778,4,1,0,100,0,0
107195,-81.0810810810811,4,1,0,100,0,0
107270,-81.6326530612245,4,1,0,100,0,0
107345,-82.1917808219178,4,1,0,100,0,0
107420,-82.7586206896552,4,1,0,100,0,0
107495,-83.3333333333333,4,1,0,100,0,0
107570,-83.9160839160839,4,1,0,100,0,0
107645,-84.5070422535211,4,1,0,100,0,0
107720,-85.1063829787234,4,1,0,100,0,0
107795,-85.7142857142857,4,1,0,100,0,0
107870,-86.3309352517986,4,1,0,100,0,0
107945,-86.9565217391304,4,1,0,100,0,0
108020,-87.5912408759124,4,1,0,100,0,0
108095,-88.2352941176471,4,1,0,100,0,0
108170,-88.8888888888889,4,1,0,100,0,0
108245,-89.5522388059701,4,1,0,100,0,0
108320,-90.2255639097744,4,1,0,100,0,0
108390,-90.77155,4,1,0,100,0,0
108395,-90.9090909090909,4,1,0,100,0,0
108465,-88.75739,4,1,0,100,0,0
108545,-86.9565217391304,4,1,0,100,0,0
108595,-85.7142857142857,4,1,0,100,0,0
108645,-84.5070422535211,4,1,0,100,0,0
108695,-83.3333333333333,4,1,0,100,0,0
108845,-80,4,1,0,100,0,0
108995,-76.9230769230769,4,1,0,100,0,0
109070,-77.3480662983425,4,1,0,100,0,0
109145,-77.7777777777778,4,1,0,100,0,0
109220,-78.2122905027933,4,1,0,100,0,0
109295,-78.6516853932584,4,1,0,100,0,0
109445,-79.5454545454545,4,1,0,100,0,0
109520,-80,4,1,0,100,0,0
109595,-80.4597701149425,4,1,0,100,0,0
109670,-80.9248554913295,4,1,0,100,0,0
109745,-81.3953488372093,4,1,0,100,0,0
109820,-81.8713450292398,4,1,0,100,0,0
109895,-82.3529411764706,4,1,0,100,0,0
109970,-82.8402366863905,4,1,0,100,0,0
110045,-83.3333333333333,4,1,0,100,0,0
110120,-83.8323353293413,4,1,0,100,0,0
110195,-84.3373493975904,4,1,0,100,0,0
110270,-84.8484848484848,4,1,0,100,0,0
110345,-85.3658536585366,4,1,0,100,0,0
110495,-86.4197530864197,4,1,0,100,0,0
110645,-87.5,4,1,0,100,0,0
110720,-88.0503144654088,4,1,0,100,0,0
110795,-88.6075949367089,4,1,0,100,0,0
110945,-89.7435897435897,4,1,0,100,0,0
111095,-90.9090909090909,4,1,0,100,0,0
111395,-76.9230769230769,4,1,0,100,0,0
111470,-77.4193548387097,4,1,0,100,0,0
111545,-77.9220779220779,4,1,0,100,0,0
111620,-78.4313725490196,4,1,0,100,0,0
111695,-78.9473684210526,4,1,0,100,0,0
111770,-79.4701986754967,4,1,0,100,0,0
111845,-80,4,1,0,100,0,0
111920,-80.5369127516778,4,1,0,100,0,0
111995,-81.0810810810811,4,1,0,100,0,0
112070,-81.6326530612245,4,1,0,100,0,0
112145,-82.1917808219178,4,1,0,100,0,0
112220,-82.7586206896552,4,1,0,100,0,0
112295,-83.3333333333333,4,1,0,100,0,0
112370,-83.9160839160839,4,1,0,100,0,0
112445,-84.5070422535211,4,1,0,100,0,0
112520,-85.1063829787234,4,1,0,100,0,0
112595,-85.7142857142857,4,1,0,100,0,0
112670,-86.3309352517986,4,1,0,100,0,0
112745,-86.9565217391304,4,1,0,100,0,0
112820,-87.5912408759124,4,1,0,100,0,0
112895,-88.2352941176471,4,1,0,100,0,0
112970,-88.8888888888889,4,1,0,100,0,0
113045,-89.5522388059701,4,1,0,100,0,0
113120,-90.2255639097744,4,1,0,100,0,0
113195,-90.81735,4,1,0,100,0,0
113270,-89.46322,4,1,0,100,0,0
113345,-88.2352941176471,4,1,0,100,0,0
113395,-87.378640776699,4,1,0,100,0,0
113445,-86.5384615384615,4,1,0,100,0,0
113495,-85.7142857142857,4,1,0,100,0,0
113645,-83.3333333333333,4,1,0,100,0,0
113720,-84.1121495327103,4,1,0,100,0,0
113795,-84.9056603773585,4,1,0,100,0,0
113870,-85.7142857142857,4,1,0,100,0,0
113945,-86.5384615384615,4,1,0,100,0,0
114095,-88.2352941176471,4,1,0,100,0,0
114170,-89.1089108910891,4,1,0,100,0,0
114245,-90,4,1,0,100,0,0
114320,-90.9090909090909,4,1,0,100,0,0
114395,-91.8367346938776,4,1,0,100,0,0
114470,-92.7835051546392,4,1,0,100,0,0
114545,-93.75,4,1,0,100,0,0
114620,-94.7368421052632,4,1,0,100,0,0
114695,-95.7446808510638,4,1,0,100,0,0
114770,-96.7741935483871,4,1,0,100,0,0
114845,-97.8260869565217,4,1,0,100,0,0
114920,-98.9010989010989,4,1,0,100,0,0
114995,-100,4,1,0,100,0,0
115145,-96.3855421686747,4,1,0,100,0,0
115295,-93.0232558139535,4,1,0,100,0,0
115445,-89.8876404494382,4,1,0,100,0,0
115520,-88.3977900552486,4,1,0,100,0,0
115595,-86.9565217391304,4,1,0,100,0,0
115745,-84.2105263157895,4,1,0,100,0,0
115820,-82.9015544041451,4,1,0,100,0,0
115895,-81.6326530612245,4,1,0,100,0,0
116045,-79.2079207920792,4,1,0,100,0,0
116120,-78.0487804878049,4,1,0,100,0,0
116195,-76.9230769230769,4,1,0,100,0,0
116270,-77.1704180064309,4,1,0,100,0,0
116345,-77.4193548387097,4,1,0,100,0,0
116420,-77.6699029126214,4,1,0,100,0,0
116495,-77.9220779220779,4,1,0,100,0,0
116570,-78.1758957654723,4,1,0,100,0,0
116645,-78.4313725490196,4,1,0,100,0,0
116720,-78.6885245901639,4,1,0,100,0,0
116795,-78.9473684210526,4,1,0,100,0,0
116870,-79.2079207920792,4,1,0,100,0,0
116945,-79.4701986754967,4,1,0,100,0,0
117020,-79.734219269103,4,1,0,100,0,0
117095,-80,4,1,0,100,0,0
117170,-80.2675585284281,4,1,0,100,0,0
117245,-80.5369127516778,4,1,0,100,0,0
117320,-80.8080808080808,4,1,0,100,0,0
117395,-81.0810810810811,4,1,0,100,0,0
117470,-81.3559322033898,4,1,0,100,0,0
117545,-81.6326530612245,4,1,0,100,0,0
117620,-81.9112627986348,4,1,0,100,0,0
117695,-82.1917808219178,4,1,0,100,0,0
117770,-82.4742268041237,4,1,0,100,0,0
117845,-82.7586206896552,4,1,0,100,0,0
117920,-83.0449826989619,4,1,0,100,0,0
117995,-83.3333333333333,4,1,0,100,0,0
118070,-83.6236933797909,4,1,0,100,0,0
118145,-83.9160839160839,4,1,0,100,0,0
118220,-84.2105263157895,4,1,0,100,0,0
118295,-84.5070422535211,4,1,0,100,0,0
118370,-84.8056537102473,4,1,0,100,0,0
118445,-85.1063829787234,4,1,0,100,0,0
118520,-85.4092526690391,4,1,0,100,0,0
118595,-85.7142857142857,4,1,0,100,0,0
118670,-86.0215053763441,4,1,0,100,0,0
118745,-86.3309352517986,4,1,0,100,0,0
118820,-86.6425992779783,4,1,0,100,0,0
118895,-86.9565217391304,4,1,0,100,0,0
118970,-87.2727272727273,4,1,0,100,0,0
119045,-87.5912408759124,4,1,0,100,0,0
119120,-87.9120879120879,4,1,0,100,0,0
119195,-88.2352941176471,4,1,0,100,0,0
119270,-88.5608856088561,4,1,0,100,0,0
119345,-88.8888888888889,4,1,0,100,0,0
119420,-89.2193308550186,4,1,0,100,0,0
119495,-89.5522388059701,4,1,0,100,0,0
119570,-89.8876404494382,4,1,0,100,0,0
119645,-90.2255639097744,4,1,0,100,0,0
119720,-90.5660377358491,4,1,0,100,0,0
119795,-90.9090909090909,4,1,0,100,0,0
119945,-88.8888888888889,4,1,0,100,0,0
120020,-87.9120879120879,4,1,0,100,0,0
120095,-86.9565217391304,4,1,0,100,0,0
120245,-85.1063829787234,4,1,0,100,0,0
120320,-84.2105263157895,4,1,0,100,0,0
120395,-83.3333333333333,4,1,0,100,0,0
120470,-82.4742268041237,4,1,0,100,0,0
120545,-81.6326530612245,4,1,0,100,0,0
120695,-80,4,1,0,100,0,0
120845,-78.4313725490196,4,1,0,100,0,0
120895,-77.9220779220779,4,1,0,100,0,0
120945,-77.4193548387097,4,1,0,100,0,0
120995,-76.9230769230769,4,1,0,100,0,0
121070,-77.1704180064309,4,1,0,100,0,0
121145,-77.4193548387097,4,1,0,100,0,0
121220,-77.6699029126214,4,1,0,100,0,0
121295,-77.9220779220779,4,1,0,100,0,0
121370,-78.1758957654723,4,1,0,100,0,0
121445,-78.4313725490196,4,1,0,100,0,0
121520,-78.6885245901639,4,1,0,100,0,0
121595,-78.9473684210526,4,1,0,100,0,0
121670,-79.2079207920792,4,1,0,100,0,0
121745,-79.4701986754967,4,1,0,100,0,0
121820,-79.734219269103,4,1,0,100,0,0
121895,-80,4,1,0,100,0,0
121970,-80.2675585284281,4,1,0,100,0,0
122045,-80.5369127516778,4,1,0,100,0,0
122120,-80.8080808080808,4,1,0,100,0,0
122195,-81.0810810810811,4,1,0,100,0,0
122270,-81.3559322033898,4,1,0,100,0,0
122345,-81.6326530612245,4,1,0,100,0,0
122420,-81.9112627986348,4,1,0,100,0,0
122495,-82.1917808219178,4,1,0,100,0,0
122570,-82.4742268041237,4,1,0,100,0,0
122645,-82.7586206896552,4,1,0,100,0,0
122720,-83.0449826989619,4,1,0,100,0,0
122795,-83.3333333333333,4,1,0,100,0,0
122870,-83.6236933797909,4,1,0,100,0,0
122945,-83.9160839160839,4,1,0,100,0,0
123020,-84.2105263157895,4,1,0,100,0,0
123095,-84.5070422535211,4,1,0,100,0,0
123170,-84.8056537102473,4,1,0,100,0,0
123245,-85.1063829787234,4,1,0,100,0,0
123320,-85.4092526690391,4,1,0,100,0,0
123395,-85.7142857142857,4,1,0,100,0,0
123470,-86.0215053763441,4,1,0,100,0,0
123545,-86.3309352517986,4,1,0,100,0,0
123695,-86.9565217391304,4,1,0,100,0,0
123845,-87.5912408759124,4,1,0,100,0,0
123995,-88.2352941176471,4,1,0,100,0,0
124070,-88.5608856088561,4,1,0,100,0,0
124145,-88.8888888888889,4,1,0,100,0,0
124220,-89.2193308550186,4,1,0,100,0,0
124295,-89.5522388059701,4,1,0,100,0,0
124445,-90.2255639097744,4,1,0,100,0,0
124595,-90.9090909090909,4,1,0,100,0,0
124745,-93.75,4,1,0,100,0,0
124820,-95.2380952380952,4,1,0,100,0,0
124895,-96.7741935483871,4,1,0,100,0,0
125045,-100,4,1,0,100,0,0
125120,-101.694915254237,4,1,0,100,0,0
125195,-103.448275862069,4,1,0,100,0,0
125345,-107.142857142857,4,1,0,100,0,0
125495,-111.111111111111,4,1,0,100,0,0
125795,-76.9230769230769,4,1,0,100,0,0
125870,-77.4193548387097,4,1,0,100,0,0
125945,-77.9220779220779,4,1,0,100,0,0
126020,-78.4313725490196,4,1,0,100,0,0
126095,-78.9473684210526,4,1,0,100,0,0
126170,-79.4701986754967,4,1,0,100,0,0
126245,-80,4,1,0,100,0,0
126320,-80.5369127516778,4,1,0,100,0,0
126395,-81.0810810810811,4,1,0,100,0,0
126470,-81.6326530612245,4,1,0,100,0,0
126545,-82.1917808219178,4,1,0,100,0,0
126620,-82.7586206896552,4,1,0,100,0,0
126695,-83.3333333333333,4,1,0,100,0,0
126770,-83.9160839160839,4,1,0,100,0,0
126845,-84.5070422535211,4,1,0,100,0,0
126920,-85.1063829787234,4,1,0,100,0,0
126995,-85.7142857142857,4,1,0,100,0,0
127070,-86.3309352517986,4,1,0,100,0,0
127145,-86.9565217391304,4,1,0,100,0,0
127220,-87.5912408759124,4,1,0,100,0,0
127295,-88.2352941176471,4,1,0,100,0,0
127370,-88.8888888888889,4,1,0,100,0,0
127445,-89.5522388059701,4,1,0,100,0,0
127520,-90.2255639097744,4,1,0,100,0,0
127595,-90.9090909090909,4,1,0,100,0,0
127745,-86.9565217391304,4,1,0,100,0,0
127820,-85.1063829787234,4,1,0,100,0,0
127895,-83.3333333333333,4,1,0,100,0,0
128045,-80,4,1,0,100,0,0
128195,-76.9230769230769,4,1,0,100,0,0
128270,-77.5862068965517,4,1,0,100,0,0
128345,-78.2608695652174,4,1,0,100,0,0
128420,-78.9473684210526,4,1,0,100,0,0
128495,-79.646017699115,4,1,0,100,0,0
128645,-81.0810810810811,4,1,0,100,0,0
128720,-81.8181818181818,4,1,0,100,0,0
128795,-82.5688073394495,4,1,0,100,0,0
128870,-83.3333333333333,4,1,0,100,0,0
128945,-84.1121495327103,4,1,0,100,0,0
129020,-84.9056603773585,4,1,0,100,0,0
129095,-85.7142857142857,4,1,0,100,0,0
129170,-86.5384615384615,4,1,0,100,0,0
129245,-87.378640776699,4,1,0,100,0,0
129320,-88.2352941176471,4,1,0,100,0,0
129395,-89.1089108910891,4,1,0,100,0,0
129470,-90,4,1,0,100,0,0
129545,-90.9090909090909,4,1,0,100,0,0
129695,-88.6075949367089,4,1,0,100,0,0
129770,-87.5,4,1,0,100,0,0
129845,-86.4197530864197,4,1,0,100,0,0
129995,-84.3373493975904,4,1,0,100,0,0
130145,-82.3529411764706,4,1,0,100,0,0
130220,-81.3953488372093,4,1,0,100,0,0
130295,-80.4597701149425,4,1,0,100,0,0
130445,-78.6516853932584,4,1,0,100,0,0
130495,-78.0669144981413,4,1,0,100,0,0
130545,-77.4907749077491,4,1,0,100,0,0
130595,-76.9230769230769,4,1,0,100,0,0
130670,-77.2946859903382,4,1,0,100,0,0
130745,-77.6699029126214,4,1,0,100,0,0
130820,-78.0487804878049,4,1,0,100,0,0
130895,-78.4313725490196,4,1,0,100,0,0
130970,-78.8177339901478,4,1,0,100,0,0
131045,-79.2079207920792,4,1,0,100,0,0
131120,-79.6019900497512,4,1,0,100,0,0
131195,-80,4,1,0,100,0,0
131270,-80.4020100502512,4,1,0,100,0,0
131345,-80.8080808080808,4,1,0,100,0,0
131420,-81.2182741116751,4,1,0,100,0,0
131495,-81.6326530612245,4,1,0,100,0,0
131570,-82.0512820512821,4,1,0,100,0,0
131645,-82.4742268041237,4,1,0,100,0,0
131720,-82.9015544041451,4,1,0,100,0,0
131795,-83.3333333333333,4,1,0,100,0,0
131870,-83.7696335078534,4,1,0,100,0,0
131945,-84.2105263157895,4,1,0,100,0,0
132020,-84.6560846560846,4,1,0,100,0,0
132095,-85.1063829787234,4,1,0,100,0,0
132170,-85.5614973262032,4,1,0,100,0,0
132245,-86.0215053763441,4,1,0,100,0,0
132320,-86.4864864864865,4,1,0,100,0,0
132395,-86.9565217391304,4,1,0,100,0,0
132470,-87.431693989071,4,1,0,100,0,0
132545,-87.9120879120879,4,1,0,100,0,0
132620,-88.3977900552486,4,1,0,100,0,0
132695,-88.8888888888889,4,1,0,100,0,0
132770,-89.3854748603352,4,1,0,100,0,0
132845,-89.8876404494382,4,1,0,100,0,0
132995,-90.9090909090909,4,1,0,100,0,0
133070,-90.9887519473422,4,1,0,100,0,0
133145,-91.2278030281117,4,1,0,100,0,0
133220,-94.1176470588235,4,1,0,100,0,0
133295,-92.1849382905629,4,1,0,100,0,0
133370,-92.9036259434279,4,1,0,100,0,0
133445,-93.7827721734047,4,1,0,100,0,0
133520,-94.8224936063111,4,1,0,100,0,0
133595,-96.0226131345178,4,1,0,100,0,0
133670,-97.3824894836521,4,1,0,100,0,0
133745,-98.9008117688356,4,1,0,100,0,0
133820,-100.575356679183,4,1,0,100,0,0
133895,-102.402706816036,4,1,0,100,0,0
133970,-104.377930266677,4,1,0,100,0,0
134045,-106.494223903512,4,1,0,100,0,0
134120,-108.742526341292,4,1,0,100,0,0
134195,-111.111111111111,4,1,0,100,0,0
134795,-125,4,1,0,100,0,0
134945,-121.212121212121,4,1,0,100,0,0
135095,-117.647058823529,4,1,0,100,0,0
135170,-115.942028985507,4,1,0,100,0,0
135245,-114.285714285714,4,1,0,100,0,0
135325,-112.676056338028,4,1,0,100,0,0
135395,-111.111111111111,4,1,0,100,0,0
135545,-110.091743119266,4,1,0,100,0,0
135620,-109.58904109589,4,1,0,100,0,0
135695,-109.090909090909,4,1,0,100,0,0
135770,-108.597285067873,4,1,0,100,0,0
135845,-108.108108108108,4,1,0,100,0,0
135995,-107.142857142857,4,1,0,100,0,0
136145,-106.194690265487,4,1,0,100,0,0
136295,-105.263157894737,4,1,0,100,0,0
136445,-104.347826086957,4,1,0,100,0,0
136520,-103.896103896104,4,1,0,100,0,0
136595,-103.448275862069,4,1,0,100,0,0
136670,-103.004291845494,4,1,0,100,0,0
136745,-102.564102564103,4,1,0,100,0,0
136820,-102.127659574468,4,1,0,100,0,0
136895,-101.694915254237,4,1,0,100,0,0
136970,-101.26582278481,4,1,0,100,0,0
137045,-100.840336134454,4,1,0,100,0,0
137195,-100,4,1,0,100,0,0
137345,-102.564102564103,4,1,0,100,0,0
137420,-103.896103896104,4,1,0,100,0,0
137495,-105.263157894737,4,1,0,100,0,0
137645,-108.108108108108,4,1,0,100,0,0
137795,-111.111111111111,4,1,0,100,0,0
137870,-110.70110701107,4,1,0,100,0,0
137945,-110.294117647059,4,1,0,100,0,0
138020,-109.89010989011,4,1,0,100,0,0
138095,-109.48905109489,4,1,0,100,0,0
138170,-109.090909090909,4,1,0,100,0,0
138245,-108.695652173913,4,1,0,100,0,0
138395,-107.913669064748,4,1,0,100,0,0
138545,-107.142857142857,4,1,0,100,0,0
138620,-106.761565836299,4,1,0,100,0,0
138695,-106.382978723404,4,1,0,100,0,0
138770,-106.007067137809,4,1,0,100,0,0
138845,-105.633802816901,4,1,0,100,0,0
138920,-105.263157894737,4,1,0,100,0,0
138995,-104.895104895105,4,1,0,100,0,0
139070,-104.529616724739,4,1,0,100,0,0
139145,-104.166666666667,4,1,0,100,0,0
139295,-103.448275862069,4,1,0,100,0,0
139445,-102.739726027397,4,1,0,100,0,0
139595,-102.040816326531,4,1,0,100,0,0
139745,-101.351351351351,4,1,0,100,0,0
139895,-100.671140939597,4,1,0,100,0,0
140045,-100,4,1,0,100,0,0
140195,-111.111111111111,4,1,0,100,0,0
140345,-100,4,1,0,100,0,0
140495,-100.671140939597,4,1,0,100,0,0
140645,-101.351351351351,4,1,0,100,0,0
140795,-102.040816326531,4,1,0,100,0,0
140945,-102.739726027397,4,1,0,100,0,0
141020,-103.092783505155,4,1,0,100,0,0
141095,-103.448275862069,4,1,0,100,0,0
141170,-103.806228373702,4,1,0,100,0,0
141245,-104.166666666667,4,1,0,100,0,0
141395,-104.895104895105,4,1,0,100,0,0
141470,-105.263157894737,4,1,0,100,0,0
141545,-105.633802816901,4,1,0,100,0,0
141695,-106.382978723404,4,1,0,100,0,0
141845,-107.142857142857,4,1,0,100,0,0
141920,-107.52688172043,4,1,0,100,0,0
141995,-107.913669064748,4,1,0,100,0,0
142070,-108.303249097473,4,1,0,100,0,0
142145,-108.695652173913,4,1,0,100,0,0
142220,-109.090909090909,4,1,0,100,0,0
142295,-109.48905109489,4,1,0,100,0,0
142370,-109.89010989011,4,1,0,100,0,0
142445,-110.294117647059,4,1,0,100,0,0
142595,-111.111111111111,4,1,0,100,0,0
142670,-110.599078341014,4,1,0,100,0,0
142745,-110.091743119266,4,1,0,100,0,0
142820,-109.58904109589,4,1,0,100,0,0
142895,-109.090909090909,4,1,0,100,0,0
142970,-108.597285067873,4,1,0,100,0,0
143045,-108.108108108108,4,1,0,100,0,0
143195,-107.142857142857,4,1,0,100,0,0
143345,-106.194690265487,4,1,0,100,0,0
143420,-105.726872246696,4,1,0,100,0,0
143495,-105.263157894737,4,1,0,100,0,0
143570,-104.803493449782,4,1,0,100,0,0
143645,-104.347826086957,4,1,0,100,0,0
143720,-103.896103896104,4,1,0,100,0,0
143795,-103.448275862069,4,1,0,100,0,0
143870,-103.004291845494,4,1,0,100,0,0
143945,-102.564102564103,4,1,0,100,0,0
144095,-101.694915254237,4,1,0,100,0,0
144245,-100.840336134454,4,1,0,100,0,0
144395,-100,4,1,0,100,0,0
144625,-111.111111111111,4,1,0,100,0,0
144995,-111.111111111111,4,1,0,100,0,0
145145,-110.091743119266,4,1,0,100,0,0
145220,-109.58904109589,4,1,0,100,0,0
145295,-109.090909090909,4,1,0,100,0,0
145370,-108.597285067873,4,1,0,100,0,0
145445,-108.108108108108,4,1,0,100,0,0
145595,-107.142857142857,4,1,0,100,0,0
145745,-106.194690265487,4,1,0,100,0,0
145820,-105.726872246696,4,1,0,100,0,0
145895,-105.263157894737,4,1,0,100,0,0
145970,-104.803493449782,4,1,0,100,0,0
146045,-104.347826086957,4,1,0,100,0,0
146120,-103.896103896104,4,1,0,100,0,0
146195,-103.448275862069,4,1,0,100,0,0
146270,-103.004291845494,4,1,0,100,0,0
146345,-102.564102564103,4,1,0,100,0,0
146495,-101.694915254237,4,1,0,100,0,0
146645,-100.840336134454,4,1,0,100,0,0
146795,-100,4,1,0,100,0,0
146945,-102.564102564103,4,1,0,100,0,0
147020,-103.896103896104,4,1,0,100,0,0
147095,-105.263157894737,4,1,0,100,0,0
147245,-108.108108108108,4,1,0,100,0,0
147395,-111.111111111111,4,1,0,100,0,0
147545,-110.294117647059,4,1,0,100,0,0
147620,-109.89010989011,4,1,0,100,0,0
147695,-109.48905109489,4,1,0,100,0,0
147770,-109.090909090909,4,1,0,100,0,0
147845,-108.695652173913,4,1,0,100,0,0
147995,-107.913669064748,4,1,0,100,0,0
148145,-107.142857142857,4,1,0,100,0,0
148220,-106.761565836299,4,1,0,100,0,0
148295,-106.382978723404,4,1,0,100,0,0
148370,-106.007067137809,4,1,0,100,0,0
148445,-105.633802816901,4,1,0,100,0,0
148520,-105.263157894737,4,1,0,100,0,0
148595,-104.895104895105,4,1,0,100,0,0
148670,-104.529616724739,4,1,0,100,0,0
148745,-104.166666666667,4,1,0,100,0,0
148895,-103.448275862069,4,1,0,100,0,0
149045,-102.739726027397,4,1,0,100,0,0
149195,-102.040816326531,4,1,0,100,0,0
149345,-101.351351351351,4,1,0,100,0,0
149495,-100.671140939597,4,1,0,100,0,0
149645,-100,4,1,0,100,0,0
149795,-111.111111111111,4,1,0,100,0,0
149945,-100,4,1,0,100,0,0
150095,-100.671140939597,4,1,0,100,0,0
150245,-101.351351351351,4,1,0,100,0,0
150320,-101.694915254237,4,1,0,100,0,0
150395,-102.040816326531,4,1,0,100,0,0
150545,-102.739726027397,4,1,0,100,0,0
150620,-103.092783505155,4,1,0,100,0,0
150695,-103.448275862069,4,1,0,100,0,0
150845,-104.166666666667,4,1,0,100,0,0
150995,-104.895104895105,4,1,0,100,0,0
151070,-105.263157894737,4,1,0,100,0,0
151145,-105.633802816901,4,1,0,100,0,0
151220,-106.007067137809,4,1,0,100,0,0
151295,-106.382978723404,4,1,0,100,0,0
151445,-107.142857142857,4,1,0,100,0,0
151520,-107.52688172043,4,1,0,100,0,0
151595,-107.913669064748,4,1,0,100,0,0
151670,-108.303249097473,4,1,0,100,0,0
151745,-108.695652173913,4,1,0,100,0,0
151820,-109.090909090909,4,1,0,100,0,0
151895,-109.48905109489,4,1,0,100,0,0
151970,-109.89010989011,4,1,0,100,0,0
152045,-110.294117647059,4,1,0,100,0,0
152195,-111.111111111111,4,1,0,100,0,0
152345,-111.111111111111,4,1,0,100,0,0
152420,-111.111111111111,4,1,0,100,0,0
152495,-111.111111111111,4,1,0,100,0,0
152645,-111.111111111111,4,1,0,100,0,0
152795,-111.111111111111,4,1,0,100,0,0
152945,-111.111111111111,4,1,0,100,0,0
153020,-111.111111111111,4,1,0,100,0,0
153095,-111.111111111111,4,1,0,100,0,0
153170,-111.111111111111,4,1,0,100,0,0
153245,-111.111111111111,4,1,0,100,0,0
153395,-111.111111111111,4,1,0,100,0,0
153470,-111.888111888112,4,1,0,100,0,0
153545,-112.676056338028,4,1,0,100,0,0
153695,-114.285714285714,4,1,0,100,0,0
153845,-115.942028985507,4,1,0,100,0,0
153995,-117.647058823529,4,1,0,100,0,0
154220,-110,4,1,0,100,0,0
154295,-105.769230769231,4,1,0,100,0,0
154445,-98.2142857142857,4,1,0,100,0,0
154520,-94.8275862068966,4,1,0,100,0,0
154595,-91.6666666666667,4,1,0,100,0,0
154670,-88.7096774193548,4,1,0,100,0,0
154745,-85.9375,4,1,0,100,0,0
154820,-83.3333333333333,4,1,0,100,0,0
154970,-83.8235294117647,4,1,0,100,0,0
155045,-84.070796460177,4,1,0,100,0,0
155195,-84.5697329376855,4,1,0,100,0,0
155270,-84.8214285714286,4,1,0,100,0,0
155345,-85.0746268656716,4,1,0,100,0,0
155420,-85.3293413173653,4,1,0,100,0,0
155495,-85.5855855855856,4,1,0,100,0,0
155570,-85.8433734939759,4,1,0,100,0,0
155645,-86.1027190332326,4,1,0,100,0,0
155795,-86.6261398176292,4,1,0,100,0,0
155870,-86.890243902439,4,1,0,100,0,0
155945,-87.1559633027523,4,1,0,100,0,0
156020,-87.4233128834356,4,1,0,100,0,0
156095,-87.6923076923077,4,1,0,100,0,0
156170,-87.962962962963,4,1,0,100,0,0
156245,-88.2352941176471,4,1,0,100,0,0
156395,-88.785046728972,4,1,0,100,0,0
156470,-89.0625,4,1,0,100,0,0
156545,-89.3416927899687,4,1,0,100,0,0
156620,-89.622641509434,4,1,0,100,0,0
156695,-89.9053627760252,4,1,0,100,0,0
156845,-90.4761904761905,4,1,0,100,0,0
156995,-91.0543130990416,4,1,0,100,0,0
157070,-91.3461538461538,4,1,0,100,0,0
157145,-91.6398713826367,4,1,0,100,0,0
157220,-91.9354838709677,4,1,0,100,0,0
157295,-92.2330097087379,4,1,0,100,0,0
157445,-92.8338762214984,4,1,0,100,0,0
157595,-93.4426229508197,4,1,0,100,0,0
157670,-93.75,4,1,0,100,0,0
157745,-94.0594059405941,4,1,0,100,0,0
157820,-94.3708609271523,4,1,0,100,0,0
157970,-95,4,1,0,100,0,0
158045,-95.3177257525084,4,1,0,100,0,0
158195,-95.959595959596,4,1,0,100,0,0
158345,-96.6101694915254,4,1,0,100,0,0
158420,-96.9387755102041,4,1,0,100,0,0
158495,-97.2696245733788,4,1,0,100,0,0
158645,-97.9381443298969,4,1,0,100,0,0
158720,-98.2758620689655,4,1,0,100,0,0
158795,-98.6159169550173,4,1,0,100,0,0
158870,-98.9583333333333,4,1,0,100,0,0
158945,-99.3031358885017,4,1,0,100,0,0
159095,-100,4,1,0,100,0,0
159245,-95.2380952380952,4,1,0,100,0,0
159320,-93.0232558139535,4,1,0,100,0,0
159395,-90.9090909090909,4,1,0,100,0,0
159470,-88.8888888888889,4,1,0,100,0,0
159545,-86.9565217391304,4,1,0,100,0,0
159620,-85.1063829787234,4,1,0,100,0,0
159695,-83.3333333333333,4,1,0,100,0,0
159845,-83.8709677419355,4,1,0,100,0,0
159995,-84.4155844155844,4,1,0,100,0,0
160070,-84.6905537459283,4,1,0,100,0,0
160145,-84.9673202614379,4,1,0,100,0,0
160220,-85.2459016393443,4,1,0,100,0,0
160295,-85.5263157894737,4,1,0,100,0,0
160445,-86.0927152317881,4,1,0,100,0,0
160520,-86.3787375415283,4,1,0,100,0,0
160595,-86.6666666666667,4,1,0,100,0,0
160745,-87.248322147651,4,1,0,100,0,0
160820,-87.5420875420875,4,1,0,100,0,0
160895,-87.8378378378378,4,1,0,100,0,0
160970,-88.135593220339,4,1,0,100,0,0
161045,-88.4353741496599,4,1,0,100,0,0
161120,-88.7372013651877,4,1,0,100,0,0
161195,-89.041095890411,4,1,0,100,0,0
161345,-89.6551724137931,4,1,0,100,0,0
161420,-89.9653979238754,4,1,0,100,0,0
161495,-90.2777777777778,4,1,0,100,0,0
161570,-90.5923344947735,4,1,0,100,0,0
161645,-90.9090909090909,4,1,0,100,0,0
161720,-91.2280701754386,4,1,0,100,0,0
161795,-91.5492957746479,4,1,0,100,0,0
161945,-92.1985815602837,4,1,0,100,0,0
162020,-92.5266903914591,4,1,0,100,0,0
162095,-92.8571428571429,4,1,0,100,0,0
162245,-93.5251798561151,4,1,0,100,0,0
162320,-93.8628158844765,4,1,0,100,0,0
162395,-94.2028985507246,4,1,0,100,0,0
162470,-94.5454545454545,4,1,0,100,0,0
162545,-94.8905109489051,4,1,0,100,0,0
162620,-95.2380952380952,4,1,0,100,0,0
162695,-95.5882352941176,4,1,0,100,0,0
162845,-96.2962962962963,4,1,0,100,0,0
162920,-96.6542750929368,4,1,0,100,0,0
162995,-97.0149253731343,4,1,0,100,0,0
163070,-97.3782771535581,4,1,0,100,0,0
163145,-97.7443609022557,4,1,0,100,0,0
163220,-98.1132075471698,4,1,0,100,0,0
163295,-98.4848484848485,4,1,0,100,0,0
163445,-99.236641221374,4,1,0,100,0,0
163595,-100,4,1,0,100,0,0
163895,-100,4,1,0,100,0,0
164045,-94.5945945945946,4,1,0,100,0,0
164120,-92.1052631578947,4,1,0,100,0,0
164195,-89.7435897435897,4,1,0,100,0,0
164270,-87.5,4,1,0,100,0,0
164345,-85.3658536585366,4,1,0,100,0,0
164420,-83.3333333333333,4,1,0,100,0,0
164570,-83.8235294117647,4,1,0,100,0,0
164645,-84.070796460177,4,1,0,100,0,0
164795,-84.5697329376855,4,1,0,100,0,0
164870,-84.8214285714286,4,1,0,100,0,0
164945,-85.0746268656716,4,1,0,100,0,0
165020,-85.3293413173653,4,1,0,100,0,0
165095,-85.5855855855856,4,1,0,100,0,0
165170,-85.8433734939759,4,1,0,100,0,0
165245,-86.1027190332326,4,1,0,100,0,0
165395,-86.6261398176292,4,1,0,100,0,0
165470,-86.890243902439,4,1,0,100,0,0
165545,-87.1559633027523,4,1,0,100,0,0
165620,-87.4233128834356,4,1,0,100,0,0
165695,-87.6923076923077,4,1,0,100,0,0
165770,-87.962962962963,4,1,0,100,0,0
165845,-88.2352941176471,4,1,0,100,0,0
165995,-88.785046728972,4,1,0,100,0,0
166070,-89.0625,4,1,0,100,0,0
166145,-89.3416927899687,4,1,0,100,0,0
166220,-89.622641509434,4,1,0,100,0,0
166295,-89.9053627760252,4,1,0,100,0,0
166445,-90.4761904761905,4,1,0,100,0,0
166595,-91.0543130990416,4,1,0,100,0,0
166670,-91.3461538461538,4,1,0,100,0,0
166745,-91.6398713826367,4,1,0,100,0,0
166820,-91.9354838709677,4,1,0,100,0,0
166895,-92.2330097087379,4,1,0,100,0,0
167045,-92.8338762214984,4,1,0,100,0,0
167195,-93.4426229508197,4,1,0,100,0,0
167270,-93.75,4,1,0,100,0,0
167345,-94.0594059405941,4,1,0,100,0,0
167420,-94.3708609271523,4,1,0,100,0,0
167570,-95,4,1,0,100,0,0
167645,-95.3177257525084,4,1,0,100,0,0
167795,-95.959595959596,4,1,0,100,0,0
167945,-96.6101694915254,4,1,0,100,0,0
168020,-96.9387755102041,4,1,0,100,0,0
168095,-97.2696245733788,4,1,0,100,0,0
168245,-97.9381443298969,4,1,0,100,0,0
168320,-98.2758620689655,4,1,0,100,0,0
168395,-98.6159169550173,4,1,0,100,0,0
168470,-98.9583333333333,4,1,0,100,0,0
168545,-99.3031358885017,4,1,0,100,0,0
168695,-100,4,1,0,100,0,0
168845,-95.2380952380952,4,1,0,100,0,0
168920,-93.0232558139535,4,1,0,100,0,0
168995,-90.9090909090909,4,1,0,100,0,0
169070,-88.8888888888889,4,1,0,100,0,0
169145,-86.9565217391304,4,1,0,100,0,0
169220,-85.1063829787234,4,1,0,100,0,0
169295,-83.3333333333333,4,1,0,100,0,0
169445,-84.3373493975904,4,1,0,100,0,0
169595,-85.3658536585366,4,1,0,100,0,0
169670,-85.8895705521472,4,1,0,100,0,0
169745,-86.4197530864198,4,1,0,100,0,0
169820,-86.9565217391304,4,1,0,100,0,0
169895,-87.5,4,1,0,100,0,0
170045,-88.6075949367089,4,1,0,100,0,0
170120,-89.171974522293,4,1,0,100,0,0
170195,-89.7435897435897,4,1,0,100,0,0
170345,-90.9090909090909,4,1,0,100,0,0
170420,-91.5032679738562,4,1,0,100,0,0
170495,-92.1052631578947,4,1,0,100,0,0
170570,-92.7152317880795,4,1,0,100,0,0
170645,-93.3333333333333,4,1,0,100,0,0
170795,-94.5945945945946,4,1,0,100,0,0
170945,-95.8904109589041,4,1,0,100,0,0
171020,-96.551724137931,4,1,0,100,0,0
171095,-97.2222222222222,4,1,0,100,0,0
171170,-97.9020979020979,4,1,0,100,0,0
171245,-98.5915492957747,4,1,0,100,0,0
171320,-99.290780141844,4,1,0,100,0,0
171395,-100,4,1,0,100,0,0
171545,-100.77519379845,4,1,0,100,0,0
171845,-102.362204724409,4,1,0,100,0,0
172445,-105.691056910569,4,1,0,100,0,0
172595,-106.55737704918,4,1,0,100,0,0
172745,-107.438016528926,4,1,0,100,0,0
173045,-109.243697478992,4,1,0,100,0,0
173345,-111.111111111111,4,1,0,100,0,0
173495,-111.111111111111,4,1,0,100,0,0
173645,-100,4,1,0,100,0,0
173720,-100.294985250737,4,1,0,100,0,0
173795,-100.591715976331,4,1,0,100,0,0
173870,-100.890207715133,4,1,0,100,0,0
174020,-101.492537313433,4,1,0,100,0,0
174095,-101.796407185629,4,1,0,100,0,0
174245,-102.409638554217,4,1,0,100,0,0
174320,-102.719033232628,4,1,0,100,0,0
174395,-103.030303030303,4,1,0,100,0,0
174545,-103.658536585366,4,1,0,100,0,0
174695,-104.294478527607,4,1,0,100,0,0
174845,-104.938271604938,4,1,0,100,0,0
174995,-105.590062111801,4,1,0,100,0,0
175070,-105.919003115265,4,1,0,100,0,0
175145,-106.25,4,1,0,100,0,0
175295,-106.918238993711,4,1,0,100,0,0
175445,-107.594936708861,4,1,0,100,0,0
175520,-107.936507936508,4,1,0,100,0,0
175595,-108.28025477707,4,1,0,100,0,0
175745,-108.974358974359,4,1,0,100,0,0
175895,-109.677419354839,4,1,0,100,0,0
176195,-111.111111111111,4,1,0,100,0,0
176345,-110.236220472441,4,1,0,100,0,0
176495,-109.375,4,1,0,100,0,0
176645,-108.527131782946,4,1,0,100,0,0
176720,-108.108108108108,4,1,0,100,0,0
176795,-107.692307692308,4,1,0,100,0,0
176945,-106.870229007634,4,1,0,100,0,0
177095,-106.060606060606,4,1,0,100,0,0
177245,-105.263157894737,4,1,0,100,0,0
177395,-104.477611940299,4,1,0,100,0,0
177470,-104.089219330855,4,1,0,100,0,0
177545,-103.703703703704,4,1,0,100,0,0
177695,-102.941176470588,4,1,0,100,0,0
177845,-102.189781021898,4,1,0,100,0,0
177920,-101.818181818182,4,1,0,100,0,0
177995,-101.449275362319,4,1,0,100,0,0
178145,-100.719424460432,4,1,0,100,0,0
178295,-100,4,1,0,100,0,0
178525,-100,4,1,0,100,0,0
178745,-100.62893081761,4,1,0,100,0,0
178895,-101.26582278481,4,1,0,100,0,0
179045,-101.910828025478,4,1,0,100,0,0
179120,-102.23642172524,4,1,0,100,0,0
179195,-102.564102564103,4,1,0,100,0,0
179270,-102.893890675241,4,1,0,100,0,0
179345,-103.225806451613,4,1,0,100,0,0
179495,-103.896103896104,4,1,0,100,0,0
179645,-104.575163398693,4,1,0,100,0,0
179795,-105.263157894737,4,1,0,100,0,0
179870,-105.610561056106,4,1,0,100,0,0
179945,-105.960264900662,4,1,0,100,0,0
180020,-106.312292358804,4,1,0,100,0,0
180095,-106.666666666667,4,1,0,100,0,0
180245,-107.382550335571,4,1,0,100,0,0
180320,-107.744107744108,4,1,0,100,0,0
180395,-108.108108108108,4,1,0,100,0,0
180545,-108.843537414966,4,1,0,100,0,0
180695,-109.58904109589,4,1,0,100,0,0
180995,-111.111111111111,4,1,0,100,0,0
181145,-110.236220472441,4,1,0,100,0,0
181295,-109.375,4,1,0,100,0,0
181445,-108.527131782946,4,1,0,100,0,0
181520,-108.108108108108,4,1,0,100,0,0
181595,-107.692307692308,4,1,0,100,0,0
181745,-106.870229007634,4,1,0,100,0,0
181895,-106.060606060606,4,1,0,100,0,0
182045,-105.263157894737,4,1,0,100,0,0
182120,-104.868913857678,4,1,0,100,0,0
182195,-104.477611940299,4,1,0,100,0,0
182270,-104.089219330855,4,1,0,100,0,0
182345,-103.703703703704,4,1,0,100,0,0
182495,-102.941176470588,4,1,0,100,0,0
182645,-102.189781021898,4,1,0,100,0,0
182720,-101.818181818182,4,1,0,100,0,0
182795,-101.449275362319,4,1,0,100,0,0
183095,-111.111111111111,4,1,0,100,0,0
183325,-100,4,1,0,100,0,0
183545,-100.334448160535,4,1,0,100,0,0
183695,-100.671140939597,4,1,0,100,0,0
183845,-101.010101010101,4,1,0,100,0,0
183920,-101.180438448567,4,1,0,100,0,0
183995,-101.351351351351,4,1,0,100,0,0
184145,-101.694915254237,4,1,0,100,0,0
184295,-102.040816326531,4,1,0,100,0,0
184445,-102.389078498294,4,1,0,100,0,0
184595,-102.739726027397,4,1,0,100,0,0
184670,-102.915951972556,4,1,0,100,0,0
184745,-103.092783505155,4,1,0,100,0,0
184895,-103.448275862069,4,1,0,100,0,0
185045,-103.806228373702,4,1,0,100,0,0
185120,-103.986135181976,4,1,0,100,0,0
185195,-104.166666666667,4,1,0,100,0,0
185345,-104.529616724739,4,1,0,100,0,0
185495,-104.895104895105,4,1,0,100,0,0
185645,-105.263157894737,4,1,0,100,0,0
185720,-105.448154657294,4,1,0,100,0,0
185795,-105.633802816901,4,1,0,100,0,0
185870,-105.820105820106,4,1,0,100,0,0
186020,-106.194690265487,4,1,0,100,0,0
186095,-106.382978723404,4,1,0,100,0,0
186245,-106.761565836299,4,1,0,100,0,0
186320,-106.951871657754,4,1,0,100,0,0
186395,-107.142857142857,4,1,0,100,0,0
186545,-107.52688172043,4,1,0,100,0,0
186695,-107.913669064748,4,1,0,100,0,0
186845,-108.303249097473,4,1,0,100,0,0
186995,-108.695652173913,4,1,0,100,0,0
187070,-108.892921960073,4,1,0,100,0,0
187145,-109.090909090909,4,1,0,100,0,0
187295,-109.48905109489,4,1,0,100,0,0
187445,-109.89010989011,4,1,0,100,0,0
187520,-110.091743119266,4,1,0,100,0,0
187595,-110.294117647059,4,1,0,100,0,0
187745,-110.70110701107,4,1,0,100,0,0
187895,-111.111111111111,4,1,0,100,0,0
188195,-111.111111111111,4,1,0,100,0,0
188345,-110.294117647059,4,1,0,100,0,0
188495,-109.48905109489,4,1,0,100,0,0
188645,-108.695652173913,4,1,0,100,0,0
188720,-108.303249097473,4,1,0,100,0,0
188795,-107.913669064748,4,1,0,100,0,0
188870,-107.52688172043,4,1,0,100,0,0
188945,-107.142857142857,4,1,0,100,0,0
189095,-106.382978723404,4,1,0,100,0,0
189245,-105.633802816901,4,1,0,100,0,0
189395,-104.895104895105,4,1,0,100,0,0
189470,-104.529616724739,4,1,0,100,0,0
189545,-104.166666666667,4,1,0,100,0,0
189695,-103.448275862069,4,1,0,100,0,0
189845,-102.739726027397,4,1,0,100,0,0
189920,-102.389078498294,4,1,0,100,0,0
189995,-102.040816326531,4,1,0,100,0,0
190145,-101.351351351351,4,1,0,100,0,0
190295,-100.671140939597,4,1,0,100,0,0
190445,-100,4,1,0,100,0,0
190595,-99.3377483443709,4,1,0,100,0,0
190670,-99.009900990099,4,1,0,100,0,0
190745,-98.6842105263158,4,1,0,100,0,0
190895,-98.0392156862745,4,1,0,100,0,0
191045,-97.4025974025974,4,1,0,100,0,0
191120,-97.0873786407767,4,1,0,100,0,0
191195,-96.7741935483871,4,1,0,100,0,0
191270,-96.4630225080386,4,1,0,100,0,0
191345,-96.1538461538461,4,1,0,100,0,0
191495,-95.5414012738854,4,1,0,100,0,0
191645,-94.9367088607595,4,1,0,100,0,0
191720,-94.6372239747634,4,1,0,100,0,0
191795,-94.3396226415094,4,1,0,100,0,0
191870,-94.0438871473354,4,1,0,100,0,0
191945,-93.75,4,1,0,100,0,0
192095,-93.167701863354,4,1,0,100,0,0
192245,-92.5925925925926,4,1,0,100,0,0
192395,-92.0245398773006,4,1,0,100,0,0
192470,-91.743119266055,4,1,0,100,0,0
192545,-91.4634146341463,4,1,0,100,0,0
192620,-91.1854103343465,4,1,0,100,0,0
192695,-90.9090909090909,4,1,0,100,0,0
192995,-83.3333333333333,4,1,0,100,0,0
193145,-83.8323353293413,4,1,0,100,0,0
193295,-84.3373493975904,4,1,0,100,0,0
193370,-84.5921450151057,4,1,0,100,0,0
193445,-84.8484848484848,4,1,0,100,0,0
193520,-85.1063829787234,4,1,0,100,0,0
193595,-85.3658536585366,4,1,0,100,0,0
193745,-85.8895705521472,4,1,0,100,0,0
193820,-86.1538461538461,4,1,0,100,0,0
193895,-86.4197530864197,4,1,0,100,0,0
193970,-86.687306501548,4,1,0,100,0,0
194045,-86.9565217391304,4,1,0,100,0,0
194195,-87.5,4,1,0,100,0,0
194270,-87.7742946708464,4,1,0,100,0,0
194345,-88.0503144654088,4,1,0,100,0,0
194495,-88.6075949367089,4,1,0,100,0,0
194570,-88.8888888888889,4,1,0,100,0,0
194645,-89.171974522293,4,1,0,100,0,0
194795,-89.7435897435897,4,1,0,100,0,0
194870,-90.032154340836,4,1,0,100,0,0
194945,-90.3225806451613,4,1,0,100,0,0
195095,-90.9090909090909,4,1,0,100,0,0
195245,-86.9565217391304,4,1,0,100,0,0
195395,-83.3333333333333,4,1,0,100,0,0
195545,-83.8323353293413,4,1,0,100,0,0
195695,-84.3373493975904,4,1,0,100,0,0
195770,-84.5921450151057,4,1,0,100,0,0
195845,-84.8484848484848,4,1,0,100,0,0
195920,-85.1063829787234,4,1,0,100,0,0
195995,-85.3658536585366,4,1,0,100,0,0
196145,-85.8895705521472,4,1,0,100,0,0
196220,-86.1538461538461,4,1,0,100,0,0
196295,-86.4197530864197,4,1,0,100,0,0
196370,-86.687306501548,4,1,0,100,0,0
196445,-86.9565217391304,4,1,0,100,0,0
196595,-87.5,4,1,0,100,0,0
196670,-87.7742946708464,4,1,0,100,0,0
196745,-88.0503144654088,4,1,0,100,0,0
196895,-88.6075949367089,4,1,0,100,0,0
196970,-88.8888888888889,4,1,0,100,0,0
197045,-89.171974522293,4,1,0,100,0,0
197195,-89.7435897435897,4,1,0,100,0,0
197270,-90.032154340836,4,1,0,100,0,0
197345,-90.3225806451613,4,1,0,100,0,0
197495,-90.9090909090909,4,1,0,100,0,0
197645,-86.9565217391304,4,1,0,100,0,0
197795,-83.3333333333333,4,1,0,100,0,0
197945,-83.8323353293413,4,1,0,100,0,0
198095,-84.3373493975904,4,1,0,100,0,0
198170,-84.5921450151057,4,1,0,100,0,0
198245,-84.8484848484848,4,1,0,100,0,0
198320,-85.1063829787234,4,1,0,100,0,0
198395,-85.3658536585366,4,1,0,100,0,0
198545,-85.8895705521472,4,1,0,100,0,0
198620,-86.1538461538461,4,1,0,100,0,0
198695,-86.4197530864197,4,1,0,100,0,0
198770,-86.687306501548,4,1,0,100,0,0
198845,-86.9565217391304,4,1,0,100,0,0
198995,-87.5,4,1,0,100,0,0
199070,-87.7742946708464,4,1,0,100,0,0
199145,-88.0503144654088,4,1,0,100,0,0
199295,-88.6075949367089,4,1,0,100,0,0
199370,-88.8888888888889,4,1,0,100,0,0
199445,-89.171974522293,4,1,0,100,0,0
199595,-89.7435897435897,4,1,0,100,0,0
199670,-90.032154340836,4,1,0,100,0,0
199745,-90.3225806451613,4,1,0,100,0,0
199895,-90.9090909090909,4,1,0,100,0,0
200045,-86.9565217391304,4,1,0,100,0,0
200195,-83.3333333333333,4,1,0,100,0,0
200270,-83.9160839160839,4,1,0,100,0,0
200345,-84.5070422535211,4,1,0,100,0,0
200420,-85.1063829787234,4,1,0,100,0,0
200495,-85.7142857142857,4,1,0,100,0,0
200570,-86.3309352517986,4,1,0,100,0,0
200645,-86.9565217391304,4,1,0,100,0,0
200795,-88.2352941176471,4,1,0,100,0,0
200870,-88.8888888888889,4,1,0,100,0,0
200945,-89.5522388059701,4,1,0,100,0,0
201020,-90.2255639097744,4,1,0,100,0,0
201095,-90.9090909090909,4,1,0,100,0,0
201170,-91.6030534351145,4,1,0,100,0,0
201245,-92.3076923076923,4,1,0,100,0,0
201395,-93.75,4,1,0,100,0,0
201470,-94.488188976378,4,1,0,100,0,0
201545,-95.2380952380952,4,1,0,100,0,0
201695,-96.7741935483871,4,1,0,100,0,0
201770,-97.5609756097561,4,1,0,100,0,0
201845,-98.3606557377049,4,1,0,100,0,0
201995,-100,4,1,0,100,0,0
202145,-95.2380952380952,4,1,0,100,0,0
202220,-93.0232558139535,4,1,0,100,0,0
202295,-90.9090909090909,4,1,0,100,0,0
202445,-86.9565217391304,4,1,0,100,0,0
202520,-85.1063829787234,4,1,0,100,0,0
202595,-83.3333333333333,4,1,0,100,0,0
202745,-83.8323353293413,4,1,0,100,0,0
202895,-84.3373493975904,4,1,0,100,0,0
202970,-84.5921450151057,4,1,0,100,0,0
203045,-84.8484848484848,4,1,0,100,0,0
203120,-85.1063829787234,4,1,0,100,0,0
203195,-85.3658536585366,4,1,0,100,0,0
203345,-85.8895705521472,4,1,0,100,0,0
203420,-86.1538461538461,4,1,0,100,0,0
203495,-86.4197530864197,4,1,0,100,0,0
203570,-86.687306501548,4,1,0,100,0,0
203645,-86.9565217391304,4,1,0,100,0,0
203795,-87.5,4,1,0,100,0,0
203870,-87.7742946708464,4,1,0,100,0,0
203945,-88.0503144654088,4,1,0,100,0,0
204095,-88.6075949367089,4,1,0,100,0,0
204170,-88.8888888888889,4,1,0,100,0,0
204245,-89.171974522293,4,1,0,100,0,0
204395,-89.7435897435897,4,1,0,100,0,0
204470,-90.032154340836,4,1,0,100,0,0
204545,-90.3225806451613,4,1,0,100,0,0
204695,-90.9090909090909,4,1,0,100,0,0
204845,-86.9565217391304,4,1,0,100,0,0
204995,-83.3333333333333,4,1,0,100,0,0
205145,-83.8323353293413,4,1,0,100,0,0
205295,-84.3373493975904,4,1,0,100,0,0
205370,-84.5921450151057,4,1,0,100,0,0
205445,-84.8484848484848,4,1,0,100,0,0
205520,-85.1063829787234,4,1,0,100,0,0
205595,-85.3658536585366,4,1,0,100,0,0
205745,-85.8895705521472,4,1,0,100,0,0
205820,-86.1538461538461,4,1,0,100,0,0
205895,-86.4197530864197,4,1,0,100,0,0
205970,-86.687306501548,4,1,0,100,0,0
206045,-86.9565217391304,4,1,0,100,0,0
206195,-87.5,4,1,0,100,0,0
206270,-87.7742946708464,4,1,0,100,0,0
206345,-88.0503144654088,4,1,0,100,0,0
206495,-88.6075949367089,4,1,0,100,0,0
206570,-88.8888888888889,4,1,0,100,0,0
206645,-89.171974522293,4,1,0,100,0,0
206795,-89.7435897435897,4,1,0,100,0,0
206870,-90.032154340836,4,1,0,100,0,0
206945,-90.3225806451613,4,1,0,100,0,0
207095,-90.9090909090909,4,1,0,100,0,0
207245,-86.9565217391304,4,1,0,100,0,0
207395,-83.3333333333333,4,1,0,100,0,0
207545,-83.8323353293413,4,1,0,100,0,0
207695,-84.3373493975904,4,1,0,100,0,0
207770,-84.5921450151057,4,1,0,100,0,0
207845,-84.8484848484848,4,1,0,100,0,0
207920,-85.1063829787234,4,1,0,100,0,0
207995,-85.3658536585366,4,1,0,100,0,0
208145,-85.8895705521472,4,1,0,100,0,0
208220,-86.1538461538461,4,1,0,100,0,0
208295,-86.4197530864197,4,1,0,100,0,0
208370,-86.687306501548,4,1,0,100,0,0
208445,-86.9565217391304,4,1,0,100,0,0
208595,-87.5,4,1,0,100,0,0
208670,-87.7742946708464,4,1,0,100,0,0
208745,-88.0503144654088,4,1,0,100,0,0
208895,-88.6075949367089,4,1,0,100,0,0
208970,-88.8888888888889,4,1,0,100,0,0
209045,-89.171974522293,4,1,0,100,0,0
209195,-89.7435897435897,4,1,0,100,0,0
209270,-90.032154340836,4,1,0,100,0,0
209345,-90.3225806451613,4,1,0,100,0,0
209495,-90.9090909090909,4,1,0,100,0,0
209645,-95.2380952380952,4,1,0,100,0,0
209795,-100,4,1,0,100,0,0
209870,-100.62893081761,4,1,0,100,0,0
209945,-101.26582278481,4,1,0,100,0,0
210020,-101.910828025478,4,1,0,100,0,0
210095,-102.564102564103,4,1,0,100,0,0
210170,-103.225806451613,4,1,0,100,0,0
210245,-103.896103896104,4,1,0,100,0,0
210395,-105.263157894737,4,1,0,100,0,0
210470,-105.960264900662,4,1,0,100,0,0
210545,-106.666666666667,4,1,0,100,0,0
210620,-107.382550335571,4,1,0,100,0,0
210695,-108.108108108108,4,1,0,100,0,0
210770,-108.843537414966,4,1,0,100,0,0
210845,-109.58904109589,4,1,0,100,0,0
210995,-111.111111111111,4,1,0,100,0,0
211070,-108.843537414966,4,1,0,100,0,0
211145,-106.666666666667,4,1,0,100,0,0
211295,-102.564102564103,4,1,0,100,0,0
211370,-100.62893081761,4,1,0,100,0,0
211445,-98.7654320987654,4,1,0,100,0,0
211595,-95.2380952380952,4,1,0,100,0,0
211745,-91.9540229885058,4,1,0,100,0,0
211820,-90.3954802259887,4,1,0,100,0,0
211895,-88.8888888888889,4,1,0,100,0,0
212045,-86.0215053763441,4,1,0,100,0,0
212120,-84.6560846560847,4,1,0,100,0,0
212195,-83.3333333333333,4,1,0,100,0,0
212345,-83.7696335078534,4,1,0,100,0,0
212420,-83.989501312336,4,1,0,100,0,0
212495,-84.2105263157895,4,1,0,100,0,0
212645,-84.6560846560847,4,1,0,100,0,0
212795,-85.1063829787234,4,1,0,100,0,0
212945,-85.5614973262032,4,1,0,100,0,0
213020,-85.7908847184987,4,1,0,100,0,0
213095,-86.0215053763441,4,1,0,100,0,0
213245,-86.4864864864865,4,1,0,100,0,0
213395,-86.9565217391304,4,1,0,100,0,0
213470,-87.1934604904632,4,1,0,100,0,0
213545,-87.431693989071,4,1,0,100,0,0
213620,-87.6712328767123,4,1,0,100,0,0
213695,-87.9120879120879,4,1,0,100,0,0
213845,-88.3977900552486,4,1,0,100,0,0
213995,-88.8888888888889,4,1,0,100,0,0
214070,-89.1364902506964,4,1,0,100,0,0
214145,-89.3854748603352,4,1,0,100,0,0
214220,-89.6358543417367,4,1,0,100,0,0
214295,-89.8876404494382,4,1,0,100,0,0
214445,-90.3954802259887,4,1,0,100,0,0
214595,-90.9090909090909,4,1,0,100,0,0
214745,-91.4285714285714,4,1,0,100,0,0
214820,-91.6905444126075,4,1,0,100,0,0
214895,-91.9540229885058,4,1,0,100,0,0
215045,-92.485549132948,4,1,0,100,0,0
215195,-93.0232558139535,4,1,0,100,0,0
215345,-93.5672514619883,4,1,0,100,0,0
215420,-93.841642228739,4,1,0,100,0,0
215495,-94.1176470588235,4,1,0,100,0,0
215645,-94.6745562130178,4,1,0,100,0,0
215795,-95.2380952380952,4,1,0,100,0,0
215870,-95.5223880597015,4,1,0,100,0,0
215945,-95.8083832335329,4,1,0,100,0,0
216095,-96.3855421686747,4,1,0,100,0,0
216170,-96.6767371601208,4,1,0,100,0,0
216245,-96.969696969697,4,1,0,100,0,0
216395,-97.5609756097561,4,1,0,100,0,0
216545,-98.159509202454,4,1,0,100,0,0
216620,-98.4615384615385,4,1,0,100,0,0
216695,-98.7654320987654,4,1,0,100,0,0
216845,-99.3788819875776,4,1,0,100,0,0
216995,-100,4,1,0,100,0,0
217145,-99.290780141844,4,1,0,100,0,0
217220,-98.9399293286219,4,1,0,100,0,0
217295,-98.5915492957747,4,1,0,100,0,0
217445,-97.9020979020979,4,1,0,100,0,0
217595,-97.2222222222222,4,1,0,100,0,0
217670,-96.8858131487889,4,1,0,100,0,0
217745,-96.551724137931,4,1,0,100,0,0
217895,-95.8904109589041,4,1,0,100,0,0
217970,-95.5631399317406,4,1,0,100,0,0
218045,-95.2380952380952,4,1,0,100,0,0
218195,-94.5945945945946,4,1,0,100,0,0
218270,-94.2760942760943,4,1,0,100,0,0
218345,-93.9597315436242,4,1,0,100,0,0
218420,-93.6454849498328,4,1,0,100,0,0
218495,-93.3333333333333,4,1,0,100,0,0
218645,-92.7152317880795,4,1,0,100,0,0
218795,-92.1052631578947,4,1,0,100,0,0
218870,-91.8032786885246,4,1,0,100,0,0
218945,-91.5032679738562,4,1,0,100,0,0
219020,-91.2052117263844,4,1,0,100,0,0
219095,-90.9090909090909,4,1,0,100,0,0
219245,-90.3225806451613,4,1,0,100,0,0
219395,-89.7435897435897,4,1,0,100,0,0
219545,-89.171974522293,4,1,0,100,0,0
219620,-88.8888888888889,4,1,0,100,0,0
219695,-88.6075949367089,4,1,0,100,0,0
219845,-88.0503144654088,4,1,0,100,0,0
219995,-87.5,4,1,0,100,0,0
220145,-86.9565217391304,4,1,0,100,0,0
220220,-86.687306501548,4,1,0,100,0,0
220295,-86.4197530864198,4,1,0,100,0,0
220445,-85.8895705521472,4,1,0,100,0,0
220595,-85.3658536585366,4,1,0,100,0,0
220745,-84.8484848484848,4,1,0,100,0,0
220820,-84.5921450151057,4,1,0,100,0,0
220895,-84.3373493975904,4,1,0,100,0,0
221045,-83.8323353293413,4,1,0,100,0,0
221195,-83.3333333333333,4,1,0,100,0,0
221495,-90.9090909090909,4,1,0,100,0,0
221645,-95.2380952380952,4,1,0,100,0,0
221720,-97.5609756097561,4,1,0,100,0,0
221795,-100,4,1,0,100,0,0
221945,-99.3788819875776,4,1,0,100,0,0
222095,-98.7654320987654,4,1,0,100,0,0
222245,-98.159509202454,4,1,0,100,0,0
222320,-97.8593272171254,4,1,0,100,0,0
222395,-97.5609756097561,4,1,0,100,0,0
222545,-96.969696969697,4,1,0,100,0,0
222695,-96.3855421686747,4,1,0,100,0,0
222845,-95.8083832335329,4,1,0,100,0,0
222995,-95.2380952380952,4,1,0,100,0,0
223070,-94.9554896142433,4,1,0,100,0,0
223145,-94.6745562130178,4,1,0,100,0,0
223220,-94.3952802359882,4,1,0,100,0,0
223295,-94.1176470588235,4,1,0,100,0,0
223445,-93.5672514619883,4,1,0,100,0,0
223595,-93.0232558139535,4,1,0,100,0,0
223670,-92.7536231884058,4,1,0,100,0,0
223745,-92.485549132948,4,1,0,100,0,0
223820,-92.2190201729107,4,1,0,100,0,0
223895,-91.9540229885058,4,1,0,100,0,0
224045,-91.4285714285714,4,1,0,100,0,0
224195,-90.9090909090909,4,1,0,100,0,0
224345,-90.3954802259887,4,1,0,100,0,0
224420,-90.1408450704225,4,1,0,100,0,0
224495,-89.8876404494382,4,1,0,100,0,0
224645,-89.3854748603352,4,1,0,100,0,0
224795,-88.8888888888889,4,1,0,100,0,0
224945,-88.3977900552486,4,1,0,100,0,0
225020,-88.1542699724518,4,1,0,100,0,0
225095,-87.9120879120879,4,1,0,100,0,0
225245,-87.431693989071,4,1,0,100,0,0
225395,-86.9565217391304,4,1,0,100,0,0
225470,-86.7208672086721,4,1,0,100,0,0
225545,-86.4864864864865,4,1,0,100,0,0
225695,-86.0215053763441,4,1,0,100,0,0
225845,-85.5614973262032,4,1,0,100,0,0
225920,-85.3333333333333,4,1,0,100,0,0
225995,-85.1063829787234,4,1,0,100,0,0
226145,-84.6560846560847,4,1,0,100,0,0
226295,-84.2105263157895,4,1,0,100,0,0
226370,-83.989501312336,4,1,0,100,0,0
226445,-83.7696335078534,4,1,0,100,0,0
226595,-83.3333333333333,4,1,0,100,0,0
226670,-83.1168831168831,4,1,0,100,0,0
226745,-82.9015544041451,4,1,0,100,0,0
226895,-82.4742268041237,4,1,0,100,0,0
227045,-82.0512820512821,4,1,0,100,0,0
227195,-81.6326530612245,4,1,0,100,0,0
227270,-81.4249363867685,4,1,0,100,0,0
227345,-81.2182741116751,4,1,0,100,0,0
227495,-80.8080808080808,4,1,0,100,0,0
227645,-80.4020100502513,4,1,0,100,0,0
227795,-80,4,1,0,100,0,0
227870,-79.8004987531172,4,1,0,100,0,0
227945,-79.6019900497512,4,1,0,100,0,0
228020,-79.4044665012407,4,1,0,100,0,0
228095,-79.2079207920792,4,1,0,100,0,0
228245,-78.8177339901478,4,1,0,100,0,0
228395,-78.4313725490196,4,1,0,100,0,0
228470,-78.239608801956,4,1,0,100,0,0
228545,-78.0487804878049,4,1,0,100,0,0
228620,-77.8588807785888,4,1,0,100,0,0
228695,-77.6699029126214,4,1,0,100,0,0
228845,-77.2946859903382,4,1,0,100,0,0
228995,-76.9230769230769,4,1,0,100,0,0
229150,-91.6666666666667,4,1,0,100,0,0
229595,-93.2203389830509,4,1,0,100,0,0
229895,-94.8275862068965,4,1,0,100,0,0
230195,-96.4912280701754,4,1,0,100,0,0
230345,-97.3451327433628,4,1,0,100,0,0
230495,-98.2142857142857,4,1,0,100,0,0
230645,-99.0990990990991,4,1,0,100,0,0
230720,-99.5475113122172,4,1,0,100,0,0
230795,-100,4,1,0,100,0,0
231095,-90.9090909090909,4,1,0,100,0,0
231245,-86.9565217391304,4,1,0,100,0,0
231320,-85.1063829787234,4,1,0,100,0,0
231395,-83.3333333333333,4,1,0,100,0,0
231545,-83.5820895522388,4,1,0,100,0,0
231620,-83.7070254110613,4,1,0,100,0,0
231695,-83.8323353293413,4,1,0,100,0,0
231845,-84.0840840840841,4,1,0,100,0,0
231995,-84.3373493975904,4,1,0,100,0,0
232070,-84.4645550527903,4,1,0,100,0,0
232145,-84.5921450151057,4,1,0,100,0,0
232220,-84.7201210287443,4,1,0,100,0,0
232295,-84.8484848484848,4,1,0,100,0,0
232445,-85.1063829787234,4,1,0,100,0,0
232595,-85.3658536585366,4,1,0,100,0,0
232670,-85.4961832061069,4,1,0,100,0,0
232745,-85.6269113149847,4,1,0,100,0,0
232895,-85.8895705521472,4,1,0,100,0,0
232970,-86.0215053763441,4,1,0,100,0,0
233045,-86.1538461538462,4,1,0,100,0,0
233195,-86.4197530864198,4,1,0,100,0,0
233270,-86.5533230293663,4,1,0,100,0,0
233345,-86.687306501548,4,1,0,100,0,0
233420,-86.8217054263566,4,1,0,100,0,0
233495,-86.9565217391304,4,1,0,100,0,0
233645,-87.2274143302181,4,1,0,100,0,0
233795,-87.5,4,1,0,100,0,0
233945,-87.7742946708464,4,1,0,100,0,0
234020,-87.9120879120879,4,1,0,100,0,0
234095,-88.0503144654088,4,1,0,100,0,0
234245,-88.3280757097792,4,1,0,100,0,0
234395,-88.6075949367089,4,1,0,100,0,0
234470,-88.7480190174327,4,1,0,100,0,0
234545,-88.8888888888889,4,1,0,100,0,0
234620,-89.0302066772655,4,1,0,100,0,0
234695,-89.171974522293,4,1,0,100,0,0
234845,-89.4568690095847,4,1,0,100,0,0
234995,-89.7435897435897,4,1,0,100,0,0
235145,-90.032154340836,4,1,0,100,0,0
235220,-90.1771336553945,4,1,0,100,0,0
235295,-90.3225806451613,4,1,0,100,0,0
235445,-90.6148867313916,4,1,0,100,0,0
235595,-90.9090909090909,4,1,0,100,0,0
235670,-91.0569105691057,4,1,0,100,0,0
235745,-91.2052117263844,4,1,0,100,0,0
235895,-91.5032679738562,4,1,0,100,0,0
236045,-91.8032786885246,4,1,0,100,0,0
236120,-91.9540229885058,4,1,0,100,0,0
236195,-92.1052631578947,4,1,0,100,0,0
236345,-92.4092409240924,4,1,0,100,0,0
236420,-92.5619834710744,4,1,0,100,0,0
236495,-92.7152317880795,4,1,0,100,0,0
236645,-93.0232558139535,4,1,0,100,0,0
236795,-93.3333333333333,4,1,0,100,0,0
236870,-93.4891485809683,4,1,0,100,0,0
236945,-93.6454849498328,4,1,0,100,0,0
237020,-93.8023450586265,4,1,0,100,0,0
237095,-93.9597315436242,4,1,0,100,0,0
237245,-94.2760942760943,4,1,0,100,0,0
237395,-94.5945945945946,4,1,0,100,0,0
237545,-94.9152542372881,4,1,0,100,0,0
237620,-95.0764006791171,4,1,0,100,0,0
237695,-95.2380952380952,4,1,0,100,0,0
237845,-95.5631399317406,4,1,0,100,0,0
237995,-95.8904109589041,4,1,0,100,0,0
238070,-96.0548885077187,4,1,0,100,0,0
238145,-96.2199312714777,4,1,0,100,0,0
238220,-96.3855421686747,4,1,0,100,0,0
238295,-96.551724137931,4,1,0,100,0,0
238445,-96.8858131487889,4,1,0,100,0,0
238595,-97.2222222222222,4,1,0,100,0,0
238670,-97.3913043478261,4,1,0,100,0,0
238745,-97.5609756097561,4,1,0,100,0,0
238895,-97.9020979020979,4,1,0,100,0,0
238970,-98.0735551663748,4,1,0,100,0,0
239045,-98.2456140350877,4,1,0,100,0,0
239195,-98.5915492957747,4,1,0,100,0,0
239270,-98.7654320987654,4,1,0,100,0,0
239345,-98.9399293286219,4,1,0,100,0,0
239420,-99.1150442477876,4,1,0,100,0,0
239495,-99.290780141844,4,1,0,100,0,0
239645,-99.644128113879,4,1,0,100,0,0
239795,-100,4,1,0,100,0,0
239945,-101.26582278481,4,1,0,100,0,0
240020,-101.910828025478,4,1,0,100,0,0
240095,-102.564102564103,4,1,0,100,0,0
240245,-103.896103896104,4,1,0,100,0,0
240395,-105.263157894737,4,1,0,100,0,0
240470,-105.960264900662,4,1,0,100,0,0
240545,-106.666666666667,4,1,0,100,0,0
240620,-107.382550335571,4,1,0,100,0,0
240695,-108.108108108108,4,1,0,100,0,0
240845,-109.58904109589,4,1,0,100,0,0
240920,-110.344827586207,4,1,0,100,0,0
240995,-111.111111111111,4,1,0,100,0,0
241145,-111.332007952286,4,1,0,100,0,0
241295,-111.553784860558,4,1,0,100,0,0
241445,-111.776447105788,4,1,0,100,0,0
241595,-112,4,1,0,100,0,0
241745,-112.224448897796,4,1,0,100,0,0
241895,-112.449799196787,4,1,0,100,0,0
242045,-112.676056338028,4,1,0,100,0,0
242195,-112.903225806452,4,1,0,100,0,0
242345,-113.131313131313,4,1,0,100,0,0
242495,-113.36032388664,4,1,0,100,0,0
242645,-113.590263691684,4,1,0,100,0,0
242795,-113.821138211382,4,1,0,100,0,0
242945,-114.052953156823,4,1,0,100,0,0
243095,-114.285714285714,4,1,0,100,0,0
243245,-114.519427402863,4,1,0,100,0,0
243395,-114.754098360656,4,1,0,100,0,0
243545,-114.989733059548,4,1,0,100,0,0
243695,-115.22633744856,4,1,0,100,0,0
243845,-115.463917525773,4,1,0,100,0,0
243995,-115.702479338843,4,1,0,100,0,0
244145,-115.942028985507,4,1,0,100,0,0
244295,-116.182572614108,4,1,0,100,0,0
244445,-116.424116424116,4,1,0,100,0,0
244595,-116.666666666667,4,1,0,100,0,0
244745,-116.910229645094,4,1,0,100,0,0
244895,-117.154811715481,4,1,0,100,0,0
245045,-117.400419287212,4,1,0,100,0,0
245195,-117.647058823529,4,1,0,100,0,0
245345,-117.894736842105,4,1,0,100,0,0
245495,-118.143459915612,4,1,0,100,0,0
245645,-118.393234672304,4,1,0,100,0,0
245795,-118.64406779661,4,1,0,100,0,0
245945,-118.895966029724,4,1,0,100,0,0
246095,-119.148936170213,4,1,0,100,0,0
246245,-119.402985074627,4,1,0,100,0,0
246395,-119.65811965812,4,1,0,100,0,0
246545,-119.914346895075,4,1,0,100,0,0
246695,-120.171673819742,4,1,0,100,0,0
246845,-120.430107526882,4,1,0,100,0,0
246995,-120.689655172414,4,1,0,100,0,0
247145,-120.950323974082,4,1,0,100,0,0
247295,-121.212121212121,4,1,0,100,0,0
247445,-121.475054229935,4,1,0,100,0,0
247595,-121.739130434783,4,1,0,100,0,0
247745,-122.004357298475,4,1,0,100,0,0
247895,-122.270742358079,4,1,0,100,0,0
248045,-122.53829321663,4,1,0,100,0,0
248195,-122.80701754386,4,1,0,100,0,0
248345,-123.076923076923,4,1,0,100,0,0
248495,-123.348017621145,4,1,0,100,0,0
248645,-123.620309050773,4,1,0,100,0,0
248795,-123.893805309735,4,1,0,100,0,0
248945,-124.168514412417,4,1,0,100,0,0
249095,-124.444444444444,4,1,0,100,0,0
249245,-124.721603563474,4,1,0,100,0,0
249395,-125,4,1,0,100,0,0
249545,-123.076923076923,4,1,0,100,0,0
249695,-121.212121212121,4,1,0,100,0,0
249845,-119.402985074627,4,1,0,100,0,0
249995,-117.647058823529,4,1,0,100,0,0
250145,-115.942028985507,4,1,0,100,0,0
250295,-114.285714285714,4,1,0,100,0,0
250445,-112.676056338028,4,1,0,100,0,0
250520,-111.888111888112,4,1,0,100,0,0
250595,-111.111111111111,4,1,0,100,0,0
250745,-111.888111888112,4,1,0,100,0,0
250820,-112.280701754386,4,1,0,100,0,0
250895,-112.676056338028,4,1,0,100,0,0
250970,-113.074204946997,4,1,0,100,0,0
251045,-113.475177304965,4,1,0,100,0,0
251195,-114.285714285714,4,1,0,100,0,0
251270,-114.695340501792,4,1,0,100,0,0
251345,-115.107913669065,4,1,0,100,0,0
251420,-115.523465703971,4,1,0,100,0,0
251495,-115.942028985507,4,1,0,100,0,0
251645,-116.788321167883,4,1,0,100,0,0
251720,-117.216117216117,4,1,0,100,0,0
251795,-117.647058823529,4,1,0,100,0,0
251870,-118.081180811808,4,1,0,100,0,0
251945,-118.518518518519,4,1,0,100,0,0
252020,-118.959107806691,4,1,0,100,0,0
252095,-119.402985074627,4,1,0,100,0,0
252245,-120.300751879699,4,1,0,100,0,0
252320,-120.754716981132,4,1,0,100,0,0
252395,-121.212121212121,4,1,0,100,0,0
252470,-121.673003802281,4,1,0,100,0,0
252545,-122.137404580153,4,1,0,100,0,0
252620,-122.605363984674,4,1,0,100,0,0
252695,-123.076923076923,4,1,0,100,0,0
252770,-123.552123552124,4,1,0,100,0,0
252845,-124.031007751938,4,1,0,100,0,0
252920,-124.513618677043,4,1,0,100,0,0
252995,-125,4,1,0,100,0,0
253145,-124.031007751938,4,1,0,100,0,0
253295,-123.076923076923,4,1,0,100,0,0
253370,-122.605363984674,4,1,0,100,0,0
253445,-122.137404580153,4,1,0,100,0,0
253595,-121.212121212121,4,1,0,100,0,0
253670,-120.754716981132,4,1,0,100,0,0
253745,-120.300751879699,4,1,0,100,0,0
253820,-119.850187265918,4,1,0,100,0,0
253895,-119.402985074627,4,1,0,100,0,0
254045,-118.518518518519,4,1,0,100,0,0
254195,-117.647058823529,4,1,0,100,0,0
254270,-117.216117216117,4,1,0,100,0,0
254345,-116.788321167883,4,1,0,100,0,0
254420,-116.363636363636,4,1,0,100,0,0
254495,-115.942028985507,4,1,0,100,0,0
254645,-115.107913669065,4,1,0,100,0,0
254795,-114.285714285714,4,1,0,100,0,0
254945,-113.475177304965,4,1,0,100,0,0
255020,-113.074204946997,4,1,0,100,0,0
255095,-112.676056338028,4,1,0,100,0,0
255170,-112.280701754386,4,1,0,100,0,0
255245,-111.888111888112,4,1,0,100,0,0
255395,-111.111111111111,4,1,0,100,0,0
255545,-110.599078341014,4,1,0,100,0,0
255620,-110.344827586207,4,1,0,100,0,0
255695,-110.091743119266,4,1,0,100,0,0
255770,-109.839816933638,4,1,0,100,0,0
255845,-109.58904109589,4,1,0,100,0,0
255995,-109.090909090909,4,1,0,100,0,0
256070,-108.843537414966,4,1,0,100,0,0
256145,-108.597285067873,4,1,0,100,0,0
256220,-108.352144469526,4,1,0,100,0,0
256295,-108.108108108108,4,1,0,100,0,0
256445,-107.62331838565,4,1,0,100,0,0
256595,-107.142857142857,4,1,0,100,0,0
256670,-106.904231625835,4,1,0,100,0,0
256745,-106.666666666667,4,1,0,100,0,0
256820,-106.430155210643,4,1,0,100,0,0
256895,-106.194690265487,4,1,0,100,0,0
257045,-105.726872246696,4,1,0,100,0,0
257120,-105.494505494506,4,1,0,100,0,0
257195,-105.263157894737,4,1,0,100,0,0
257270,-105.032822757112,4,1,0,100,0,0
257345,-104.803493449782,4,1,0,100,0,0
257495,-104.347826086957,4,1,0,100,0,0
257570,-104.12147505423,4,1,0,100,0,0
257645,-103.896103896104,4,1,0,100,0,0
257720,-103.671706263499,4,1,0,100,0,0
257795,-103.448275862069,4,1,0,100,0,0
257870,-103.225806451613,4,1,0,100,0,0
257945,-103.004291845494,4,1,0,100,0,0
258020,-102.783725910064,4,1,0,100,0,0
258095,-102.564102564103,4,1,0,100,0,0
258245,-102.127659574468,4,1,0,100,0,0
258320,-101.910828025478,4,1,0,100,0,0
258395,-101.694915254237,4,1,0,100,0,0
258470,-101.479915433404,4,1,0,100,0,0
258545,-101.26582278481,4,1,0,100,0,0
258695,-100.840336134454,4,1,0,100,0,0
258770,-100.62893081761,4,1,0,100,0,0
258845,-100.418410041841,4,1,0,100,0,0
258920,-100.208768267223,4,1,0,100,0,0
258995,-100,4,1,0,100,0,0
259145,-98.7654320987654,4,1,0,100,0,0
259220,-98.159509202454,4,1,0,100,0,0
259295,-97.5609756097561,4,1,0,100,0,0
259370,-96.969696969697,4,1,0,100,0,0
259445,-96.3855421686747,4,1,0,100,0,0
259595,-95.2380952380952,4,1,0,100,0,0
259670,-94.6745562130177,4,1,0,100,0,0
259745,-94.1176470588235,4,1,0,100,0,0
259820,-93.5672514619883,4,1,0,100,0,0
259895,-93.0232558139535,4,1,0,100,0,0
260045,-91.9540229885057,4,1,0,100,0,0
260095,-91.6030534351145,4,1,0,100,0,0
260145,-91.254752851711,4,1,0,100,0,0
260195,-90.9090909090909,4,1,0,100,0,0
260345,-91.1680911680912,4,1,0,100,0,0
260420,-91.2981455064194,4,1,0,100,0,0
260495,-91.4285714285714,4,1,0,100,0,0
260645,-91.6905444126074,4,1,0,100,0,0
260795,-91.9540229885057,4,1,0,100,0,0
260870,-92.0863309352518,4,1,0,100,0,0
260945,-92.2190201729107,4,1,0,100,0,0
261020,-92.3520923520923,4,1,0,100,0,0
261095,-92.485549132948,4,1,0,100,0,0
261245,-92.7536231884058,4,1,0,100,0,0
261395,-93.0232558139535,4,1,0,100,0,0
261470,-93.1586608442504,4,1,0,100,0,0
261545,-93.2944606413994,4,1,0,100,0,0
261695,-93.5672514619883,4,1,0,100,0,0
261845,-93.841642228739,4,1,0,100,0,0
261920,-93.9794419970631,4,1,0,100,0,0
261995,-94.1176470588235,4,1,0,100,0,0
262145,-94.3952802359882,4,1,0,100,0,0
262295,-94.6745562130177,4,1,0,100,0,0
262370,-94.8148148148148,4,1,0,100,0,0
262445,-94.9554896142433,4,1,0,100,0,0
262520,-95.0965824665676,4,1,0,100,0,0
262595,-95.2380952380952,4,1,0,100,0,0
262745,-95.5223880597015,4,1,0,100,0,0
262895,-95.8083832335329,4,1,0,100,0,0
263045,-96.0960960960961,4,1,0,100,0,0
263120,-96.2406015037594,4,1,0,100,0,0
263195,-96.3855421686747,4,1,0,100,0,0
263345,-96.6767371601208,4,1,0,100,0,0
263495,-96.969696969697,4,1,0,100,0,0
263645,-97.2644376899696,4,1,0,100,0,0
263720,-97.4124809741248,4,1,0,100,0,0
263795,-97.5609756097561,4,1,0,100,0,0
263945,-97.8593272171254,4,1,0,100,0,0
264095,-98.159509202454,4,1,0,100,0,0
264170,-98.310291858679,4,1,0,100,0,0
264245,-98.4615384615385,4,1,0,100,0,0
264395,-98.7654320987654,4,1,0,100,0,0
264545,-99.0712074303406,4,1,0,100,0,0
264620,-99.2248062015504,4,1,0,100,0,0
264695,-99.3788819875776,4,1,0,100,0,0
264770,-99.5334370139969,4,1,0,100,0,0
264845,-99.6884735202492,4,1,0,100,0,0
264995,-100,4,1,0,100,0,0
265145,-98.9690721649484,4,1,0,100,0,0
265220,-98.4615384615385,4,1,0,100,0,0
265295,-97.9591836734694,4,1,0,100,0,0
265445,-96.969696969697,4,1,0,100,0,0
265595,-96,4,1,0,100,0,0
265670,-95.5223880597015,4,1,0,100,0,0
265745,-95.0495049504951,4,1,0,100,0,0
265820,-94.5812807881773,4,1,0,100,0,0
265895,-94.1176470588235,4,1,0,100,0,0
266045,-93.2038834951456,4,1,0,100,0,0
266195,-92.3076923076923,4,1,0,100,0,0
266270,-91.866028708134,4,1,0,100,0,0
266345,-91.4285714285714,4,1,0,100,0,0
266420,-90.9952606635071,4,1,0,100,0,0
266495,-90.5660377358491,4,1,0,100,0,0
266645,-89.7196261682243,4,1,0,100,0,0
266720,-89.3023255813953,4,1,0,100,0,0
266795,-88.8888888888889,4,1,0,100,0,0
266870,-88.4792626728111,4,1,0,100,0,0
266945,-88.0733944954128,4,1,0,100,0,0
267020,-87.6712328767123,4,1,0,100,0,0
267095,-87.2727272727273,4,1,0,100,0,0
267170,-86.8778280542986,4,1,0,100,0,0
267245,-86.4864864864865,4,1,0,100,0,0
267320,-86.0986547085202,4,1,0,100,0,0
267395,-85.7142857142857,4,1,0,100,0,0
267545,-84.9557522123894,4,1,0,100,0,0
267620,-84.5814977973568,4,1,0,100,0,0
267695,-84.2105263157895,4,1,0,100,0,0
267845,-83.4782608695652,4,1,0,100,0,0
267995,-82.7586206896552,4,1,0,100,0,0
268145,-82.0512820512821,4,1,0,100,0,0
268220,-81.7021276595745,4,1,0,100,0,0
268295,-81.3559322033898,4,1,0,100,0,0
268370,-81.0126582278481,4,1,0,100,0,0
268445,-80.672268907563,4,1,0,100,0,0
268600,240,4,1,0,100,1,0
268600,-99.9999985098839,4,1,0,100,0,0
269315,-100,4,1,0,100,0,0
269560,200,4,1,0,100,1,8
269560,-111.627907781359,4,1,0,100,0,0
269605,-110.028653738607,4,1,0,100,0,0
269655,-108.474576373467,4,1,0,100,0,0
269705,-106.963788080622,4,1,0,100,0,0
269755,-105.494504969357,4,1,0,100,0,0
269805,-104.06503983682,4,1,0,100,0,0
269855,-102.673795704928,4,1,0,100,0,0
269905,-101.319259868866,4,1,0,100,0,0
269960,400,4,1,0,100,1,0
269960,-49.9999992052715,4,1,0,100,0,0
270255,-52.4590163934426,4,1,0,100,0,0
270355,-53.3333333333333,4,1,0,100,0,0
270655,-56.140350877193,4,1,0,100,0,0
270755,-57.1428571428571,4,1,0,100,0,0
271055,-60.377358490566,4,1,0,100,0,0
271155,-61.5384615384615,4,1,0,100,0,0
271455,-65.3061224489796,4,1,0,100,0,0
271555,-66.6666666666667,4,1,0,100,0,0
271855,-68.8172043010753,4,1,0,100,0,0
272155,-71.1111111111111,4,1,0,100,0,0
272355,-72.7272727272727,4,1,0,100,0,0
272655,-75.2941176470588,4,1,0,100,0,0
272955,-78.0487804878049,4,1,0,100,0,0
273155,-66.6666666666667,4,1,0,100,0,0
273555,-62.0689655172414,4,1,0,100,0,0
273955,-58.0645161290323,4,1,0,100,0,0
274155,-56.25,4,1,0,100,0,0
274355,-54.5454545454545,4,1,0,100,0,0
274755,-51.4285714285714,4,1,0,100,0,0
274855,-50.7042253521127,4,1,0,100,0,0
274955,-50,4,1,0,100,0,0
275155,-56.2594530143076,4,1,0,100,0,0
275205,-58.0327651033988,4,1,0,100,0,0
275255,-59.8902473589961,4,1,0,100,0,0
275305,-61.8308140788018,4,1,0,100,0,0
275355,-63.8522199773688,4,1,0,100,0,0
275455,-68.1213794935109,4,1,0,100,0,0
275555,-72.6474821145766,4,1,0,100,0,0
275955,-90.9892332250341,4,1,0,100,0,0
276155,-97.55411466997,4,1,0,100,0,0
276255,-99.3751499155038,4,1,0,100,0,0
276355,-50,4,1,0,100,0,0
276755,-54.054054054054,4,1,0,100,0,0
277155,-58.8235294117647,4,1,0,100,0,0
277555,-66.6666666666667,4,1,0,100,0,0
277605,-64,4,1,0,100,0,0
277655,-61.5384615384615,4,1,0,100,0,0
277705,-59.2592592592593,4,1,0,100,0,0
277755,-57.1428571428571,4,1,0,100,0,0
277855,-53.3333333333333,4,1,0,100,0,0
277955,-50,4,1,0,100,0,0
278255,-54.054054054054,4,1,0,100,0,0
278555,-58.8235294117647,4,1,0,100,0,0
278660,-50,4,1,0,100,0,0
278860,-66.6666666666667,4,1,0,100,0,0
279555,-66.6666666666667,4,1,0,100,0,0
279755,-69.5652173913043,4,1,0,100,0,0
279855,-71.1111111111111,4,1,0,100,0,0
279955,-72.7272727272727,4,1,0,100,0,0
280155,-76.1904761904762,4,1,0,100,0,0
280355,-80,4,1,0,100,0,0
280555,-84.2105263157895,4,1,0,100,0,0
280755,-88.8888888888889,4,1,0,100,0,0
280855,-91.4285714285714,4,1,0,100,0,0
280955,-66.6666666666667,4,1,0,100,0,0
281155,-100,4,1,0,100,0,0
281555,-92.9263990614033,4,1,0,100,0,0
281755,-85.5775776589313,4,1,0,100,0,0
281955,-77.3459080339014,4,1,0,100,0,0
282155,-69.231472714005,4,1,0,100,0,0
282755,-50,4,1,0,100,0,0
283155,-53.3333333333333,4,1,0,100,0,0
283355,-55.1724137931034,4,1,0,100,0,0
283555,-57.1428571428571,4,1,0,100,0,0
283955,-61.5384615384615,4,1,0,100,0,0
284155,-64,4,1,0,100,0,0
284355,-66.6666666666667,4,1,0,100,0,0
284655,-68.8172043010753,4,1,0,100,0,0
284755,-69.5652173913043,4,1,0,100,0,0
284955,-71.1111111111111,4,1,0,100,0,0
285155,-72.7272727272727,4,1,0,100,0,0
285355,-74.4186046511628,4,1,0,100,0,0
285455,-75.2941176470588,4,1,0,100,0,0
285555,-76.1904761904762,4,1,0,100,0,0
285755,-78.0487804878049,4,1,0,100,0,0
285955,-66.6666666666667,4,1,0,100,0,0
286355,-62.0689655172414,4,1,0,100,0,0
286755,-58.0645161290323,4,1,0,100,0,0
286955,-56.25,4,1,0,100,0,0
287155,-54.5454545454545,4,1,0,100,0,0
287555,-51.4285714285714,4,1,0,100,0,0
287655,-50.7042253521127,4,1,0,100,0,0
287755,-50,4,1,0,100,0,0
287955,-55.5638543431974,4,1,0,100,0,0
288005,-57.1151794624777,4,1,0,100,0,0
288055,-58.7285672448148,4,1,0,100,0,0
288105,-60.4016135586576,4,1,0,100,0,0
288155,-62.1309176986537,4,1,0,100,0,0
288255,-65.7388231692957,4,1,0,100,0,0
288355,-69.4995045423854,4,1,0,100,0,0
288555,-77.1395622343924,4,1,0,100,0,0
288755,-84.0952348373128,4,1,0,100,0,0
288955,-89.0817108814617,4,1,0,100,0,0
289055,-90.4437977680535,4,1,0,100,0,0
289155,-50,4,1,0,100,0,0
289555,-54.054054054054,4,1,0,100,0,0
289955,-58.8235294117647,4,1,0,100,0,0
290355,-66.6666666666667,4,1,0,100,0,0
290405,-64,4,1,0,100,0,0
290455,-61.5384615384615,4,1,0,100,0,0
290505,-59.2592592592593,4,1,0,100,0,0
290555,-57.1428571428571,4,1,0,100,0,0
290655,-53.3333333333333,4,1,0,100,0,0
290755,-50,4,1,0,100,0,0
291055,-54.054054054054,4,1,0,100,0,0
291355,-58.8235294117647,4,1,0,100,0,0
291460,-50,4,1,0,100,0,0
291660,-66.6666666666667,4,1,0,100,0,0
292355,-66.6666666666667,4,1,0,100,0,0
292555,-69.5652173913043,4,1,0,100,0,0
292655,-71.1111111111111,4,1,0,100,0,0
292755,-72.7272727272727,4,1,0,100,0,0
292955,-76.1904761904762,4,1,0,100,0,0
293155,-80,4,1,0,100,0,0
293355,-84.2105263157895,4,1,0,100,0,0
293555,-88.8888888888889,4,1,0,100,0,0
293655,-91.4285714285714,4,1,0,100,0,0
293755,-66.6666666666667,4,1,0,100,0,0
293955,-100,4,1,0,100,0,0
294355,-92.9263990614033,4,1,0,100,0,0
294555,-85.5775776589313,4,1,0,100,0,0
294755,-77.3459080339014,4,1,0,100,0,0
294855,-73.2275250555983,4,1,0,100,0,0
294955,-69.231472714005,4,1,0,100,0,0
295155,-61.8308140788018,4,1,0,100,0,0
295255,-58.4892693360293,4,1,0,100,0,0
295355,-55.4044344821191,4,1,0,100,0,0
295455,-52.5767093491722,4,1,0,100,0,0
295555,-50,4,1,0,100,0,0
297060,-100,4,1,0,100,0,0
298760,600,4,1,0,100,1,0
298760,-100,4,1,0,100,0,0
299055,-99.1669972233241,4,1,0,100,0,0
299355,-98.3477576711251,4,1,0,100,0,0
299655,-97.5419430355053,4,1,0,100,0,0
299805,-97.143967359627,4,1,0,100,0,0
299955,-96.7492260061919,4,1,0,100,0,0
300105,-96.3576797070726,4,1,0,100,0,0
300255,-95.9692898272553,4,1,0,100,0,0
300555,-95.2018278750952,4,1,0,100,0,0
300705,-94.8226815854352,4,1,0,100,0,0
300855,-94.4465432565168,4,1,0,100,0,0
301005,-94.0733772342427,4,1,0,100,0,0
301155,-93.7031484257871,4,1,0,100,0,0
301455,-92.9713648196355,4,1,0,100,0,0
301605,-92.6097425449157,4,1,0,100,0,0
301755,-92.2509225092251,4,1,0,100,0,0
301905,-91.8948722661275,4,1,0,100,0,0
302055,-91.5415598681801,4,1,0,100,0,0
302355,-90.8430232558139,4,1,0,100,0,0
302655,-90.1550667147494,4,1,0,100,0,0
302955,-89.4774516821761,4,1,0,100,0,0
303105,-89.142449634516,4,1,0,100,0,0
303255,-88.809946714032,4,1,0,100,0,0
303355,-88.5896527285613,4,1,0,100,0,0
303455,-88.3704489218805,4,1,0,100,0,0
303555,-88.1523272214386,4,1,0,100,0,0
303855,-87.5043752187609,4,1,0,100,0,0
304155,-86.8658790826963,4,1,0,100,0,0
304455,-86.2366333218351,4,1,0,100,0,0
304605,-85.9254167382712,4,1,0,100,0,0
304755,-85.6164383561644,4,1,0,100,0,0
304905,-85.3096741170449,4,1,0,100,0,0
305055,-85.0051003060183,4,1,0,100,0,0
305505,-84.1042893187552,4,1,0,100,0,0
305655,-83.8082467314784,4,1,0,100,0,0
305805,-83.5142809420411,4,1,0,100,0,0
305955,-83.2223701731025,4,1,0,100,0,0
306005,-82.1192,4,1,0,100,0,0
306055,-81.04575,4,1,0,100,0,0
306105,-80,4,1,0,100,0,0
306255,-77.01863,4,1,0,100,0,0
306405,-74.25149,4,1,0,100,0,0
306705,-69.3512304250559,4,1,0,100,0,0
306870,200,4,1,0,100,1,8
306870,-199.999994039536,4,1,0,100,0,0
307562,240,4,1,0,100,1,8
307562,-142.857142857143,4,1,0,100,0,0
308050,200,4,1,0,100,1,8
308050,-142.857142857143,4,1,0,100,0,0
308360,967.741935483871,4,1,0,100,1,0
308360,-25,4,1,0,100,0,0
308838,-26.1162804839625,4,1,0,100,0,0
309322,-27.3395522496272,4,1,0,100,0,0
309806,-28.6830500457896,4,1,0,100,0,0
310048,-29.4055620205433,4,1,0,100,0,0
310290,-30.1654140173191,4,1,0,100,0,0
310532,-30.9655774643278,4,1,0,100,0,0
310774,-31.8093476594141,4,1,0,100,0,0
311258,-33.6427888434782,4,1,0,100,0,0
311500,-34.6411188734536,4,1,0,100,0,0
311742,-35.7005105895453,4,1,0,100,0,0
311984,-36.8267428706183,4,1,0,100,0,0
312225,-38.0212297393789,4,1,0,100,0,0
312709,-40.6704976290921,4,1,0,100,0,0
312951,-42.1385771756353,4,1,0,100,0,0
313193,-43.7166120596499,4,1,0,100,0,0
313435,-45.4174359378185,4,1,0,100,0,0
313677,-47.2559605227812,4,1,0,100,0,0
314161,-51.4188948861009,4,1,0,100,0,0
314648,545.454545454545,4,1,0,100,1,8
314648,-100.000001492738,4,1,0,100,0,0
315193,521.739130434783,4,1,0,100,1,8
315193,-100,4,1,0,100,0,0
315714,428.571428571429,4,1,0,100,1,8
315714,-118.882790631442,4,1,0,100,0,0
316142,375,4,1,0,100,1,8
316142,-133.296809247076,4,1,0,100,0,0
316517,333.333333333333,4,1,0,100,1,8
316517,-147.514819306954,4,1,0,100,0,0
316850,324.324324324325,4,1,0,100,1,8
316850,-149.449479339036,4,1,0,100,0,0
317169,-147.403385444169,4,1,0,100,0,0
317498,285.714285714286,4,1,0,100,1,8
317498,-165.062903940089,4,1,0,100,0,0
317766,272.727272727273,4,1,0,100,1,8
317766,-171.012564429782,4,1,0,100,0,0
318006,260.869565217391,4,1,0,100,1,8
318006,-177.034297905024,4,1,0,100,0,0
318177,240,4,1,0,100,1,8
318177,-191.094676807644,4,1,0,100,0,0
318327,120,3,1,0,100,1,8
318327,-379.879438307012,3,1,0,100,0,0
318442,-378.051513025486,3,1,0,100,0,0
318562,-376.241094929587,3,1,0,100,0,0
318687,92.3076923076923,4,1,0,100,1,8
318687,-486.782310658994,4,1,0,100,0,0
318774,-485.010119801404,4,1,0,100,0,0
318866,-483.250785893963,4,1,0,100,0,0
318958,-481.504169529804,4,1,0,100,0,0
319056,70.5882352941177,6,1,0,100,1,8
319056,-627.36713858476,4,1,0,100,0,0
319121,-625.652846775602,4,1,0,100,0,0
319192,-623.923609010469,4,1,0,100,0,0
319262,-622.228059134333,4,1,0,100,0,0
319333,-620.517675172989,4,1,0,100,0,0
319403,-618.840561549953,4,1,0,100,0,0
319479,42.8571428571429,8,1,0,100,1,8
319479,-1016.48027223904,4,1,0,100,0,0
319516,-1014.83904840905,4,1,0,100,0,0
319559,-1013.16422943145,4,1,0,100,0,0
319602,-1011.49492935271,4,1,0,100,0,0
319645,-1009.8311209387,4,1,0,100,0,0
319688,-1008.1727771342,4,1,0,100,0,0
319731,-1006.51987106142,4,1,0,100,0,0
319774,-1004.87237601855,4,1,0,100,0,0
319816,-1003.26839313864,4,1,0,100,0,0
319859,-1001.63151643679,4,1,0,100,0,0
319902,-999.999972307905,4,1,0,100,0,0
319929,129.032258064516,4,1,0,100,1,8
319929,-100,4,1,0,100,0,0
320445,111.111111111111,4,1,0,100,1,8
320889,100,4,1,0,100,1,8
320889,-500,4,1,0,100,0,0
320934,-494.252799569311,4,1,0,100,0,0
320989,130.434782608696,4,1,0,100,1,8
320989,-374.621087830334,4,1,0,100,0,0
321054,200,4,1,0,100,1,8
321054,-240.761362281662,4,1,0,100,0,0
321154,230.769230769231,4,1,0,100,1,8
321154,-204.088930920336,4,1,0,100,0,0
321269,250,4,1,0,100,1,8
321269,-183.760489423475,4,1,0,100,0,0
321394,285.714285714286,4,1,0,100,1,8
321394,-156.607482202155,4,1,0,100,0,0
321544,300,4,1,0,100,1,8
321544,-144.634799750971,4,1,0,100,0,0
321844,342.857142857144,4,1,0,100,1,8
321844,-119.330512427464,4,1,0,100,0,0
322184,384.270526450621,4,1,0,100,1,8
322184,-99.9999968038794,4,1,0,100,0,0
323721,299.999999999999,4,1,0,100,1,8
323721,-66.6666666666667,4,1,0,100,0,0
323866,-72.7272727272727,4,1,0,100,0,0
324016,-80,4,1,0,100,0,0
324091,-84.2105263157895,4,1,0,100,0,0
324166,-88.8888888888889,4,1,0,100,0,0
324241,-94.1176470588235,4,1,0,100,0,0
324321,299.999999999999,4,1,0,100,1,0
324321,-100,4,1,0,100,0,0
324616,-100.628996750183,4,1,0,100,0,0
324766,-100.946471763592,4,1,0,100,0,0
324916,-101.265956324507,4,1,0,100,0,0
325216,-101.911030894999,4,1,0,100,0,0
325516,-102.564376535955,4,1,0,100,0,0
325816,-103.226153349823,4,1,0,100,0,0
325966,-103.560254612148,4,1,0,100,0,0
326116,-103.896525598008,4,1,0,100,0,0
326416,-104.575661836801,4,1,0,100,0,0
326716,-105.263735058669,4,1,0,100,0,0
327016,-105.960922839166,4,1,0,100,0,0
327166,-106.312991471924,4,1,0,100,0,0
327316,-106.667407489721,4,1,0,100,0,0
327616,-107.383376216579,4,1,0,100,0,0
327916,-108.109021286181,4,1,0,100,0,0
328216,-108.844540197301,4,1,0,100,0,0
328366,-109.216065536466,4,1,0,100,0,0
328516,-109.590135860258,4,1,0,100,0,0
328816,-110.346016783538,4,1,0,100,0,0
328966,-110.727880955128,4,1,0,100,0,0
329116,-111.112397268202,4,1,0,100,0,0
329416,-111.889497610444,4,1,0,100,0,0
329566,-112.282138261785,4,1,0,100,0,0
329716,-112.677544312713,4,1,0,100,0,0
330016,-113.476770303818,4,1,0,100,0,0
330166,-113.880650136434,4,1,0,100,0,0
330316,-114.287415168472,4,1,0,100,0,0
330616,-115.109725386737,4,1,0,100,0,0
330766,-115.525333975208,4,1,0,100,0,0
330916,-115.943954583887,4,1,0,100,0,0
331216,-116.790363791215,4,1,0,100,0,0
331366,-117.218219562828,4,1,0,100,0,0
331516,-117.649221718348,4,1,0,100,0,0
331816,-118.520805037659,4,1,0,100,0,0
331966,-118.961457429669,4,1,0,100,0,0
332116,-119.405398681428,4,1,0,100,0,0
332416,-120.3032961524,4,1,0,100,0,0
332566,-120.757327965782,4,1,0,100,0,0
332716,-121.214799848466,4,1,0,100,0,0
333016,-122.140221402214,4,1,0,100,0,0
333165,-122.605119296991,4,1,0,100,0,0
333315,-123.076725818033,4,1,0,100,0,0
333615,-124.030907587348,4,1,0,100,0,0
333765,-124.513568204224,4,1,0,100,0,0
342315,-125,4,1,0,100,0,0
342615,-121.212121212121,4,1,0,100,0,0
342765,-119.402985074627,4,1,0,100,0,0
342915,-117.647058823529,4,1,0,100,0,0
343215,-114.285714285714,4,1,0,100,0,0
343515,-111.111111111111,4,1,0,100,0,0
351915,-111.111111111111,4,1,0,100,0,0
352065,-109.58904109589,4,1,0,100,0,0
352215,-108.108108108108,4,1,0,100,0,0
352365,-106.666666666667,4,1,0,100,0,0
352440,-105.960264900662,4,1,0,100,0,0
352515,-105.263157894737,4,1,0,100,0,0
352590,-104.575163398693,4,1,0,100,0,0
352815,-102.564102564103,4,1,0,100,0,0
352890,-101.910828025478,4,1,0,100,0,0
352965,-101.26582278481,4,1,0,100,0,0
353045,-100,4,1,0,100,0,0
360315,-100,4,1,0,100,0,0
360615,-102.564102564103,4,1,0,100,0,0
360765,-103.896103896104,4,1,0,100,0,0
360915,-105.263157894737,4,1,0,100,0,0
361215,-108.108108108108,4,1,0,100,0,0
361365,-109.58904109589,4,1,0,100,0,0
361515,-111.111111111111,4,1,0,100,0,0
361815,-114.285714285714,4,1,0,100,0,0
361965,-115.942028985507,4,1,0,100,0,0
362115,-117.647058823529,4,1,0,100,0,0
362415,-121.212121212121,4,1,0,100,0,0
362565,-123.076923076923,4,1,0,100,0,0
362640,-124.031007751938,4,1,0,100,0,0
362715,-125,4,1,0,100,0,0
362758,-50,4,1,0,100,0,0
363658,-56.0164480711391,4,1,0,100,0,0
365115,-64.2515935022895,4,1,0,100,0,0
366315,-74.3478661213274,4,1,0,100,0,0
367515,-86.2480296809795,4,1,0,100,0,0
368715,-99.3109250256813,4,1,0,100,0,0
369915,-111.918834120648,4,1,0,100,0,0
371115,-121.416926220039,4,1,0,100,0,0
372283,-125,4,1,0,100,0,0
381615,-125,4,1,0,100,0,0
381715,-123.417721518987,4,1,0,100,0,0
381815,-121.875,4,1,0,100,0,0
381915,-120.37037037037,4,1,0,100,0,0
381990,-119.266055045872,4,1,0,100,0,0
382065,-118.181818181818,4,1,0,100,0,0
382140,-117.117117117117,4,1,0,100,0,0
382215,-116.071428571429,4,1,0,100,0,0
382290,-115.044247787611,4,1,0,100,0,0
382365,-114.035087719298,4,1,0,100,0,0
382440,-113.04347826087,4,1,0,100,0,0
382515,-112.068965517241,4,1,0,100,0,0
382590,-111.111111111111,4,1,0,100,0,0
382665,-110.169491525424,4,1,0,100,0,0
382740,-109.243697478992,4,1,0,100,0,0
382815,-108.333333333333,4,1,0,100,0,0
382890,-107.438016528926,4,1,0,100,0,0
382965,-106.55737704918,4,1,0,100,0,0
383040,-105.691056910569,4,1,0,100,0,0
383115,-104.838709677419,4,1,0,100,0,0
383190,-104,4,1,0,100,0,0
383265,-103.174603174603,4,1,0,100,0,0
383340,-102.362204724409,4,1,0,100,0,0
383415,-101.5625,4,1,0,100,0,0
383490,-100.77519379845,4,1,0,100,0,0
383565,-100,4,1,0,100,0,0
383640,-99.236641221374,4,1,0,100,0,0
383715,-98.4848484848485,4,1,0,100,0,0
383790,-97.7443609022557,4,1,0,100,0,0
383865,-97.0149253731343,4,1,0,100,0,0
383940,-96.2962962962963,4,1,0,100,0,0
384015,-95.5882352941176,4,1,0,100,0,0
384090,-94.8905109489051,4,1,0,100,0,0
384165,-94.2028985507246,4,1,0,100,0,0
384240,-93.5251798561151,4,1,0,100,0,0
384315,-92.8571428571429,4,1,0,100,0,0
384390,-92.1985815602837,4,1,0,100,0,0
384465,-91.5492957746479,4,1,0,100,0,0
384540,-90.9090909090909,4,1,0,100,0,0
384615,-90.2777777777778,4,1,0,100,0,0
384690,-89.6551724137931,4,1,0,100,0,0
384765,-89.041095890411,4,1,0,100,0,0
384840,-88.4353741496599,4,1,0,100,0,0
384915,-87.8378378378378,4,1,0,100,0,0
384990,-87.248322147651,4,1,0,100,0,0
385065,-86.6666666666667,4,1,0,100,0,0
385140,-86.0927152317881,4,1,0,100,0,0
385215,-85.5263157894737,4,1,0,100,0,0
385290,-84.9673202614379,4,1,0,100,0,0
385365,-84.4155844155844,4,1,0,100,0,0
385440,-83.8709677419355,4,1,0,100,0,0
385515,-83.3333333333333,4,1,0,100,0,0
386115,-95.2380952380952,4,1,0,100,0,0
386415,-90.9090909090909,4,1,0,100,0,0
386465,-90.2255639097744,4,1,0,100,0,0
386515,-89.5522388059701,4,1,0,100,0,0
386565,-88.8888888888889,4,1,0,100,0,0
386640,-87.9120879120879,4,1,0,100,0,0
386715,-86.9565217391304,4,1,0,100,0,0
386790,-87.0466321243523,4,1,0,100,0,0
387015,-87.3180873180873,4,1,0,100,0,0
387090,-87.4089490114464,4,1,0,100,0,0
387315,-87.6826722338205,4,1,0,100,0,0
387390,-87.7742946708464,4,1,0,100,0,0
387465,-87.8661087866109,4,1,0,100,0,0
387540,-87.9581151832461,4,1,0,100,0,0
387690,-88.1427072402938,4,1,0,100,0,0
387840,-88.3280757097792,4,1,0,100,0,0
387915,-88.4210526315789,4,1,0,100,0,0
387990,-88.5142255005269,4,1,0,100,0,0
388065,-88.6075949367089,4,1,0,100,0,0
388140,-88.70116156283,4,1,0,100,0,0
388290,-88.8888888888889,4,1,0,100,0,0
388440,-89.0774125132556,4,1,0,100,0,0
388515,-89.171974522293,4,1,0,100,0,0
388590,-89.2667375132837,4,1,0,100,0,0
388665,-89.3617021276596,4,1,0,100,0,0
388740,-89.4568690095847,4,1,0,100,0,0
388815,-89.5522388059701,4,1,0,100,0,0
388890,-89.6478121664888,4,1,0,100,0,0
388965,-89.7435897435897,4,1,0,100,0,0
389040,-89.8395721925134,4,1,0,100,0,0
389115,-89.9357601713062,4,1,0,100,0,0
389190,-90.032154340836,4,1,0,100,0,0
389415,-90.3225806451613,4,1,0,100,0,0
389490,-90.4198062432723,4,1,0,100,0,0
389715,-90.7127429805616,4,1,0,100,0,0
389790,-90.8108108108108,4,1,0,100,0,0
389865,-90.9090909090909,4,1,0,100,0,0
389940,-91.0075839653305,4,1,0,100,0,0
390090,-91.2052117263844,4,1,0,100,0,0
390240,-91.4036996735582,4,1,0,100,0,0
390315,-91.5032679738562,4,1,0,100,0,0
390390,-91.6030534351145,4,1,0,100,0,0
390465,-91.703056768559,4,1,0,100,0,0
390540,-91.8032786885246,4,1,0,100,0,0
390690,-92.0043811610077,4,1,0,100,0,0
390840,-92.2063666300768,4,1,0,100,0,0
390915,-92.3076923076923,4,1,0,100,0,0
391065,-92.511013215859,4,1,0,100,0,0
391115,-92.5789860396767,4,1,0,100,0,0
391165,-92.6470588235294,4,1,0,100,0,0
391215,-92.7152317880795,4,1,0,100,0,0
391365,-92.9203539823009,4,1,0,100,0,0
391440,-93.0232558139535,4,1,0,100,0,0
391515,-93.1263858093126,4,1,0,100,0,0
391590,-93.2297447280799,4,1,0,100,0,0
391815,-93.5412026726058,4,1,0,100,0,0
391890,-93.6454849498328,4,1,0,100,0,0
392115,-93.9597315436242,4,1,0,100,0,0
392190,-94.0649496080627,4,1,0,100,0,0
392265,-94.1704035874439,4,1,0,100,0,0
392340,-94.2760942760943,4,1,0,100,0,0
392490,-94.488188976378,4,1,0,100,0,0
392640,-94.7012401352875,4,1,0,100,0,0
392715,-94.8081264108352,4,1,0,100,0,0
392790,-94.9152542372881,4,1,0,100,0,0
392865,-95.0226244343891,4,1,0,100,0,0
392940,-95.1302378255946,4,1,0,100,0,0
393090,-95.3461975028377,4,1,0,100,0,0
393240,-95.5631399317406,4,1,0,100,0,0
393315,-95.6719817767654,4,1,0,100,0,0
393390,-95.7810718358039,4,1,0,100,0,0
393465,-95.8904109589041,4,1,0,100,0,0
393540,-96,4,1,0,100,0,0
393615,-96.1098398169336,4,1,0,100,0,0
393690,-96.2199312714777,4,1,0,100,0,0
393765,-96.3302752293578,4,1,0,100,0,0
393840,-96.4408725602756,4,1,0,100,0,0
393915,-96.551724137931,4,1,0,100,0,0
393990,-96.662830840046,4,1,0,100,0,0
394215,-96.9976905311778,4,1,0,100,0,0
394290,-97.1098265895954,4,1,0,100,0,0
394515,-97.4477958236659,4,1,0,100,0,0
394590,-97.5609756097561,4,1,0,100,0,0
394665,-97.6744186046512,4,1,0,100,0,0
394740,-97.7881257275902,4,1,0,100,0,0
394890,-98.0163360560093,4,1,0,100,0,0
395040,-98.2456140350877,4,1,0,100,0,0
395115,-98.3606557377049,4,1,0,100,0,0
395190,-98.4759671746776,4,1,0,100,0,0
395265,-98.5915492957747,4,1,0,100,0,0
395340,-98.7074030552292,4,1,0,100,0,0
395490,-98.9399293286219,4,1,0,100,0,0
395640,-99.1735537190083,4,1,0,100,0,0
395715,-99.290780141844,4,1,0,100,0,0
395865,-99.5260663507109,4,1,0,100,0,0
395915,-99.604743083004,4,1,0,100,0,0
395965,-99.6835443037975,4,1,0,100,0,0
396015,-99.7624703087886,4,1,0,100,0,0
396165,-100,4,1,0,100,0,0
403665,-100,4,1,0,100,0,0
403815,-99.326750448833,4,1,0,100,0,0
403890,-98.993513755312,4,1,0,100,0,0
403965,-98.6625055728934,4,1,0,100,0,0
404115,-98.0070859167405,4,1,0,100,0,0
404190,-97.6826307658354,4,1,0,100,0,0
404265,-97.3603167619886,4,1,0,100,0,0
404340,-97.0401227800921,4,1,0,100,0,0
404490,-96.4060117621433,4,1,0,100,0,0
404640,-95.7801341700931,4,1,0,100,0,0
404715,-95.4702329594478,4,1,0,100,0,0
404790,-95.1623306815738,4,1,0,100,0,0
404865,-94.856408058294,4,1,0,100,0,0
404940,-94.5524460585345,4,1,0,100,0,0
405090,-93.9503290171938,4,1,0,100,0,0
405240,-93.3558321029319,4,1,0,100,0,0
405315,-93.0613961312027,4,1,0,100,0,0
405465,-92.4780610112829,4,1,0,100,0,0
405515,-92.2852376980817,4,1,0,100,0,0
405565,-92.0932168123179,4,1,0,100,0,0
405615,-91.9019933554817,4,1,0,100,0,0
405765,-91.3330581923236,4,1,0,100,0,0
405840,-91.0512240279778,4,1,0,100,0,0
405883,-100,4,1,0,100,0,0
407083,-105.263157894737,4,1,0,100,0,0
408283,-111.111111111111,4,1,0,100,0,0
409483,-117.647058823529,4,1,0,100,0,0
410083,-50,4,1,0,100,0,0
410158,-125,4,1,0,100,0,0
410683,-111.111111111111,4,1,0,100,0,0
421483,-125,4,1,0,100,0,0
422683,-111.111111111111,4,1,0,100,0,0
423883,-100,4,1,0,100,0,0
425083,-142.857142857143,4,1,0,50,0,0
425120,-142.857142857143,4,1,0,70,0,0
425415,-144.144144144144,4,1,0,69,0,0
425715,-145.454545454545,4,1,0,68,0,0
425865,-146.118721461187,4,1,0,67,0,0
425940,-146.453089244851,4,1,0,67,0,0
426015,-146.788990825688,4,1,0,66,0,0
426090,-147.126436781609,4,1,0,66,0,0
426165,-147.465437788018,4,1,0,66,0,0
426240,-147.806004618938,4,1,0,65,0,0
426315,-148.148148148148,4,1,0,65,0,0
426390,-148.491879350348,4,1,0,65,0,0
426615,-149.532710280374,4,1,0,64,0,0
426765,-150.234741784038,4,1,0,63,0,0
426915,-150.943396226415,4,1,0,63,0,0
426965,-151.181102362205,4,1,0,62,0,0
427015,-151.419558359621,4,1,0,62,0,0
427065,-151.658767772512,4,1,0,62,0,0
427215,-152.380952380952,4,1,0,61,0,0
427365,-153.11004784689,4,1,0,61,0,0
427515,-153.846153846154,4,1,0,60,0,0
427815,-155.339805825243,4,1,0,59,0,0
428115,-156.862745098039,4,1,0,58,0,0
428265,-157.635467980296,4,1,0,57,0,0
428340,-158.024691358025,4,1,0,57,0,0
428415,-158.415841584158,4,1,0,56,0,0
428490,-158.808933002481,4,1,0,56,0,0
428565,-159.203980099503,4,1,0,56,0,0
428640,-159.600997506234,4,1,0,55,0,0
428715,-160,4,1,0,55,0,0
428790,-160.401002506266,4,1,0,55,0,0
429015,-161.616161616162,4,1,0,54,0,0
429165,-162.43654822335,4,1,0,53,0,0
429315,-163.265306122449,4,1,0,53,0,0
429390,-163.682864450128,4,1,0,52,0,0
429465,-164.102564102564,4,1,0,52,0,0
429615,-164.948453608247,4,1,0,51,0,0
429765,-165.80310880829,4,1,0,51,0,0
429915,-166.666666666667,4,1,0,50,0,0
430515,-170.212765957447,4,1,0,48,0,0
430665,-171.122994652406,4,1,0,47,0,0
430740,-171.581769436997,4,1,0,47,0,0
430815,-172.043010752688,4,1,0,46,0,0
430965,-172.972972972973,4,1,0,46,0,0
431115,-173.913043478261,4,1,0,45,0,0
431415,-175.824175824176,4,1,0,44,0,0
431565,-176.795580110497,4,1,0,43,0,0
431715,-177.777777777778,4,1,0,43,0,0
431790,-178.272980501393,4,1,0,42,0,0
431865,-178.77094972067,4,1,0,42,0,0
432015,-179.775280898876,4,1,0,41,0,0
432165,-180.790960451977,4,1,0,41,0,0
432315,-181.818181818182,4,1,0,40,0,0
432915,-186.046511627907,4,1,0,38,0,0
433065,-187.134502923977,4,1,0,37,0,0
433215,-188.235294117647,4,1,0,36,0,0
433365,-189.349112426036,4,1,0,36,0,0
433515,-190.476190476191,4,1,0,35,0,0
434715,-200,4,1,0,30,0,0
438883,-100,4,1,0,50,0,0
438958,-200,4,1,0,50,0,0
439445,-83.3333333333333,4,1,0,100,0,0
439590,-83.5443037974683,4,1,0,100,0,0
439815,-84.1836734693878,4,1,0,100,0,0
439890,-84.3989769820972,4,1,0,100,0,0
440115,-85.0515463917526,4,1,0,100,0,0
440190,-85.2713178294574,4,1,0,100,0,0
440265,-85.4922279792746,4,1,0,100,0,0
440340,-85.7142857142857,4,1,0,100,0,0
440415,-85.9375,4,1,0,100,0,0
440490,-86.1618798955614,4,1,0,100,0,0
440640,-86.6141732283465,4,1,0,100,0,0
440715,-86.8421052631579,4,1,0,100,0,0
440790,-87.0712401055409,4,1,0,100,0,0
440865,-87.3015873015873,4,1,0,100,0,0
440940,-87.5331564986737,4,1,0,100,0,0
441015,-87.7659574468085,4,1,0,100,0,0
441090,-88,4,1,0,100,0,0
441240,-88.4718498659517,4,1,0,100,0,0
441315,-88.7096774193548,4,1,0,100,0,0
441390,-88.9487870619946,4,1,0,100,0,0
441465,-89.1891891891892,4,1,0,100,0,0
441540,-89.4308943089431,4,1,0,100,0,0
441615,-89.6739130434783,4,1,0,100,0,0
441690,-89.9182561307902,4,1,0,100,0,0
441765,-90.1639344262295,4,1,0,100,0,0
441840,-90.4109589041096,4,1,0,100,0,0
441915,-90.6593406593407,4,1,0,100,0,0
441990,-90.9090909090909,4,1,0,100,0,0
442215,-90.1408450704225,4,1,0,100,0,0
442290,-89.8876404494382,4,1,0,100,0,0
442515,-89.1364902506964,4,1,0,100,0,0
442590,-88.8888888888889,4,1,0,100,0,0
442665,-88.6426592797784,4,1,0,100,0,0
442740,-88.3977900552486,4,1,0,100,0,0
442815,-88.1542699724518,4,1,0,100,0,0
442890,-87.9120879120879,4,1,0,100,0,0
443040,-87.431693989071,4,1,0,100,0,0
443115,-87.1934604904632,4,1,0,100,0,0
443190,-86.9565217391304,4,1,0,100,0,0
443265,-86.7208672086721,4,1,0,100,0,0
443340,-86.4864864864865,4,1,0,100,0,0
443415,-86.2533692722372,4,1,0,100,0,0
443490,-86.0215053763441,4,1,0,100,0,0
443640,-85.5614973262032,4,1,0,100,0,0
443715,-85.3333333333333,4,1,0,100,0,0
443865,-84.8806366047745,4,1,0,100,0,0
443915,-84.7308031774051,4,1,0,100,0,0
443965,-84.5814977973568,4,1,0,100,0,0
444015,-84.4327176781003,4,1,0,100,0,0
444090,-84.2105263157895,4,1,0,100,0,0
444165,-83.989501312336,4,1,0,100,0,0
444240,-83.7696335078534,4,1,0,100,0,0
444315,-83.5509138381201,4,1,0,100,0,0
444390,-83.3333333333333,4,1,0,100,0,0
444615,-83.989501312336,4,1,0,100,0,0
444690,-84.2105263157895,4,1,0,100,0,0
444915,-84.8806366047745,4,1,0,100,0,0
444990,-85.1063829787234,4,1,0,100,0,0
445065,-85.3333333333333,4,1,0,100,0,0
445140,-85.5614973262032,4,1,0,100,0,0
445215,-85.7908847184987,4,1,0,100,0,0
445290,-86.0215053763441,4,1,0,100,0,0
445440,-86.4864864864865,4,1,0,100,0,0
445515,-86.7208672086721,4,1,0,100,0,0
445590,-86.9565217391304,4,1,0,100,0,0
445665,-87.1934604904632,4,1,0,100,0,0
445740,-87.431693989071,4,1,0,100,0,0
445815,-87.6712328767123,4,1,0,100,0,0
445890,-87.9120879120879,4,1,0,100,0,0
446040,-88.3977900552486,4,1,0,100,0,0
446115,-88.6426592797784,4,1,0,100,0,0
446190,-88.8888888888889,4,1,0,100,0,0
446265,-89.1364902506964,4,1,0,100,0,0
446340,-89.3854748603352,4,1,0,100,0,0
446415,-89.6358543417367,4,1,0,100,0,0
446490,-89.8876404494382,4,1,0,100,0,0
446565,-90.1408450704225,4,1,0,100,0,0
446640,-90.3954802259887,4,1,0,100,0,0
446715,-90.6515580736544,4,1,0,100,0,0
446790,-90.9090909090909,4,1,0,100,0,0
447015,-90.1408450704225,4,1,0,100,0,0
447090,-89.8876404494382,4,1,0,100,0,0
447315,-89.1364902506964,4,1,0,100,0,0
447390,-88.8888888888889,4,1,0,100,0,0
447465,-88.6426592797784,4,1,0,100,0,0
447540,-88.3977900552486,4,1,0,100,0,0
447615,-88.1542699724518,4,1,0,100,0,0
447690,-87.9120879120879,4,1,0,100,0,0
447765,-87.6712328767123,4,1,0,100,0,0
447840,-87.431693989071,4,1,0,100,0,0
447915,-87.1934604904632,4,1,0,100,0,0
447990,-86.9565217391304,4,1,0,100,0,0
448065,-86.7208672086721,4,1,0,100,0,0
448140,-86.4864864864865,4,1,0,100,0,0
448215,-86.2533692722372,4,1,0,100,0,0
448290,-86.0215053763441,4,1,0,100,0,0
448440,-85.5614973262032,4,1,0,100,0,0
448515,-85.3333333333333,4,1,0,100,0,0
448590,-85.1063829787234,4,1,0,100,0,0
448665,-84.8806366047745,4,1,0,100,0,0
448715,-84.7308031774051,4,1,0,100,0,0
448765,-84.5814977973568,4,1,0,100,0,0
448815,-84.4327176781003,4,1,0,100,0,0
448890,-84.2105263157895,4,1,0,100,0,0
448965,-83.989501312336,4,1,0,100,0,0
449040,-83.7696335078534,4,1,0,100,0,0
449115,-83.5509138381201,4,1,0,100,0,0
449190,-83.3333333333333,4,1,0,100,0,0
449415,-83.989501312336,4,1,0,100,0,0
449490,-84.2105263157895,4,1,0,100,0,0
449715,-84.8806366047745,4,1,0,100,0,0
449790,-85.1063829787234,4,1,0,100,0,0
449865,-85.3333333333333,4,1,0,100,0,0
449940,-85.5614973262032,4,1,0,100,0,0
450015,-85.7908847184987,4,1,0,100,0,0
450090,-86.0215053763441,4,1,0,100,0,0
450240,-86.4864864864865,4,1,0,100,0,0
450315,-86.7208672086721,4,1,0,100,0,0
450390,-86.9565217391304,4,1,0,100,0,0
450465,-87.1934604904632,4,1,0,100,0,0
450540,-87.431693989071,4,1,0,100,0,0
450615,-87.6712328767123,4,1,0,100,0,0
450690,-87.9120879120879,4,1,0,100,0,0
450840,-88.3977900552486,4,1,0,100,0,0
450915,-88.6426592797784,4,1,0,100,0,0
450990,-88.8888888888889,4,1,0,100,0,0
451065,-89.1364902506964,4,1,0,100,0,0
451140,-89.3854748603352,4,1,0,100,0,0
451215,-89.6358543417367,4,1,0,100,0,0
451290,-89.8876404494382,4,1,0,100,0,0
451365,-90.1408450704225,4,1,0,100,0,0
451440,-90.3954802259887,4,1,0,100,0,0
451515,-90.6515580736544,4,1,0,100,0,0
451590,-90.9090909090909,4,1,0,100,0,0
451815,-90.1162790697674,4,1,0,100,0,0
451890,-89.8550724637681,4,1,0,100,0,0
452115,-89.0804597701149,4,1,0,100,0,0
452190,-88.8252148997135,4,1,0,100,0,0
452265,-88.5714285714286,4,1,0,100,0,0
452340,-88.3190883190883,4,1,0,100,0,0
452415,-88.0681818181818,4,1,0,100,0,0
452490,-87.8186968838527,4,1,0,100,0,0
452565,-87.5706214689265,4,1,0,100,0,0
452640,-87.3239436619718,4,1,0,100,0,0
452715,-87.0786516853933,4,1,0,100,0,0
452790,-86.8347338935574,4,1,0,100,0,0
452865,-86.5921787709497,4,1,0,100,0,0
452940,-86.3509749303621,4,1,0,100,0,0
453015,-86.1111111111111,4,1,0,100,0,0
453090,-85.8725761772853,4,1,0,100,0,0
453240,-85.3994490358127,4,1,0,100,0,0
453315,-85.1648351648352,4,1,0,100,0,0
453390,-84.9315068493151,4,1,0,100,0,0
453465,-84.6994535519126,4,1,0,100,0,0
453515,-84.5454545454545,4,1,0,100,0,0
453565,-84.3920145190563,4,1,0,100,0,0
453615,-84.2391304347826,4,1,0,100,0,0
453765,-83.7837837837838,4,1,0,100,0,0
453840,-83.5579514824798,4,1,0,100,0,0
453915,-83.3333333333333,4,1,0,100,0,0
454215,-84.1836734693878,4,1,0,100,0,0
454290,-84.3989769820972,4,1,0,100,0,0
454515,-85.0515463917526,4,1,0,100,0,0
454590,-85.2713178294574,4,1,0,100,0,0
454665,-85.4922279792746,4,1,0,100,0,0
454740,-85.7142857142857,4,1,0,100,0,0
454815,-85.9375,4,1,0,100,0,0
454890,-86.1618798955614,4,1,0,100,0,0
455040,-86.6141732283465,4,1,0,100,0,0
455115,-86.8421052631579,4,1,0,100,0,0
455190,-87.0712401055409,4,1,0,100,0,0
455265,-87.3015873015873,4,1,0,100,0,0
455340,-87.5331564986737,4,1,0,100,0,0
455415,-87.7659574468085,4,1,0,100,0,0
455490,-88,4,1,0,100,0,0
455640,-88.4718498659517,4,1,0,100,0,0
455715,-88.7096774193548,4,1,0,100,0,0
455790,-88.9487870619946,4,1,0,100,0,0
455865,-89.1891891891892,4,1,0,100,0,0
455940,-89.4308943089431,4,1,0,100,0,0
456015,-89.6739130434783,4,1,0,100,0,0
456090,-89.9182561307902,4,1,0,100,0,0
456165,-90.1639344262295,4,1,0,100,0,0
456240,-90.4109589041096,4,1,0,100,0,0
456315,-90.6593406593407,4,1,0,100,0,0
456390,-90.9090909090909,4,1,0,100,0,0
456615,-90.1162790697674,4,1,0,100,0,0
456690,-89.8550724637681,4,1,0,100,0,0
456915,-89.0804597701149,4,1,0,100,0,0
456990,-88.8252148997135,4,1,0,100,0,0
457065,-88.5714285714286,4,1,0,100,0,0
457140,-88.3190883190883,4,1,0,100,0,0
457215,-88.0681818181818,4,1,0,100,0,0
457290,-87.8186968838527,4,1,0,100,0,0
457365,-87.5706214689265,4,1,0,100,0,0
457440,-87.3239436619718,4,1,0,100,0,0
457515,-87.0786516853933,4,1,0,100,0,0
457715,-86.4312267657993,4,1,0,100,0,0
457815,-86.1111111111111,4,1,0,100,0,0
457915,-85.7933579335793,4,1,0,100,0,0
458015,-85.4779411764706,4,1,0,100,0,0
458115,-85.1648351648352,4,1,0,100,0,0
458190,-84.8540145985401,4,1,0,100,0,0
458270,-84.5454545454545,4,1,0,100,0,0
458340,-84.4686648501362,4,1,0,100,0,0
458415,-84.2391304347826,4,1,0,100,0,0
458495,-83.9350180505415,4,1,0,100,0,0
458570,-83.8593327321912,4,1,0,100,0,0
458645,-83.6330935251799,4,1,0,100,0,0
458715,-83.3333333333333,4,1,0,100,0,0
458945,-76.9230769230769,4,1,0,100,0,0
459315,-77.7777777777778,4,1,0,100,0,0
459390,-77.9944289693593,4,1,0,100,0,0
459465,-78.2122905027933,4,1,0,100,0,0
459540,-78.4313725490196,4,1,0,100,0,0
459615,-78.6516853932584,4,1,0,100,0,0
459690,-78.8732394366197,4,1,0,100,0,0
459840,-79.3201133144476,4,1,0,100,0,0
459915,-79.5454545454545,4,1,0,100,0,0
459990,-79.7720797720798,4,1,0,100,0,0
460065,-80,4,1,0,100,0,0
460140,-80.2292263610315,4,1,0,100,0,0
460215,-80.4597701149425,4,1,0,100,0,0
460290,-80.6916426512968,4,1,0,100,0,0
460440,-81.1594202898551,4,1,0,100,0,0
460515,-81.3953488372093,4,1,0,100,0,0
460590,-81.6326530612245,4,1,0,100,0,0
460665,-81.8713450292398,4,1,0,100,0,0
460740,-82.1114369501466,4,1,0,100,0,0
460815,-82.3529411764706,4,1,0,100,0,0
460890,-82.5958702064897,4,1,0,100,0,0
460965,-82.8402366863905,4,1,0,100,0,0
461040,-83.0860534124629,4,1,0,100,0,0
461115,-83.3333333333333,4,1,0,100,0,0
461415,-76.9230769230769,4,1,0,100,0,0
461715,-77.7777777777778,4,1,0,100,0,0
461790,-77.9944289693593,4,1,0,100,0,0
461865,-78.2122905027933,4,1,0,100,0,0
461940,-78.4313725490196,4,1,0,100,0,0
462015,-78.6516853932584,4,1,0,100,0,0
462090,-78.8732394366197,4,1,0,100,0,0
462240,-79.3201133144476,4,1,0,100,0,0
462315,-79.5454545454545,4,1,0,100,0,0
462390,-79.7720797720798,4,1,0,100,0,0
462465,-80,4,1,0,100,0,0
462540,-80.2292263610315,4,1,0,100,0,0
462615,-80.4597701149425,4,1,0,100,0,0
462690,-80.6916426512968,4,1,0,100,0,0
462840,-81.1594202898551,4,1,0,100,0,0
462915,-81.3953488372093,4,1,0,100,0,0
462990,-81.6326530612245,4,1,0,100,0,0
463065,-81.8713450292398,4,1,0,100,0,0
463115,-82.03125,4,1,0,100,0,0
463165,-82.1917808219178,4,1,0,100,0,0
463215,-82.3529411764706,4,1,0,100,0,0
463290,-82.5958702064897,4,1,0,100,0,0
463365,-82.8402366863905,4,1,0,100,0,0
463440,-83.0860534124629,4,1,0,100,0,0
463515,-83.3333333333333,4,1,0,100,0,0
463815,-76.9230769230769,4,1,0,100,0,0
464115,-77.7777777777778,4,1,0,100,0,0
464190,-77.9944289693593,4,1,0,100,0,0
464265,-78.2122905027933,4,1,0,100,0,0
464340,-78.4313725490196,4,1,0,100,0,0
464415,-78.6516853932584,4,1,0,100,0,0
464490,-78.8732394366197,4,1,0,100,0,0
464640,-79.3201133144476,4,1,0,100,0,0
464715,-79.5454545454545,4,1,0,100,0,0
464790,-79.7720797720798,4,1,0,100,0,0
464865,-80,4,1,0,100,0,0
464940,-80.2292263610315,4,1,0,100,0,0
465015,-80.4597701149425,4,1,0,100,0,0
465090,-80.6916426512968,4,1,0,100,0,0
465240,-81.1594202898551,4,1,0,100,0,0
465315,-81.3953488372093,4,1,0,100,0,0
465390,-81.6326530612245,4,1,0,100,0,0
465465,-81.8713450292398,4,1,0,100,0,0
465540,-82.1114369501466,4,1,0,100,0,0
465615,-82.3529411764706,4,1,0,100,0,0
465690,-82.5958702064897,4,1,0,100,0,0
465765,-82.8402366863905,4,1,0,100,0,0
465840,-83.0860534124629,4,1,0,100,0,0
465915,-83.3333333333333,4,1,0,100,0,0
466215,-76.9230769230769,4,1,0,100,0,0
466515,-78.125,4,1,0,100,0,0
466590,-78.4313725490196,4,1,0,100,0,0
466665,-78.740157480315,4,1,0,100,0,0
466740,-79.0513833992095,4,1,0,100,0,0
466815,-79.3650793650794,4,1,0,100,0,0
466890,-79.6812749003984,4,1,0,100,0,0
467040,-80.3212851405623,4,1,0,100,0,0
467115,-80.6451612903226,4,1,0,100,0,0
467190,-80.9716599190284,4,1,0,100,0,0
467265,-81.3008130081301,4,1,0,100,0,0
467340,-81.6326530612245,4,1,0,100,0,0
467415,-81.9672131147541,4,1,0,100,0,0
467490,-82.3045267489712,4,1,0,100,0,0
467565,-82.6446280991736,4,1,0,100,0,0
467640,-82.9875518672199,4,1,0,100,0,0
467715,-83.3333333333333,4,1,0,100,0,0
467915,-81.0810810810811,4,1,0,100,0,0
468115,-78.9473684210526,4,1,0,100,0,0
468315,-76.9230769230769,4,1,0,100,0,0
468390,-76.9216169801548,4,1,0,100,0,0
468465,-76.9172378440445,4,1,0,100,0,0
468540,-76.9099415920254,4,1,0,100,0,0
468615,-76.8997316839376,4,1,0,100,0,0
468690,-76.8866129587474,4,1,0,100,0,0
468765,-76.8705916297485,4,1,0,100,0,0
468840,-76.8516752784076,4,1,0,100,0,0
468915,-76.8298728468664,4,1,0,100,0,0
468990,-76.8051946291129,4,1,0,100,0,0
469065,-76.7776522608399,4,1,0,100,0,0
469140,-76.7472587080098,4,1,0,100,0,0
469215,-76.7140282541449,4,1,0,100,0,0
469290,-76.6779764863697,4,1,0,100,0,0
469365,-76.6391202802287,4,1,0,100,0,0
469440,-76.5974777833092,4,1,0,100,0,0
469515,-76.5530683976986,4,1,0,100,0,0
469590,-76.5059127613072,4,1,0,100,0,0
469665,-76.456032728093,4,1,0,100,0,0
469740,-76.4034513472211,4,1,0,100,0,0
469815,-76.3481928411973,4,1,0,100,0,0
469890,-76.2902825830141,4,1,0,100,0,0
469965,-76.2297470723491,4,1,0,100,0,0
470040,-76.166613910858,4,1,0,100,0,0
470115,-76.1009117766059,4,1,0,100,0,0
470190,-76.032670397679,4,1,0,100,0,0
470265,-75.961920525024,4,1,0,100,0,0
470340,-75.88869390456,4,1,0,100,0,0
470415,-75.8130232486104,4,1,0,100,0,0
470490,-75.7349422067005,4,1,0,100,0,0
470565,-75.6544853357714,4,1,0,100,0,0
470640,-75.5716880698564,4,1,0,100,0,0
470715,-75.4865866892689,4,1,0,100,0,0
470790,-75.3992182893513,4,1,0,100,0,0
470865,-75.3096207488332,4,1,0,100,0,0
470940,-75.2178326978468,4,1,0,100,0,0
471015,-75.1238934856497,4,1,0,100,0,0
471090,-75.0278431481024,4,1,0,100,0,0
471165,-74.9297223749473,4,1,0,100,0,0
471240,-74.8295724769391,4,1,0,100,0,0
471315,-74.7274353528703,4,1,0,100,0,0
471390,-74.6233534565407,4,1,0,100,0,0
471465,-74.5173697637135,4,1,0,100,0,0
471540,-74.4095277391042,4,1,0,100,0,0
471615,-74.2998713034455,4,1,0,100,0,0
471690,-74.188444800669,4,1,0,100,0,0
471765,-74.0752929652468,4,1,0,100,0,0
471840,-73.9604608897328,4,1,0,100,0,0
471915,-73.843993992541,4,1,0,100,0,0
471990,-73.7259379860007,4,1,0,100,0,0
472065,-73.6063388447224,4,1,0,100,0,0
472140,-73.4852427743115,4,1,0,100,0,0
472215,-73.3626961804614,4,1,0,100,0,0
472290,-73.238745638459,4,1,0,100,0,0
472365,-73.1134378631324,4,1,0,100,0,0
472440,-72.9868196792706,4,1,0,100,0,0
472515,-72.858937992541,4,1,0,100,0,0
472590,-72.7298397609328,4,1,0,100,0,0
472665,-72.5995719667475,4,1,0,100,0,0
472740,-72.468181589163,4,1,0,100,0,0
472815,-72.3357155773882,4,1,0,100,0,0
472890,-72.2022208244316,4,1,0,100,0,0
472965,-72.0677441414982,4,1,0,100,0,0
473040,-71.9323322330345,4,1,0,100,0,0
473115,-71.7960316724334,4,1,0,100,0,0
473190,-71.6588888784149,4,1,0,100,0,0
473265,-71.520950092092,4,1,0,100,0,0
473340,-71.3822613547348,4,1,0,100,0,0
473415,-71.2428684862388,4,1,0,100,0,0
473490,-71.1028170643073,4,1,0,100,0,0
473565,-70.9621524043528,4,1,0,100,0,0
473640,-70.8209195401218,4,1,0,100,0,0
473715,-70.6791632050476,4,1,0,100,0,0
473790,-70.536927814332,4,1,0,100,0,0
473865,-70.3942574477571,4,1,0,100,0,0
473940,-70.2511958332283,4,1,0,100,0,0
474015,-70.1077863310438,4,1,0,100,0,0
474090,-69.9640719188921,4,1,0,100,0,0
474165,-69.8200951775705,4,1,0,100,0,0
474240,-69.6758982774212,4,1,0,100,0,0
474315,-69.5315229654807,4,1,0,100,0,0
474390,-69.3870105533333,4,1,0,100,0,0
474465,-69.2424019056632,4,1,0,100,0,0
474540,-69.0977374294971,4,1,0,100,0,0
474615,-68.9530570641266,4,1,0,100,0,0
474690,-68.8084002717027,4,1,0,100,0,0
474765,-68.6638060284905,4,1,0,100,0,0
474840,-68.5193128167734,4,1,0,100,0,0
474915,-68.3749586173963,4,1,0,100,0,0
474990,-68.2307809029337,4,1,0,100,0,0
475065,-68.0868166314715,4,1,0,100,0,0
475140,-67.9431022409889,4,1,0,100,0,0
475215,-67.7996736443264,4,1,0,100,0,0
475290,-67.6565662247275,4,1,0,100,0,0
475365,-67.5138148319376,4,1,0,100,0,0
475440,-67.3714537788478,4,1,0,100,0,0
475515,-67.2295168386673,4,1,0,100,0,0
475565,-67.1351442630016,4,1,0,100,0,0
475615,-67.0409846746534,4,1,0,100,0,0
475665,-66.9470476780811,4,1,0,100,0,0
475740,-66.8065802873455,4,1,0,100,0,0
475815,-66.71918,4,1,0,100,0,0
475915,-67.78704,4,1,0,100,0,0
476015,-68.889626,4,1,0,100,0,0
476115,-70.028694,4,1,0,100,0,0
476215,-71.206055,4,1,0,100,0,0
476315,-72.423676,4,1,0,100,0,0
476415,-73.68368,4,1,0,100,0,0
476515,-74.98828,4,1,0,100,0,0
476615,-76.33993,4,1,0,100,0,0
476715,-77.74119,4,1,0,100,0,0
476765,-78.46129,4,1,0,100,0,0
476815,-79.194855,4,1,0,100,0,0
476865,-79.94226,4,1,0,100,0,0
476915,-80.70392,4,1,0,100,0,0
477015,-82.27161,4,1,0,100,0,0
477115,-83.90142,4,1,0,100,0,0
477215,-85.5971,4,1,0,100,0,0
477315,-87.36273,4,1,0,100,0,0
477415,-89.20275,4,1,0,100,0,0
477515,-91.12193,4,1,0,100,0,0
477615,-93.12553,4,1,0,100,0,0
477715,-95.2192,4,1,0,100,0,0
477815,-97.2972972972973,4,1,0,100,0,0
477915,-66.6666666666667,4,1,0,100,0,0
477995,-100,4,1,0,100,0,0

[HitObjects]
204,246,10600,5,8,0:0:0:0:
144,155,10750,1,0,0:0:0:0:
177,213,10825,1,0,0:0:0:0:
177,213,10900,1,0,0:0:0:0:
92,162,10975,1,0,0:0:0:0:
177,213,11050,1,8,0:0:0:0:
115,190,11200,1,0,0:0:0:0:
149,191,11275,1,8,0:0:0:0:
115,190,11350,1,0,0:0:0:0:
149,191,11425,1,0,0:0:0:0:
115,190,11500,1,8,0:0:0:0:
150,113,11650,1,8,0:0:0:0:
150,113,11800,1,8,0:0:0:0:
144,118,11950,1,0,0:0:0:0:
136,123,12025,1,8,0:0:0:0:
143,119,12100,1,8,0:0:0:0:
133,126,12175,1,0,0:0:0:0:
133,126,12250,1,8,0:0:0:0:
115,168,12400,1,0,0:0:0:0:
159,152,12475,1,8,0:0:0:0:
159,152,12550,1,0,0:0:0:0:
115,168,12625,1,8,0:0:0:0:
115,168,12700,1,8,0:0:0:0:
170,182,12850,1,0,0:0:0:0:
170,182,12925,1,8,0:0:0:0:
161,186,13000,1,8,0:0:0:0:
83,236,13150,1,0,0:0:0:0:
108,240,13225,1,0,0:0:0:0:
83,236,13300,1,0,0:0:0:0:
108,240,13375,1,0,0:0:0:0:
90,235,13450,1,8,0:0:0:0:
107,242,13600,1,0,0:0:0:0:
107,242,13675,1,0,0:0:0:0:
108,240,13750,1,8,0:0:0:0:
108,240,13825,1,8,0:0:0:0:
108,240,13900,1,0,0:0:0:0:
131,249,13937,1,0,0:0:0:0:
110,248,14050,1,8,0:0:0:0:
448,64,14087,1,8,0:0:0:0:
111,248,14200,1,8,0:0:0:0:
97,188,14350,1,0,0:0:0:0:
134,131,14425,1,0,0:0:0:0:
112,133,14500,1,8,0:0:0:0:
137,147,14650,1,0,0:0:0:0:
125,155,14725,1,0,0:0:0:0:
134,147,14800,1,8,0:0:0:0:
125,155,14875,1,0,0:0:0:0:
130,148,14950,1,8,0:0:0:0:
176,126,15025,1,8,0:0:0:0:
64,320,15100,1,4,0:0:0:0:
175,155,15400,1,8,0:0:0:0:
175,155,15550,1,0,0:0:0:0:
175,155,15625,1,0,0:0:0:0:
175,155,15700,1,0,0:0:0:0:
175,155,15775,1,0,0:0:0:0:
175,155,15850,1,8,0:0:0:0:
175,155,16000,1,0,0:0:0:0:
168,160,16075,1,8,0:0:0:0:
175,155,16150,1,0,0:0:0:0:
167,160,16225,1,0,0:0:0:0:
170,156,16300,1,8,0:0:0:0:
169,186,16450,1,8,0:0:0:0:
169,186,16600,1,8,0:0:0:0:
139,182,16750,1,0,0:0:0:0:
147,175,16825,1,0,0:0:0:0:
139,182,16900,1,8,0:0:0:0:
119,158,16975,1,0,0:0:0:0:
136,146,17050,1,8,0:0:0:0:
119,158,17125,1,8,0:0:0:0:
134,149,17200,1,0,0:0:0:0:
126,132,17275,1,0,0:0:0:0:
125,131,17350,1,8,0:0:0:0:
136,129,17500,1,0,0:0:0:0:
136,129,17575,1,0,0:0:0:0:
35,193,17650,1,0,0:0:0:0:
165,104,17725,1,0,0:0:0:0:
41,193,17800,1,8,0:0:0:0:
107,164,17950,1,8,0:0:0:0:
107,164,18100,1,8,0:0:0:0:
112,161,18250,1,8,0:0:0:0:
113,161,18400,1,8,0:0:0:0:
114,160,18550,1,8,0:0:0:0:
117,155,18700,1,8,0:0:0:0:
115,155,18850,1,8,0:0:0:0:
109,172,19000,1,0,0:0:0:0:
143,109,19150,1,0,0:0:0:0:
88,170,19300,1,8,0:0:0:0:
84,174,19450,1,0,0:0:0:0:
195,29,19525,1,0,0:0:0:0:
448,320,19600,1,12,0:0:0:0:
103,186,19900,1,8,0:0:0:0:
103,186,19975,1,8,0:0:0:0:
97,182,20050,1,8,0:0:0:0:
101,186,20125,1,8,0:0:0:0:
156,142,20200,1,0,0:0:0:0:
148,173,20275,1,0,0:0:0:0:
145,162,20350,1,0,0:0:0:0:
149,158,20425,1,0,0:0:0:0:
145,162,20500,1,8,0:0:0:0:
90,160,20650,1,0,0:0:0:0:
175,97,20725,1,8,0:0:0:0:
109,135,20800,1,0,0:0:0:0:
101,172,20875,1,0,0:0:0:0:
168,123,20950,1,8,0:0:0:0:
177,104,21025,1,0,0:0:0:0:
145,82,21100,1,8,0:0:0:0:
159,168,21175,1,0,0:0:0:0:
148,195,21250,1,0,0:0:0:0:
155,195,21325,1,8,0:0:0:0:
155,195,21400,1,0,0:0:0:0:
132,145,21550,1,8,0:0:0:0:
139,147,21625,1,0,0:0:0:0:
132,145,21700,1,8,0:0:0:0:
139,147,21775,1,8,0:0:0:0:
138,142,21850,1,0,0:0:0:0:
132,145,21925,1,8,0:0:0:0:
139,144,22000,1,0,0:0:0:0:
40,164,22075,1,8,0:0:0:0:
52,158,22150,1,8,0:0:0:0:
40,164,22225,1,0,0:0:0:0:
106,130,22300,1,8,0:0:0:0:
69,153,22450,1,0,0:0:0:0:
70,151,22525,1,8,0:0:0:0:
69,144,22600,1,0,0:0:0:0:
106,130,22675,1,0,0:0:0:0:
94,123,22750,1,8,0:0:0:0:
88,124,22825,1,0,0:0:0:0:
92,124,22900,1,8,0:0:0:0:
128,160,22975,1,8,0:0:0:0:
50,149,23050,1,0,0:0:0:0:
87,129,23125,1,8,0:0:0:0:
88,129,23200,1,0,0:0:0:0:
94,189,23275,1,0,0:0:0:0:
79,195,23350,1,8,0:0:0:0:
85,189,23425,1,0,0:0:0:0:
103,162,23500,1,8,0:0:0:0:
141,146,23650,1,8,0:0:0:0:
148,147,23725,1,0,0:0:0:0:
145,149,23800,1,8,0:0:0:0:
168,140,23875,1,8,0:0:0:0:
160,133,23950,1,0,0:0:0:0:
159,133,24025,1,0,0:0:0:0:
170,141,24100,1,8,0:0:0:0:
114,134,24175,1,8,0:0:0:0:
132,132,24250,1,0,0:0:0:0:
132,132,24325,1,8,0:0:0:0:
56,200,24400,1,0,0:0:0:0:
48,203,24475,1,0,0:0:0:0:
56,200,24550,1,8,0:0:0:0:
49,204,24700,1,8,0:0:0:0:
27,217,24775,1,8,0:0:0:0:
27,217,24850,1,8,0:0:0:0:
45,175,24925,1,8,0:0:0:0:
13,215,25000,1,0,0:0:0:0:
136,163,25150,1,0,0:0:0:0:
141,164,25225,1,0,0:0:0:0:
143,162,25300,1,8,0:0:0:0:
137,193,25375,1,0,0:0:0:0:
139,187,25450,1,8,0:0:0:0:
137,193,25525,1,8,0:0:0:0:
137,193,25600,1,0,0:0:0:0:
168,132,25675,1,8,0:0:0:0:
63,172,25750,1,0,0:0:0:0:
168,132,25825,1,0,0:0:0:0:
63,172,25900,1,8,0:0:0:0:
106,164,26050,1,8,0:0:0:0:
106,164,26125,1,8,0:0:0:0:
106,164,26200,1,0,0:0:0:0:
112,171,26275,1,8,0:0:0:0:
111,171,26350,1,0,0:0:0:0:
124,177,26425,1,0,0:0:0:0:
111,171,26500,1,8,0:0:0:0:
191,158,26575,1,0,0:0:0:0:
191,158,26650,1,8,0:0:0:0:
185,147,26725,1,8,0:0:0:0:
191,158,26800,1,0,0:0:0:0:
197,153,26875,1,0,0:0:0:0:
195,154,26950,1,0,0:0:0:0:
209,156,27025,1,0,0:0:0:0:
194,154,27100,1,8,0:0:0:0:
102,177,27250,1,8,0:0:0:0:
102,177,27325,1,8,0:0:0:0:
102,177,27400,1,0,0:0:0:0:
150,154,27550,1,8,0:0:0:0:
155,133,27625,1,0,0:0:0:0:
156,158,27700,1,8,0:0:0:0:
154,160,27775,1,8,0:0:0:0:
156,160,27850,1,0,0:0:0:0:
117,185,27925,1,8,0:0:0:0:
109,182,28000,1,0,0:0:0:0:
61,140,28075,1,0,0:0:0:0:
51,138,28150,1,8,0:0:0:0:
61,140,28225,1,0,0:0:0:0:
55,138,28300,1,8,0:0:0:0:
94,169,28450,1,8,0:0:0:0:
140,96,28525,1,0,0:0:0:0:
101,164,28600,1,8,0:0:0:0:
124,126,28675,1,8,0:0:0:0:
137,120,28750,1,0,0:0:0:0:
124,126,28825,1,0,0:0:0:0:
137,120,28900,1,8,0:0:0:0:
140,120,28975,1,0,0:0:0:0:
161,100,29050,1,8,0:0:0:0:
154,67,29125,1,8,0:0:0:0:
135,120,29200,1,0,0:0:0:0:
72,160,29275,1,8,0:0:0:0:
57,166,29350,1,0,0:0:0:0:
72,160,29500,1,8,0:0:0:0:
32,191,29650,1,8,0:0:0:0:
32,191,29725,1,8,0:0:0:0:
48,191,29800,1,0,0:0:0:0:
99,184,29875,1,0,0:0:0:0:
94,186,29950,1,0,0:0:0:0:
99,184,30025,1,0,0:0:0:0:
94,186,30100,1,8,0:0:0:0:
90,170,30250,1,0,0:0:0:0:
100,174,30325,1,8,0:0:0:0:
90,170,30400,1,0,0:0:0:0:
101,174,30475,1,8,0:0:0:0:
90,170,30550,1,0,0:0:0:0:
63,148,30625,1,0,0:0:0:0:
63,148,30700,1,8,0:0:0:0:
130,114,30775,1,0,0:0:0:0:
137,115,30850,1,8,0:0:0:0:
130,114,30925,1,8,0:0:0:0:
139,118,31000,1,0,0:0:0:0:
122,141,31150,1,0,0:0:0:0:
108,135,31225,1,0,0:0:0:0:
108,135,31300,1,8,0:0:0:0:
101,87,31375,1,0,0:0:0:0:
101,87,31450,1,8,0:0:0:0:
101,87,31525,1,8,0:0:0:0:
81,124,31600,1,0,0:0:0:0:
85,127,31675,1,8,0:0:0:0:
81,124,31750,1,0,0:0:0:0:
85,127,31825,1,0,0:0:0:0:
167,62,31900,1,8,0:0:0:0:
107,171,32050,1,0,0:0:0:0:
126,182,32125,1,8,0:0:0:0:
107,171,32200,1,0,0:0:0:0:
128,184,32350,1,8,0:0:0:0:
128,184,32425,1,0,0:0:0:0:
128,181,32500,1,8,0:0:0:0:
74,157,32575,1,0,0:0:0:0:
74,157,32650,1,8,0:0:0:0:
96,148,32725,1,8,0:0:0:0:
74,157,32800,1,0,0:0:0:0:
86,132,32875,1,8,0:0:0:0:
102,138,32950,1,0,0:0:0:0:
102,138,33025,1,0,0:0:0:0:
105,139,33100,1,8,0:0:0:0:
104,148,33250,1,8,0:0:0:0:
114,134,33325,1,8,0:0:0:0:
104,148,33400,1,0,0:0:0:0:
131,158,33475,1,8,0:0:0:0:
143,162,33550,1,0,0:0:0:0:
131,158,33625,1,0,0:0:0:0:
154,157,33700,1,8,0:0:0:0:
59,164,33775,1,0,0:0:0:0:
59,164,33850,1,8,0:0:0:0:
59,164,33925,1,8,0:0:0:0:
59,164,34000,1,0,0:0:0:0:
140,153,34075,1,0,0:0:0:0:
131,158,34150,1,8,0:0:0:0:
135,150,34225,1,0,0:0:0:0:
141,162,34300,1,8,0:0:0:0:
77,166,34375,1,8,0:0:0:0:
75,166,34450,1,8,0:0:0:0:
104,168,34525,1,8,0:0:0:0:
123,160,34600,1,0,0:0:0:0:
152,183,34750,1,0,0:0:0:0:
175,178,34825,1,0,0:0:0:0:
152,184,34900,1,8,0:0:0:0:
61,147,35050,1,0,0:0:0:0:
73,144,35125,1,8,0:0:0:0:
63,145,35200,1,0,0:0:0:0:
61,147,35275,1,8,0:0:0:0:
74,144,35350,1,0,0:0:0:0:
74,142,35425,1,0,0:0:0:0:
73,144,35500,1,8,0:0:0:0:
194,123,35650,1,0,0:0:0:0:
179,114,35725,1,8,0:0:0:0:
179,114,35800,1,8,0:0:0:0:
139,130,35875,1,0,0:0:0:0:
152,112,35950,1,8,0:0:0:0:
126,135,36025,1,0,0:0:0:0:
168,98,36100,1,8,0:0:0:0:
179,100,36175,1,0,0:0:0:0:
169,100,36250,1,8,0:0:0:0:
122,165,36325,1,8,0:0:0:0:
122,165,36400,1,0,0:0:0:0:
117,173,36475,1,0,0:0:0:0:
114,173,36550,1,0,0:0:0:0:
129,158,36625,1,0,0:0:0:0:
112,173,36700,1,8,0:0:0:0:
102,196,36850,1,8,0:0:0:0:
102,196,36925,1,8,0:0:0:0:
102,196,37000,1,0,0:0:0:0:
106,166,37075,1,0,0:0:0:0:
137,157,37150,1,8,0:0:0:0:
104,166,37225,1,0,0:0:0:0:
39,182,37300,1,8,0:0:0:0:
78,159,37375,1,0,0:0:0:0:
79,162,37450,1,0,0:0:0:0:
133,164,37525,1,8,0:0:0:0:
77,164,37600,1,0,0:0:0:0:
39,172,37675,1,8,0:0:0:0:
54,165,37750,1,0,0:0:0:0:
39,171,37825,1,0,0:0:0:0:
54,165,37900,1,8,0:0:0:0:
154,148,38050,1,8,0:0:0:0:
154,148,38125,1,8,0:0:0:0:
162,150,38200,1,0,0:0:0:0:
256,192,38800,1,8,0:0:0:0:
256,192,38950,1,8,0:0:0:0:
256,192,39100,1,0,0:0:0:0:
256,192,39175,1,8,0:0:0:0:
256,192,39250,1,0,0:0:0:0:
256,192,39325,1,0,0:0:0:0:
256,192,39400,1,8,0:0:0:0:
256,192,39550,1,0,0:0:0:0:
256,192,39625,1,0,0:0:0:0:
256,192,39700,1,8,0:0:0:0:
256,192,39850,1,8,0:0:0:0:
256,192,40000,1,0,0:0:0:0:
256,192,40075,1,0,0:0:0:0:
256,192,40150,1,8,0:0:0:0:
256,192,40300,1,0,0:0:0:0:
256,192,40450,1,8,0:0:0:0:
256,192,40600,1,8,0:0:0:0:
256,192,40750,1,0,0:0:0:0:
256,192,40825,1,0,0:0:0:0:
256,192,40900,1,8,0:0:0:0:
256,192,41050,1,8,0:0:0:0:
256,192,41200,1,0,0:0:0:0:
256,192,41275,1,0,0:0:0:0:
256,192,41350,1,8,0:0:0:0:
256,192,41500,1,8,0:0:0:0:
256,192,41650,1,8,0:0:0:0:
256,192,41725,1,8,0:0:0:0:
256,192,41800,1,0,0:0:0:0:
256,192,41950,1,0,0:0:0:0:
256,192,42025,1,0,0:0:0:0:
256,192,42100,1,8,0:0:0:0:
256,192,42250,1,8,0:0:0:0:
256,192,42400,1,0,0:0:0:0:
256,192,42475,1,0,0:0:0:0:
256,192,42550,1,8,0:0:0:0:
256,192,42700,1,8,0:0:0:0:
256,192,42775,1,8,0:0:0:0:
256,192,42850,1,8,0:0:0:0:
256,192,42925,1,8,0:0:0:0:
256,192,43000,1,0,0:0:0:0:
256,192,43150,1,8,0:0:0:0:
288,192,43225,1,0,0:0:0:0:
256,192,43300,1,8,0:0:0:0:
256,192,43450,1,0,0:0:0:0:
256,192,43600,1,0,0:0:0:0:
320,224,43675,1,8,0:0:0:0:
256,192,43750,1,0,0:0:0:0:
288,192,43900,1,12,0:0:0:0:
144,138,44050,1,8,0:0:0:0:
144,138,44125,1,0,0:0:0:0:
288,192,44200,1,8,0:0:0:0:
288,192,44350,1,0,0:0:0:0:
288,192,44425,1,0,0:0:0:0:
288,192,44500,1,8,0:0:0:0:
288,224,44650,1,0,0:0:0:0:
288,224,44800,1,0,0:0:0:0:
288,224,44875,1,8,0:0:0:0:
288,224,44950,1,8,0:0:0:0:
320,224,45100,1,0,0:0:0:0:
320,224,45250,1,8,0:0:0:0:
288,192,45400,1,8,0:0:0:0:
288,192,45550,1,0,0:0:0:0:
288,192,45625,1,0,0:0:0:0:
288,192,45700,1,8,0:0:0:0:
288,224,45850,1,8,0:0:0:0:
288,192,46000,1,0,0:0:0:0:
288,192,46075,1,8,0:0:0:0:
288,192,46150,1,8,0:0:0:0:
288,192,46300,1,8,0:0:0:0:
288,192,46450,1,8,0:0:0:0:
288,192,46525,1,8,0:0:0:0:
288,192,46600,1,0,0:0:0:0:
288,192,46750,1,0,0:0:0:0:
288,192,46825,1,0,0:0:0:0:
288,192,46900,1,8,0:0:0:0:
288,192,47050,1,8,0:0:0:0:
288,192,47200,1,0,0:0:0:0:
288,192,47275,1,8,0:0:0:0:
288,192,47350,1,8,0:0:0:0:
288,192,47500,1,0,0:0:0:0:
288,192,47575,1,8,0:0:0:0:
288,192,47650,1,0,0:0:0:0:
288,192,47725,1,8,0:0:0:0:
288,192,47800,1,0,0:0:0:0:
126,140,47950,1,0,0:0:0:0:
288,192,48100,1,8,0:0:0:0:
288,192,48250,1,0,0:0:0:0:
156,116,48325,1,0,0:0:0:0:
288,192,48400,1,8,0:0:0:0:
288,192,48550,1,8,0:0:0:0:
288,192,48625,1,8,0:0:0:0:
288,192,48700,1,0,0:0:0:0:
288,192,48850,1,0,0:0:0:0:
288,192,48925,1,8,0:0:0:0:
256,192,49000,1,8,0:0:0:0:
256,192,49150,1,0,0:0:0:0:
256,192,49225,1,0,0:0:0:0:
256,192,49300,1,8,0:0:0:0:
148,74,49375,1,0,0:0:0:0:
256,192,49450,1,8,0:0:0:0:
256,192,49600,1,0,0:0:0:0:
256,192,49675,1,0,0:0:0:0:
256,192,49750,1,8,0:0:0:0:
164,92,49825,1,0,0:0:0:0:
256,192,49900,1,8,0:0:0:0:
256,192,50050,1,8,0:0:0:0:
256,192,50200,1,8,0:0:0:0:
256,192,50350,1,0,0:0:0:0:
256,192,50425,1,8,0:0:0:0:
256,192,50500,1,8,0:0:0:0:
161,89,50575,1,0,0:0:0:0:
256,192,50650,1,8,0:0:0:0:
256,192,50800,1,0,0:0:0:0:
256,192,50875,1,8,0:0:0:0:
256,192,50950,1,8,0:0:0:0:
86,140,51025,1,0,0:0:0:0:
256,192,51100,1,8,0:0:0:0:
256,192,51250,1,8,0:0:0:0:
256,192,51325,1,0,0:0:0:0:
256,192,51400,1,8,0:0:0:0:
256,192,51550,1,0,0:0:0:0:
256,192,51625,1,8,0:0:0:0:
256,192,51700,1,8,0:0:0:0:
169,62,51775,1,0,0:0:0:0:
256,192,51850,1,8,0:0:0:0:
256,192,52000,1,0,0:0:0:0:
256,192,52075,1,8,0:0:0:0:
256,192,52150,1,0,0:0:0:0:
169,62,52225,1,8,0:0:0:0:
64,64,52300,1,0,0:0:0:0:
448,64,52375,1,8,0:0:0:0:
256,192,52450,1,8,0:0:0:0:
256,192,52525,1,0,0:0:0:0:
256,192,52600,1,8,0:0:0:0:
256,192,52750,1,0,0:0:0:0:
288,192,52825,1,8,0:0:0:0:
256,192,52900,1,8,0:0:0:0:
125,71,52975,1,0,0:0:0:0:
256,192,53050,1,8,0:0:0:0:
256,192,53200,1,0,0:0:0:0:
320,224,53275,1,8,0:0:0:0:
256,192,53350,1,0,0:0:0:0:
25,149,53425,1,8,0:0:0:0:
288,192,53500,1,8,0:0:0:0:
288,192,53575,1,0,0:0:0:0:
288,192,53650,1,8,0:0:0:0:
288,192,53725,1,0,0:0:0:0:
288,192,53800,1,8,0:0:0:0:
256,192,53950,1,0,0:0:0:0:
288,192,54025,1,8,0:0:0:0:
288,192,54100,1,0,0:0:0:0:
288,192,54250,1,8,0:0:0:0:
288,192,54400,1,0,0:0:0:0:
288,192,54550,1,8,0:0:0:0:
288,192,54625,1,0,0:0:0:0:
288,192,54700,1,8,0:0:0:0:
288,192,54850,1,0,0:0:0:0:
288,192,55000,1,8,0:0:0:0:
288,192,55075,1,0,0:0:0:0:
288,192,55150,1,8,0:0:0:0:
288,192,55225,1,0,0:0:0:0:
288,192,55300,1,0,0:0:0:0:
288,192,55375,1,0,0:0:0:0:
288,192,55450,1,8,0:0:0:0:
288,192,55525,1,0,0:0:0:0:
288,192,55600,1,8,0:0:0:0:
288,192,55675,1,8,0:0:0:0:
288,192,55750,1,0,0:0:0:0:
288,192,55825,1,8,0:0:0:0:
288,192,55900,1,0,0:0:0:0:
288,192,55975,1,0,0:0:0:0:
288,192,56050,1,8,0:0:0:0:
288,192,56125,1,0,0:0:0:0:
288,192,56200,1,8,0:0:0:0:
252,175,57400,1,4,0:0:0:0:
256,192,58300,1,0,0:0:0:0:
256,192,58375,1,0,0:0:0:0:
256,192,58450,1,8,0:0:0:0:
256,192,58525,1,8,0:0:0:0:
256,192,58600,1,4,0:0:0:0:
256,192,58900,1,0,0:0:0:0:
256,192,58975,1,0,0:0:0:0:
256,192,59050,1,8,0:0:0:0:
256,192,59125,1,0,0:0:0:0:
256,192,59200,1,8,0:0:0:0:
256,192,59275,1,8,0:0:0:0:
256,192,59350,1,0,0:0:0:0:
256,192,59425,1,0,0:0:0:0:
256,192,59500,1,8,0:0:0:0:
256,192,59575,1,0,0:0:0:0:
256,192,59650,1,0,0:0:0:0:
256,192,59725,1,0,0:0:0:0:
256,192,59800,1,8,0:0:0:0:
256,192,59875,1,8,0:0:0:0:
256,192,59950,1,0,0:0:0:0:
256,192,60025,1,8,0:0:0:0:
256,192,60100,1,0,0:0:0:0:
256,192,60175,1,0,0:0:0:0:
256,192,60250,1,8,0:0:0:0:
256,192,60325,1,0,0:0:0:0:
256,192,60400,1,8,0:0:0:0:
256,192,60550,1,8,0:0:0:0:
256,192,60625,1,0,0:0:0:0:
256,192,60700,1,8,0:0:0:0:
256,192,60850,1,8,0:0:0:0:
256,192,61000,1,0,0:0:0:0:
256,192,61075,1,0,0:0:0:0:
256,192,61150,1,8,0:0:0:0:
256,192,61225,1,0,0:0:0:0:
256,224,61300,1,8,0:0:0:0:
256,192,61375,1,8,0:0:0:0:
256,192,61450,1,0,0:0:0:0:
256,192,61525,1,8,0:0:0:0:
256,192,61600,1,8,0:0:0:0:
256,192,61675,1,8,0:0:0:0:
256,192,61750,1,0,0:0:0:0:
256,192,61825,1,0,0:0:0:0:
256,192,61900,1,8,0:0:0:0:
256,192,61975,1,8,0:0:0:0:
256,192,62050,1,0,0:0:0:0:
256,192,62125,1,8,0:0:0:0:
256,192,62200,1,0,0:0:0:0:
256,192,62275,1,0,0:0:0:0:
256,192,62350,1,8,0:0:0:0:
256,192,62425,1,0,0:0:0:0:
256,192,62500,1,8,0:0:0:0:
224,160,62575,1,0,0:0:0:0:
256,192,62650,1,8,0:0:0:0:
224,192,62725,1,8,0:0:0:0:
256,192,62800,1,0,0:0:0:0:
256,224,62950,1,8,0:0:0:0:
256,192,63025,1,8,0:0:0:0:
256,192,63100,1,0,0:0:0:0:
256,192,63250,1,8,0:0:0:0:
256,192,63300,1,8,0:0:0:0:
256,192,63350,1,8,0:0:0:0:
256,192,63400,1,0,0:0:0:0:
256,192,63475,1,0,0:0:0:0:
256,192,63550,1,0,0:0:0:0:
256,192,63625,1,0,0:0:0:0:
256,192,63700,1,8,0:0:0:0:
256,192,63775,1,8,0:0:0:0:
256,192,63850,1,0,0:0:0:0:
256,192,63925,1,8,0:0:0:0:
256,192,64000,1,0,0:0:0:0:
256,192,64075,1,0,0:0:0:0:
256,192,64150,1,8,0:0:0:0:
256,192,64225,1,0,0:0:0:0:
256,192,64300,1,0,0:0:0:0:
256,192,64375,1,0,0:0:0:0:
256,192,64450,1,8,0:0:0:0:
256,192,64525,1,8,0:0:0:0:
256,192,64600,1,0,0:0:0:0:
256,192,64675,1,0,0:0:0:0:
256,192,64750,1,8,0:0:0:0:
256,192,64825,1,0,0:0:0:0:
256,192,64900,1,8,0:0:0:0:
256,192,64975,1,8,0:0:0:0:
256,192,65050,1,0,0:0:0:0:
256,192,65125,1,8,0:0:0:0:
256,192,65200,1,0,0:0:0:0:
256,192,65350,1,0,0:0:0:0:
256,192,65500,1,8,0:0:0:0:
256,192,65575,1,8,0:0:0:0:
256,192,65650,1,8,0:0:0:0:
256,192,65725,1,8,0:0:0:0:
256,192,65800,1,0,0:0:0:0:
256,192,65875,1,0,0:0:0:0:
256,192,65950,1,8,0:0:0:0:
256,192,66025,1,0,0:0:0:0:
256,192,66100,1,0,0:0:0:0:
256,192,66175,1,0,0:0:0:0:
256,192,66250,1,8,0:0:0:0:
256,192,66325,1,8,0:0:0:0:
256,192,66400,1,0,0:0:0:0:
256,192,66475,1,0,0:0:0:0:
256,192,66550,1,8,0:0:0:0:
256,192,66625,1,8,0:0:0:0:
256,192,66700,1,0,0:0:0:0:
256,192,66775,1,8,0:0:0:0:
256,192,66850,1,0,0:0:0:0:
256,192,66925,1,0,0:0:0:0:
256,192,67000,1,8,0:0:0:0:
256,192,67150,1,0,0:0:0:0:
256,192,67225,1,8,0:0:0:0:
256,192,67300,1,0,0:0:0:0:
224,192,67450,1,0,0:0:0:0:
224,192,67525,1,0,0:0:0:0:
256,192,67600,1,8,0:0:0:0:
224,192,67675,1,8,0:0:0:0:
224,192,67750,1,0,0:0:0:0:
224,192,67825,1,0,0:0:0:0:
224,192,67900,1,8,0:0:0:0:
224,192,67975,1,8,0:0:0:0:
224,192,68050,1,8,0:0:0:0:
224,192,68125,1,8,0:0:0:0:
256,192,68200,1,0,0:0:0:0:
256,192,68350,1,8,0:0:0:0:
181,149,68425,1,8,0:0:0:0:
256,192,68500,1,0,0:0:0:0:
256,192,68575,1,0,0:0:0:0:
256,192,68650,1,8,0:0:0:0:
256,192,68725,1,0,0:0:0:0:
256,192,68800,1,8,0:0:0:0:
256,192,68875,1,8,0:0:0:0:
256,192,68950,1,0,0:0:0:0:
256,192,69025,1,0,0:0:0:0:
256,192,69100,1,8,0:0:0:0:
256,192,69175,1,0,0:0:0:0:
256,192,69250,1,8,0:0:0:0:
256,192,69325,1,0,0:0:0:0:
224,192,69400,1,8,0:0:0:0:
224,192,69475,1,8,0:0:0:0:
224,192,69550,1,0,0:0:0:0:
224,192,69625,1,0,0:0:0:0:
224,192,69700,1,8,0:0:0:0:
224,192,69775,1,0,0:0:0:0:
224,192,69850,1,0,0:0:0:0:
224,192,69925,1,0,0:0:0:0:
224,192,70000,1,8,0:0:0:0:
224,192,70150,1,8,0:0:0:0:
224,192,70225,1,8,0:0:0:0:
224,192,70300,1,0,0:0:0:0:
224,192,70450,1,8,0:0:0:0:
224,192,70600,1,0,0:0:0:0:
224,192,70675,1,0,0:0:0:0:
224,192,70750,1,8,0:0:0:0:
224,192,70825,1,0,0:0:0:0:
224,192,70900,1,8,0:0:0:0:
224,192,70975,1,8,0:0:0:0:
192,192,71050,1,0,0:0:0:0:
224,192,71125,1,8,0:0:0:0:
224,192,71200,1,0,0:0:0:0:
224,192,71275,1,0,0:0:0:0:
224,192,71350,1,8,0:0:0:0:
224,192,71425,1,8,0:0:0:0:
224,192,71500,1,0,0:0:0:0:
224,192,71575,1,0,0:0:0:0:
224,192,71650,1,8,0:0:0:0:
224,192,71725,1,0,0:0:0:0:
224,192,71800,1,8,0:0:0:0:
224,192,71875,1,8,0:0:0:0:
224,192,71950,1,0,0:0:0:0:
224,192,72025,1,0,0:0:0:0:
224,192,72100,1,8,0:0:0:0:
224,192,72175,1,0,0:0:0:0:
224,192,72250,1,8,0:0:0:0:
224,192,72325,1,8,0:0:0:0:
224,192,72400,1,0,0:0:0:0:
224,192,72550,1,8,0:0:0:0:
224,192,72625,1,8,0:0:0:0:
224,192,72700,1,0,0:0:0:0:
256,192,72775,1,0,0:0:0:0:
256,192,72850,1,8,0:0:0:0:
256,192,72900,1,8,0:0:0:0:
256,192,72950,1,8,0:0:0:0:
256,192,73000,1,0,0:0:0:0:
224,192,73150,1,8,0:0:0:0:
224,192,73225,1,8,0:0:0:0:
224,192,73300,1,0,0:0:0:0:
288,192,73450,1,8,0:0:0:0:
288,192,73525,1,8,0:0:0:0:
288,224,73600,1,8,0:0:0:0:
256,192,73750,1,0,0:0:0:0:
256,192,73825,1,0,0:0:0:0:
256,192,73900,1,8,0:0:0:0:
256,192,74050,1,8,0:0:0:0:
256,192,74125,1,0,0:0:0:0:
256,192,74200,1,8,0:0:0:0:
256,192,74350,1,8,0:0:0:0:
256,192,74500,1,0,0:0:0:0:
256,192,74650,1,8,0:0:0:0:
256,192,74800,1,8,0:0:0:0:
256,192,74875,1,8,0:0:0:0:
256,192,74950,1,0,0:0:0:0:
256,192,75025,1,8,0:0:0:0:
256,192,75100,1,0,0:0:0:0:
256,192,75175,1,0,0:0:0:0:
256,192,75250,1,8,0:0:0:0:
256,192,75325,1,0,0:0:0:0:
256,192,75400,1,12,0:0:0:0:
256,192,75550,1,0,0:0:0:0:
256,192,75625,1,0,0:0:0:0:
256,192,75700,1,8,0:0:0:0:
256,192,75850,1,12,0:0:0:0:
256,192,76000,1,0,0:0:0:0:
256,192,76075,1,0,0:0:0:0:
256,192,76150,1,8,0:0:0:0:
256,192,76300,1,12,0:0:0:0:
256,192,76450,1,12,0:0:0:0:
256,192,76600,1,4,0:0:0:0:
256,192,76750,1,0,0:0:0:0:
256,192,76825,1,0,0:0:0:0:
256,192,76900,1,8,0:0:0:0:
256,192,77050,1,8,0:0:0:0:
256,192,77200,5,12,0:0:0:0:
256,192,77500,1,8,0:0:0:0:
224,192,77575,1,8,0:0:0:0:
224,192,77650,1,0,0:0:0:0:
224,192,77725,1,8,0:0:0:0:
256,192,77800,1,0,0:0:0:0:
256,192,77950,1,8,0:0:0:0:
256,192,78100,1,8,0:0:0:0:
256,192,78175,1,8,0:0:0:0:
256,192,78250,1,0,0:0:0:0:
256,192,78400,1,8,0:0:0:0:
256,192,78550,1,0,0:0:0:0:
256,192,78700,1,8,0:0:0:0:
256,192,78775,1,8,0:0:0:0:
256,192,78850,1,0,0:0:0:0:
256,192,78925,1,8,0:0:0:0:
256,192,79000,1,0,0:0:0:0:
256,192,79150,1,0,0:0:0:0:
256,192,79225,1,0,0:0:0:0:
256,192,79300,1,8,0:0:0:0:
256,192,79450,1,0,0:0:0:0:
256,192,79600,1,8,0:0:0:0:
256,192,79675,1,0,0:0:0:0:
256,192,79750,1,8,0:0:0:0:
256,192,79825,1,8,0:0:0:0:
256,192,79900,1,0,0:0:0:0:
256,192,80050,1,8,0:0:0:0:
256,192,80200,1,0,0:0:0:0:
256,192,80275,1,0,0:0:0:0:
256,192,80350,1,8,0:0:0:0:
256,192,80500,1,8,0:0:0:0:
256,192,80650,1,8,0:0:0:0:
256,192,80725,1,8,0:0:0:0:
256,192,80800,1,0,0:0:0:0:
256,192,80950,1,8,0:0:0:0:
256,192,81100,1,0,0:0:0:0:
256,192,81250,1,0,0:0:0:0:
256,192,81325,1,0,0:0:0:0:
256,192,81400,1,8,0:0:0:0:
256,192,81550,1,8,0:0:0:0:
256,192,81625,1,8,0:0:0:0:
256,192,81700,1,0,0:0:0:0:
256,192,81775,1,0,0:0:0:0:
256,192,81850,1,8,0:0:0:0:
256,192,82000,1,8,0:0:0:0:
256,192,82075,1,8,0:0:0:0:
256,192,82150,1,0,0:0:0:0:
256,192,82300,1,0,0:0:0:0:
256,192,82450,1,8,0:0:0:0:
256,192,82525,1,0,0:0:0:0:
256,192,82600,1,8,0:0:0:0:
256,192,82750,1,8,0:0:0:0:
256,192,82900,1,0,0:0:0:0:
256,192,82975,1,0,0:0:0:0:
256,192,83050,1,8,0:0:0:0:
256,160,83200,1,0,0:0:0:0:
256,160,83275,1,0,0:0:0:0:
256,160,83350,1,8,0:0:0:0:
256,160,83425,1,8,0:0:0:0:
256,160,83500,1,0,0:0:0:0:
256,192,83650,1,8,0:0:0:0:
256,192,83800,1,0,0:0:0:0:
256,192,83875,1,0,0:0:0:0:
256,192,83950,1,8,0:0:0:0:
288,192,84100,1,8,0:0:0:0:
288,192,84250,1,0,0:0:0:0:
288,192,84325,1,0,0:0:0:0:
288,192,84400,1,8,0:0:0:0:
288,192,84475,1,0,0:0:0:0:
288,192,84550,1,8,0:0:0:0:
288,192,84700,1,0,0:0:0:0:
288,224,84850,1,8,0:0:0:0:
64,64,84925,1,0,0:0:0:0:
288,192,85000,1,0,0:0:0:0:
288,192,85150,1,8,0:0:0:0:
288,192,85225,1,8,0:0:0:0:
288,192,85300,1,0,0:0:0:0:
288,192,85450,1,0,0:0:0:0:
288,192,85600,1,8,0:0:0:0:
288,192,85675,1,0,0:0:0:0:
288,192,85750,1,8,0:0:0:0:
288,192,85825,1,8,0:0:0:0:
288,192,85900,1,0,0:0:0:0:
288,192,86050,1,0,0:0:0:0:
288,192,86200,1,8,0:0:0:0:
288,192,86275,1,8,0:0:0:0:
288,192,86350,1,0,0:0:0:0:
288,192,86425,1,8,0:0:0:0:
288,192,86500,1,0,0:0:0:0:
288,192,86575,1,0,0:0:0:0:
256,160,86650,1,8,0:0:0:0:
288,192,86700,1,8,0:0:0:0:
288,192,86750,1,8,0:0:0:0:
288,192,86800,1,0,0:0:0:0:
288,192,86950,1,0,0:0:0:0:
448,320,87100,1,12,0:0:0:0:
288,192,87250,1,8,0:0:0:0:
288,192,87325,1,8,0:0:0:0:
288,192,87400,1,0,0:0:0:0:
288,192,87550,1,8,0:0:0:0:
288,192,87700,1,0,0:0:0:0:
288,192,87850,1,0,0:0:0:0:
288,192,87925,1,0,0:0:0:0:
288,192,88000,1,8,0:0:0:0:
288,192,88150,1,0,0:0:0:0:
288,192,88300,1,8,0:0:0:0:
288,192,88375,1,8,0:0:0:0:
288,192,88450,1,0,0:0:0:0:
288,192,88525,1,8,0:0:0:0:
288,192,88600,1,0,0:0:0:0:
288,192,88750,1,8,0:0:0:0:
480,352,88900,1,0,0:0:0:0:
288,192,89050,1,0,0:0:0:0:
288,192,89125,1,0,0:0:0:0:
288,192,89200,1,8,0:0:0:0:
288,192,89350,1,8,0:0:0:0:
288,192,89500,1,0,0:0:0:0:
288,192,89575,1,0,0:0:0:0:
288,192,89650,1,8,0:0:0:0:
288,192,89800,1,0,0:0:0:0:
288,192,89875,1,0,0:0:0:0:
288,192,90025,1,8,0:0:0:0:
288,192,90100,1,0,0:0:0:0:
288,192,90250,1,8,0:0:0:0:
288,192,90400,1,0,0:0:0:0:
288,192,90475,1,0,0:0:0:0:
288,192,90550,1,8,0:0:0:0:
288,192,90700,1,8,0:0:0:0:
288,192,90850,1,8,0:0:0:0:
288,192,90925,1,8,0:0:0:0:
256,192,91000,5,0,0:0:0:0:
256,192,91150,1,0,0:0:0:0:
256,192,91300,1,8,0:0:0:0:
256,192,91375,1,0,0:0:0:0:
256,192,91450,1,8,0:0:0:0:
288,192,91600,1,8,0:0:0:0:
288,192,91675,1,8,0:0:0:0:
288,192,91750,1,8,0:0:0:0:
288,192,91900,1,12,0:0:0:0:
288,192,92050,1,8,0:0:0:0:
288,192,92125,1,8,0:0:0:0:
288,192,92200,1,0,0:0:0:0:
480,352,92275,1,0,0:0:0:0:
256,192,92350,1,8,0:0:0:0:
256,192,92500,1,8,0:0:0:0:
256,192,92650,1,8,0:0:0:0:
256,192,92725,1,8,0:0:0:0:
256,192,92800,1,0,0:0:0:0:
256,192,92950,1,0,0:0:0:0:
224,192,93100,1,8,0:0:0:0:
256,192,93150,1,8,0:0:0:0:
256,192,93200,1,8,0:0:0:0:
256,192,93250,1,0,0:0:0:0:
256,192,93400,1,8,0:0:0:0:
256,192,93475,1,0,0:0:0:0:
224,192,93550,1,8,0:0:0:0:
256,192,93700,1,8,0:0:0:0:
256,192,93775,1,8,0:0:0:0:
256,192,93850,1,0,0:0:0:0:
256,192,94000,1,8,0:0:0:0:
256,192,94150,1,0,0:0:0:0:
256,192,94225,1,0,0:0:0:0:
256,192,94300,1,8,0:0:0:0:
256,192,94450,1,8,0:0:0:0:
256,192,94600,1,0,0:0:0:0:
256,192,94675,1,0,0:0:0:0:
256,192,94750,1,8,0:0:0:0:
256,192,94825,1,0,0:0:0:0:
256,192,94900,1,0,0:0:0:0:
256,192,94975,1,0,0:0:0:0:
256,192,95050,1,8,0:0:0:0:
256,192,95125,1,8,0:0:0:0:
256,192,95200,1,0,0:0:0:0:
512,384,95275,1,0,0:0:0:0:
256,192,95350,1,0,0:0:0:0:
256,192,95425,1,0,0:0:0:0:
256,192,95500,1,8,0:0:0:0:
256,192,95575,1,0,0:0:0:0:
256,192,95650,1,8,0:0:0:0:
256,192,95725,1,8,0:0:0:0:
256,192,95800,1,0,0:0:0:0:
256,192,96100,1,0,0:0:0:0:
256,192,96250,1,0,0:0:0:0:
256,192,96325,1,0,0:0:0:0:
256,192,96400,1,8,0:0:0:0:
256,192,96475,1,0,0:0:0:0:
256,192,96550,1,8,0:0:0:0:
256,192,96625,1,8,0:0:0:0:
64,320,96700,1,4,0:0:0:0:
256,192,97000,1,0,0:0:0:0:
256,192,97075,1,0,0:0:0:0:
256,192,97150,1,8,0:0:0:0:
224,160,97225,1,0,0:0:0:0:
224,160,97300,1,8,0:0:0:0:
224,160,97375,1,8,0:0:0:0:
224,160,97450,1,0,0:0:0:0:
224,160,97525,1,0,0:0:0:0:
224,160,97600,1,8,0:0:0:0:
224,160,97675,1,0,0:0:0:0:
224,160,97750,1,8,0:0:0:0:
224,160,97825,1,8,0:0:0:0:
224,160,97900,1,0,0:0:0:0:
224,160,97975,1,0,0:0:0:0:
224,160,98050,1,8,0:0:0:0:
224,160,98125,1,8,0:0:0:0:
224,160,98200,1,0,0:0:0:0:
224,160,98275,1,0,0:0:0:0:
224,160,98350,1,8,0:0:0:0:
224,160,98425,1,0,0:0:0:0:
224,160,98500,1,0,0:0:0:0:
224,160,98575,1,0,0:0:0:0:
224,160,98650,1,8,0:0:0:0:
224,160,98725,1,0,0:0:0:0:
224,160,98800,1,8,0:0:0:0:
224,160,98875,1,8,0:0:0:0:
224,160,98950,1,0,0:0:0:0:
224,160,99025,1,8,0:0:0:0:
224,160,99100,1,0,0:0:0:0:
224,160,99175,1,0,0:0:0:0:
224,160,99250,1,8,0:0:0:0:
224,160,99325,1,8,0:0:0:0:
224,160,99400,1,0,0:0:0:0:
224,192,99475,1,0,0:0:0:0:
224,160,99550,1,8,0:0:0:0:
224,160,99625,1,0,0:0:0:0:
224,160,99700,1,0,0:0:0:0:
224,160,99775,1,0,0:0:0:0:
224,160,99850,1,8,0:0:0:0:
224,160,99925,1,8,0:0:0:0:
224,160,100000,1,0,0:0:0:0:
224,160,100075,1,8,0:0:0:0:
224,160,100150,1,0,0:0:0:0:
224,160,100225,1,0,0:0:0:0:
224,160,100300,1,8,0:0:0:0:
224,160,100375,1,0,0:0:0:0:
224,160,100450,1,8,0:0:0:0:
224,160,100525,1,8,0:0:0:0:
224,160,100600,1,0,0:0:0:0:
64,64,100675,1,0,0:0:0:0:
224,160,100750,1,8,0:0:0:0:
448,64,100900,1,8,0:0:0:0:
64,64,100975,1,0,0:0:0:0:
448,64,101050,1,8,0:0:0:0:
224,160,101125,1,8,0:0:0:0:
224,160,101200,1,0,0:0:0:0:
224,160,101275,1,0,0:0:0:0:
256,160,101350,1,8,0:0:0:0:
224,160,101500,1,8,0:0:0:0:
256,160,101650,1,8,0:0:0:0:
256,160,101700,1,8,0:0:0:0:
256,160,101750,1,8,0:0:0:0:
256,160,101800,1,0,0:0:0:0:
256,160,101875,1,0,0:0:0:0:
256,160,101950,1,8,0:0:0:0:
256,160,102025,1,0,0:0:0:0:
256,160,102100,1,8,0:0:0:0:
256,160,102175,1,8,0:0:0:0:
256,160,102250,1,0,0:0:0:0:
256,160,102325,1,8,0:0:0:0:
256,160,102400,1,0,0:0:0:0:
256,160,102475,1,0,0:0:0:0:
256,160,102550,1,8,0:0:0:0:
256,160,102625,1,0,0:0:0:0:
256,160,102700,1,8,0:0:0:0:
256,160,102775,1,8,0:0:0:0:
256,160,102850,1,0,0:0:0:0:
256,160,102925,1,0,0:0:0:0:
256,160,103000,1,8,0:0:0:0:
256,160,103075,1,8,0:0:0:0:
256,160,103150,1,0,0:0:0:0:
256,160,103225,1,0,0:0:0:0:
256,160,103300,1,8,0:0:0:0:
256,160,103375,1,0,0:0:0:0:
256,160,103450,1,8,0:0:0:0:
256,160,103525,1,8,0:0:0:0:
256,160,103600,1,0,0:0:0:0:
256,160,103675,1,0,0:0:0:0:
256,160,103750,1,8,0:0:0:0:
256,160,103825,1,0,0:0:0:0:
256,160,103900,1,8,0:0:0:0:
256,160,103975,1,8,0:0:0:0:
256,160,104050,1,0,0:0:0:0:
256,160,104125,1,8,0:0:0:0:
256,160,104200,1,0,0:0:0:0:
64,64,104275,1,0,0:0:0:0:
256,160,104350,1,8,0:0:0:0:
256,160,104500,1,8,0:0:0:0:
256,160,104650,1,8,0:0:0:0:
256,160,104800,1,8,0:0:0:0:
256,160,104875,1,8,0:0:0:0:
256,160,104950,1,0,0:0:0:0:
256,160,105025,1,0,0:0:0:0:
256,160,105100,1,8,0:0:0:0:
256,160,105250,1,0,0:0:0:0:
256,160,105325,1,0,0:0:0:0:
256,160,105400,1,8,0:0:0:0:
448,64,105475,1,8,0:0:0:0:
224,160,105550,1,0,0:0:0:0:
224,160,105700,1,8,0:0:0:0:
224,160,105850,1,0,0:0:0:0:
256,160,106000,1,8,0:0:0:0:
256,160,106075,1,8,0:0:0:0:
256,160,106150,1,0,0:0:0:0:
256,160,106225,1,8,0:0:0:0:
64,64,106300,1,0,0:0:0:0:
256,192,106600,1,8,0:0:0:0:
256,128,106675,1,8,0:0:0:0:
256,160,106750,1,0,0:0:0:0:
256,160,106825,1,8,0:0:0:0:
256,160,106900,1,0,0:0:0:0:
256,160,106975,1,0,0:0:0:0:
256,160,107050,1,8,0:0:0:0:
256,160,107125,1,0,0:0:0:0:
256,160,107200,1,0,0:0:0:0:
256,160,107275,1,0,0:0:0:0:
256,160,107350,1,8,0:0:0:0:
256,160,107425,1,8,0:0:0:0:
256,160,107500,1,0,0:0:0:0:
256,160,107575,1,8,0:0:0:0:
256,160,107650,1,0,0:0:0:0:
256,160,107725,1,0,0:0:0:0:
256,160,107800,1,8,0:0:0:0:
256,160,107875,1,0,0:0:0:0:
256,160,107950,1,0,0:0:0:0:
256,160,108025,1,0,0:0:0:0:
256,160,108100,1,8,0:0:0:0:
256,160,108175,1,8,0:0:0:0:
256,160,108250,1,0,0:0:0:0:
256,160,108325,1,8,0:0:0:0:
256,160,108400,1,0,0:0:0:0:
271,177,108475,1,8,0:0:0:0:
256,160,108550,1,0,0:0:0:0:
256,160,108600,1,0,0:0:0:0:
256,160,108650,1,0,0:0:0:0:
256,160,108700,1,8,0:0:0:0:
256,160,108850,1,8,0:0:0:0:
256,160,109000,1,0,0:0:0:0:
256,160,109075,1,8,0:0:0:0:
256,160,109150,1,0,0:0:0:0:
256,160,109225,1,0,0:0:0:0:
256,160,109300,1,8,0:0:0:0:
256,160,109450,1,8,0:0:0:0:
256,160,109525,1,8,0:0:0:0:
256,160,109600,1,0,0:0:0:0:
256,160,109675,1,0,0:0:0:0:
256,160,109750,1,8,0:0:0:0:
256,160,109825,1,0,0:0:0:0:
256,160,109900,1,8,0:0:0:0:
256,160,109975,1,0,0:0:0:0:
256,160,110050,1,8,0:0:0:0:
256,160,110125,1,8,0:0:0:0:
256,160,110200,1,0,0:0:0:0:
256,192,110275,1,0,0:0:0:0:
256,160,110350,1,8,0:0:0:0:
256,160,110500,1,8,0:0:0:0:
256,160,110650,1,8,0:0:0:0:
256,160,110725,1,8,0:0:0:0:
256,160,110800,1,0,0:0:0:0:
256,160,110950,1,0,0:0:0:0:
448,320,111100,1,12,0:0:0:0:
256,192,111400,1,0,0:0:0:0:
256,128,111475,1,0,0:0:0:0:
256,160,111550,1,8,0:0:0:0:
256,160,111625,1,0,0:0:0:0:
256,160,111700,1,8,0:0:0:0:
256,160,111775,1,8,0:0:0:0:
256,160,111850,1,0,0:0:0:0:
256,160,111925,1,8,0:0:0:0:
256,160,112000,1,8,0:0:0:0:
256,160,112075,1,8,0:0:0:0:
256,160,112150,1,0,0:0:0:0:
256,160,112225,1,0,0:0:0:0:
256,160,112300,1,8,0:0:0:0:
256,160,112375,1,0,0:0:0:0:
256,160,112450,1,8,0:0:0:0:
256,160,112525,1,8,0:0:0:0:
256,160,112600,1,0,0:0:0:0:
256,160,112675,1,8,0:0:0:0:
256,160,112750,1,8,0:0:0:0:
256,160,112825,1,8,0:0:0:0:
256,160,112900,1,0,0:0:0:0:
256,160,112975,1,0,0:0:0:0:
256,160,113050,1,8,0:0:0:0:
256,160,113125,1,0,0:0:0:0:
256,160,113200,1,8,0:0:0:0:
249,165,113275,1,8,0:0:0:0:
256,160,113350,1,0,0:0:0:0:
256,160,113400,1,0,0:0:0:0:
256,160,113450,1,0,0:0:0:0:
256,160,113500,1,8,0:0:0:0:
256,160,113650,1,8,0:0:0:0:
448,64,113725,1,8,0:0:0:0:
256,160,113800,1,0,0:0:0:0:
256,160,113875,1,8,0:0:0:0:
256,160,113950,1,0,0:0:0:0:
256,160,114100,1,8,0:0:0:0:
448,64,114175,1,8,0:0:0:0:
64,64,114250,1,0,0:0:0:0:
256,160,114325,1,8,0:0:0:0:
256,160,114400,1,0,0:0:0:0:
256,160,114475,1,0,0:0:0:0:
256,160,114550,1,8,0:0:0:0:
256,160,114625,1,0,0:0:0:0:
256,160,114700,1,8,0:0:0:0:
256,160,114775,1,0,0:0:0:0:
256,160,114850,1,8,0:0:0:0:
256,160,114925,1,8,0:0:0:0:
256,160,115000,1,0,0:0:0:0:
256,160,115150,1,8,0:0:0:0:
256,160,115300,1,8,0:0:0:0:
256,160,115450,1,8,0:0:0:0:
64,64,115525,1,0,0:0:0:0:
256,160,115600,1,0,0:0:0:0:
256,160,115750,1,0,0:0:0:0:
256,192,115825,1,0,0:0:0:0:
256,160,115900,1,8,0:0:0:0:
256,160,116050,1,8,0:0:0:0:
256,160,116125,1,8,0:0:0:0:
256,192,116200,1,0,0:0:0:0:
256,192,116275,1,0,0:0:0:0:
256,192,116350,1,8,0:0:0:0:
224,160,116425,1,0,0:0:0:0:
224,160,116500,1,8,0:0:0:0:
224,160,116575,1,8,0:0:0:0:
224,160,116650,1,0,0:0:0:0:
224,160,116725,1,0,0:0:0:0:
224,160,116800,1,8,0:0:0:0:
224,160,116875,1,0,0:0:0:0:
224,160,116950,1,8,0:0:0:0:
224,160,117025,1,8,0:0:0:0:
224,160,117100,1,0,0:0:0:0:
224,160,117175,1,0,0:0:0:0:
224,160,117250,1,8,0:0:0:0:
224,160,117325,1,8,0:0:0:0:
224,160,117400,1,0,0:0:0:0:
224,160,117475,1,0,0:0:0:0:
224,160,117550,1,8,0:0:0:0:
224,160,117625,1,0,0:0:0:0:
224,160,117700,1,0,0:0:0:0:
224,160,117775,1,0,0:0:0:0:
224,160,117850,1,8,0:0:0:0:
224,160,117925,1,0,0:0:0:0:
224,160,118000,1,8,0:0:0:0:
224,160,118075,1,8,0:0:0:0:
224,160,118150,1,0,0:0:0:0:
224,160,118225,1,8,0:0:0:0:
224,160,118300,1,0,0:0:0:0:
224,160,118375,1,0,0:0:0:0:
224,160,118450,1,8,0:0:0:0:
224,160,118525,1,8,0:0:0:0:
224,160,118600,1,0,0:0:0:0:
224,192,118675,1,0,0:0:0:0:
224,160,118750,1,8,0:0:0:0:
224,160,118825,1,0,0:0:0:0:
224,160,118900,1,0,0:0:0:0:
224,160,118975,1,0,0:0:0:0:
224,160,119050,1,8,0:0:0:0:
224,160,119125,1,8,0:0:0:0:
224,160,119200,1,0,0:0:0:0:
224,160,119275,1,8,0:0:0:0:
224,160,119350,1,0,0:0:0:0:
224,160,119425,1,0,0:0:0:0:
224,160,119500,1,8,0:0:0:0:
224,160,119575,1,0,0:0:0:0:
224,160,119650,1,8,0:0:0:0:
224,160,119725,1,8,0:0:0:0:
224,160,119800,1,0,0:0:0:0:
224,160,119950,1,8,0:0:0:0:
224,160,120025,1,8,0:0:0:0:
224,160,120100,1,0,0:0:0:0:
224,160,120250,1,0,0:0:0:0:
224,160,120325,1,8,0:0:0:0:
224,160,120400,1,0,0:0:0:0:
224,160,120475,1,0,0:0:0:0:
256,160,120550,1,8,0:0:0:0:
224,160,120700,1,8,0:0:0:0:
256,160,120850,1,8,0:0:0:0:
256,160,120900,1,8,0:0:0:0:
256,160,120950,1,8,0:0:0:0:
256,160,121000,1,0,0:0:0:0:
256,160,121075,1,0,0:0:0:0:
256,160,121150,1,8,0:0:0:0:
256,160,121225,1,0,0:0:0:0:
256,160,121300,1,8,0:0:0:0:
256,160,121375,1,8,0:0:0:0:
256,160,121450,1,0,0:0:0:0:
256,160,121525,1,8,0:0:0:0:
256,160,121600,1,0,0:0:0:0:
256,160,121675,1,0,0:0:0:0:
256,160,121750,1,8,0:0:0:0:
256,160,121825,1,0,0:0:0:0:
256,160,121900,1,8,0:0:0:0:
256,160,121975,1,8,0:0:0:0:
256,160,122050,1,0,0:0:0:0:
256,160,122125,1,0,0:0:0:0:
256,160,122200,1,8,0:0:0:0:
256,160,122275,1,8,0:0:0:0:
256,160,122350,1,0,0:0:0:0:
256,160,122425,1,0,0:0:0:0:
256,160,122500,1,8,0:0:0:0:
256,160,122575,1,0,0:0:0:0:
256,160,122650,1,8,0:0:0:0:
256,160,122725,1,8,0:0:0:0:
256,160,122800,1,0,0:0:0:0:
256,160,122875,1,0,0:0:0:0:
256,160,122950,1,8,0:0:0:0:
256,160,123025,1,0,0:0:0:0:
256,160,123100,1,8,0:0:0:0:
256,160,123175,1,8,0:0:0:0:
256,160,123250,1,0,0:0:0:0:
256,160,123325,1,0,0:0:0:0:
256,160,123400,1,8,0:0:0:0:
256,160,123475,1,8,0:0:0:0:
256,160,123550,1,8,0:0:0:0:
256,160,123700,1,8,0:0:0:0:
256,160,123850,1,8,0:0:0:0:
256,160,124000,1,8,0:0:0:0:
256,160,124075,1,8,0:0:0:0:
256,160,124150,1,0,0:0:0:0:
256,160,124225,1,0,0:0:0:0:
256,160,124300,1,8,0:0:0:0:
256,160,124450,1,0,0:0:0:0:
256,160,124600,1,8,0:0:0:0:
224,160,124750,1,0,0:0:0:0:
224,192,124825,1,0,0:0:0:0:
224,160,124900,1,8,0:0:0:0:
224,160,125050,1,8,0:0:0:0:
256,160,125125,1,0,0:0:0:0:
256,160,125200,1,8,0:0:0:0:
256,160,125350,1,0,0:0:0:0:
448,320,125500,1,12,0:0:0:0:
256,192,125800,1,8,0:0:0:0:
256,128,125875,1,8,0:0:0:0:
256,160,125950,1,0,0:0:0:0:
256,160,126025,1,8,0:0:0:0:
256,160,126100,1,0,0:0:0:0:
256,160,126175,1,0,0:0:0:0:
256,160,126250,1,8,0:0:0:0:
256,160,126325,1,0,0:0:0:0:
256,160,126400,1,0,0:0:0:0:
256,160,126475,1,0,0:0:0:0:
256,160,126550,1,8,0:0:0:0:
256,160,126625,1,8,0:0:0:0:
256,160,126700,1,0,0:0:0:0:
256,160,126775,1,8,0:0:0:0:
256,160,126850,1,0,0:0:0:0:
256,160,126925,1,0,0:0:0:0:
256,160,127000,1,8,0:0:0:0:
256,160,127075,1,0,0:0:0:0:
256,160,127150,1,0,0:0:0:0:
256,160,127225,1,0,0:0:0:0:
256,160,127300,1,8,0:0:0:0:
256,160,127375,1,8,0:0:0:0:
256,160,127450,1,0,0:0:0:0:
256,160,127525,1,8,0:0:0:0:
256,160,127600,1,0,0:0:0:0:
256,160,127750,1,0,0:0:0:0:
256,160,127825,1,8,0:0:0:0:
256,160,127900,1,0,0:0:0:0:
256,160,128050,1,8,0:0:0:0:
256,160,128200,1,0,0:0:0:0:
256,160,128275,1,8,0:0:0:0:
256,160,128350,1,0,0:0:0:0:
256,160,128425,1,0,0:0:0:0:
256,160,128500,1,8,0:0:0:0:
256,160,128650,1,8,0:0:0:0:
256,160,128725,1,8,0:0:0:0:
256,160,128800,1,0,0:0:0:0:
256,160,128875,1,0,0:0:0:0:
256,160,128950,1,8,0:0:0:0:
256,160,129025,1,0,0:0:0:0:
256,160,129100,1,8,0:0:0:0:
256,160,129175,1,0,0:0:0:0:
256,160,129250,1,8,0:0:0:0:
256,160,129325,1,8,0:0:0:0:
256,160,129400,1,0,0:0:0:0:
256,192,129475,1,0,0:0:0:0:
256,160,129550,1,8,0:0:0:0:
256,160,129700,1,8,0:0:0:0:
256,160,129775,1,8,0:0:0:0:
256,160,129850,1,0,0:0:0:0:
256,160,130000,1,0,0:0:0:0:
256,160,130150,1,0,0:0:0:0:
256,192,130225,1,0,0:0:0:0:
256,160,130300,1,8,0:0:0:0:
256,192,130450,1,8,0:0:0:0:
256,192,130500,1,8,0:0:0:0:
256,192,130550,1,8,0:0:0:0:
256,192,130600,1,0,0:0:0:0:
256,192,130675,1,0,0:0:0:0:
256,192,130750,1,8,0:0:0:0:
256,192,130825,1,0,0:0:0:0:
256,192,130900,1,0,0:0:0:0:
256,192,130975,1,0,0:0:0:0:
256,192,131050,1,8,0:0:0:0:
256,192,131125,1,0,0:0:0:0:
256,192,131200,1,8,0:0:0:0:
256,192,131275,1,8,0:0:0:0:
256,192,131350,1,0,0:0:0:0:
256,192,131425,1,8,0:0:0:0:
256,192,131500,1,0,0:0:0:0:
256,192,131575,1,0,0:0:0:0:
256,192,131650,1,8,0:0:0:0:
256,192,131725,1,0,0:0:0:0:
256,192,131800,1,8,0:0:0:0:
256,192,131875,1,8,0:0:0:0:
256,192,131950,1,0,0:0:0:0:
256,192,132025,1,8,0:0:0:0:
256,192,132100,1,0,0:0:0:0:
256,192,132175,1,0,0:0:0:0:
256,192,132250,1,8,0:0:0:0:
256,192,132325,1,0,0:0:0:0:
256,192,132400,1,8,0:0:0:0:
256,192,132475,1,8,0:0:0:0:
256,192,132550,1,0,0:0:0:0:
256,192,132625,1,8,0:0:0:0:
256,192,132700,1,0,0:0:0:0:
256,192,132775,1,0,0:0:0:0:
256,192,132850,1,8,0:0:0:0:
256,192,133000,1,8,0:0:0:0:
64,64,133075,1,0,0:0:0:0:
288,192,133150,1,8,0:0:0:0:
256,192,133300,1,0,0:0:0:0:
448,64,133375,1,8,0:0:0:0:
64,64,133450,1,0,0:0:0:0:
256,192,133525,1,8,0:0:0:0:
256,192,133600,1,8,0:0:0:0:
64,64,133675,1,0,0:0:0:0:
64,64,133750,1,0,0:0:0:0:
256,192,133825,1,0,0:0:0:0:
256,192,133900,1,8,0:0:0:0:
64,64,133975,1,0,0:0:0:0:
448,64,134050,1,8,0:0:0:0:
448,64,134125,1,8,0:0:0:0:
288,192,134200,1,0,0:0:0:0:
448,64,134800,1,8,0:0:0:0:
448,64,134950,1,8,0:0:0:0:
448,64,135100,1,8,0:0:0:0:
448,64,135175,1,8,0:0:0:0:
448,64,135250,1,8,0:0:0:0:
448,64,135325,1,8,0:0:0:0:
166,191,135400,5,0,0:0:0:0:
160,128,135550,1,8,0:0:0:0:
160,128,135625,1,8,0:0:0:0:
160,128,135700,1,0,0:0:0:0:
160,128,135775,1,0,0:0:0:0:
224,192,135850,1,8,0:0:0:0:
224,192,136000,1,0,0:0:0:0:
224,192,136150,1,8,0:0:0:0:
224,192,136300,1,0,0:0:0:0:
224,192,136450,1,8,0:0:0:0:
224,192,136525,1,8,0:0:0:0:
96,128,136600,1,0,0:0:0:0:
192,64,136675,1,0,0:0:0:0:
96,128,136750,1,8,0:0:0:0:
128,128,136825,1,0,0:0:0:0:
192,160,136900,1,0,0:0:0:0:
192,128,136975,1,0,0:0:0:0:
192,160,137050,1,8,0:0:0:0:
192,160,137200,1,8,0:0:0:0:
96,160,137350,1,0,0:0:0:0:
96,160,137425,1,8,0:0:0:0:
96,160,137500,1,0,0:0:0:0:
128,160,137650,1,8,0:0:0:0:
128,160,137800,1,0,0:0:0:0:
160,160,137875,1,0,0:0:0:0:
160,160,137950,1,8,0:0:0:0:
160,160,138025,1,8,0:0:0:0:
160,160,138100,1,0,0:0:0:0:
128,192,138175,1,0,0:0:0:0:
128,224,138250,1,8,0:0:0:0:
128,160,138400,1,0,0:0:0:0:
128,160,138550,1,8,0:0:0:0:
128,192,138625,1,0,0:0:0:0:
128,160,138700,1,0,0:0:0:0:
128,160,138775,1,0,0:0:0:0:
128,160,138850,1,8,0:0:0:0:
128,160,138925,1,8,0:0:0:0:
128,192,139000,1,0,0:0:0:0:
160,160,139075,1,0,0:0:0:0:
128,192,139150,1,8,0:0:0:0:
160,160,139300,1,0,0:0:0:0:
160,160,139450,1,8,0:0:0:0:
160,160,139600,1,0,0:0:0:0:
128,160,139750,1,0,0:0:0:0:
128,160,139900,1,8,0:0:0:0:
128,160,140050,1,0,0:0:0:0:
128,192,140350,1,0,0:0:0:0:
128,192,140500,1,0,0:0:0:0:
160,192,140650,1,8,0:0:0:0:
160,192,140800,1,0,0:0:0:0:
160,192,140950,1,8,0:0:0:0:
160,160,141025,1,8,0:0:0:0:
160,192,141100,1,0,0:0:0:0:
128,160,141175,1,0,0:0:0:0:
128,160,141250,1,8,0:0:0:0:
128,128,141400,1,0,0:0:0:0:
160,128,141475,1,0,0:0:0:0:
128,128,141550,1,8,0:0:0:0:
160,192,141700,1,0,0:0:0:0:
160,192,141850,1,8,0:0:0:0:
160,192,142000,1,0,0:0:0:0:
192,192,142150,1,8,0:0:0:0:
192,192,142225,1,0,0:0:0:0:
192,160,142300,1,0,0:0:0:0:
192,64,142375,1,0,0:0:0:0:
192,192,142450,1,8,0:0:0:0:
192,128,142600,1,0,0:0:0:0:
160,128,142675,1,0,0:0:0:0:
192,192,142750,1,8,0:0:0:0:
160,160,142825,1,8,0:0:0:0:
192,192,142900,1,0,0:0:0:0:
160,160,142975,1,0,0:0:0:0:
192,192,143050,1,8,0:0:0:0:
192,192,143200,1,0,0:0:0:0:
224,160,143350,1,8,0:0:0:0:
224,160,143425,1,0,0:0:0:0:
192,160,143500,1,0,0:0:0:0:
192,192,143575,1,0,0:0:0:0:
224,160,143650,1,8,0:0:0:0:
192,192,143725,1,8,0:0:0:0:
224,160,143800,1,0,0:0:0:0:
160,192,143875,1,0,0:0:0:0:
192,192,143950,1,8,0:0:0:0:
192,160,144100,1,0,0:0:0:0:
192,160,144250,1,8,0:0:0:0:
192,160,144400,1,0,0:0:0:0:
192,160,144700,1,8,0:0:0:0:
128,192,144850,1,0,0:0:0:0:
32,192,144925,1,0,0:0:0:0:
64,192,145000,1,0,0:0:0:0:
192,192,145150,1,8,0:0:0:0:
192,192,145225,1,8,0:0:0:0:
192,192,145300,1,0,0:0:0:0:
224,192,145375,1,0,0:0:0:0:
224,192,145450,1,8,0:0:0:0:
160,192,145600,1,0,0:0:0:0:
160,192,145750,1,8,0:0:0:0:
160,160,145825,1,8,0:0:0:0:
160,192,145900,1,0,0:0:0:0:
32,192,145975,1,0,0:0:0:0:
160,192,146050,1,8,0:0:0:0:
64,192,146125,1,0,0:0:0:0:
96,160,146200,1,0,0:0:0:0:
96,160,146275,1,0,0:0:0:0:
128,160,146350,1,8,0:0:0:0:
160,192,146500,1,8,0:0:0:0:
160,192,146650,1,0,0:0:0:0:
160,192,146800,1,8,0:0:0:0:
160,160,146950,1,0,0:0:0:0:
128,160,147025,1,8,0:0:0:0:
160,160,147100,1,0,0:0:0:0:
160,128,147250,1,8,0:0:0:0:
192,160,147400,1,0,0:0:0:0:
192,96,147550,1,8,0:0:0:0:
192,32,147625,1,8,0:0:0:0:
160,160,147700,1,0,0:0:0:0:
160,160,147775,1,0,0:0:0:0:
160,160,147850,1,8,0:0:0:0:
160,160,148000,1,0,0:0:0:0:
160,160,148150,1,8,0:0:0:0:
160,160,148225,1,0,0:0:0:0:
160,160,148300,1,0,0:0:0:0:
160,160,148375,1,0,0:0:0:0:
160,160,148450,1,8,0:0:0:0:
160,160,148525,1,8,0:0:0:0:
160,160,148600,1,0,0:0:0:0:
160,160,148675,1,0,0:0:0:0:
160,160,148750,1,8,0:0:0:0:
160,160,148900,1,0,0:0:0:0:
160,160,149050,1,8,0:0:0:0:
160,160,149200,1,0,0:0:0:0:
192,160,149350,1,0,0:0:0:0:
192,160,149500,1,8,0:0:0:0:
192,160,149650,1,0,0:0:0:0:
192,160,149950,1,0,0:0:0:0:
192,160,150100,1,0,0:0:0:0:
192,160,150250,1,8,0:0:0:0:
160,160,150325,1,0,0:0:0:0:
192,160,150400,1,0,0:0:0:0:
192,128,150550,1,8,0:0:0:0:
160,160,150625,1,8,0:0:0:0:
160,160,150700,1,0,0:0:0:0:
160,160,150850,1,8,0:0:0:0:
160,160,151000,1,0,0:0:0:0:
128,160,151075,1,8,0:0:0:0:
128,160,151150,1,0,0:0:0:0:
151,149,151225,1,0,0:0:0:0:
128,160,151300,1,8,0:0:0:0:
128,160,151450,1,0,0:0:0:0:
64,64,151525,1,0,0:0:0:0:
128,160,151600,1,8,0:0:0:0:
157,144,151675,1,0,0:0:0:0:
151,149,151750,1,8,0:0:0:0:
128,160,151825,1,8,0:0:0:0:
128,160,151900,1,0,0:0:0:0:
64,64,151975,1,0,0:0:0:0:
128,160,152050,1,8,0:0:0:0:
128,160,152200,1,0,0:0:0:0:
128,192,152350,1,8,0:0:0:0:
128,192,152425,1,8,0:0:0:0:
128,192,152500,1,0,0:0:0:0:
128,192,152650,1,8,0:0:0:0:
128,192,152800,1,0,0:0:0:0:
128,160,152950,1,8,0:0:0:0:
128,160,153025,1,0,0:0:0:0:
128,160,153100,1,0,0:0:0:0:
160,128,153175,1,0,0:0:0:0:
128,160,153250,1,8,0:0:0:0:
128,160,153400,1,8,0:0:0:0:
128,128,153475,1,8,0:0:0:0:
128,160,153550,1,0,0:0:0:0:
128,160,153700,1,0,0:0:0:0:
128,160,153850,1,8,0:0:0:0:
128,160,154000,1,8,0:0:0:0:
128,160,154225,1,8,0:0:0:0:
128,160,154300,1,0,0:0:0:0:
96,160,154450,1,8,0:0:0:0:
96,160,154525,1,8,0:0:0:0:
96,160,154600,1,0,0:0:0:0:
128,192,154675,1,0,0:0:0:0:
96,192,154750,1,8,0:0:0:0:
128,192,154825,1,0,0:0:0:0:
192,96,154975,1,0,0:0:0:0:
96,160,155050,1,8,0:0:0:0:
96,160,155200,1,0,0:0:0:0:
128,128,155275,1,0,0:0:0:0:
96,160,155350,1,8,0:0:0:0:
96,160,155425,1,0,0:0:0:0:
96,160,155500,1,8,0:0:0:0:
128,128,155575,1,8,0:0:0:0:
160,160,155650,1,0,0:0:0:0:
160,160,155800,1,8,0:0:0:0:
96,128,155875,1,8,0:0:0:0:
160,128,155950,1,0,0:0:0:0:
160,128,156025,1,8,0:0:0:0:
160,128,156100,1,0,0:0:0:0:
128,128,156175,1,0,0:0:0:0:
160,160,156250,1,8,0:0:0:0:
160,160,156400,1,8,0:0:0:0:
64,160,156475,1,8,0:0:0:0:
128,128,156550,1,0,0:0:0:0:
192,128,156625,1,0,0:0:0:0:
64,160,156700,1,8,0:0:0:0:
96,160,156850,1,8,0:0:0:0:
96,160,157000,1,0,0:0:0:0:
160,96,157075,1,0,0:0:0:0:
160,160,157150,1,8,0:0:0:0:
160,160,157225,1,0,0:0:0:0:
96,160,157300,1,0,0:0:0:0:
128,128,157450,1,8,0:0:0:0:
128,128,157600,1,0,0:0:0:0:
160,160,157675,1,0,0:0:0:0:
160,160,157750,1,8,0:0:0:0:
192,192,157825,1,0,0:0:0:0:
128,192,157975,1,0,0:0:0:0:
160,128,158050,1,8,0:0:0:0:
160,160,158200,1,0,0:0:0:0:
192,160,158350,1,8,0:0:0:0:
160,128,158425,1,0,0:0:0:0:
192,160,158500,1,0,0:0:0:0:
192,160,158650,1,8,0:0:0:0:
128,128,158725,1,0,0:0:0:0:
192,160,158800,1,0,0:0:0:0:
128,128,158875,1,8,0:0:0:0:
128,160,158950,1,0,0:0:0:0:
160,160,159100,1,8,0:0:0:0:
160,160,159250,1,0,0:0:0:0:
160,128,159325,1,8,0:0:0:0:
160,96,159400,1,8,0:0:0:0:
128,160,159475,1,0,0:0:0:0:
128,128,159550,1,0,0:0:0:0:
128,160,159625,1,8,0:0:0:0:
128,160,159700,1,0,0:0:0:0:
128,256,159850,1,8,0:0:0:0:
128,256,160000,1,0,0:0:0:0:
160,192,160075,1,0,0:0:0:0:
128,256,160150,1,8,0:0:0:0:
128,160,160225,1,0,0:0:0:0:
160,96,160300,1,8,0:0:0:0:
160,192,160450,1,0,0:0:0:0:
192,128,160525,1,0,0:0:0:0:
160,192,160600,1,8,0:0:0:0:
128,128,160750,1,0,0:0:0:0:
160,32,160825,1,8,0:0:0:0:
128,128,160900,1,0,0:0:0:0:
192,160,160975,1,0,0:0:0:0:
160,160,161050,1,8,0:0:0:0:
104,193,161125,1,8,0:0:0:0:
160,160,161200,1,0,0:0:0:0:
160,160,161350,1,8,0:0:0:0:
128,160,161425,1,0,0:0:0:0:
160,160,161500,1,8,0:0:0:0:
192,160,161575,1,8,0:0:0:0:
192,160,161650,1,0,0:0:0:0:
128,64,161725,1,8,0:0:0:0:
192,160,161800,1,0,0:0:0:0:
160,160,161950,1,8,0:0:0:0:
160,160,162025,1,0,0:0:0:0:
160,160,162100,1,8,0:0:0:0:
128,96,162250,1,0,0:0:0:0:
128,96,162325,1,0,0:0:0:0:
128,96,162400,1,8,0:0:0:0:
160,128,162475,1,8,0:0:0:0:
160,128,162550,1,0,0:0:0:0:
96,160,162625,1,8,0:0:0:0:
96,160,162700,1,0,0:0:0:0:
224,32,162850,1,8,0:0:0:0:
224,32,162925,1,8,0:0:0:0:
192,128,163000,1,0,0:0:0:0:
128,224,163075,1,8,0:0:0:0:
128,224,163150,1,0,0:0:0:0:
128,224,163225,1,0,0:0:0:0:
128,224,163300,1,8,0:0:0:0:
192,128,163450,1,8,0:0:0:0:
128,160,163600,1,0,0:0:0:0:
128,192,163900,1,0,0:0:0:0:
128,192,164050,1,8,0:0:0:0:
96,160,164125,1,8,0:0:0:0:
96,160,164200,1,0,0:0:0:0:
128,192,164275,1,0,0:0:0:0:
96,192,164350,1,8,0:0:0:0:
128,192,164425,1,0,0:0:0:0:
192,96,164575,1,0,0:0:0:0:
96,160,164650,1,8,0:0:0:0:
96,160,164800,1,0,0:0:0:0:
128,128,164875,1,0,0:0:0:0:
96,160,164950,1,8,0:0:0:0:
96,160,165025,1,0,0:0:0:0:
96,160,165100,1,8,0:0:0:0:
128,128,165175,1,8,0:0:0:0:
160,160,165250,1,0,0:0:0:0:
160,160,165400,1,8,0:0:0:0:
96,128,165475,1,8,0:0:0:0:
160,128,165550,1,0,0:0:0:0:
160,128,165625,1,8,0:0:0:0:
160,128,165700,1,0,0:0:0:0:
128,128,165775,1,0,0:0:0:0:
160,160,165850,1,8,0:0:0:0:
160,160,166000,1,8,0:0:0:0:
64,160,166075,1,8,0:0:0:0:
128,128,166150,1,0,0:0:0:0:
192,128,166225,1,0,0:0:0:0:
64,160,166300,1,8,0:0:0:0:
96,160,166450,1,8,0:0:0:0:
96,160,166600,1,0,0:0:0:0:
160,96,166675,1,0,0:0:0:0:
160,160,166750,1,8,0:0:0:0:
160,160,166825,1,0,0:0:0:0:
96,160,166900,1,0,0:0:0:0:
128,128,167050,1,8,0:0:0:0:
128,128,167200,1,0,0:0:0:0:
160,160,167275,1,0,0:0:0:0:
160,160,167350,1,8,0:0:0:0:
192,192,167425,1,0,0:0:0:0:
128,192,167575,1,0,0:0:0:0:
160,128,167650,1,8,0:0:0:0:
160,160,167800,1,0,0:0:0:0:
192,160,167950,1,8,0:0:0:0:
160,128,168025,1,0,0:0:0:0:
192,160,168100,1,0,0:0:0:0:
192,160,168250,1,8,0:0:0:0:
128,128,168325,1,0,0:0:0:0:
192,160,168400,1,0,0:0:0:0:
128,128,168475,1,8,0:0:0:0:
128,160,168550,1,0,0:0:0:0:
160,160,168700,1,8,0:0:0:0:
160,160,168850,1,0,0:0:0:0:
160,128,168925,1,8,0:0:0:0:
160,96,169000,1,8,0:0:0:0:
128,160,169075,1,0,0:0:0:0:
128,128,169150,1,0,0:0:0:0:
128,160,169225,1,8,0:0:0:0:
128,160,169300,1,0,0:0:0:0:
128,256,169450,1,8,0:0:0:0:
128,256,169600,1,0,0:0:0:0:
160,192,169675,1,0,0:0:0:0:
128,256,169750,1,8,0:0:0:0:
128,160,169825,1,0,0:0:0:0:
160,96,169900,1,8,0:0:0:0:
160,192,170050,1,0,0:0:0:0:
192,128,170125,1,0,0:0:0:0:
160,192,170200,1,8,0:0:0:0:
128,128,170350,1,0,0:0:0:0:
160,32,170425,1,8,0:0:0:0:
128,128,170500,1,0,0:0:0:0:
192,160,170575,1,0,0:0:0:0:
160,160,170650,1,8,0:0:0:0:
160,160,170800,1,0,0:0:0:0:
160,160,170950,1,8,0:0:0:0:
128,160,171025,1,0,0:0:0:0:
160,160,171100,1,8,0:0:0:0:
192,160,171175,1,8,0:0:0:0:
192,160,171250,1,0,0:0:0:0:
128,64,171325,1,8,0:0:0:0:
192,160,171400,1,0,0:0:0:0:
110,214,171550,1,8,0:0:0:0:
110,214,171850,1,8,0:0:0:0:
111,220,172450,1,8,0:0:0:0:
112,220,172600,1,0,0:0:0:0:
111,220,172750,1,8,0:0:0:0:
126,191,173050,1,8,0:0:0:0:
115,228,173350,1,0,0:0:0:0:
115,225,173500,1,8,0:0:0:0:
86,207,173650,1,8,0:0:0:0:
86,207,173725,1,8,0:0:0:0:
135,166,173800,1,0,0:0:0:0:
110,231,173875,1,0,0:0:0:0:
100,137,174025,1,0,0:0:0:0:
122,197,174100,1,8,0:0:0:0:
145,202,174250,1,0,0:0:0:0:
122,197,174325,1,0,0:0:0:0:
122,197,174400,1,0,0:0:0:0:
50,180,174550,1,0,0:0:0:0:
50,180,174700,1,8,0:0:0:0:
112,220,174850,1,0,0:0:0:0:
110,210,175000,1,0,0:0:0:0:
157,162,175075,1,0,0:0:0:0:
112,224,175150,1,0,0:0:0:0:
138,162,175300,1,8,0:0:0:0:
111,156,175450,1,0,0:0:0:0:
111,156,175525,1,0,0:0:0:0:
107,160,175600,1,0,0:0:0:0:
111,160,175750,1,0,0:0:0:0:
111,160,175900,1,8,0:0:0:0:
147,177,176200,1,8,0:0:0:0:
147,177,176350,1,0,0:0:0:0:
147,177,176500,1,8,0:0:0:0:
141,162,176650,1,0,0:0:0:0:
192,54,176725,1,8,0:0:0:0:
141,162,176800,1,0,0:0:0:0:
141,163,176950,1,0,0:0:0:0:
141,164,177100,1,8,0:0:0:0:
113,177,177250,1,0,0:0:0:0:
113,177,177400,1,0,0:0:0:0:
149,167,177475,1,8,0:0:0:0:
113,177,177550,1,0,0:0:0:0:
113,177,177700,1,8,0:0:0:0:
161,184,177850,1,0,0:0:0:0:
157,188,177925,1,8,0:0:0:0:
161,184,178000,1,0,0:0:0:0:
159,183,178150,1,0,0:0:0:0:
157,184,178300,1,8,0:0:0:0:
159,191,178600,1,0,0:0:0:0:
166,202,178750,1,0,0:0:0:0:
166,204,178900,1,8,0:0:0:0:
166,204,179050,1,0,0:0:0:0:
174,204,179125,1,0,0:0:0:0:
174,205,179200,1,0,0:0:0:0:
174,206,179275,1,0,0:0:0:0:
174,206,179350,1,0,0:0:0:0:
182,204,179500,1,8,0:0:0:0:
183,204,179650,1,0,0:0:0:0:
183,204,179800,1,0,0:0:0:0:
188,208,179875,1,0,0:0:0:0:
186,206,179950,1,0,0:0:0:0:
177,153,180025,1,0,0:0:0:0:
186,206,180100,1,8,0:0:0:0:
188,208,180250,1,0,0:0:0:0:
188,209,180325,1,0,0:0:0:0:
188,208,180400,1,0,0:0:0:0:
188,209,180550,1,0,0:0:0:0:
188,208,180700,1,8,0:0:0:0:
188,208,181000,1,8,0:0:0:0:
188,209,181150,1,0,0:0:0:0:
184,214,181300,1,8,0:0:0:0:
184,217,181450,1,0,0:0:0:0:
155,131,181525,1,8,0:0:0:0:
184,217,181600,1,0,0:0:0:0:
185,217,181750,1,0,0:0:0:0:
185,218,181900,1,8,0:0:0:0:
187,222,182050,1,0,0:0:0:0:
129,186,182125,1,8,0:0:0:0:
155,131,182200,1,0,0:0:0:0:
152,137,182275,1,8,0:0:0:0:
155,131,182350,1,0,0:0:0:0:
154,136,182500,1,8,0:0:0:0:
155,131,182650,1,0,0:0:0:0:
163,175,182725,1,8,0:0:0:0:
155,131,182800,1,0,0:0:0:0:
163,175,183100,1,8,0:0:0:0:
135,166,183400,1,0,0:0:0:0:
100,137,183550,1,8,0:0:0:0:
122,197,183700,1,8,0:0:0:0:
145,202,183850,1,0,0:0:0:0:
122,197,183925,1,0,0:0:0:0:
122,197,184000,1,8,0:0:0:0:
50,180,184150,1,0,0:0:0:0:
50,180,184300,1,8,0:0:0:0:
112,220,184450,1,0,0:0:0:0:
110,210,184600,1,8,0:0:0:0:
157,162,184675,1,0,0:0:0:0:
112,224,184750,1,0,0:0:0:0:
138,162,184900,1,8,0:0:0:0:
111,156,185050,1,0,0:0:0:0:
111,156,185125,1,0,0:0:0:0:
107,160,185200,1,8,0:0:0:0:
111,160,185350,1,0,0:0:0:0:
111,160,185500,1,8,0:0:0:0:
168,118,185650,1,0,0:0:0:0:
172,92,185725,1,0,0:0:0:0:
147,177,185800,1,8,0:0:0:0:
169,60,185875,1,0,0:0:0:0:
147,177,186025,1,0,0:0:0:0:
147,177,186100,1,8,0:0:0:0:
141,162,186250,1,0,0:0:0:0:
192,54,186325,1,8,0:0:0:0:
141,162,186400,1,8,0:0:0:0:
141,163,186550,1,0,0:0:0:0:
141,164,186700,1,8,0:0:0:0:
113,177,186850,1,0,0:0:0:0:
113,177,187000,1,8,0:0:0:0:
149,167,187075,1,8,0:0:0:0:
113,177,187150,1,0,0:0:0:0:
113,177,187300,1,8,0:0:0:0:
161,184,187450,1,0,0:0:0:0:
157,188,187525,1,8,0:0:0:0:
161,184,187600,1,8,0:0:0:0:
159,183,187750,1,0,0:0:0:0:
157,184,187900,1,8,0:0:0:0:
159,191,188200,1,0,0:0:0:0:
166,202,188350,1,8,0:0:0:0:
166,204,188500,1,8,0:0:0:0:
166,204,188650,1,0,0:0:0:0:
174,204,188725,1,0,0:0:0:0:
174,205,188800,1,8,0:0:0:0:
174,206,188875,1,0,0:0:0:0:
174,206,188950,1,0,0:0:0:0:
182,204,189100,1,8,0:0:0:0:
183,204,189250,1,0,0:0:0:0:
183,204,189400,1,8,0:0:0:0:
188,208,189475,1,0,0:0:0:0:
186,206,189550,1,0,0:0:0:0:
186,206,189700,1,8,0:0:0:0:
188,208,189850,1,0,0:0:0:0:
188,209,189925,1,0,0:0:0:0:
188,208,190000,1,8,0:0:0:0:
188,209,190150,1,0,0:0:0:0:
188,208,190300,1,8,0:0:0:0:
171,116,190450,1,8,0:0:0:0:
188,208,190600,1,8,0:0:0:0:
55,150,190675,1,8,0:0:0:0:
188,209,190750,1,0,0:0:0:0:
184,214,190900,1,8,0:0:0:0:
184,217,191050,1,0,0:0:0:0:
155,131,191125,1,8,0:0:0:0:
184,217,191200,1,8,0:0:0:0:
134,153,191275,1,0,0:0:0:0:
185,217,191350,1,0,0:0:0:0:
185,218,191500,1,8,0:0:0:0:
187,222,191650,1,0,0:0:0:0:
139,162,191725,1,0,0:0:0:0:
155,131,191800,1,8,0:0:0:0:
152,137,191875,1,8,0:0:0:0:
155,131,191950,1,0,0:0:0:0:
154,136,192100,1,8,0:0:0:0:
155,131,192250,1,8,0:0:0:0:
122,147,192400,1,0,0:0:0:0:
123,153,192475,1,0,0:0:0:0:
122,147,192550,1,0,0:0:0:0:
122,147,192625,1,0,0:0:0:0:
163,175,192700,5,8,0:0:0:0:
139,93,193000,5,4,0:0:0:0:
256,192,193150,1,8,0:0:0:0:
256,192,193300,1,8,0:0:0:0:
256,192,193375,1,8,0:0:0:0:
256,192,193450,1,0,0:0:0:0:
256,192,193525,1,8,0:0:0:0:
256,192,193600,1,0,0:0:0:0:
256,192,193750,1,8,0:0:0:0:
256,192,193825,1,0,0:0:0:0:
256,192,193900,1,0,0:0:0:0:
256,192,193975,1,0,0:0:0:0:
256,192,194050,1,8,0:0:0:0:
256,192,194200,1,0,0:0:0:0:
256,160,194275,1,0,0:0:0:0:
256,192,194350,1,8,0:0:0:0:
256,192,194500,1,0,0:0:0:0:
256,192,194575,1,0,0:0:0:0:
256,192,194650,1,0,0:0:0:0:
256,192,194800,1,0,0:0:0:0:
256,192,194875,1,0,0:0:0:0:
256,192,194950,1,8,0:0:0:0:
64,320,195100,1,4,0:0:0:0:
256,192,195250,1,8,0:0:0:0:
256,192,195400,1,0,0:0:0:0:
256,192,195550,1,8,0:0:0:0:
256,160,195700,1,0,0:0:0:0:
256,160,195775,1,0,0:0:0:0:
256,160,195850,1,8,0:0:0:0:
256,192,195925,1,0,0:0:0:0:
256,192,196000,1,0,0:0:0:0:
256,192,196150,1,8,0:0:0:0:
256,192,196225,1,0,0:0:0:0:
256,192,196300,1,8,0:0:0:0:
256,192,196375,1,8,0:0:0:0:
256,192,196450,1,0,0:0:0:0:
256,192,196600,1,8,0:0:0:0:
256,192,196675,1,8,0:0:0:0:
256,192,196750,1,0,0:0:0:0:
256,192,196900,1,8,0:0:0:0:
256,192,196975,1,8,0:0:0:0:
256,192,197050,1,8,0:0:0:0:
256,192,197200,1,0,0:0:0:0:
256,192,197275,1,0,0:0:0:0:
256,192,197350,1,8,0:0:0:0:
448,320,197500,1,4,0:0:0:0:
256,204,197650,1,8,0:0:0:0:
256,192,197800,1,8,0:0:0:0:
256,192,197950,1,0,0:0:0:0:
256,192,198100,1,8,0:0:0:0:
256,192,198175,1,0,0:0:0:0:
256,192,198250,1,0,0:0:0:0:
256,192,198325,1,8,0:0:0:0:
256,192,198400,1,0,0:0:0:0:
256,160,198550,1,8,0:0:0:0:
256,160,198625,1,0,0:0:0:0:
256,160,198700,1,0,0:0:0:0:
256,192,198775,1,0,0:0:0:0:
256,160,198850,1,8,0:0:0:0:
256,160,199000,1,0,0:0:0:0:
256,192,199075,1,0,0:0:0:0:
256,160,199150,1,8,0:0:0:0:
256,192,199300,5,8,0:0:0:0:
256,192,199375,1,8,0:0:0:0:
256,160,199450,1,0,0:0:0:0:
256,160,199600,1,8,0:0:0:0:
256,160,199675,1,8,0:0:0:0:
256,160,199750,1,8,0:0:0:0:
64,320,199900,1,4,0:0:0:0:
247,160,200050,1,0,0:0:0:0:
256,160,200200,1,0,0:0:0:0:
256,160,200275,1,0,0:0:0:0:
256,160,200350,1,8,0:0:0:0:
256,160,200425,1,0,0:0:0:0:
288,160,200500,1,8,0:0:0:0:
288,160,200575,1,8,0:0:0:0:
256,160,200650,1,0,0:0:0:0:
256,160,200800,1,8,0:0:0:0:
256,160,200875,1,8,0:0:0:0:
256,160,200950,1,0,0:0:0:0:
256,160,201025,1,8,0:0:0:0:
256,160,201100,1,0,0:0:0:0:
256,160,201175,1,8,0:0:0:0:
246,162,201250,1,0,0:0:0:0:
244,162,201400,1,8,0:0:0:0:
244,162,201475,1,8,0:0:0:0:
244,163,201550,1,0,0:0:0:0:
244,163,201700,1,0,0:0:0:0:
244,163,201775,1,8,0:0:0:0:
244,163,201850,1,0,0:0:0:0:
246,162,202000,1,8,0:0:0:0:
244,162,202150,1,8,0:0:0:0:
244,162,202225,1,8,0:0:0:0:
244,163,202300,1,0,0:0:0:0:
230,160,202450,1,0,0:0:0:0:
233,163,202525,1,8,0:0:0:0:
234,163,202600,1,0,0:0:0:0:
221,181,202750,1,8,0:0:0:0:
226,160,202900,1,0,0:0:0:0:
225,155,202975,1,0,0:0:0:0:
218,159,203050,1,8,0:0:0:0:
218,159,203125,1,8,0:0:0:0:
218,159,203200,1,0,0:0:0:0:
216,163,203350,1,8,0:0:0:0:
217,163,203425,1,0,0:0:0:0:
217,163,203500,1,0,0:0:0:0:
217,163,203575,1,0,0:0:0:0:
217,163,203650,1,8,0:0:0:0:
218,159,203800,1,0,0:0:0:0:
211,197,203875,1,0,0:0:0:0:
229,175,203950,1,8,0:0:0:0:
234,158,204100,1,8,0:0:0:0:
212,176,204175,1,0,0:0:0:0:
213,174,204250,1,8,0:0:0:0:
216,170,204400,1,8,0:0:0:0:
217,171,204475,1,8,0:0:0:0:
220,169,204550,1,0,0:0:0:0:
64,320,204700,1,4,0:0:0:0:
223,167,204850,1,8,0:0:0:0:
139,93,205000,5,8,0:0:0:0:
256,192,205150,1,0,0:0:0:0:
256,192,205300,1,8,0:0:0:0:
256,192,205375,1,8,0:0:0:0:
256,192,205450,1,0,0:0:0:0:
256,192,205525,1,8,0:0:0:0:
256,192,205600,1,0,0:0:0:0:
256,192,205750,1,8,0:0:0:0:
256,192,205825,1,0,0:0:0:0:
256,192,205900,1,0,0:0:0:0:
256,192,205975,1,0,0:0:0:0:
256,192,206050,1,8,0:0:0:0:
256,192,206200,1,8,0:0:0:0:
256,160,206275,1,8,0:0:0:0:
256,192,206350,1,0,0:0:0:0:
256,192,206500,1,0,0:0:0:0:
256,192,206575,1,8,0:0:0:0:
256,192,206650,1,0,0:0:0:0:
256,192,206800,1,0,0:0:0:0:
256,192,206875,1,0,0:0:0:0:
256,192,206950,1,8,0:0:0:0:
64,320,207100,1,4,0:0:0:0:
256,192,207250,1,8,0:0:0:0:
256,192,207400,1,0,0:0:0:0:
256,192,207550,1,8,0:0:0:0:
256,160,207700,1,0,0:0:0:0:
256,160,207775,1,0,0:0:0:0:
256,160,207850,1,8,0:0:0:0:
256,192,207925,1,0,0:0:0:0:
256,192,208000,1,0,0:0:0:0:
256,192,208150,1,8,0:0:0:0:
256,192,208225,1,0,0:0:0:0:
256,192,208300,1,8,0:0:0:0:
256,192,208375,1,8,0:0:0:0:
256,192,208450,1,0,0:0:0:0:
256,192,208600,1,8,0:0:0:0:
256,192,208675,1,8,0:0:0:0:
256,192,208750,1,0,0:0:0:0:
256,192,208900,1,8,0:0:0:0:
256,192,208975,1,8,0:0:0:0:
256,192,209050,1,8,0:0:0:0:
256,192,209200,1,0,0:0:0:0:
256,192,209275,1,0,0:0:0:0:
256,192,209350,1,8,0:0:0:0:
448,320,209500,1,4,0:0:0:0:
256,204,209650,1,8,0:0:0:0:
256,160,209800,1,0,0:0:0:0:
256,160,209875,1,0,0:0:0:0:
256,160,209950,1,8,0:0:0:0:
256,160,210025,1,0,0:0:0:0:
288,160,210100,1,8,0:0:0:0:
288,160,210175,1,8,0:0:0:0:
256,160,210250,1,0,0:0:0:0:
256,160,210400,1,8,0:0:0:0:
256,160,210475,1,8,0:0:0:0:
256,160,210550,1,0,0:0:0:0:
256,160,210625,1,0,0:0:0:0:
256,160,210700,1,0,0:0:0:0:
256,192,210775,1,8,0:0:0:0:
246,162,210850,1,0,0:0:0:0:
244,162,211000,1,8,0:0:0:0:
244,162,211075,1,8,0:0:0:0:
244,163,211150,1,0,0:0:0:0:
244,163,211300,1,0,0:0:0:0:
244,163,211375,1,8,0:0:0:0:
244,163,211450,1,0,0:0:0:0:
246,162,211600,1,8,0:0:0:0:
244,162,211750,1,8,0:0:0:0:
244,162,211825,1,8,0:0:0:0:
244,163,211900,1,0,0:0:0:0:
230,160,212050,1,0,0:0:0:0:
224,160,212125,1,0,0:0:0:0:
233,163,212200,1,8,0:0:0:0:
224,160,212350,1,8,0:0:0:0:
224,160,212425,1,0,0:0:0:0:
224,160,212500,1,8,0:0:0:0:
224,160,212650,1,8,0:0:0:0:
224,160,212800,1,0,0:0:0:0:
224,160,212950,1,0,0:0:0:0:
224,160,213025,1,0,0:0:0:0:
224,160,213100,1,8,0:0:0:0:
224,160,213250,1,8,0:0:0:0:
224,160,213400,1,0,0:0:0:0:
224,160,213475,1,0,0:0:0:0:
224,160,213550,1,8,0:0:0:0:
224,160,213625,1,0,0:0:0:0:
224,160,213700,1,8,0:0:0:0:
224,160,213850,1,0,0:0:0:0:
224,160,214000,1,8,0:0:0:0:
224,160,214075,1,8,0:0:0:0:
224,160,214150,1,8,0:0:0:0:
224,160,214225,1,0,0:0:0:0:
224,160,214300,1,8,0:0:0:0:
224,160,214450,1,8,0:0:0:0:
224,160,214600,1,0,0:0:0:0:
224,160,214750,1,0,0:0:0:0:
224,160,214825,1,0,0:0:0:0:
224,160,214900,1,8,0:0:0:0:
224,160,215050,1,8,0:0:0:0:
224,160,215200,1,0,0:0:0:0:
224,160,215350,1,0,0:0:0:0:
224,160,215425,1,0,0:0:0:0:
224,160,215500,1,8,0:0:0:0:
192,160,215650,1,0,0:0:0:0:
224,160,215800,1,8,0:0:0:0:
224,160,215875,1,8,0:0:0:0:
224,160,215950,1,0,0:0:0:0:
224,160,216100,1,0,0:0:0:0:
224,160,216175,1,8,0:0:0:0:
224,160,216250,1,0,0:0:0:0:
224,160,216400,1,8,0:0:0:0:
224,160,216550,1,0,0:0:0:0:
224,160,216625,1,0,0:0:0:0:
224,160,216700,1,8,0:0:0:0:
224,160,216850,1,8,0:0:0:0:
224,160,217000,1,0,0:0:0:0:
224,160,217150,1,0,0:0:0:0:
224,160,217225,1,0,0:0:0:0:
224,160,217300,1,8,0:0:0:0:
224,160,217450,1,8,0:0:0:0:
224,160,217600,1,0,0:0:0:0:
224,160,217675,1,0,0:0:0:0:
224,160,217750,1,8,0:0:0:0:
224,160,217900,1,8,0:0:0:0:
224,160,217975,1,0,0:0:0:0:
224,160,218050,1,8,0:0:0:0:
224,160,218200,1,0,0:0:0:0:
224,160,218275,1,8,0:0:0:0:
224,160,218350,1,8,0:0:0:0:
224,160,218425,1,0,0:0:0:0:
256,160,218500,1,8,0:0:0:0:
224,160,218650,1,0,0:0:0:0:
256,160,218800,1,8,0:0:0:0:
256,160,218875,1,8,0:0:0:0:
256,160,218950,1,0,0:0:0:0:
256,160,219025,1,8,0:0:0:0:
256,160,219100,1,0,0:0:0:0:
224,160,219250,1,0,0:0:0:0:
256,160,219400,1,8,0:0:0:0:
256,160,219550,1,8,0:0:0:0:
256,160,219625,1,8,0:0:0:0:
256,160,219700,1,0,0:0:0:0:
256,160,219850,1,0,0:0:0:0:
256,160,220000,1,8,0:0:0:0:
256,160,220150,1,8,0:0:0:0:
256,160,220225,1,0,0:0:0:0:
256,160,220300,1,8,0:0:0:0:
256,160,220450,1,8,0:0:0:0:
256,160,220600,1,0,0:0:0:0:
224,160,220750,1,0,0:0:0:0:
224,160,220825,1,0,0:0:0:0:
224,160,220900,1,8,0:0:0:0:
224,160,221050,1,8,0:0:0:0:
224,160,221200,1,0,0:0:0:0:
224,192,221500,1,8,0:0:0:0:
224,160,221650,1,8,0:0:0:0:
224,160,221725,1,8,0:0:0:0:
224,160,221800,1,0,0:0:0:0:
224,192,221950,1,8,0:0:0:0:
224,192,222100,1,0,0:0:0:0:
224,160,222250,1,0,0:0:0:0:
224,160,222325,1,0,0:0:0:0:
224,160,222400,1,8,0:0:0:0:
224,160,222550,1,8,0:0:0:0:
224,160,222700,1,0,0:0:0:0:
224,160,222850,1,8,0:0:0:0:
224,160,223000,1,8,0:0:0:0:
224,160,223075,1,0,0:0:0:0:
224,160,223150,1,0,0:0:0:0:
224,160,223225,1,8,0:0:0:0:
224,160,223300,1,0,0:0:0:0:
224,160,223450,1,0,0:0:0:0:
224,160,223600,1,8,0:0:0:0:
224,160,223675,1,8,0:0:0:0:
224,160,223750,1,0,0:0:0:0:
224,160,223825,1,8,0:0:0:0:
224,160,223900,1,0,0:0:0:0:
224,160,224050,1,8,0:0:0:0:
224,160,224200,1,0,0:0:0:0:
224,160,224350,1,8,0:0:0:0:
224,160,224425,1,8,0:0:0:0:
224,160,224500,1,0,0:0:0:0:
224,160,224650,1,8,0:0:0:0:
224,160,224800,1,8,0:0:0:0:
224,160,224950,1,0,0:0:0:0:
224,160,225025,1,0,0:0:0:0:
224,160,225100,1,8,0:0:0:0:
192,160,225250,1,0,0:0:0:0:
224,192,225400,1,8,0:0:0:0:
224,192,225475,1,8,0:0:0:0:
224,192,225550,1,0,0:0:0:0:
224,192,225700,1,8,0:0:0:0:
224,160,225850,1,0,0:0:0:0:
224,160,225925,1,0,0:0:0:0:
224,160,226000,1,8,0:0:0:0:
224,192,226150,1,8,0:0:0:0:
224,160,226300,1,0,0:0:0:0:
224,192,226375,1,0,0:0:0:0:
224,160,226450,1,8,0:0:0:0:
224,192,226600,1,0,0:0:0:0:
224,160,226675,1,0,0:0:0:0:
224,160,226750,1,8,0:0:0:0:
224,192,226900,1,0,0:0:0:0:
224,192,227050,1,8,0:0:0:0:
224,192,227200,1,0,0:0:0:0:
224,192,227275,1,0,0:0:0:0:
224,192,227350,1,8,0:0:0:0:
224,192,227500,1,0,0:0:0:0:
224,192,227650,1,0,0:0:0:0:
224,192,227800,1,8,0:0:0:0:
224,192,227875,1,0,0:0:0:0:
224,192,227950,1,0,0:0:0:0:
224,192,228025,1,0,0:0:0:0:
224,192,228100,1,8,0:0:0:0:
224,192,228250,1,0,0:0:0:0:
224,192,228400,1,0,0:0:0:0:
224,192,228475,1,0,0:0:0:0:
224,192,228550,1,8,0:0:0:0:
256,192,228625,1,0,0:0:0:0:
224,192,228700,1,8,0:0:0:0:
256,192,228850,1,0,0:0:0:0:
64,320,229000,1,12,0:0:0:0:
256,192,229300,1,0,0:0:0:0:
224,192,229600,1,8,0:0:0:0:
224,192,229900,1,0,0:0:0:0:
256,192,230200,1,8,0:0:0:0:
256,192,230350,1,8,0:0:0:0:
256,192,230500,1,0,0:0:0:0:
256,192,230650,1,0,0:0:0:0:
256,192,230725,1,0,0:0:0:0:
256,192,230800,1,8,0:0:0:0:
256,192,231100,1,0,0:0:0:0:
256,192,231250,1,8,0:0:0:0:
256,192,231325,1,8,0:0:0:0:
256,192,231400,1,0,0:0:0:0:
256,192,231550,1,8,0:0:0:0:
256,192,231625,1,0,0:0:0:0:
256,192,231700,1,8,0:0:0:0:
256,192,231850,1,8,0:0:0:0:
256,192,232000,1,0,0:0:0:0:
256,192,232075,1,0,0:0:0:0:
256,192,232150,1,8,0:0:0:0:
256,192,232225,1,0,0:0:0:0:
256,192,232300,1,8,0:0:0:0:
256,192,232450,1,8,0:0:0:0:
256,192,232600,1,0,0:0:0:0:
256,192,232675,1,0,0:0:0:0:
256,192,232750,1,8,0:0:0:0:
256,192,232900,1,8,0:0:0:0:
256,192,232975,1,0,0:0:0:0:
256,192,233050,1,8,0:0:0:0:
256,192,233200,1,8,0:0:0:0:
256,192,233275,1,0,0:0:0:0:
256,192,233350,1,0,0:0:0:0:
256,192,233425,1,0,0:0:0:0:
256,192,233500,1,8,0:0:0:0:
256,192,233650,1,0,0:0:0:0:
256,192,233800,1,0,0:0:0:0:
256,192,233950,1,8,0:0:0:0:
256,192,234025,1,8,0:0:0:0:
256,192,234100,1,0,0:0:0:0:
256,192,234250,1,8,0:0:0:0:
256,192,234400,1,0,0:0:0:0:
256,192,234475,1,8,0:0:0:0:
256,192,234550,1,0,0:0:0:0:
256,192,234625,1,0,0:0:0:0:
256,192,234700,1,8,0:0:0:0:
256,192,234850,1,8,0:0:0:0:
256,192,235000,1,0,0:0:0:0:
288,192,235150,1,0,0:0:0:0:
256,192,235225,1,0,0:0:0:0:
256,192,235300,1,8,0:0:0:0:
256,192,235450,1,0,0:0:0:0:
256,192,235600,1,8,0:0:0:0:
256,192,235675,1,0,0:0:0:0:
256,192,235750,1,8,0:0:0:0:
256,192,235900,1,8,0:0:0:0:
288,192,236050,1,8,0:0:0:0:
288,192,236125,1,8,0:0:0:0:
288,192,236200,1,0,0:0:0:0:
256,192,236350,1,0,0:0:0:0:
256,192,236425,1,0,0:0:0:0:
256,192,236500,1,8,0:0:0:0:
256,192,236650,1,0,0:0:0:0:
256,192,236800,1,8,0:0:0:0:
256,192,236875,1,0,0:0:0:0:
256,192,236950,1,8,0:0:0:0:
256,192,237025,1,8,0:0:0:0:
256,192,237100,1,0,0:0:0:0:
256,192,237250,1,8,0:0:0:0:
256,192,237400,1,0,0:0:0:0:
256,192,237550,1,8,0:0:0:0:
256,192,237625,1,0,0:0:0:0:
256,192,237700,1,8,0:0:0:0:
256,192,237850,1,8,0:0:0:0:
256,192,238000,1,0,0:0:0:0:
256,192,238075,1,0,0:0:0:0:
256,192,238150,1,8,0:0:0:0:
256,192,238225,1,0,0:0:0:0:
256,192,238300,1,8,0:0:0:0:
256,192,238450,1,8,0:0:0:0:
256,192,238600,1,0,0:0:0:0:
256,192,238675,1,0,0:0:0:0:
256,192,238750,1,8,0:0:0:0:
256,192,238900,1,8,0:0:0:0:
256,192,238975,1,0,0:0:0:0:
256,192,239050,1,8,0:0:0:0:
256,192,239200,1,8,0:0:0:0:
256,192,239275,1,0,0:0:0:0:
256,192,239350,1,0,0:0:0:0:
256,192,239425,1,0,0:0:0:0:
256,192,239500,1,8,0:0:0:0:
256,192,239650,1,0,0:0:0:0:
256,192,239800,1,0,0:0:0:0:
256,192,239950,1,8,0:0:0:0:
256,192,240025,1,8,0:0:0:0:
256,192,240100,1,0,0:0:0:0:
256,192,240250,1,8,0:0:0:0:
256,192,240400,1,0,0:0:0:0:
256,192,240475,1,8,0:0:0:0:
256,192,240550,1,0,0:0:0:0:
256,192,240625,1,0,0:0:0:0:
256,192,240700,1,8,0:0:0:0:
256,192,240850,1,8,0:0:0:0:
243,178,240925,1,0,0:0:0:0:
256,192,241000,1,0,0:0:0:0:
256,192,241150,1,0,0:0:0:0:
256,192,241300,1,8,0:0:0:0:
256,192,241450,1,8,0:0:0:0:
256,192,241600,1,0,0:0:0:0:
256,192,241750,1,0,0:0:0:0:
256,192,241900,1,8,0:0:0:0:
256,192,242050,1,8,0:0:0:0:
256,192,242200,1,0,0:0:0:0:
256,192,242350,1,8,0:0:0:0:
64,64,242500,1,0,0:0:0:0:
256,192,242650,1,8,0:0:0:0:
256,192,242800,1,8,0:0:0:0:
256,192,242950,1,0,0:0:0:0:
256,192,243100,1,0,0:0:0:0:
256,192,243250,1,8,0:0:0:0:
256,192,243400,1,0,0:0:0:0:
256,192,243550,1,8,0:0:0:0:
256,192,243700,1,8,0:0:0:0:
256,192,243850,1,0,0:0:0:0:
256,192,244000,1,8,0:0:0:0:
256,192,244150,1,8,0:0:0:0:
256,192,244300,1,0,0:0:0:0:
256,192,244450,1,8,0:0:0:0:
256,192,244600,1,0,0:0:0:0:
256,192,244750,1,0,0:0:0:0:
256,192,244900,1,8,0:0:0:0:
256,192,245050,1,8,0:0:0:0:
256,192,245200,5,0,0:0:0:0:
256,192,245350,1,0,0:0:0:0:
256,192,245500,1,8,0:0:0:0:
256,192,245650,1,8,0:0:0:0:
256,192,245800,1,8,0:0:0:0:
224,192,245950,1,0,0:0:0:0:
256,192,246100,1,8,0:0:0:0:
256,192,246250,1,8,0:0:0:0:
256,192,246400,1,0,0:0:0:0:
256,192,246550,1,0,0:0:0:0:
256,192,246700,1,8,0:0:0:0:
256,192,246850,1,8,0:0:0:0:
256,192,247000,1,0,0:0:0:0:
256,192,247150,1,8,0:0:0:0:
256,192,247300,1,0,0:0:0:0:
256,192,247450,1,8,0:0:0:0:
256,192,247600,1,0,0:0:0:0:
256,192,247750,1,8,0:0:0:0:
256,192,247900,1,8,0:0:0:0:
256,192,248050,1,8,0:0:0:0:
256,192,248200,1,0,0:0:0:0:
256,192,248350,1,8,0:0:0:0:
256,192,248500,1,8,0:0:0:0:
256,192,248650,1,0,0:0:0:0:
224,192,248800,1,8,0:0:0:0:
256,192,248950,1,0,0:0:0:0:
224,192,249100,1,8,0:0:0:0:
224,192,249250,1,8,0:0:0:0:
224,192,249400,1,0,0:0:0:0:
224,192,249550,1,8,0:0:0:0:
224,192,249700,1,8,0:0:0:0:
224,192,249850,1,8,0:0:0:0:
224,192,250000,1,0,0:0:0:0:
224,192,250150,1,8,0:0:0:0:
224,192,250300,1,8,0:0:0:0:
224,192,250450,1,0,0:0:0:0:
224,192,250525,1,0,0:0:0:0:
224,192,250600,1,8,0:0:0:0:
192,192,250750,1,0,0:0:0:0:
224,192,250825,1,8,0:0:0:0:
192,192,250900,1,0,0:0:0:0:
143,89,250975,1,0,0:0:0:0:
224,160,251050,1,8,0:0:0:0:
224,160,251200,1,8,0:0:0:0:
224,192,251275,1,0,0:0:0:0:
224,192,251350,1,0,0:0:0:0:
224,160,251425,1,8,0:0:0:0:
192,192,251500,1,0,0:0:0:0:
224,192,251650,1,8,0:0:0:0:
448,64,251725,1,8,0:0:0:0:
224,160,251800,1,0,0:0:0:0:
224,192,251875,1,8,0:0:0:0:
224,160,251950,1,0,0:0:0:0:
224,160,252025,1,0,0:0:0:0:
224,160,252100,1,8,0:0:0:0:
256,160,252250,1,8,0:0:0:0:
64,64,252400,1,0,0:0:0:0:
448,64,252475,1,8,0:0:0:0:
64,64,252550,1,0,0:0:0:0:
144,87,252625,1,0,0:0:0:0:
256,160,252700,1,8,0:0:0:0:
256,160,252775,1,0,0:0:0:0:
256,160,252850,1,8,0:0:0:0:
256,160,252925,1,8,0:0:0:0:
256,160,253000,1,0,0:0:0:0:
256,160,253150,1,0,0:0:0:0:
256,160,253300,1,8,0:0:0:0:
256,160,253375,1,8,0:0:0:0:
256,160,253450,1,0,0:0:0:0:
256,160,253600,1,8,0:0:0:0:
116,60,253675,1,0,0:0:0:0:
256,160,253750,5,8,0:0:0:0:
256,160,253825,1,8,0:0:0:0:
256,160,253900,1,0,0:0:0:0:
256,160,254050,1,0,0:0:0:0:
256,160,254200,1,8,0:0:0:0:
448,64,254275,1,8,0:0:0:0:
256,160,254350,1,0,0:0:0:0:
256,160,254425,1,8,0:0:0:0:
256,160,254500,1,0,0:0:0:0:
256,160,254650,1,0,0:0:0:0:
256,160,254800,5,8,0:0:0:0:
256,160,254950,1,8,0:0:0:0:
256,160,255025,1,0,0:0:0:0:
256,160,255100,1,0,0:0:0:0:
256,160,255175,1,0,0:0:0:0:
256,160,255250,1,8,0:0:0:0:
256,160,255400,1,0,0:0:0:0:
256,160,255550,1,8,0:0:0:0:
256,160,255625,1,0,0:0:0:0:
256,160,255700,1,8,0:0:0:0:
165,91,255775,1,8,0:0:0:0:
256,160,255850,5,0,0:0:0:0:
256,160,256000,1,8,0:0:0:0:
256,160,256075,1,8,0:0:0:0:
256,160,256150,1,0,0:0:0:0:
256,160,256225,1,8,0:0:0:0:
256,160,256300,1,0,0:0:0:0:
256,160,256450,1,8,0:0:0:0:
256,160,256600,5,0,0:0:0:0:
256,160,256675,1,8,0:0:0:0:
256,160,256750,1,0,0:0:0:0:
256,160,256825,1,0,0:0:0:0:
256,160,256900,1,8,0:0:0:0:
224,160,257050,1,8,0:0:0:0:
175,95,257125,1,8,0:0:0:0:
224,160,257200,1,0,0:0:0:0:
256,160,257275,1,0,0:0:0:0:
256,160,257350,1,8,0:0:0:0:
256,160,257500,1,0,0:0:0:0:
175,95,257575,1,0,0:0:0:0:
256,160,257650,1,8,0:0:0:0:
256,160,257725,1,0,0:0:0:0:
256,160,257800,1,8,0:0:0:0:
172,98,257875,1,8,0:0:0:0:
256,160,257950,1,0,0:0:0:0:
119,75,258025,1,0,0:0:0:0:
256,160,258100,1,8,0:0:0:0:
256,160,258250,1,8,0:0:0:0:
256,160,258325,1,0,0:0:0:0:
256,160,258400,1,8,0:0:0:0:
188,100,258475,1,8,0:0:0:0:
256,160,258550,1,0,0:0:0:0:
256,160,258700,1,8,0:0:0:0:
256,160,258775,1,8,0:0:0:0:
256,160,258850,1,0,0:0:0:0:
203,57,258925,1,0,0:0:0:0:
256,160,259000,1,8,0:0:0:0:
256,160,259150,1,0,0:0:0:0:
256,160,259225,1,8,0:0:0:0:
256,160,259300,1,0,0:0:0:0:
166,101,259375,1,0,0:0:0:0:
256,160,259450,1,8,0:0:0:0:
256,160,259600,1,0,0:0:0:0:
256,160,259675,1,0,0:0:0:0:
256,160,259750,1,8,0:0:0:0:
256,160,259825,1,8,0:0:0:0:
256,160,259900,1,0,0:0:0:0:
256,192,260050,1,8,0:0:0:0:
256,160,260100,1,8,0:0:0:0:
256,160,260150,1,8,0:0:0:0:
256,160,260200,1,0,0:0:0:0:
256,192,260350,1,8,0:0:0:0:
256,160,260425,1,8,0:0:0:0:
256,160,260500,1,0,0:0:0:0:
256,160,260650,1,0,0:0:0:0:
256,160,260800,1,8,0:0:0:0:
256,160,260875,1,8,0:0:0:0:
256,160,260950,1,0,0:0:0:0:
256,160,261025,1,8,0:0:0:0:
256,160,261100,1,0,0:0:0:0:
256,160,261250,1,0,0:0:0:0:
256,160,261400,1,0,0:0:0:0:
256,160,261475,1,0,0:0:0:0:
256,160,261550,1,8,0:0:0:0:
256,192,261700,1,8,0:0:0:0:
256,192,261850,1,0,0:0:0:0:
256,192,261925,1,0,0:0:0:0:
256,192,262000,1,8,0:0:0:0:
256,192,262150,1,0,0:0:0:0:
256,192,262300,1,8,0:0:0:0:
256,192,262375,1,0,0:0:0:0:
256,192,262450,1,8,0:0:0:0:
256,192,262525,1,8,0:0:0:0:
256,192,262600,1,0,0:0:0:0:
256,192,262750,1,8,0:0:0:0:
288,192,262900,1,0,0:0:0:0:
256,192,263050,1,8,0:0:0:0:
256,192,263125,1,0,0:0:0:0:
288,192,263200,1,8,0:0:0:0:
256,192,263350,1,0,0:0:0:0:
256,192,263500,1,8,0:0:0:0:
256,192,263650,1,8,0:0:0:0:
256,192,263725,1,8,0:0:0:0:
288,192,263800,1,0,0:0:0:0:
256,192,263950,1,0,0:0:0:0:
256,192,264100,1,0,0:0:0:0:
256,192,264175,1,0,0:0:0:0:
256,192,264250,1,8,0:0:0:0:
288,192,264400,1,8,0:0:0:0:
288,192,264550,1,8,0:0:0:0:
288,192,264625,1,0,0:0:0:0:
288,192,264700,1,0,0:0:0:0:
288,192,264775,1,0,0:0:0:0:
288,192,264850,1,8,0:0:0:0:
288,192,265000,1,0,0:0:0:0:
256,192,265150,1,0,0:0:0:0:
256,192,265225,1,0,0:0:0:0:
256,192,265300,1,8,0:0:0:0:
256,192,265450,1,8,0:0:0:0:
256,192,265600,1,0,0:0:0:0:
256,192,265675,1,8,0:0:0:0:
256,192,265750,1,8,0:0:0:0:
256,192,265825,1,0,0:0:0:0:
256,192,265900,1,8,0:0:0:0:
256,192,266050,1,0,0:0:0:0:
256,192,266200,1,8,0:0:0:0:
256,192,266275,1,8,0:0:0:0:
256,192,266350,1,0,0:0:0:0:
256,192,266425,1,8,0:0:0:0:
256,192,266500,1,0,0:0:0:0:
256,192,266650,1,8,0:0:0:0:
181,233,266725,1,8,0:0:0:0:
256,192,266800,1,0,0:0:0:0:
288,192,266875,1,0,0:0:0:0:
256,192,266950,1,8,0:0:0:0:
256,192,267100,1,8,0:0:0:0:
288,192,267175,1,0,0:0:0:0:
288,192,267250,1,8,0:0:0:0:
288,192,267325,1,8,0:0:0:0:
288,192,267400,1,0,0:0:0:0:
288,192,267550,1,8,0:0:0:0:
288,192,267625,1,0,0:0:0:0:
288,192,267700,1,8,0:0:0:0:
288,192,267850,1,0,0:0:0:0:
288,192,268000,1,8,0:0:0:0:
288,192,268150,1,0,0:0:0:0:
288,192,268225,1,0,0:0:0:0:
288,192,268300,1,8,0:0:0:0:
288,192,268375,1,8,0:0:0:0:
288,192,268450,1,0,0:0:0:0:
288,192,268600,1,8,0:0:0:0:
320,192,268780,1,8,0:0:0:0:
320,192,268840,1,0,0:0:0:0:
320,192,269020,1,0,0:0:0:0:
320,192,269080,1,8,0:0:0:0:
288,192,269260,1,8,0:0:0:0:
288,192,269320,1,0,0:0:0:0:
288,192,269560,1,0,0:0:0:0:
288,192,269610,1,0,0:0:0:0:
288,192,269660,1,8,0:0:0:0:
288,192,269710,1,8,0:0:0:0:
288,192,269760,1,0,0:0:0:0:
288,192,269810,1,0,0:0:0:0:
288,192,269860,1,8,0:0:0:0:
288,192,269910,1,8,0:0:0:0:
171,168,269960,5,4,0:0:0:0:
173,183,270260,1,8,0:0:0:0:
132,156,270360,1,4,0:0:0:0:
173,182,270660,1,8,0:0:0:0:
132,156,270760,1,4,0:0:0:0:
174,146,271060,1,8,0:0:0:0:
132,156,271160,1,4,0:0:0:0:
174,146,271460,1,8,0:0:0:0:
132,156,271560,1,4,0:0:0:0:
132,156,271860,1,4,0:0:0:0:
132,156,272160,1,4,0:0:0:0:
132,156,272360,1,4,0:0:0:0:
132,156,272660,1,4,0:0:0:0:
132,156,272960,1,4,0:0:0:0:
132,156,273160,1,12,0:0:0:0:
135,142,273560,1,12,0:0:0:0:
136,142,273960,1,12,0:0:0:0:
135,142,274160,1,4,0:0:0:0:
135,142,274360,1,12,0:0:0:0:
135,142,274760,1,12,0:0:0:0:
135,142,274860,1,4,0:0:0:0:
135,142,274960,1,12,0:0:0:0:
137,148,275160,1,0,0:0:0:0:
138,145,275210,1,0,0:0:0:0:
135,142,275260,1,0,0:0:0:0:
138,145,275310,1,0,0:0:0:0:
141,144,275360,1,8,0:0:0:0:
82,148,275460,1,8,0:0:0:0:
82,148,275560,1,0,0:0:0:0:
128,129,275960,1,8,0:0:0:0:
88,148,276160,1,0,0:0:0:0:
88,148,276260,1,0,0:0:0:0:
95,144,276360,1,12,0:0:0:0:
163,144,276760,1,12,0:0:0:0:
163,144,277160,1,12,0:0:0:0:
132,168,277560,1,8,0:0:0:0:
175,128,277610,1,0,0:0:0:0:
138,167,277660,1,8,0:0:0:0:
175,128,277710,1,0,0:0:0:0:
137,167,277760,1,8,0:0:0:0:
174,135,277860,1,8,0:0:0:0:
114,180,277960,1,4,0:0:0:0:
114,180,278260,1,4,0:0:0:0:
115,180,278560,1,4,0:0:0:0:
114,180,278760,1,12,0:0:0:0:
103,157,278960,1,0,0:0:0:0:
113,158,279060,1,0,0:0:0:0:
108,173,279360,1,8,0:0:0:0:
67,190,279560,1,8,0:0:0:0:
67,190,279760,1,0,0:0:0:0:
61,191,279860,1,8,0:0:0:0:
56,191,279960,1,0,0:0:0:0:
83,169,280160,1,8,0:0:0:0:
83,169,280360,1,8,0:0:0:0:
83,169,280560,1,8,0:0:0:0:
153,164,280760,1,0,0:0:0:0:
99,190,280860,1,0,0:0:0:0:
98,188,280960,1,12,0:0:0:0:
155,137,281560,5,0,0:0:0:0:
155,132,281760,1,0,0:0:0:0:
155,132,281960,1,8,0:0:0:0:
143,144,282160,1,8,0:0:0:0:
136,179,282760,5,0,0:0:0:0:
153,164,283160,5,0,0:0:0:0:
154,164,283360,1,8,0:0:0:0:
153,164,283560,1,0,0:0:0:0:
153,164,283960,1,0,0:0:0:0:
148,171,284160,5,8,0:0:0:0:
148,173,284360,1,0,0:0:0:0:
146,173,284660,1,8,0:0:0:0:
148,171,284760,1,0,0:0:0:0:
173,131,284960,1,8,0:0:0:0:
173,131,285160,1,0,0:0:0:0:
175,142,285360,1,0,0:0:0:0:
175,142,285460,1,8,0:0:0:0:
177,145,285560,1,0,0:0:0:0:
182,130,285760,1,8,0:0:0:0:
192,136,285960,1,4,0:0:0:0:
192,136,286360,1,4,0:0:0:0:
192,136,286760,1,4,0:0:0:0:
192,136,286960,1,12,0:0:0:0:
192,136,287160,1,4,0:0:0:0:
111,163,287560,1,4,0:0:0:0:
111,163,287660,1,12,0:0:0:0:
122,167,287760,1,4,0:0:0:0:
158,136,287960,1,0,0:0:0:0:
158,136,288010,1,0,0:0:0:0:
158,136,288060,1,0,0:0:0:0:
158,136,288110,1,0,0:0:0:0:
158,136,288160,1,8,0:0:0:0:
128,151,288260,1,8,0:0:0:0:
128,151,288360,1,0,0:0:0:0:
132,155,288560,1,0,0:0:0:0:
132,155,288760,1,8,0:0:0:0:
128,159,288960,1,0,0:0:0:0:
125,159,289060,1,0,0:0:0:0:
162,149,289160,1,12,0:0:0:0:
135,169,289560,1,12,0:0:0:0:
135,169,289960,1,12,0:0:0:0:
132,144,290360,1,8,0:0:0:0:
133,145,290410,1,0,0:0:0:0:
132,145,290460,1,8,0:0:0:0:
134,146,290510,1,0,0:0:0:0:
132,145,290560,1,8,0:0:0:0:
132,146,290660,1,8,0:0:0:0:
125,163,290760,1,4,0:0:0:0:
123,162,291060,5,4,0:0:0:0:
123,162,291360,1,4,0:0:0:0:
125,163,291560,1,12,0:0:0:0:
74,164,291760,1,0,0:0:0:0:
74,164,291860,1,0,0:0:0:0:
74,164,292160,1,8,0:0:0:0:
74,164,292360,1,8,0:0:0:0:
137,178,292560,1,0,0:0:0:0:
137,178,292660,1,8,0:0:0:0:
152,185,292760,1,0,0:0:0:0:
156,190,292960,1,8,0:0:0:0:
155,189,293160,1,8,0:0:0:0:
166,118,293360,1,8,0:0:0:0:
166,118,293560,1,0,0:0:0:0:
166,118,293660,1,0,0:0:0:0:
169,126,293760,1,12,0:0:0:0:
150,169,294360,1,0,0:0:0:0:
150,169,294560,1,8,0:0:0:0:
150,169,294760,1,8,0:0:0:0:
150,169,294860,1,0,0:0:0:0:
150,169,294960,1,8,0:0:0:0:
140,109,295160,1,0,0:0:0:0:
140,109,295260,1,8,0:0:0:0:
150,117,295360,1,0,0:0:0:0:
157,120,295460,1,0,0:0:0:0:
155,103,295560,1,12,0:0:0:0:
192,146,298760,1,0,0:0:0:0:
177,158,299060,1,8,0:0:0:0:
177,158,299360,1,8,0:0:0:0:
136,157,299660,1,0,0:0:0:0:
136,157,299810,1,8,0:0:0:0:
136,157,299960,1,8,0:0:0:0:
136,157,300110,1,0,0:0:0:0:
136,157,300260,1,8,0:0:0:0:
126,142,300560,1,0,0:0:0:0:
126,143,300710,1,8,0:0:0:0:
128,144,300860,1,0,0:0:0:0:
128,146,301010,1,8,0:0:0:0:
126,142,301160,1,8,0:0:0:0:
141,161,301460,1,0,0:0:0:0:
145,162,301610,1,8,0:0:0:0:
146,162,301760,1,0,0:0:0:0:
146,164,301910,1,8,0:0:0:0:
146,165,302060,1,0,0:0:0:0:
126,159,302360,1,8,0:0:0:0:
126,159,302660,1,8,0:0:0:0:
126,159,302960,1,0,0:0:0:0:
126,159,303110,1,0,0:0:0:0:
126,159,303260,1,8,0:0:0:0:
139,201,303360,1,8,0:0:0:0:
139,201,303460,1,8,0:0:0:0:
134,204,303560,1,0,0:0:0:0:
147,166,303860,1,8,0:0:0:0:
147,166,304160,1,8,0:0:0:0:
147,166,304460,1,0,0:0:0:0:
147,166,304610,1,8,0:0:0:0:
147,166,304760,1,8,0:0:0:0:
147,166,304910,1,0,0:0:0:0:
256,192,305060,1,8,0:0:0:0:
55,196,305510,1,8,0:0:0:0:
55,196,305660,1,0,0:0:0:0:
53,185,305810,1,0,0:0:0:0:
51,186,305960,1,8,0:0:0:0:
187,117,306010,1,8,0:0:0:0:
162,87,306060,1,8,0:0:0:0:
146,158,306110,1,8,0:0:0:0:
136,151,306260,1,0,0:0:0:0:
136,151,306410,1,8,0:0:0:0:
138,134,306710,1,8,0:0:0:0:
137,134,306870,1,0,0:0:0:0:
127,135,307070,1,0,0:0:0:0:
127,135,307270,1,0,0:0:0:0:
127,135,307470,1,0,0:0:0:0:
128,136,307562,1,8,0:0:0:0:
164,149,307682,1,8,0:0:0:0:
164,149,307802,1,8,0:0:0:0:
164,149,307922,1,8,0:0:0:0:
177,124,308050,1,8,0:0:0:0:
177,124,308100,1,8,0:0:0:0:
177,124,308150,1,8,0:0:0:0:
177,124,308200,1,8,0:0:0:0:
179,128,308360,1,0,0:0:0:0:
130,126,308843,1,8,0:0:0:0:
128,163,309327,1,8,0:0:0:0:
128,163,309811,1,0,0:0:0:0:
128,163,310053,1,8,0:0:0:0:
128,163,310295,1,8,0:0:0:0:
128,163,310537,1,0,0:0:0:0:
128,163,310779,1,8,0:0:0:0:
177,104,311263,1,0,0:0:0:0:
177,104,311505,1,8,0:0:0:0:
177,109,311747,1,0,0:0:0:0:
165,107,311989,1,8,0:0:0:0:
164,110,312230,1,8,0:0:0:0:
165,107,312714,1,0,0:0:0:0:
169,107,312956,1,8,0:0:0:0:
165,107,313198,1,0,0:0:0:0:
165,107,313440,1,8,0:0:0:0:
169,107,313682,1,0,0:0:0:0:
225,157,314166,1,8,0:0:0:0:
225,157,314648,1,0,0:0:0:0:
161,142,315057,1,8,0:0:0:0:
225,157,315193,1,0,0:0:0:0:
106,157,315714,1,0,0:0:0:0:
106,157,316142,1,0,0:0:0:0:
106,157,316517,1,0,0:0:0:0:
106,157,316850,1,0,0:0:0:0:
106,157,317174,1,0,0:0:0:0:
106,157,317498,1,0,0:0:0:0:
106,157,317766,1,0,0:0:0:0:
146,122,318006,1,0,0:0:0:0:
157,139,318177,1,0,0:0:0:0:
448,64,318327,1,8,0:0:0:0:
448,64,318447,1,8,0:0:0:0:
448,64,318567,1,8,0:0:0:0:
217,157,318687,1,0,0:0:0:0:
64,64,318779,1,0,0:0:0:0:
192,140,318871,1,0,0:0:0:0:
192,140,318963,1,0,0:0:0:0:
192,140,319056,1,8,0:0:0:0:
192,140,319126,1,8,0:0:0:0:
192,140,319197,1,8,0:0:0:0:
192,140,319267,1,8,0:0:0:0:
192,140,319338,1,0,0:0:0:0:
192,140,319408,1,0,0:0:0:0:
192,140,319479,1,8,0:0:0:0:
221,109,319521,1,8,0:0:0:0:
221,109,319564,1,0,0:0:0:0:
221,109,319607,1,0,0:0:0:0:
221,109,319650,1,8,0:0:0:0:
221,109,319693,1,8,0:0:0:0:
221,109,319736,1,0,0:0:0:0:
221,109,319779,1,0,0:0:0:0:
221,109,319821,1,8,0:0:0:0:
224,82,319864,1,8,0:0:0:0:
221,109,319907,1,0,0:0:0:0:
256,192,319929,12,0,320380,0:0:0:0:
256,192,320445,12,0,320833,0:0:0:0:
191,120,320889,5,0,0:0:0:0:
191,125,320939,1,0,0:0:0:0:
190,125,320989,1,0,0:0:0:0:
190,126,321054,1,0,0:0:0:0:
190,126,321154,1,0,0:0:0:0:
190,126,321269,1,0,0:0:0:0:
189,126,321394,1,0,0:0:0:0:
189,125,321544,1,0,0:0:0:0:
190,126,321844,1,0,0:0:0:0:
189,126,322184,1,0,0:0:0:0:
144,129,323721,5,12,0:0:0:0:
144,129,323871,1,12,0:0:0:0:
82,155,324021,1,0,0:0:0:0:
97,155,324096,1,0,0:0:0:0:
97,155,324171,1,8,0:0:0:0:
97,155,324246,1,8,0:0:0:0:
164,140,324321,5,0,0:0:0:0:
192,192,324621,1,8,0:0:0:0:
224,192,324771,1,8,0:0:0:0:
224,192,324921,1,0,0:0:0:0:
224,192,325221,1,0,0:0:0:0:
256,192,325521,1,8,0:0:0:0:
256,192,325821,1,0,0:0:0:0:
256,192,325971,1,0,0:0:0:0:
256,192,326121,1,8,0:0:0:0:
256,192,326421,1,8,0:0:0:0:
256,192,326721,1,8,0:0:0:0:
256,192,327021,1,8,0:0:0:0:
256,192,327171,1,0,0:0:0:0:
256,192,327321,1,8,0:0:0:0:
256,192,327621,1,8,0:0:0:0:
256,192,327921,1,0,0:0:0:0:
256,192,328221,1,0,0:0:0:0:
256,192,328371,1,0,0:0:0:0:
256,192,328521,1,8,0:0:0:0:
256,192,328821,1,0,0:0:0:0:
256,192,328971,1,8,0:0:0:0:
256,192,329121,1,0,0:0:0:0:
256,192,329421,1,0,0:0:0:0:
256,192,329571,1,0,0:0:0:0:
256,192,329721,1,8,0:0:0:0:
256,192,330021,1,8,0:0:0:0:
256,192,330171,1,8,0:0:0:0:
256,192,330321,1,0,0:0:0:0:
256,192,330621,1,8,0:0:0:0:
256,192,330771,1,0,0:0:0:0:
256,192,330921,1,8,0:0:0:0:
256,192,331221,1,8,0:0:0:0:
256,192,331371,1,8,0:0:0:0:
256,192,331521,1,0,0:0:0:0:
256,192,331821,1,8,0:0:0:0:
256,192,331971,1,8,0:0:0:0:
256,192,332121,1,8,0:0:0:0:
256,192,332421,1,0,0:0:0:0:
288,192,332571,1,8,0:0:0:0:
288,192,332721,1,0,0:0:0:0:
256,192,333021,1,8,0:0:0:0:
256,192,333170,1,0,0:0:0:0:
256,192,333320,1,8,0:0:0:0:
256,192,333620,1,0,0:0:0:0:
256,192,333770,1,0,0:0:0:0:
256,192,333920,1,8,0:0:0:0:
256,192,333995,1,0,0:0:0:0:
256,192,334220,1,8,0:0:0:0:
256,192,334370,1,0,0:0:0:0:
256,192,334520,1,8,0:0:0:0:
288,192,334670,1,0,0:0:0:0:
288,192,334745,1,8,0:0:0:0:
256,192,334895,1,8,0:0:0:0:
256,192,334970,1,8,0:0:0:0:
256,192,335120,1,0,0:0:0:0:
288,224,335420,1,8,0:0:0:0:
288,224,335570,1,0,0:0:0:0:
288,224,335720,1,8,0:0:0:0:
288,224,336020,1,0,0:0:0:0:
288,224,336170,1,8,0:0:0:0:
288,224,336320,1,0,0:0:0:0:
288,224,336395,1,0,0:0:0:0:
288,224,336620,1,8,0:0:0:0:
288,224,336770,1,0,0:0:0:0:
288,224,336920,1,8,0:0:0:0:
288,224,337070,1,0,0:0:0:0:
288,224,337145,1,8,0:0:0:0:
288,256,337295,1,8,0:0:0:0:
288,224,337370,1,8,0:0:0:0:
288,224,337520,1,0,0:0:0:0:
256,224,337820,1,8,0:0:0:0:
288,224,337970,1,8,0:0:0:0:
288,224,338120,1,0,0:0:0:0:
288,224,338420,1,0,0:0:0:0:
288,224,338570,1,0,0:0:0:0:
288,224,338720,1,8,0:0:0:0:
288,224,338795,1,0,0:0:0:0:
256,192,339020,1,8,0:0:0:0:
256,192,339170,1,0,0:0:0:0:
256,192,339320,1,8,0:0:0:0:
288,192,339470,1,0,0:0:0:0:
288,192,339545,1,8,0:0:0:0:
256,192,339695,1,8,0:0:0:0:
256,192,339770,1,8,0:0:0:0:
256,192,339920,1,0,0:0:0:0:
288,224,340220,1,8,0:0:0:0:
288,224,340370,1,0,0:0:0:0:
288,224,340520,1,8,0:0:0:0:
288,224,340820,1,0,0:0:0:0:
288,224,340970,1,8,0:0:0:0:
288,224,341120,1,0,0:0:0:0:
288,224,341195,1,0,0:0:0:0:
288,224,341420,1,8,0:0:0:0:
288,224,341570,1,0,0:0:0:0:
288,224,341720,1,8,0:0:0:0:
288,224,341870,1,0,0:0:0:0:
288,224,341945,1,8,0:0:0:0:
288,256,342095,1,8,0:0:0:0:
288,224,342170,1,8,0:0:0:0:
288,224,342320,1,0,0:0:0:0:
256,224,342620,1,8,0:0:0:0:
288,224,342770,1,8,0:0:0:0:
288,224,342920,1,0,0:0:0:0:
288,224,343220,1,0,0:0:0:0:
288,224,343520,1,8,0:0:0:0:
288,224,343595,1,0,0:0:0:0:
256,224,343820,1,8,0:0:0:0:
256,224,343970,1,0,0:0:0:0:
288,224,344120,1,8,0:0:0:0:
288,224,344195,1,0,0:0:0:0:
288,224,344420,5,8,0:0:0:0:
288,224,344495,1,8,0:0:0:0:
256,224,344570,1,0,0:0:0:0:
256,224,344720,1,8,0:0:0:0:
256,224,344870,1,0,0:0:0:0:
256,224,345020,1,8,0:0:0:0:
256,224,345170,1,0,0:0:0:0:
256,224,345320,1,8,0:0:0:0:
256,224,345395,1,0,0:0:0:0:
256,192,345620,1,8,0:0:0:0:
224,224,345770,1,0,0:0:0:0:
256,224,345920,1,8,0:0:0:0:
288,224,345995,1,0,0:0:0:0:
256,224,346220,1,8,0:0:0:0:
256,224,346370,1,0,0:0:0:0:
288,224,346520,1,8,0:0:0:0:
288,224,346595,1,0,0:0:0:0:
288,224,346820,5,8,0:0:0:0:
288,224,346895,1,8,0:0:0:0:
256,224,346970,1,0,0:0:0:0:
256,224,347120,1,8,0:0:0:0:
256,224,347270,1,0,0:0:0:0:
256,224,347420,1,8,0:0:0:0:
256,224,347570,1,0,0:0:0:0:
256,224,347720,1,8,0:0:0:0:
256,224,347795,1,0,0:0:0:0:
256,192,348020,1,8,0:0:0:0:
224,224,348170,1,0,0:0:0:0:
256,224,348320,1,8,0:0:0:0:
288,224,348395,1,0,0:0:0:0:
256,224,348620,1,8,0:0:0:0:
256,224,348770,1,0,0:0:0:0:
288,224,348920,1,8,0:0:0:0:
288,224,348995,1,0,0:0:0:0:
256,224,349070,1,8,0:0:0:0:
288,224,349220,5,8,0:0:0:0:
256,224,349370,1,0,0:0:0:0:
256,224,349520,1,8,0:0:0:0:
256,224,349670,1,0,0:0:0:0:
256,224,349820,1,8,0:0:0:0:
288,224,349895,1,8,0:0:0:0:
256,224,349970,1,0,0:0:0:0:
256,224,350120,1,8,0:0:0:0:
256,224,350195,1,0,0:0:0:0:
256,192,350420,1,8,0:0:0:0:
224,224,350570,1,0,0:0:0:0:
256,224,350720,1,8,0:0:0:0:
288,224,350795,1,0,0:0:0:0:
256,224,351020,1,8,0:0:0:0:
256,224,351170,1,0,0:0:0:0:
288,224,351320,1,8,0:0:0:0:
288,224,351395,1,0,0:0:0:0:
256,224,351470,1,8,0:0:0:0:
288,224,351620,5,8,0:0:0:0:
288,224,351695,1,8,0:0:0:0:
256,224,351770,1,0,0:0:0:0:
256,224,351920,1,8,0:0:0:0:
256,224,352070,1,0,0:0:0:0:
256,224,352220,1,8,0:0:0:0:
256,224,352370,1,0,0:0:0:0:
256,224,352445,1,0,0:0:0:0:
256,224,352520,1,8,0:0:0:0:
256,224,352595,1,0,0:0:0:0:
256,192,352820,1,8,0:0:0:0:
256,224,352895,1,8,0:0:0:0:
224,224,352970,1,0,0:0:0:0:
256,224,353120,1,8,0:0:0:0:
288,224,353195,1,0,0:0:0:0:
256,224,353420,1,8,0:0:0:0:
256,224,353570,1,0,0:0:0:0:
288,224,353720,1,8,0:0:0:0:
288,224,353795,1,0,0:0:0:0:
288,224,354020,5,8,0:0:0:0:
288,224,354095,1,8,0:0:0:0:
256,224,354170,1,0,0:0:0:0:
256,224,354320,1,8,0:0:0:0:
256,224,354395,1,8,0:0:0:0:
256,224,354470,1,0,0:0:0:0:
256,224,354620,1,8,0:0:0:0:
256,224,354770,1,0,0:0:0:0:
256,224,354845,1,8,0:0:0:0:
256,224,354920,1,8,0:0:0:0:
256,224,354995,1,0,0:0:0:0:
256,192,355220,1,8,0:0:0:0:
224,224,355370,1,0,0:0:0:0:
256,224,355445,1,0,0:0:0:0:
256,224,355520,1,8,0:0:0:0:
288,224,355595,1,0,0:0:0:0:
256,224,355820,1,8,0:0:0:0:
256,224,355970,1,0,0:0:0:0:
288,224,356120,1,8,0:0:0:0:
288,224,356195,1,0,0:0:0:0:
256,192,356270,1,8,0:0:0:0:
288,224,356420,5,8,0:0:0:0:
288,224,356495,1,8,0:0:0:0:
256,224,356570,1,0,0:0:0:0:
256,192,356645,1,0,0:0:0:0:
256,224,356720,1,8,0:0:0:0:
256,224,356870,1,0,0:0:0:0:
256,224,357020,1,8,0:0:0:0:
256,224,357170,1,0,0:0:0:0:
256,192,357245,1,8,0:0:0:0:
256,224,357320,1,8,0:0:0:0:
256,224,357395,1,0,0:0:0:0:
256,192,357620,1,8,0:0:0:0:
224,224,357770,1,0,0:0:0:0:
256,192,357845,1,0,0:0:0:0:
256,224,357920,1,8,0:0:0:0:
288,224,357995,1,0,0:0:0:0:
256,224,358220,1,8,0:0:0:0:
256,224,358370,1,0,0:0:0:0:
288,224,358520,1,8,0:0:0:0:
288,224,358595,1,0,0:0:0:0:
288,224,358820,5,8,0:0:0:0:
288,224,358895,1,8,0:0:0:0:
256,224,358970,1,0,0:0:0:0:
256,224,359120,1,8,0:0:0:0:
256,224,359195,1,8,0:0:0:0:
256,224,359270,1,0,0:0:0:0:
256,224,359420,1,8,0:0:0:0:
256,224,359570,1,0,0:0:0:0:
256,224,359645,1,8,0:0:0:0:
256,224,359720,1,8,0:0:0:0:
256,224,359795,1,0,0:0:0:0:
256,192,360020,1,8,0:0:0:0:
224,224,360170,1,0,0:0:0:0:
256,224,360245,1,0,0:0:0:0:
256,224,360320,1,8,0:0:0:0:
256,224,360620,1,8,0:0:0:0:
256,224,360770,1,0,0:0:0:0:
288,224,360920,1,8,0:0:0:0:
288,224,361220,5,0,0:0:0:0:
256,224,361370,1,0,0:0:0:0:
256,224,361520,1,8,0:0:0:0:
256,224,361820,1,8,0:0:0:0:
256,224,361970,1,0,0:0:0:0:
256,224,362120,1,8,0:0:0:0:
256,192,362420,1,8,0:0:0:0:
224,224,362570,1,0,0:0:0:0:
256,192,362645,1,0,0:0:0:0:
256,224,362720,1,8,0:0:0:0:
256,192,362795,12,0,372245,0:0:0:0:
256,192,372320,5,0,0:0:0:0:
256,192,372920,1,8,0:0:0:0:
256,192,373070,1,0,0:0:0:0:
256,192,373145,1,8,0:0:0:0:
256,192,373520,1,8,0:0:0:0:
256,192,373670,1,0,0:0:0:0:
256,192,374120,1,8,0:0:0:0:
256,192,374420,1,0,0:0:0:0:
288,192,374520,1,8,0:0:0:0:
256,192,374620,1,8,0:0:0:0:
256,192,374720,1,0,0:0:0:0:
256,160,375320,1,8,0:0:0:0:
256,160,375470,1,0,0:0:0:0:
256,160,375545,1,8,0:0:0:0:
256,192,375920,1,0,0:0:0:0:
256,192,376070,1,8,0:0:0:0:
256,192,376520,1,8,0:0:0:0:
256,192,376820,1,8,0:0:0:0:
256,192,376920,1,8,0:0:0:0:
256,192,377020,1,8,0:0:0:0:
256,192,377120,5,0,0:0:0:0:
256,192,377420,1,0,0:0:0:0:
256,192,377720,1,8,0:0:0:0:
256,192,377870,1,0,0:0:0:0:
256,192,377945,1,8,0:0:0:0:
256,192,378020,1,0,0:0:0:0:
256,192,378320,1,8,0:0:0:0:
256,192,378395,1,8,0:0:0:0:
256,192,378470,1,0,0:0:0:0:
256,192,378920,1,8,0:0:0:0:
256,192,379220,1,0,0:0:0:0:
288,192,379320,1,8,0:0:0:0:
256,192,379420,1,8,0:0:0:0:
256,192,379520,1,0,0:0:0:0:
256,192,379820,1,0,0:0:0:0:
256,160,380120,1,8,0:0:0:0:
256,160,380270,1,0,0:0:0:0:
256,160,380345,1,8,0:0:0:0:
256,192,380420,1,0,0:0:0:0:
256,192,380720,1,0,0:0:0:0:
256,192,380795,1,0,0:0:0:0:
256,192,380870,1,8,0:0:0:0:
256,192,381320,1,8,0:0:0:0:
256,192,381620,1,8,0:0:0:0:
256,192,381720,1,8,0:0:0:0:
256,192,381820,1,8,0:0:0:0:
256,192,381920,1,0,0:0:0:0:
256,224,381995,1,0,0:0:0:0:
256,192,382070,1,8,0:0:0:0:
256,192,382145,1,8,0:0:0:0:
256,192,382220,1,0,0:0:0:0:
256,192,382295,1,0,0:0:0:0:
256,192,382370,1,8,0:0:0:0:
256,192,382445,1,0,0:0:0:0:
256,192,382520,1,8,0:0:0:0:
256,192,382595,1,8,0:0:0:0:
256,192,382670,1,8,0:0:0:0:
256,192,382745,1,0,0:0:0:0:
256,192,382820,1,8,0:0:0:0:
256,192,382895,1,8,0:0:0:0:
256,192,382970,1,0,0:0:0:0:
256,192,383045,1,0,0:0:0:0:
256,192,383120,1,8,0:0:0:0:
256,192,383195,1,0,0:0:0:0:
256,192,383270,1,8,0:0:0:0:
256,192,383345,1,8,0:0:0:0:
256,192,383420,1,0,0:0:0:0:
256,192,383495,1,0,0:0:0:0:
256,192,383570,1,8,0:0:0:0:
256,192,383645,1,0,0:0:0:0:
256,192,383720,1,8,0:0:0:0:
256,192,383795,1,8,0:0:0:0:
256,192,383870,1,8,0:0:0:0:
256,192,383945,1,0,0:0:0:0:
256,192,384020,1,8,0:0:0:0:
256,192,384095,1,8,0:0:0:0:
256,192,384170,1,0,0:0:0:0:
256,192,384245,1,0,0:0:0:0:
256,192,384320,1,8,0:0:0:0:
256,192,384395,1,0,0:0:0:0:
256,192,384470,1,8,0:0:0:0:
256,192,384545,1,8,0:0:0:0:
256,192,384620,1,0,0:0:0:0:
256,192,384695,1,8,0:0:0:0:
256,192,384770,1,0,0:0:0:0:
256,192,384845,1,0,0:0:0:0:
256,192,384920,1,8,0:0:0:0:
256,192,384995,1,8,0:0:0:0:
256,192,385070,1,8,0:0:0:0:
256,192,385145,1,0,0:0:0:0:
256,192,385220,1,8,0:0:0:0:
256,192,385295,1,8,0:0:0:0:
256,192,385370,1,0,0:0:0:0:
256,192,385445,1,0,0:0:0:0:
256,192,385520,1,8,0:0:0:0:
448,64,386120,1,8,0:0:0:0:
256,160,386420,1,0,0:0:0:0:
224,192,386470,1,0,0:0:0:0:
192,160,386520,1,0,0:0:0:0:
224,192,386570,1,8,0:0:0:0:
256,192,386645,1,8,0:0:0:0:
256,160,386720,5,0,0:0:0:0:
201,117,386795,1,0,0:0:0:0:
195,121,387020,1,0,0:0:0:0:
189,137,387095,1,0,0:0:0:0:
164,154,387320,1,8,0:0:0:0:
168,157,387395,1,0,0:0:0:0:
164,154,387470,1,0,0:0:0:0:
164,154,387545,1,0,0:0:0:0:
169,157,387695,1,0,0:0:0:0:
169,157,387845,1,0,0:0:0:0:
169,157,387995,1,0,0:0:0:0:
170,153,388070,1,0,0:0:0:0:
170,152,388145,1,0,0:0:0:0:
174,153,388295,1,0,0:0:0:0:
174,153,388445,1,0,0:0:0:0:
174,153,388520,1,8,0:0:0:0:
169,157,388595,1,8,0:0:0:0:
121,163,388670,1,0,0:0:0:0:
121,163,388745,1,8,0:0:0:0:
173,112,388820,1,0,0:0:0:0:
121,163,388895,1,0,0:0:0:0:
121,163,388970,1,8,0:0:0:0:
121,163,389045,1,8,0:0:0:0:
118,119,389120,1,0,0:0:0:0:
126,105,389195,1,0,0:0:0:0:
173,133,389420,1,0,0:0:0:0:
173,133,389495,1,0,0:0:0:0:
202,155,389720,1,8,0:0:0:0:
202,155,389795,1,0,0:0:0:0:
202,155,389870,1,0,0:0:0:0:
207,155,389945,1,0,0:0:0:0:
216,161,390095,1,0,0:0:0:0:
215,162,390245,1,0,0:0:0:0:
215,162,390395,1,0,0:0:0:0:
215,162,390470,1,0,0:0:0:0:
219,155,390545,1,0,0:0:0:0:
222,155,390695,1,0,0:0:0:0:
214,167,390845,1,0,0:0:0:0:
214,167,390920,1,8,0:0:0:0:
222,175,391070,1,0,0:0:0:0:
212,168,391120,1,0,0:0:0:0:
219,172,391170,1,0,0:0:0:0:
210,167,391220,1,0,0:0:0:0:
198,126,391370,1,0,0:0:0:0:
166,140,391445,1,8,0:0:0:0:
166,140,391520,5,0,0:0:0:0:
166,140,391595,1,0,0:0:0:0:
150,146,391820,1,0,0:0:0:0:
148,146,391895,5,0,0:0:0:0:
152,149,392120,1,8,0:0:0:0:
155,134,392195,1,0,0:0:0:0:
152,149,392270,5,0,0:0:0:0:
152,149,392345,1,0,0:0:0:0:
165,190,392495,1,0,0:0:0:0:
165,190,392645,1,0,0:0:0:0:
165,190,392795,5,0,0:0:0:0:
168,197,392870,1,0,0:0:0:0:
165,190,392945,1,0,0:0:0:0:
168,197,393095,1,0,0:0:0:0:
168,197,393245,1,0,0:0:0:0:
194,168,393320,1,8,0:0:0:0:
194,168,393395,1,0,0:0:0:0:
194,168,393470,1,8,0:0:0:0:
194,168,393545,1,8,0:0:0:0:
103,177,393620,1,0,0:0:0:0:
92,182,393695,1,0,0:0:0:0:
98,182,393770,1,8,0:0:0:0:
98,182,393845,1,8,0:0:0:0:
132,180,393920,1,0,0:0:0:0:
132,180,393995,1,0,0:0:0:0:
121,189,394220,1,0,0:0:0:0:
119,189,394295,1,0,0:0:0:0:
132,204,394520,1,8,0:0:0:0:
132,202,394595,1,0,0:0:0:0:
183,131,394670,1,0,0:0:0:0:
133,202,394745,1,0,0:0:0:0:
143,182,394895,1,0,0:0:0:0:
143,182,395045,1,0,0:0:0:0:
128,198,395195,1,0,0:0:0:0:
127,199,395270,1,0,0:0:0:0:
126,199,395345,1,0,0:0:0:0:
130,222,395495,1,0,0:0:0:0:
130,222,395645,5,0,0:0:0:0:
129,222,395720,1,8,0:0:0:0:
145,227,395870,1,0,0:0:0:0:
143,227,395920,1,0,0:0:0:0:
146,227,395970,1,0,0:0:0:0:
144,226,396020,1,0,0:0:0:0:
153,198,396170,1,0,0:0:0:0:
153,198,396245,1,8,0:0:0:0:
256,160,396320,5,0,0:0:0:0:
201,117,396395,1,0,0:0:0:0:
135,124,396470,1,8,0:0:0:0:
195,121,396620,1,0,0:0:0:0:
189,137,396695,1,0,0:0:0:0:
141,120,396770,1,8,0:0:0:0:
164,154,396920,1,8,0:0:0:0:
168,157,396995,1,0,0:0:0:0:
164,154,397070,1,0,0:0:0:0:
164,154,397145,1,0,0:0:0:0:
169,157,397295,1,0,0:0:0:0:
169,157,397445,1,0,0:0:0:0:
123,110,397520,1,8,0:0:0:0:
169,157,397595,1,0,0:0:0:0:
170,153,397670,1,0,0:0:0:0:
170,152,397745,1,0,0:0:0:0:
174,153,397895,1,0,0:0:0:0:
174,153,398045,1,0,0:0:0:0:
174,153,398120,1,8,0:0:0:0:
169,157,398195,1,8,0:0:0:0:
121,163,398270,1,0,0:0:0:0:
121,163,398345,1,8,0:0:0:0:
173,112,398420,1,0,0:0:0:0:
121,163,398495,1,0,0:0:0:0:
121,163,398570,1,8,0:0:0:0:
121,163,398645,1,8,0:0:0:0:
118,119,398720,1,0,0:0:0:0:
126,105,398795,1,0,0:0:0:0:
202,129,398870,1,8,0:0:0:0:
173,133,399020,1,0,0:0:0:0:
173,133,399095,1,0,0:0:0:0:
152,144,399170,1,8,0:0:0:0:
202,155,399320,1,8,0:0:0:0:
202,155,399395,1,0,0:0:0:0:
202,155,399470,1,0,0:0:0:0:
207,155,399545,1,0,0:0:0:0:
216,161,399695,1,0,0:0:0:0:
215,162,399845,1,0,0:0:0:0:
133,142,399920,1,8,0:0:0:0:
215,162,399995,1,0,0:0:0:0:
215,162,400070,1,0,0:0:0:0:
219,155,400145,1,0,0:0:0:0:
222,155,400295,1,0,0:0:0:0:
214,167,400445,1,0,0:0:0:0:
214,167,400520,1,8,0:0:0:0:
222,175,400670,1,0,0:0:0:0:
212,168,400720,1,0,0:0:0:0:
219,172,400770,1,0,0:0:0:0:
210,167,400820,1,0,0:0:0:0:
198,126,400970,1,0,0:0:0:0:
166,140,401045,1,8,0:0:0:0:
166,140,401120,1,0,0:0:0:0:
166,140,401195,1,0,0:0:0:0:
134,137,401270,1,8,0:0:0:0:
150,146,401420,1,0,0:0:0:0:
148,146,401495,1,0,0:0:0:0:
134,137,401570,1,8,0:0:0:0:
152,149,401720,1,8,0:0:0:0:
155,134,401795,1,0,0:0:0:0:
152,149,401870,1,0,0:0:0:0:
152,149,401945,1,0,0:0:0:0:
165,190,402095,1,0,0:0:0:0:
165,190,402245,1,0,0:0:0:0:
134,137,402320,1,8,0:0:0:0:
165,190,402395,1,0,0:0:0:0:
168,197,402470,1,0,0:0:0:0:
165,190,402545,1,0,0:0:0:0:
168,197,402695,1,0,0:0:0:0:
168,197,402845,1,0,0:0:0:0:
194,168,402920,1,8,0:0:0:0:
194,168,402995,1,0,0:0:0:0:
194,168,403070,1,8,0:0:0:0:
194,168,403145,1,8,0:0:0:0:
103,177,403220,1,0,0:0:0:0:
92,182,403295,1,0,0:0:0:0:
98,182,403370,1,8,0:0:0:0:
98,182,403445,1,8,0:0:0:0:
132,180,403520,1,0,0:0:0:0:
132,180,403595,1,0,0:0:0:0:
130,139,403670,1,8,0:0:0:0:
121,189,403820,1,0,0:0:0:0:
119,189,403895,1,0,0:0:0:0:
106,171,403970,1,8,0:0:0:0:
132,204,404120,1,8,0:0:0:0:
132,202,404195,1,0,0:0:0:0:
183,131,404270,1,0,0:0:0:0:
133,202,404345,1,0,0:0:0:0:
143,182,404495,1,0,0:0:0:0:
143,182,404645,1,0,0:0:0:0:
128,169,404720,1,8,0:0:0:0:
128,198,404795,1,0,0:0:0:0:
127,199,404870,1,0,0:0:0:0:
126,199,404945,1,0,0:0:0:0:
130,222,405095,1,0,0:0:0:0:
130,222,405245,1,0,0:0:0:0:
129,222,405320,1,8,0:0:0:0:
145,227,405470,1,0,0:0:0:0:
143,227,405520,1,0,0:0:0:0:
146,227,405570,1,0,0:0:0:0:
144,226,405620,1,0,0:0:0:0:
153,198,405770,1,0,0:0:0:0:
153,198,405845,1,8,0:0:0:0:
256,192,410120,12,0,410570,0:0:0:0:
219,155,410720,5,0,0:0:0:0:
219,155,410795,1,0,0:0:0:0:
219,155,411020,1,8,0:0:0:0:
219,155,411095,1,8,0:0:0:0:
219,155,411320,1,0,0:0:0:0:
219,155,411395,1,8,0:0:0:0:
219,155,411470,1,0,0:0:0:0:
219,155,411545,1,0,0:0:0:0:
219,155,411620,1,8,0:0:0:0:
203,150,411695,1,8,0:0:0:0:
203,150,411845,1,0,0:0:0:0:
203,149,411920,1,0,0:0:0:0:
204,150,411995,1,8,0:0:0:0:
204,151,412070,1,0,0:0:0:0:
192,91,412145,1,0,0:0:0:0:
205,150,412220,1,8,0:0:0:0:
202,153,412295,1,8,0:0:0:0:
206,131,412445,1,0,0:0:0:0:
206,131,412520,1,0,0:0:0:0:
210,133,412595,1,8,0:0:0:0:
208,130,412670,1,0,0:0:0:0:
210,130,412745,1,0,0:0:0:0:
212,128,412820,1,8,0:0:0:0:
213,126,412895,1,8,0:0:0:0:
71,160,412970,1,0,0:0:0:0:
71,160,413045,1,8,0:0:0:0:
171,53,413120,1,0,0:0:0:0:
179,64,413195,1,0,0:0:0:0:
143,162,413420,1,8,0:0:0:0:
179,65,413495,1,8,0:0:0:0:
164,78,413720,1,0,0:0:0:0:
179,88,413795,1,8,0:0:0:0:
164,78,413870,1,0,0:0:0:0:
179,88,413945,1,0,0:0:0:0:
163,78,414020,1,8,0:0:0:0:
175,88,414095,1,8,0:0:0:0:
137,203,414245,1,0,0:0:0:0:
137,203,414320,1,0,0:0:0:0:
137,203,414395,1,8,0:0:0:0:
137,203,414470,1,0,0:0:0:0:
137,203,414545,1,0,0:0:0:0:
137,203,414620,1,8,0:0:0:0:
133,198,414695,1,8,0:0:0:0:
137,203,414845,1,0,0:0:0:0:
137,203,414920,1,0,0:0:0:0:
137,203,415070,1,0,0:0:0:0:
115,136,415120,1,0,0:0:0:0:
137,203,415170,1,0,0:0:0:0:
137,203,415220,1,8,0:0:0:0:
128,158,415370,1,8,0:0:0:0:
181,40,415445,1,8,0:0:0:0:
219,155,415520,5,0,0:0:0:0:
219,155,415595,1,0,0:0:0:0:
219,155,415820,1,8,0:0:0:0:
219,155,415895,1,8,0:0:0:0:
219,155,416120,1,0,0:0:0:0:
219,155,416195,1,8,0:0:0:0:
219,155,416270,1,0,0:0:0:0:
219,155,416345,1,0,0:0:0:0:
219,155,416420,1,8,0:0:0:0:
203,150,416495,1,8,0:0:0:0:
203,150,416645,1,0,0:0:0:0:
203,149,416720,1,0,0:0:0:0:
204,150,416795,1,8,0:0:0:0:
204,151,416870,1,0,0:0:0:0:
192,91,416945,1,0,0:0:0:0:
205,150,417020,1,8,0:0:0:0:
202,153,417095,1,8,0:0:0:0:
206,131,417245,1,0,0:0:0:0:
206,131,417320,1,0,0:0:0:0:
210,133,417395,1,8,0:0:0:0:
208,130,417470,1,0,0:0:0:0:
210,130,417545,1,0,0:0:0:0:
212,128,417620,1,8,0:0:0:0:
213,126,417695,1,8,0:0:0:0:
71,160,417770,1,0,0:0:0:0:
71,160,417845,1,8,0:0:0:0:
171,53,417920,1,0,0:0:0:0:
179,64,417995,1,0,0:0:0:0:
143,162,418220,1,8,0:0:0:0:
179,65,418295,1,8,0:0:0:0:
164,78,418520,1,0,0:0:0:0:
179,88,418595,1,8,0:0:0:0:
164,78,418670,1,0,0:0:0:0:
179,88,418745,1,0,0:0:0:0:
163,78,418820,1,8,0:0:0:0:
175,88,418895,1,8,0:0:0:0:
137,203,419045,1,0,0:0:0:0:
137,203,419120,1,0,0:0:0:0:
137,203,419195,1,8,0:0:0:0:
137,203,419270,1,0,0:0:0:0:
137,203,419345,1,0,0:0:0:0:
137,203,419420,1,8,0:0:0:0:
133,198,419495,1,8,0:0:0:0:
137,203,419645,1,0,0:0:0:0:
137,203,419720,1,0,0:0:0:0:
137,203,419870,1,0,0:0:0:0:
115,136,419920,1,0,0:0:0:0:
137,203,419970,1,0,0:0:0:0:
137,203,420020,1,8,0:0:0:0:
128,158,420170,1,0,0:0:0:0:
181,40,420245,1,0,0:0:0:0:
74,157,420320,1,0,0:0:0:0:
183,192,425120,1,0,0:0:0:0:
171,133,425420,5,0,0:0:0:0:
183,192,425720,1,8,0:0:0:0:
171,133,425870,1,0,0:0:0:0:
172,137,425945,1,8,0:0:0:0:
173,137,426020,1,0,0:0:0:0:
105,172,426095,1,0,0:0:0:0:
173,137,426170,1,8,0:0:0:0:
105,172,426245,1,8,0:0:0:0:
98,174,426320,1,0,0:0:0:0:
98,174,426395,1,8,0:0:0:0:
94,114,426620,1,0,0:0:0:0:
110,136,426770,1,8,0:0:0:0:
110,136,426920,1,0,0:0:0:0:
148,174,426970,1,0,0:0:0:0:
148,174,427020,1,0,0:0:0:0:
110,140,427070,1,8,0:0:0:0:
74,155,427220,1,8,0:0:0:0:
74,155,427370,1,0,0:0:0:0:
74,155,427520,1,0,0:0:0:0:
81,101,427820,1,0,0:0:0:0:
81,101,428120,1,8,0:0:0:0:
76,108,428270,1,0,0:0:0:0:
75,112,428345,1,8,0:0:0:0:
76,108,428420,1,0,0:0:0:0:
81,107,428495,1,0,0:0:0:0:
76,108,428570,1,8,0:0:0:0:
121,62,428645,1,8,0:0:0:0:
92,139,428720,1,0,0:0:0:0:
92,139,428795,1,8,0:0:0:0:
68,155,429020,1,0,0:0:0:0:
68,155,429170,1,8,0:0:0:0:
81,162,429320,1,0,0:0:0:0:
135,146,429395,1,8,0:0:0:0:
81,162,429470,1,0,0:0:0:0:
132,152,429620,1,8,0:0:0:0:
134,152,429770,1,0,0:0:0:0:
117,150,430520,1,8,0:0:0:0:
117,150,430670,1,0,0:0:0:0:
117,150,430745,1,8,0:0:0:0:
117,150,430820,1,0,0:0:0:0:
81,179,430970,1,8,0:0:0:0:
100,175,431420,1,0,0:0:0:0:
101,180,431570,1,8,0:0:0:0:
112,185,431720,1,0,0:0:0:0:
112,185,431795,1,8,0:0:0:0:
161,159,431870,1,0,0:0:0:0:
175,173,432020,1,8,0:0:0:0:
175,173,432170,1,0,0:0:0:0:
186,170,432920,1,8,0:0:0:0:
186,170,433070,1,8,0:0:0:0:
186,170,433220,1,0,0:0:0:0:
186,170,433370,1,8,0:0:0:0:
185,164,433520,1,8,0:0:0:0:
131,177,434720,1,0,0:0:0:0:
137,173,435320,1,8,0:0:0:0:
137,173,435620,1,0,0:0:0:0:
137,173,435920,1,8,0:0:0:0:
142,160,436520,1,0,0:0:0:0:
143,165,436820,1,8,0:0:0:0:
143,165,437120,1,0,0:0:0:0:
139,168,437420,1,8,0:0:0:0:
139,168,437720,1,0,0:0:0:0:
137,159,438320,1,8,0:0:0:0:
137,159,438620,1,0,0:0:0:0:
256,192,438920,12,0,439370,0:0:0:0:
256,192,439520,5,0,0:0:0:0:
256,192,439595,1,0,0:0:0:0:
256,192,439820,1,8,0:0:0:0:
288,192,439895,1,0,0:0:0:0:
288,192,440120,1,8,0:0:0:0:
256,192,440195,1,0,0:0:0:0:
256,192,440270,1,0,0:0:0:0:
288,192,440345,1,0,0:0:0:0:
288,192,440420,1,8,0:0:0:0:
288,192,440495,1,0,0:0:0:0:
288,224,440645,1,0,0:0:0:0:
288,192,440720,1,8,0:0:0:0:
288,192,440795,1,0,0:0:0:0:
288,192,440870,1,0,0:0:0:0:
256,224,440945,1,8,0:0:0:0:
288,192,441020,1,0,0:0:0:0:
256,192,441095,1,8,0:0:0:0:
288,192,441245,1,0,0:0:0:0:
288,192,441320,1,8,0:0:0:0:
288,192,441395,1,0,0:0:0:0:
288,192,441470,1,0,0:0:0:0:
288,192,441545,1,8,0:0:0:0:
288,192,441620,1,8,0:0:0:0:
288,192,441695,1,0,0:0:0:0:
288,192,441770,1,0,0:0:0:0:
288,192,441845,1,0,0:0:0:0:
288,192,441920,1,8,0:0:0:0:
288,192,441995,1,0,0:0:0:0:
288,192,442220,1,8,0:0:0:0:
288,192,442295,1,0,0:0:0:0:
288,192,442520,1,8,0:0:0:0:
288,192,442595,1,0,0:0:0:0:
288,192,442670,1,0,0:0:0:0:
288,192,442745,1,8,0:0:0:0:
288,192,442820,1,0,0:0:0:0:
256,192,442895,1,8,0:0:0:0:
288,192,443045,1,0,0:0:0:0:
288,192,443120,1,8,0:0:0:0:
256,192,443195,1,0,0:0:0:0:
288,192,443270,1,0,0:0:0:0:
288,192,443345,1,0,0:0:0:0:
288,192,443420,1,8,0:0:0:0:
288,192,443495,1,0,0:0:0:0:
288,192,443645,1,0,0:0:0:0:
288,192,443720,1,0,0:0:0:0:
288,192,443870,1,8,0:0:0:0:
288,192,443920,1,8,0:0:0:0:
288,192,443970,1,8,0:0:0:0:
288,192,444020,1,0,0:0:0:0:
288,192,444095,1,0,0:0:0:0:
288,192,444170,1,0,0:0:0:0:
288,192,444245,1,8,0:0:0:0:
288,192,444320,1,8,0:0:0:0:
288,192,444395,1,0,0:0:0:0:
288,192,444620,1,8,0:0:0:0:
256,192,444695,1,0,0:0:0:0:
256,192,444920,1,8,0:0:0:0:
288,192,444995,1,0,0:0:0:0:
256,192,445070,1,0,0:0:0:0:
256,192,445145,1,0,0:0:0:0:
288,192,445220,1,8,0:0:0:0:
224,192,445295,1,0,0:0:0:0:
288,192,445445,1,0,0:0:0:0:
288,192,445520,1,8,0:0:0:0:
288,192,445595,1,0,0:0:0:0:
192,192,445670,1,0,0:0:0:0:
288,224,445745,1,0,0:0:0:0:
288,192,445820,1,8,0:0:0:0:
288,192,445895,1,0,0:0:0:0:
256,224,446045,1,0,0:0:0:0:
288,192,446120,1,8,0:0:0:0:
256,192,446195,1,0,0:0:0:0:
256,224,446270,1,0,0:0:0:0:
288,192,446345,1,0,0:0:0:0:
288,192,446420,1,8,0:0:0:0:
288,192,446495,1,0,0:0:0:0:
288,192,446570,1,0,0:0:0:0:
288,192,446645,1,0,0:0:0:0:
288,192,446720,1,8,0:0:0:0:
288,192,446795,1,0,0:0:0:0:
288,192,447020,1,8,0:0:0:0:
288,192,447095,1,0,0:0:0:0:
288,192,447320,1,8,0:0:0:0:
288,192,447395,1,0,0:0:0:0:
288,192,447470,1,0,0:0:0:0:
288,192,447545,1,0,0:0:0:0:
288,192,447620,1,8,0:0:0:0:
288,192,447695,1,0,0:0:0:0:
288,192,447770,1,0,0:0:0:0:
288,192,447845,1,0,0:0:0:0:
288,192,447920,1,8,0:0:0:0:
256,192,447995,1,8,0:0:0:0:
256,192,448070,1,0,0:0:0:0:
288,192,448145,1,0,0:0:0:0:
288,192,448220,1,8,0:0:0:0:
256,192,448295,1,0,0:0:0:0:
288,192,448445,1,8,0:0:0:0:
288,192,448520,1,8,0:0:0:0:
288,192,448595,1,0,0:0:0:0:
256,160,448670,1,8,0:0:0:0:
256,160,448720,1,8,0:0:0:0:
288,192,448770,1,8,0:0:0:0:
288,192,448820,1,0,0:0:0:0:
256,160,448895,1,0,0:0:0:0:
256,160,448970,1,0,0:0:0:0:
256,160,449045,1,0,0:0:0:0:
288,192,449120,1,8,0:0:0:0:
288,192,449195,1,0,0:0:0:0:
288,192,449420,1,8,0:0:0:0:
256,192,449495,1,0,0:0:0:0:
256,192,449720,1,8,0:0:0:0:
288,192,449795,1,0,0:0:0:0:
256,192,449870,1,0,0:0:0:0:
256,192,449945,1,0,0:0:0:0:
288,192,450020,1,8,0:0:0:0:
256,192,450095,1,0,0:0:0:0:
288,192,450245,1,0,0:0:0:0:
288,192,450320,1,8,0:0:0:0:
288,192,450395,1,0,0:0:0:0:
288,192,450470,1,0,0:0:0:0:
288,224,450545,1,0,0:0:0:0:
288,192,450620,1,8,0:0:0:0:
288,192,450695,1,0,0:0:0:0:
256,224,450845,1,0,0:0:0:0:
288,192,450920,1,8,0:0:0:0:
256,192,450995,1,0,0:0:0:0:
320,192,451070,1,0,0:0:0:0:
288,192,451145,1,0,0:0:0:0:
288,192,451220,1,8,0:0:0:0:
288,192,451295,1,0,0:0:0:0:
288,192,451370,1,0,0:0:0:0:
288,192,451445,1,0,0:0:0:0:
288,192,451520,1,8,0:0:0:0:
288,192,451595,1,0,0:0:0:0:
288,192,451820,1,8,0:0:0:0:
288,192,451895,1,0,0:0:0:0:
288,192,452120,1,8,0:0:0:0:
288,192,452195,1,0,0:0:0:0:
288,192,452270,1,0,0:0:0:0:
288,192,452345,1,0,0:0:0:0:
288,192,452420,1,8,0:0:0:0:
288,192,452495,1,0,0:0:0:0:
288,192,452570,1,0,0:0:0:0:
288,192,452645,1,0,0:0:0:0:
288,192,452720,1,8,0:0:0:0:
256,192,452795,1,8,0:0:0:0:
288,192,452870,1,0,0:0:0:0:
288,192,452945,1,0,0:0:0:0:
288,192,453020,1,8,0:0:0:0:
256,192,453095,1,0,0:0:0:0:
288,192,453245,1,0,0:0:0:0:
288,192,453320,1,8,0:0:0:0:
288,192,453395,1,0,0:0:0:0:
288,192,453470,1,8,0:0:0:0:
288,160,453520,1,8,0:0:0:0:
288,192,453570,1,8,0:0:0:0:
288,192,453620,1,0,0:0:0:0:
288,192,453770,1,0,0:0:0:0:
288,192,453845,1,8,0:0:0:0:
288,192,453920,1,0,0:0:0:0:
288,192,454220,1,0,0:0:0:0:
256,192,454295,1,0,0:0:0:0:
256,192,454520,1,8,0:0:0:0:
288,192,454595,1,0,0:0:0:0:
256,192,454670,1,0,0:0:0:0:
256,192,454745,1,0,0:0:0:0:
288,192,454820,1,8,0:0:0:0:
256,192,454895,1,0,0:0:0:0:
288,192,455045,1,0,0:0:0:0:
288,192,455120,1,8,0:0:0:0:
288,192,455195,1,0,0:0:0:0:
256,192,455270,1,0,0:0:0:0:
288,224,455345,1,0,0:0:0:0:
288,192,455420,1,8,0:0:0:0:
288,192,455495,1,0,0:0:0:0:
256,224,455645,1,0,0:0:0:0:
288,192,455720,1,8,0:0:0:0:
256,192,455795,1,0,0:0:0:0:
288,224,455870,1,0,0:0:0:0:
288,192,455945,1,0,0:0:0:0:
288,192,456020,1,8,0:0:0:0:
288,192,456095,1,8,0:0:0:0:
288,192,456170,1,0,0:0:0:0:
288,192,456245,1,0,0:0:0:0:
288,192,456320,1,8,0:0:0:0:
288,192,456395,1,0,0:0:0:0:
288,192,456620,1,8,0:0:0:0:
288,192,456695,1,0,0:0:0:0:
288,192,456920,1,8,0:0:0:0:
288,192,456995,1,0,0:0:0:0:
256,192,457070,1,0,0:0:0:0:
288,192,457145,1,0,0:0:0:0:
288,192,457220,1,8,0:0:0:0:
288,192,457295,1,8,0:0:0:0:
288,192,457370,1,0,0:0:0:0:
288,192,457445,1,0,0:0:0:0:
288,192,457520,1,8,0:0:0:0:
224,192,457720,1,0,0:0:0:0:
288,192,457820,1,8,0:0:0:0:
448,64,457920,1,8,0:0:0:0:
448,64,458020,1,8,0:0:0:0:
288,192,458120,1,0,0:0:0:0:
448,64,458220,1,8,0:0:0:0:
64,64,458320,1,0,0:0:0:0:
256,192,458420,1,8,0:0:0:0:
64,64,458520,1,0,0:0:0:0:
256,192,458620,1,0,0:0:0:0:
288,192,458720,1,8,0:0:0:0:
288,192,459020,1,4,0:0:0:0:
256,192,459320,1,8,0:0:0:0:
256,192,459395,1,0,0:0:0:0:
256,192,459470,1,0,0:0:0:0:
256,192,459545,1,0,0:0:0:0:
256,192,459620,1,8,0:0:0:0:
256,192,459695,1,0,0:0:0:0:
256,192,459845,1,0,0:0:0:0:
256,192,459920,1,8,0:0:0:0:
256,192,459995,1,0,0:0:0:0:
256,192,460070,1,0,0:0:0:0:
256,192,460145,1,0,0:0:0:0:
256,192,460220,1,8,0:0:0:0:
256,192,460295,1,8,0:0:0:0:
256,192,460445,1,0,0:0:0:0:
256,192,460520,1,8,0:0:0:0:
256,192,460595,1,0,0:0:0:0:
256,192,460670,1,0,0:0:0:0:
256,192,460745,1,0,0:0:0:0:
256,192,460820,1,8,0:0:0:0:
256,192,460895,1,8,0:0:0:0:
256,192,460970,1,0,0:0:0:0:
256,192,461045,1,0,0:0:0:0:
256,192,461120,1,8,0:0:0:0:
262,194,461420,5,4,0:0:0:0:
256,192,461720,1,8,0:0:0:0:
256,192,461795,1,0,0:0:0:0:
256,192,461870,1,0,0:0:0:0:
262,194,461945,1,0,0:0:0:0:
262,194,462020,1,8,0:0:0:0:
256,192,462095,1,8,0:0:0:0:
256,192,462245,1,0,0:0:0:0:
256,192,462320,1,8,0:0:0:0:
256,192,462395,1,0,0:0:0:0:
256,192,462470,1,0,0:0:0:0:
256,192,462545,1,0,0:0:0:0:
256,192,462620,1,8,0:0:0:0:
256,192,462695,1,0,0:0:0:0:
224,192,462845,1,0,0:0:0:0:
224,192,462920,1,8,0:0:0:0:
256,160,462995,1,0,0:0:0:0:
256,192,463070,1,8,0:0:0:0:
256,192,463120,1,8,0:0:0:0:
192,192,463170,1,8,0:0:0:0:
256,192,463220,1,0,0:0:0:0:
224,160,463295,1,0,0:0:0:0:
224,160,463370,1,0,0:0:0:0:
256,160,463445,1,0,0:0:0:0:
256,160,463520,1,8,0:0:0:0:
256,192,463820,5,4,0:0:0:0:
256,192,464120,1,8,0:0:0:0:
256,192,464195,1,0,0:0:0:0:
256,192,464270,1,0,0:0:0:0:
256,192,464345,1,0,0:0:0:0:
256,192,464420,1,8,0:0:0:0:
256,192,464495,1,8,0:0:0:0:
256,192,464645,1,8,0:0:0:0:
256,192,464720,1,0,0:0:0:0:
256,192,464795,1,0,0:0:0:0:
256,192,464870,1,0,0:0:0:0:
256,192,464945,1,0,0:0:0:0:
256,192,465020,1,8,0:0:0:0:
256,192,465095,1,0,0:0:0:0:
256,192,465245,1,0,0:0:0:0:
256,192,465320,1,8,0:0:0:0:
256,192,465395,1,0,0:0:0:0:
256,192,465470,1,0,0:0:0:0:
256,192,465545,1,0,0:0:0:0:
256,192,465620,1,8,0:0:0:0:
256,192,465695,1,8,0:0:0:0:
288,192,465770,1,0,0:0:0:0:
288,192,465845,1,0,0:0:0:0:
288,192,465920,1,8,0:0:0:0:
256,192,466220,1,4,0:0:0:0:
256,192,466520,1,8,0:0:0:0:
256,192,466595,1,0,0:0:0:0:
256,192,466670,1,0,0:0:0:0:
256,192,466745,1,0,0:0:0:0:
256,192,466820,1,8,0:0:0:0:
256,192,466895,1,0,0:0:0:0:
256,192,467045,1,0,0:0:0:0:
256,192,467120,1,8,0:0:0:0:
256,192,467195,1,0,0:0:0:0:
256,192,467270,1,0,0:0:0:0:
256,192,467345,1,0,0:0:0:0:
256,192,467420,1,8,0:0:0:0:
256,192,467495,1,0,0:0:0:0:
256,192,467570,1,0,0:0:0:0:
256,192,467645,1,8,0:0:0:0:
256,192,467720,1,0,0:0:0:0:
256,192,467920,1,0,0:0:0:0:
256,192,468120,1,0,0:0:0:0:
256,192,468320,1,8,0:0:0:0:
224,192,468395,1,8,0:0:0:0:
256,192,468470,1,8,0:0:0:0:
256,192,468545,1,8,0:0:0:0:
256,192,468620,1,0,0:0:0:0:
256,192,468695,1,0,0:0:0:0:
256,192,468770,1,8,0:0:0:0:
256,192,468845,1,8,0:0:0:0:
256,192,468920,1,8,0:0:0:0:
256,192,468995,1,0,0:0:0:0:
256,192,469070,1,8,0:0:0:0:
256,192,469145,1,8,0:0:0:0:
256,192,469220,1,0,0:0:0:0:
256,192,469295,1,0,0:0:0:0:
256,192,469370,1,8,0:0:0:0:
256,192,469445,1,0,0:0:0:0:
256,192,469520,1,0,0:0:0:0:
256,192,469595,1,0,0:0:0:0:
256,192,469670,1,8,0:0:0:0:
256,192,469745,1,8,0:0:0:0:
256,192,469820,1,0,0:0:0:0:
256,192,469895,1,8,0:0:0:0:
256,192,469970,1,0,0:0:0:0:
256,192,470045,1,0,0:0:0:0:
256,192,470120,1,8,0:0:0:0:
256,192,470195,1,0,0:0:0:0:
256,192,470270,1,8,0:0:0:0:
256,192,470345,1,8,0:0:0:0:
256,192,470420,1,8,0:0:0:0:
256,192,470495,1,8,0:0:0:0:
256,192,470570,1,0,0:0:0:0:
256,192,470645,1,0,0:0:0:0:
256,192,470720,1,8,0:0:0:0:
256,192,470795,1,8,0:0:0:0:
256,192,470870,1,0,0:0:0:0:
256,192,470945,1,8,0:0:0:0:
256,192,471020,1,0,0:0:0:0:
256,192,471095,1,0,0:0:0:0:
256,192,471170,1,8,0:0:0:0:
256,192,471245,1,0,0:0:0:0:
256,192,471320,1,8,0:0:0:0:
256,192,471395,1,8,0:0:0:0:
256,192,471470,1,8,0:0:0:0:
256,192,471545,1,8,0:0:0:0:
256,192,471620,1,0,0:0:0:0:
256,192,471695,1,0,0:0:0:0:
256,192,471770,1,8,0:0:0:0:
256,192,471845,1,0,0:0:0:0:
256,192,471920,1,8,0:0:0:0:
256,192,471995,1,8,0:0:0:0:
256,192,472070,1,0,0:0:0:0:
256,192,472145,1,8,0:0:0:0:
256,192,472220,1,0,0:0:0:0:
256,192,472295,1,0,0:0:0:0:
256,192,472370,1,8,0:0:0:0:
256,192,472445,1,8,0:0:0:0:
256,192,472520,1,0,0:0:0:0:
256,192,472595,1,0,0:0:0:0:
256,192,472670,1,8,0:0:0:0:
256,192,472745,1,8,0:0:0:0:
256,192,472820,1,8,0:0:0:0:
256,192,472895,1,0,0:0:0:0:
256,192,472970,1,8,0:0:0:0:
256,192,473045,1,8,0:0:0:0:
256,192,473120,1,0,0:0:0:0:
256,192,473195,1,0,0:0:0:0:
256,192,473270,1,8,0:0:0:0:
256,192,473345,1,0,0:0:0:0:
256,192,473420,1,0,0:0:0:0:
256,192,473495,1,0,0:0:0:0:
256,192,473570,1,8,0:0:0:0:
256,192,473645,1,8,0:0:0:0:
256,192,473720,1,0,0:0:0:0:
256,192,473795,1,0,0:0:0:0:
256,192,473870,1,8,0:0:0:0:
256,192,473945,1,0,0:0:0:0:
256,192,474020,1,8,0:0:0:0:
256,192,474095,1,8,0:0:0:0:
256,192,474170,1,8,0:0:0:0:
256,192,474245,1,0,0:0:0:0:
256,192,474320,1,8,0:0:0:0:
256,192,474395,1,8,0:0:0:0:
256,192,474470,1,0,0:0:0:0:
256,192,474545,1,8,0:0:0:0:
256,192,474620,1,0,0:0:0:0:
256,192,474695,1,0,0:0:0:0:
256,192,474770,1,8,0:0:0:0:
256,192,474845,1,0,0:0:0:0:
256,192,474920,1,8,0:0:0:0:
256,192,474995,1,0,0:0:0:0:
256,192,475070,1,0,0:0:0:0:
256,192,475145,1,0,0:0:0:0:
256,192,475220,1,8,0:0:0:0:
256,192,475295,1,8,0:0:0:0:
256,192,475370,1,0,0:0:0:0:
256,192,475445,1,8,0:0:0:0:
256,192,475520,1,0,0:0:0:0:
256,192,475570,1,0,0:0:0:0:
256,192,475620,1,0,0:0:0:0:
256,192,475670,1,8,0:0:0:0:
238,162,475745,1,0,0:0:0:0:
256,192,475820,1,8,0:0:0:0:
256,160,475920,1,0,0:0:0:0:
256,192,476020,1,0,0:0:0:0:
245,175,476120,1,8,0:0:0:0:
256,160,476220,1,8,0:0:0:0:
256,160,476320,1,8,0:0:0:0:
256,160,476420,1,0,0:0:0:0:
238,162,476520,1,0,0:0:0:0:
256,160,476620,1,8,0:0:0:0:
256,160,476720,1,0,0:0:0:0:
246,172,476770,1,0,0:0:0:0:
248,172,476820,1,0,0:0:0:0:
249,172,476870,1,0,0:0:0:0:
249,172,476920,1,8,0:0:0:0:
224,160,477020,1,8,0:0:0:0:
256,160,477120,1,8,0:0:0:0:
256,160,477220,1,0,0:0:0:0:
256,160,477320,1,8,0:0:0:0:
256,160,477420,1,0,0:0:0:0:
256,160,477520,1,0,0:0:0:0:
256,160,477620,1,8,0:0:0:0:
256,160,477720,1,0,0:0:0:0:
256,160,477820,1,8,0:0:0:0:
256,192,477920,5,4,0:0:0:0:
