osu file format v14

[General]
AudioFilename: Diao ye zong feat. Meramipop - Nibanme-Mono 'Tatarigami'.mp3
AudioLeadIn: 0
PreviewTime: 109536
Countdown: 0
SampleSet: Soft
StackLeniency: 0.4
Mode: 0
LetterboxInBreaks: 0
WidescreenStoryboard: 0

[Editor]
DistanceSpacing: 2
BeatDivisor: 3
GridSize: 4
TimelineZoom: 1

[Metadata]
Title:Tatarigami
TitleUnicode:祟神
Artist:RD-Sounds feat. Meramipop
ArtistUnicode:RD-Sounds feat. めらみぽっぷ
Creator:tokiko
Version:Extra Stage
Source:東方風神録 ~ Mountain of Faith.
Tags:touhou project th10 明日ハレの日、ケの昨日 Tomorrow will be Special, Yesterday was Not 凋叶棕 Diao ye zong 伝 tsutae Stories Comiket 91 C91 Team Shanghai Alice ZUN
BeatmapID:1530206
BeatmapSetID:724673

[Difficulty]
HPDrainRate:6
CircleSize:4
OverallDifficulty:8
ApproachRate:9.2
SliderMultiplier:2.4
SliderTickRate:1

[Events]
//Background and Video events
0,0,"Diao ye zong feat. Meramipop - Nibanme-Mono 'Tatarigami'.jpg",0,0
//Break Periods
2,145291,158744
2,319366,322376
//Storyboard Layer 0 (Background)
//Storyboard Layer 1 (Fail)
//Storyboard Layer 2 (Pass)
//Storyboard Layer 3 (Foreground)
//Storyboard Sound Samples

[TimingPoints]
1092,444.444444444444,4,2,1,65,1,0
10425,-250,4,2,1,65,0,0
11314,-100,4,2,1,65,0,0
13536,-200,4,2,1,65,0,0
13980,-100,4,2,1,65,0,0
14425,-200,4,2,1,65,0,0
14869,-100,4,2,1,65,0,0
16203,-200,4,2,1,65,0,0
17536,-250,4,2,1,65,0,0
18425,-100,4,2,1,65,0,0
20647,-200,4,2,1,65,0,0
21091,-100,4,2,1,65,0,0
21536,-200,4,2,1,65,0,0
21980,-100,4,2,1,65,0,0
23314,-200,4,2,1,65,0,0
23758,-100,4,2,1,65,0,0
24203,-200,4,2,12,65,0,0
24647,-100,4,2,1,65,0,0
25091,-200,4,2,13,65,0,0
25536,-100,4,2,1,65,0,0
25980,-100,4,2,12,65,0,0
26425,-200,4,2,1,65,0,0
26869,-100,4,2,1,65,0,0
27314,-399.999999999997,4,2,1,65,0,0
27758,-200,4,2,13,65,0,0
28203,-100,4,2,1,65,0,0
28647,-200,4,2,12,65,0,0
29091,-100,4,2,1,65,0,0
30425,-1000,4,2,1,65,0,0
30869,-100,4,2,1,65,0,0
31314,-200,4,2,12,65,0,0
31758,-80,4,2,1,65,0,0
32203,-200,4,2,13,65,0,0
32647,-79.9999999999999,4,2,1,65,0,0
33091,-100,4,2,12,65,0,0
33536,-79.9999999999999,4,2,1,65,0,0
33980,-200,4,2,13,65,0,0
34425,-79.9999999999999,4,2,1,65,0,0
34869,-200,4,2,12,65,0,0
35314,-79.9999999999999,4,2,1,65,0,0
35758,-200,4,2,13,65,0,0
36203,-79.9999999999999,4,2,1,65,0,0
36647,-200,4,2,1,65,0,0
38425,-100,4,2,1,65,0,0
52647,-200,4,2,1,65,0,0
53091,-100,4,2,1,65,0,0
53536,-200,4,2,1,65,0,0
53980,-100,4,2,1,65,0,0
54425,-200,4,2,1,65,0,0
54869,-100,4,2,1,65,0,0
55314,-200,4,2,1,65,0,0
55758,-100,4,2,1,65,0,0
56203,-200,4,2,1,65,0,0
56647,-100,4,2,1,65,0,0
57091,-200,4,2,1,65,0,0
57536,-100,4,2,1,65,0,0
57980,-200,4,2,1,65,0,0
58425,-100,4,2,1,65,0,0
58869,-200,4,2,1,65,0,0
59314,-100,4,2,1,65,0,0
59758,-200,4,2,1,65,0,0
60203,-100,4,2,1,65,0,0
60647,-200,4,2,1,65,0,0
61091,-100,4,2,1,65,0,0
61536,-200,4,2,1,65,0,0
61980,-100,4,2,1,65,0,0
62425,-200,4,2,1,65,0,0
62869,-100,4,2,1,65,0,0
63314,-200,4,2,1,65,0,0
63758,-100,4,2,1,65,0,0
64203,-200,4,2,1,65,0,0
64647,-100,4,2,1,65,0,0
65091,-200,4,2,1,65,0,0
65536,-100,4,2,1,65,0,0
65980,-200,4,2,1,65,0,0
66425,-100,4,2,1,65,0,0
66869,-200,4,2,1,65,0,0
72203,-200,4,3,2,65,0,0
72499,-200,4,2,1,65,0,0
73091,-133.333333333333,4,3,2,65,0,0
73388,-133.333333333333,4,2,1,65,0,0
73980,-100,4,2,1,65,0,0
88203,-200,4,2,1,65,0,0
102425,-133.333333333333,4,2,1,65,0,0
104647,-153.846153846153,4,2,1,65,0,0
105091,-181.818181818181,4,2,1,65,0,0
105536,-222.222222222221,4,2,1,65,0,0
105980,-133.333333333333,4,2,1,65,0,0
106425,-200,4,2,1,65,0,0
106869,-133.333333333333,4,2,1,65,0,0
107314,-200,4,2,1,65,0,0
107758,-100,4,2,1,65,0,0
109536,-80,4,2,1,65,0,1
115314,-133.333333333333,4,2,1,65,0,1
115758,-79.9999999999999,4,2,1,65,0,1
120203,-200,4,3,2,65,0,1
120647,-79.9999999999999,4,2,1,65,0,1
121091,-200,4,3,2,65,0,1
121536,-79.9999999999999,4,2,1,65,0,1
121980,-200,4,2,1,65,0,1
122869,-100,4,2,1,65,0,1
123758,-79.9999999999999,4,2,1,65,0,1
129536,-133.333333333333,4,2,1,65,0,1
129980,-79.9999999999999,4,2,1,65,0,1
134425,-200,4,2,1,65,0,1
134869,-79.9999999999999,4,2,1,65,0,1
135314,-200,4,2,1,65,0,1
135758,-79.9999999999999,4,2,1,65,0,1
136203,-200,4,2,1,65,0,1
137091,-100,4,2,1,65,0,1
137980,-133.333333333333,4,2,1,65,0,1
139758,-100,4,2,1,65,0,1
143314,-66.6666666666667,4,2,1,65,0,1
143758,-100,4,2,1,65,0,1
144203,-1000,4,2,1,65,0,1
145091,-100,4,2,1,65,0,0
173536,-200,4,2,1,65,0,0
179758,-133.333333333333,4,2,1,65,0,0
180647,-100,4,2,1,65,0,0
194869,-200,4,2,1,65,0,0
209091,-133.333333333333,4,2,1,65,0,0
211314,-153.846153846153,4,2,1,65,0,0
211758,-181.818181818181,4,2,1,65,0,0
212203,-222.222222222221,4,2,1,65,0,0
212647,-133.333333333333,4,2,1,65,0,0
213091,-200,4,2,1,65,0,0
213536,-133.333333333333,4,2,1,65,0,0
213980,-200,4,2,1,65,0,0
214425,-100,4,2,1,65,0,0
216203,-80,4,2,1,65,0,1
221980,-133.333333333333,4,2,1,65,0,1
222425,-79.9999999999999,4,2,1,65,0,1
226869,-200,4,2,1,65,0,1
227314,-79.9999999999999,4,2,1,65,0,1
227758,-200,4,2,1,65,0,1
228203,-79.9999999999999,4,2,1,65,0,1
228647,-200,4,2,1,65,0,1
229536,-100,4,2,1,65,0,1
230425,-80,4,2,1,65,0,1
236203,-133.333333333333,4,2,1,65,0,1
236647,-79.9999999999999,4,2,1,65,0,1
241091,-200,4,2,1,65,0,1
241536,-79.9999999999999,4,2,1,65,0,1
241980,-200,4,2,1,65,0,1
242425,-79.9999999999999,4,2,1,65,0,1
242869,-200,4,2,1,65,0,1
243758,-100,4,2,1,65,0,1
244647,-133.333333333333,4,2,1,65,0,1
246425,-100,4,2,1,65,0,1
249980,-66.6666666666667,4,2,1,65,0,1
250425,-100,4,2,1,65,0,1
250869,-1000,4,2,1,65,0,1
251758,-100,4,2,1,65,0,0
257091,-133.333333333333,4,2,1,65,0,0
257536,-200,4,2,1,65,0,0
258425,-133.333333333333,4,2,1,65,0,0
258869,-100,4,2,1,65,0,0
264203,-200,4,2,1,65,0,0
265980,-133.333333333333,4,2,1,65,0,0
271758,-100,4,2,1,65,0,0
272203,-200,4,2,1,65,0,0
272647,-100,4,2,1,65,0,0
278425,-200,4,2,1,65,0,0
281536,-400,4,2,1,65,0,0
281980,-80,4,2,1,65,0,1
287758,-133.333333333333,4,2,1,65,0,1
288203,-79.9999999999999,4,2,1,65,0,1
292647,-200,4,2,1,65,0,1
293091,-79.9999999999999,4,2,1,65,0,1
293536,-200,4,2,1,65,0,1
293980,-79.9999999999999,4,2,1,65,0,1
294425,-200,4,2,1,65,0,1
295314,-100,4,2,1,65,0,1
296203,-79.9999999999999,4,2,1,65,0,1
301980,-133.333333333333,4,2,1,65,0,1
302425,-79.9999999999999,4,2,1,65,0,1
306869,-200,4,2,1,65,0,1
307314,-79.9999999999999,4,2,1,65,0,1
307758,-200,4,2,1,65,0,1
308203,-79.9999999999999,4,2,1,65,0,1
309536,-66.6666666666667,4,2,1,65,0,1
310425,-133.333333333333,4,2,1,65,0,1
312203,-200,4,2,1,65,0,1
312647,-100,4,2,1,65,0,1
313980,-100,4,2,1,70,0,1
315758,-100,4,2,1,80,0,1
317536,-100,4,2,1,90,0,1
318425,-100,4,2,1,100,0,1
319314,-100,4,2,1,65,0,0
322425,521.739130434783,4,2,1,65,1,0
322946,494.845360824742,4,2,1,65,1,0
322946,-66.6666666666667,4,2,1,65,0,0
323440,444.444444444444,4,2,1,65,1,1
323440,-80,4,2,1,65,0,1
337662,-133.333333333333,4,2,1,65,0,0
339440,480,4,2,1,65,1,0
340400,545.454545454546,4,2,1,65,1,0
340945,600,4,2,1,65,1,0
344545,500,4,2,1,10,1,0
345045,750,4,2,1,40,1,0
345295,560.747663551402,4,2,1,40,1,0
345481,833.333333333333,4,2,1,40,1,0
345758,545.454545454546,4,2,1,40,1,0
345939,-100,4,2,2,40,0,0

[Colours]
Combo1 : 167,120,24
Combo2 : 191,0,63
Combo3 : 0,191,29
Combo4 : 24,142,167

[HitObjects]
88,8,2721,6,0,L|92:88,1,80
176,40,3166,2,0,L|180:120,1,80
264,72,3610,2,0,L|268:152,1,80
88,8,4054,2,0,L|92:88,1,80
352,40,4499,6,0,L|348:120,1,80
264,72,4943,2,0,L|260:152,1,80
176,104,5388,2,0,L|172:184,1,80
352,40,5832,2,0,L|348:120,1,80
88,72,6277,6,0,L|92:152,1,80
176,104,6721,2,0,L|180:184,1,80
264,136,7166,2,0,L|268:216,1,80
88,72,7610,2,0,L|92:152,1,80
352,104,8054,6,0,L|348:184,1,80
264,136,8499,2,0,L|260:216,1,80
172,247,9091,5,0,0:0:0:0:
260,215,9240,1,0,0:0:0:0:
348,183,9388,1,0,0:0:0:0:
172,247,9536,1,0,0:0:0:0:
436,151,9832,1,0,0:0:0:0:
88,200,10425,6,0,B|80:264|92:316|92:316|120:368,1,160,2|0,0:0|0:0,0:0:0:0:
172,288,11314,2,0,P|224:280|348:276,1,160,2|0,0:3|0:0,0:0:0:0:
112,354,11758,2,0,P|73:350|28:352,1,80,2|0,0:3|0:0,0:0:0:0:
172,288,12054,1,2,0:3:0:0:
256,324,12203,2,0,P|294:320|340:322,1,80,2|0,0:3|0:0,0:0:0:0:
172,288,12499,1,0,0:0:0:0:
116,212,12647,2,0,P|112:173|113:128,1,80,2|0,0:3|0:0,0:0:0:0:
244,224,12943,1,0,0:0:0:0:
241,129,13091,2,0,P|260:95|287:59,1,80,2|0,0:3|0:0,0:0:0:0:
244,224,13388,1,0,0:0:0:0:
116,212,13536,6,0,L|20:204,1,80,2|2,0:3|0:3,0:0:0:0:
108,292,13980,2,0,L|124:124,1,160,2|0,0:3|0:0,0:0:0:0:
304,132,14425,6,0,L|400:124,1,80,2|2,0:3|0:3,0:0:0:0:
312,212,14869,2,0,L|296:44,1,160,2|2,0:3|0:3,0:0:0:0:
256,292,15314,2,0,P|340:304|400:252,1,160,2|0,0:3|0:0,0:0:0:0:
486,334,15758,2,0,P|402:346|342:294,1,160,2|0,0:3|0:0,0:0:0:0:
312,212,16203,2,0,B|252:204|252:204|216:212|216:212|160:192|104:216,1,200,2|0,0:3|0:0,0:0:0:0:
52,260,17091,1,2,0:3:0:0:
312,212,17536,6,0,B|396:192|396:228|472:212,1,160,2|0,0:0|0:0,0:0:0:0:
436,132,18425,2,0,P|352:120|268:140,1,160,2|0,0:3|0:0,0:0:0:0:
240,364,18869,2,0,P|279:359|319:361,1,80,2|0,0:3|0:0,0:0:0:0:
179,298,19166,1,2,0:3:0:0:
95,334,19314,2,0,P|55:329|15:331,1,80,2|0,0:3|0:0,0:0:0:0:
179,298,19610,1,0,0:0:0:0:
208,208,19758,2,0,P|216:172|216:120,1,80,2|0,0:3|0:0,0:0:0:0:
352,212,20054,1,0,0:0:0:0:
323,122,20203,2,0,P|315:86|315:34,1,80,2|0,0:3|0:0,0:0:0:0:
352,212,20499,1,0,0:0:0:0:
314,43,20647,6,0,P|275:35|226:35,1,80,2|2,0:3|0:3,0:0:0:0:
323,122,21091,2,0,P|399:114|487:118,1,160,2|0,0:3|0:0,0:0:0:0:
336,224,21536,6,0,P|297:216|248:216,1,80,2|2,0:3|0:3,0:0:0:0:
345,303,21980,2,0,P|421:295|509:299,1,160,2|2,0:3|0:3,0:0:0:0:
268,348,22425,2,0,B|168:360|168:360|104:348,1,160,2|0,0:3|0:0,0:0:0:0:
64,240,22869,2,0,B|164:228|164:228|228:240,1,160,2|0,0:3|0:0,0:0:0:0:
256,148,23314,2,0,L|156:128,1,80,2|0,0:3|0:0,0:0:0:0:
222,238,23758,1,2,0:0:0:0:
300,253,23906,1,2,0:0:0:0:
378,268,24054,1,2,0:0:0:0:
145,224,24203,6,0,L|45:204,1,80,6|0,0:0|0:0,0:0:0:0:
63,256,24647,2,0,L|235:236,1,160,8|0,0:0|0:0,0:0:0:0:
276,136,25091,6,0,L|176:116,1,80,6|0,0:0|0:0,0:0:0:0:
221,237,25536,2,0,L|393:217,1,160,8|0,0:0|0:0,0:0:0:0:
276,136,25980,6,0,L|176:116,1,80,6|0,0:0|0:0,0:0:0:0:
221,237,26277,1,0,0:0:0:0:
245,354,26425,6,0,L|345:334,1,80,8|0,0:0|0:0,0:0:0:0:
221,237,26869,1,2,0:0:0:0:
128,312,27017,1,2,0:3:0:0:
245,354,27166,1,2,0:3:0:0:
364,332,27314,6,0,L|408:344,1,40,8|0,0:3|0:0,0:0:0:0:
197,120,27758,6,0,L|118:135,1,80,6|0,0:0|0:0,0:0:0:0:
224,208,28203,2,0,L|232:36,1,160,8|0,0:0|0:0,0:0:0:0:
144,280,28647,6,0,L|65:295,1,80,6|0,0:0|0:0,0:0:0:0:
216,367,29091,2,0,L|224:195,1,160,8|0,0:0|0:0,0:0:0:0:
197,120,29536,5,2,0:0:0:0:
223,207,29684,1,0,0:0:0:0:
284,140,29832,1,0,0:0:0:0:
132,188,29980,1,8,0:0:0:0:
252,296,30129,1,0,0:0:0:0:
284,140,30277,1,0,0:0:0:0:
140,304,30425,6,0,L|140:316,2,8,6|0|0,0:0|0:0|0:0,0:0:0:0:
26,310,30869,1,8,0:0:0:0:
252,296,31017,1,8,0:0:0:0:
26,310,31166,1,8,0:0:0:0:
252,296,31314,6,0,L|260:216,1,80,6|0,0:0|0:0,0:0:0:0:
120,104,31758,2,0,L|140:304,1,200,8|0,1:2|0:0,0:0:0:0:
259,216,32203,6,0,L|251:136,1,80,6|0,0:0|0:0,0:0:0:0:
391,24,32647,2,0,L|371:224,1,200,8|0,1:2|0:0,0:0:0:0:
259,216,33091,6,0,L|251:136,1,80,6|0,0:0|0:0,0:0:0:0:
379,150,33388,1,0,0:0:0:0:
507,166,33536,2,0,L|487:366,1,200,8|0,1:2|0:0,0:0:0:0:
259,216,33980,6,0,L|251:136,1,80,6|0,0:0|0:0,0:0:0:0:
379,150,34425,2,0,L|359:350,1,200,8|0,1:2|0:0,0:0:0:0:
139,281,34869,6,0,L|131:201,1,80,6|0,0:0|0:0,0:0:0:0:
44,320,35314,2,0,L|256:304,1,200,8|0,1:2|0:0,0:0:0:0:
336,200,35758,6,0,L|328:120,1,80,6|0,0:0|0:0,0:0:0:0:
243,304,36203,2,0,L|455:288,1,200,8|0,1:2|0:0,0:0:0:0:
328,120,36647,6,0,L|336:200,1,80,6|0,0:0|0:0,0:0:0:0:
139,281,37091,2,0,L|131:201,1,80,6|0,0:0|0:0,0:0:0:0:
228,160,37536,6,0,L|236:240,2,80,8|8|8,0:0|0:0|0:0,0:0:0:0:
139,281,38277,1,8,0:0:0:0:
236,240,38425,6,0,P|296:236|400:248,1,160,12|0,0:0|0:0,0:0:0:0:
487,113,38869,2,0,P|427:109|323:121,1,160,8|8,0:1|0:0,0:0:0:0:
236,240,39314,2,0,P|296:236|400:248,1,160,8|2,0:0|0:0,0:0:0:0:
102,326,39758,2,0,P|148:288|240:238,1,160,10|0,0:0|0:0,0:0:0:0:
344,120,40203,6,0,P|305:87|257:63,1,80,8|0,0:1|0:0,0:0:0:0:
356,212,40499,1,2,0:0:0:0:
448,80,40647,6,0,P|487:47|535:23,1,80,8|0,0:0|0:0,0:0:0:0:
436,172,40943,1,2,0:0:0:0:
372,24,41091,2,0,B|344:8|312:8|312:8|260:20|204:12,1,160,8|0,0:1|0:0,0:0:0:0:
76,92,41536,2,0,P|88:168|160:160,1,160,8|0,0:0|0:0,0:0:0:0:
388,108,41980,6,0,P|308:101|228:109,1,160,12|0,0:0|0:0,0:0:0:0:
324,240,42425,2,0,P|403:246|483:238,1,160,8|8,0:1|0:0,0:0:0:0:
388,108,42869,2,0,P|308:101|228:109,1,160,8|0,0:0|0:0,0:0:0:0:
40,348,43314,2,0,P|119:354|199:346,1,160,10|0,0:0|0:0,0:0:0:0:
324,240,43758,6,0,P|360:236|404:236,2,80,2|2|2,0:3|0:3|0:3,0:0:0:0:
481,252,44203,2,0,P|382:235|314:241,1,160,8|0,0:0|0:0,0:0:0:0:
187,320,44647,2,0,P|250:271|323:239,1,160,8|0,0:1|0:0,0:0:0:0:
481,252,45091,5,8,0:1:0:0:
492,132,45240,1,8,0:1:0:0:
503,12,45388,1,8,0:1:0:0:
344,192,45536,6,0,B|268:208|268:208|300:112,1,160,12|0,0:0|0:0,0:0:0:0:
312,288,45980,2,0,B|388:272|388:272|356:368,1,160,8|8,0:1|0:0,0:0:0:0:
344,192,46425,2,0,B|268:208|268:208|300:112,1,160,8|0,0:0|0:0,0:0:0:0:
21,264,46869,2,0,B|97:280|97:280|65:184,1,160,10|0,0:0|0:0,0:0:0:0:
230,177,47314,6,0,L|254:253,1,80,8|0,0:1|0:0,0:0:0:0:
407,296,47610,1,2,0:0:0:0:
503,168,47758,2,0,L|478:244,1,80,8|0,0:0|0:0,0:0:0:0:
326,287,48054,1,2,0:0:0:0:
179,228,48203,2,0,B|151:232|123:224|123:224|92:227|63:236|63:236|40:229|15:228,1,160,8|0,0:1|0:0,0:0:0:0:
150,136,48647,2,0,B|188:133|219:149|219:149|210:191|171:237,1,160,8|0,0:0|0:0,0:0:0:0:
352,64,49091,6,0,B|283:77|283:77|331:165,1,160,12|0,0:0|0:0,0:0:0:0:
396,300,49536,2,0,B|465:287|465:287|417:199,1,160,8|8,0:1|0:0,0:0:0:0:
352,64,49980,2,0,B|283:77|283:77|331:165,1,160,8|0,0:0|0:0,0:0:0:0:
88,348,50425,2,0,B|157:335|157:335|109:247,1,160,10|0,0:0|0:0,0:0:0:0:
208,128,50869,6,0,L|254:216,2,80,2|2|2,0:3|0:3|0:3,0:0:0:0:
290,270,51314,2,0,B|245:198|245:198|331:178,1,160,8|0,0:1|0:0,0:0:0:0:
402,161,51758,2,0,L|520:136,1,120,12|0,0:0|0:0,0:0:0:0:
376,84,52054,1,0,0:0:0:0:
247,199,52203,2,0,L|168:214,1,80,12|0,0:0|0:0,0:0:0:0:
9,243,52499,1,0,0:0:0:0:
324,176,52647,6,0,L|403:161,1,80,4|2,0:1|0:0,0:0:0:0:
247,199,53091,1,8,0:0:0:0:
288,348,53388,1,8,0:0:0:0:
208,332,53536,2,0,L|129:317,1,80,4|0,0:1|0:0,0:0:0:0:
288,348,53980,1,8,0:0:0:0:
247,199,54277,1,0,0:0:0:0:
324,176,54425,6,0,L|403:161,1,80,4|2,0:1|0:0,0:0:0:0:
247,199,54869,1,8,0:0:0:0:
288,348,55166,1,2,0:0:0:0:
208,332,55314,2,0,L|129:317,1,80,10|2,0:0|0:0,0:0:0:0:
368,364,55758,1,10,0:0:0:0:
336,124,56203,6,0,L|240:120,1,80,12|2,0:0|0:0,0:0:0:0:
416,132,56647,1,8,0:0:0:0:
340,272,56943,1,2,0:0:0:0:
420,264,57091,2,0,L|516:260,1,80,4|2,0:1|0:0,0:0:0:0:
340,272,57536,1,8,0:0:0:0:
416,132,57832,1,0,0:0:0:0:
336,124,57980,6,0,L|240:120,1,80,4|2,0:1|0:0,0:0:0:0:
416,132,58425,1,8,0:0:0:0:
340,272,58721,1,2,0:0:0:0:
420,264,58869,2,0,L|516:260,1,80,10|2,0:0|0:0,0:0:0:0:
260,280,59314,1,10,0:0:0:0:
340,272,59610,1,0,0:0:0:0:
260,280,59758,6,0,L|180:283,1,80,4|2,0:0|0:0,0:0:0:0:
152,124,60203,1,8,0:0:0:0:
152,124,60499,1,2,0:0:0:0:
232,116,60647,2,0,L|311:112,1,80,4|0,0:1|0:0,0:0:0:0:
340,272,61091,1,8,0:0:0:0:
340,272,61388,1,0,0:0:0:0:
260,280,61536,6,0,L|180:283,1,80,4|2,0:1|0:0,0:0:0:0:
152,124,61980,1,8,0:0:0:0:
152,124,62277,1,0,0:0:0:0:
232,116,62425,2,0,L|311:112,1,80,10|2,0:0|0:0,0:0:0:0:
72,132,62869,1,10,0:0:0:0:
256,284,63314,6,0,L|336:287,1,80,4|2,0:1|0:0,0:0:0:0:
364,128,63758,1,8,0:0:0:0:
364,128,64054,1,8,0:0:0:0:
284,120,64203,2,0,L|205:116,1,80,4|0,0:1|0:0,0:0:0:0:
176,276,64647,1,8,0:0:0:0:
176,276,64943,1,0,0:0:0:0:
256,284,65091,6,0,L|336:287,1,80,4|2,0:1|0:0,0:0:0:0:
364,128,65536,1,8,0:0:0:0:
364,128,65832,1,8,0:0:0:0:
284,120,65980,2,0,L|205:116,1,80,10|2,0:0|0:0,0:0:0:0:
444,136,66425,1,10,0:0:0:0:
284,120,66721,1,0,0:0:0:0:
444,136,66869,6,0,P|468:72|472:12,1,120,4|8,0:0|0:0,0:0:0:0:
472,20,67610,1,8,0:0:0:0:
284,120,67906,5,0,0:0:0:0:
360,44,68054,1,2,0:0:0:0:
284,120,68203,2,0,P|275:137|271:157,2,40,8|0|0,0:0|0:0|0:0,0:0:0:0:
292,248,68647,6,0,P|248:248|196:220,1,80,0|0,0:3|0:0,0:0:0:0:
284,120,69091,1,8,0:0:0:0:
336,180,69240,1,0,0:0:0:0:
215,234,69388,1,8,0:0:0:0:
162,174,69536,1,0,0:0:0:0:
109,114,69684,1,0,0:0:0:0:
162,174,69832,1,0,0:0:0:0:
56,54,69980,2,0,L|30:20,1,40,8|0,0:0|0:0,0:0:0:0:
109,114,70277,1,0,0:0:0:0:
336,36,70425,6,0,P|372:32|428:32,1,80,12|0,0:0|1:0,0:0:0:0:
324,56,70869,1,8,0:0:0:0:
292,128,71166,1,8,0:0:0:0:
304,148,71314,1,0,1:0:0:0:
332,224,71610,1,0,1:0:0:0:
320,244,71758,1,8,1:2:0:0:
276,312,72054,1,0,0:0:0:0:
288,332,72203,6,0,P|332:328|372:328,1,80,4|0,0:0|1:0,0:0:0:0:
304,148,72647,2,0,P|260:144|220:144,1,80,8|0,0:0|1:0,0:0:0:0:
320,244,73091,6,0,P|364:240|440:240,1,120.000004577637,4|0,0:0|1:0,0:0:0:0:
336,60,73536,2,0,P|292:56|208:56,1,120.000004577637,8|0,0:0|0:0,0:0:0:0:
336,144,73980,6,0,P|408:104|412:28,1,165,4|0,0:1|0:0,0:0:0:0:
336,60,74425,1,8,0:0:0:0:
336,228,74721,1,8,0:0:0:0:
392,156,74869,2,0,B|336:144|336:144|224:152,1,160,10|0,0:0|0:0,0:0:0:0:
336,228,75314,2,0,P|416:236|472:180,1,160,8|2,0:0|0:1,0:0:0:0:
233,151,75758,6,0,P|196:144|148:144,1,80,4|0,0:1|0:0,0:0:0:0:
184,220,76054,1,8,0:0:0:0:
276,88,76203,2,0,P|313:81|361:81,1,80,8|0,0:0|0:0,0:0:0:0:
325,157,76499,1,8,0:0:0:0:
196,64,76647,1,8,0:0:0:0:
276,88,76943,1,8,0:0:0:0:
147,181,77091,1,8,0:0:0:0:
132,176,77240,1,8,0:0:0:0:
117,171,77388,1,8,0:0:0:0:
276,88,77536,6,0,P|364:88|408:148,1,160,12|0,0:0|0:0,0:0:0:0:
325,157,77980,1,8,0:0:0:0:
485,121,78277,1,8,0:0:0:0:
405,139,78425,2,0,P|424:64|500:36,1,160,8|0,0:0|0:0,0:0:0:0:
460,192,78869,2,0,P|441:267|365:295,1,160,8|0,0:0|0:0,0:0:0:0:
226,218,79314,6,0,B|310:190|310:238|384:216,1,160,12|0,0:1|0:0,0:0:0:0:
272,288,79758,2,0,P|188:292|144:224,1,165,8|8,0:0|0:0,0:0:0:0:
383,216,80203,6,0,L|475:228,1,80,12|0,0:0|0:0,0:0:0:0:
484,312,80499,1,8,0:0:0:0:
282,120,80647,2,0,L|190:132,1,80,12|0,0:0|0:0,0:0:0:0:
181,216,80943,1,8,0:0:0:0:
484,312,81091,6,0,P|531:244|508:173,1,160,12|6,0:1|0:1,0:0:0:0:
446,234,81536,1,8,0:0:0:0:
492,80,81832,1,8,0:0:0:0:
509,175,81980,2,0,P|430:149|369:192,1,160,8|0,0:0|0:0,0:0:0:0:
316,308,82425,2,0,B|256:324|256:324|144:312,1,160,8|0,0:0|0:0,0:0:0:0:
232,84,82869,6,0,L|224:184,1,80,4|0,0:1|0:0,0:0:0:0:
252,240,83166,1,8,0:0:0:0:
108,172,83314,2,0,L|116:272,1,80,8|0,0:0|0:0,0:0:0:0:
88,328,83610,1,8,0:0:0:0:
108,172,83758,1,8,0:0:0:0:
114,251,84054,1,8,0:0:0:0:
94,95,84203,1,8,0:0:0:0:
104,80,84351,1,8,0:0:0:0:
114,65,84499,1,8,0:0:0:0:
256,172,84647,6,0,P|340:172|416:152,1,160,12|0,0:0|0:0,0:0:0:0:
472,96,85091,1,8,0:0:0:0:
444,252,85388,1,8,0:0:0:0:
402,182,85536,2,0,P|484:180|524:243,1,160,8|0,0:0|0:0,0:0:0:0:
408,348,85980,2,0,B|372:360|325:345|325:345|284:332|233:349,1,160,8|0,0:0|0:0,0:0:0:0:
93,362,86425,6,0,P|194:361|264:337,1,160,12|0,0:1|0:0,0:0:0:0:
296,224,86869,2,0,P|195:223|123:199,1,160,8|0,0:0|0:0,0:0:0:0:
392,328,87314,6,0,L|472:324,1,80,4|0,0:0|0:0,0:0:0:0:
500,240,87610,1,8,0:0:0:0:
252,368,87758,2,0,L|172:364,1,80,12|0,0:0|0:0,0:0:0:0:
144,280,88054,1,0,0:0:0:0:
392,72,88203,6,0,P|440:68|476:68,1,80,12|2,0:1|0:1,0:0:0:0:
348,140,88647,1,8,0:0:0:0:
348,140,88943,1,8,0:0:0:0:
304,208,89091,1,4,0:1:0:0:
304,208,89388,1,8,0:0:0:0:
260,276,89536,2,0,P|212:272|176:272,1,80,8|0,0:0|0:0,0:0:0:0:
304,208,89980,6,0,P|352:204|388:204,1,80,12|10,0:1|0:1,0:0:0:0:
260,276,90425,1,8,0:0:0:0:
260,276,90721,1,8,0:0:0:0:
216,344,90869,5,4,0:1:0:0:
180,271,91017,1,0,0:0:0:0:
312,364,91166,1,4,0:1:0:0:
452,288,91314,2,0,L|504:284,1,40,8|0,0:0|0:0,0:0:0:0:
382,326,91610,1,0,0:0:0:0:
144,198,91758,6,0,P|104:192|48:192,1,80,12|10,0:1|0:0,0:0:0:0:
180,271,92203,2,0,P|220:265|276:265,1,80,8|8,0:0|0:0,0:0:0:0:
144,344,92647,1,4,0:1:0:0:
144,344,92943,1,0,0:0:0:0:
180,271,93091,1,8,0:0:0:0:
180,271,93388,1,0,0:0:0:0:
216,198,93536,5,4,0:1:0:0:
136,188,93684,1,0,0:0:0:0:
56,178,93832,1,2,0:0:0:0:
180,271,93980,5,12,0:1:0:0:
260,261,94129,1,0,0:0:0:0:
340,251,94277,1,2,0:0:0:0:
56,178,94425,2,0,L|64:240,2,40,4|0|8,0:0|0:0|0:1,0:0:0:0:
340,251,94869,2,0,L|345:211,2,40,4|0|8,0:0|0:0|0:1,0:0:0:0:
198,215,95314,6,0,L|210:301,1,80,12|2,0:1|0:1,0:0:0:0:
224,372,95758,1,8,0:0:0:0:
224,372,96054,1,0,0:0:0:0:
209,294,96203,1,4,0:1:0:0:
209,294,96499,1,8,0:0:0:0:
193,215,96647,2,0,L|182:136,1,80,8|0,0:0|0:0,0:0:0:0:
316,96,97091,6,0,L|304:182,1,80,12|10,0:1|0:1,0:0:0:0:
290,253,97536,1,8,0:0:0:0:
290,253,97832,1,8,0:0:0:0:
304,175,97980,5,4,0:1:0:0:
372,220,98129,1,0,0:0:0:0:
216,192,98277,1,4,0:1:0:0:
320,72,98425,2,0,L|328:13,1,40,2|0,0:0|0:0,0:0:0:0:
308,152,98721,1,0,0:0:0:0:
40,116,98869,6,0,L|36:36,1,80,12|10,0:1|0:1,0:0:0:0:
128,144,99314,2,0,L|124:223,1,80,8|2,0:0|0:1,0:0:0:0:
216,116,99758,1,2,0:1:0:0:
216,116,100054,1,4,0:1:0:0:
304,144,100203,1,8,0:0:0:0:
304,144,100499,1,0,0:0:0:0:
392,116,100647,5,4,0:1:0:0:
392,116,100943,1,4,0:1:0:0:
304,144,101091,1,8,0:0:0:0:
304,144,101388,1,10,0:0:0:0:
216,116,101536,2,0,L|132:144,1,80,12|2,0:0|0:1,0:0:0:0:
392,116,101980,2,0,L|476:144,1,80,12|2,0:0|0:1,0:0:0:0:
304,144,102425,6,0,B|320:84|280:84|308:16,1,120.000004577637,2|0,0:0|0:0,0:0:0:0:
392,116,102869,2,0,L|384:184,1,60.0000022888184,8|0,0:0|0:0,0:0:0:0:
216,116,103166,1,2,0:3:0:0:
304,144,103314,1,12,0:1:0:0:
128,88,103610,1,2,0:3:0:0:
216,116,103758,1,12,0:1:0:0:
40,60,104054,1,2,0:3:0:0:
304,144,104203,6,0,P|368:144|424:136,1,120.000004577637,12|0,0:1|0:0,0:0:0:0:
331,184,104647,6,0,P|389:156|437:127,1,103.999995239258,8|0,0:0|0:0,0:0:0:0:
368,204,105091,6,0,P|409:154|437:115,1,88.000002685547,12|0,0:1|0:0,0:0:0:0:
405,205,105536,6,0,P|421:142|427:106,1,71.9999978027344,8|0,0:0|0:0,0:0:0:0:
280,244,105980,6,0,P|288:292|316:368,1,120.000004577637,8|0,0:0|0:0,0:0:0:0:
311,359,106425,2,0,P|272:356|227:355,1,80,2|0,3:2|0:0,0:0:0:0:
311,128,106869,6,0,P|303:176|275:252,1,120.000004577637,8|0,0:0|0:0,0:0:0:0:
280,243,107314,2,0,P|319:240|364:239,1,80,2|0,3:2|0:0,0:0:0:0:
231,354,107758,6,0,P|192:351|64:351,1,160,12|0,0:0|0:0,0:0:0:0:
311,128,108203,2,0,P|350:125|392:124,1,80,8|0,0:0|0:0,0:0:0:0:
280,243,108499,1,8,0:0:0:0:
44,192,108647,1,4,0:1:0:0:
52,208,108795,1,2,0:0:0:0:
100,56,108943,1,8,0:0:0:0:
212,172,109091,1,8,0:0:0:0:
204,188,109240,1,0,0:0:0:0:
124,164,109388,1,10,0:0:0:0:
364,96,109536,6,0,B|380:128|376:160|376:160|344:220|356:300,1,200,12|0,0:3|0:0,0:0:0:0:
464,124,109980,2,0,P|360:96|264:116,1,200,8|8,0:0|0:0,0:0:0:0:
159,288,110425,2,0,B|256:312|256:248|360:292,1,200,8|0,0:1|0:0,0:0:0:0:
364,96,110869,1,8,0:0:0:0:
204,216,111017,1,10,0:1:0:0:
384,308,111166,1,10,0:1:0:0:
240,104,111314,6,0,P|132:96|36:100,1,200,12|0,0:0|0:0,0:0:0:0:
204,216,111758,2,0,B|272:220|336:172|336:172|360:200|400:208,1,200,8|8,0:0|0:0,0:0:0:0:
208,304,112203,2,0,P|100:272|0:264,1,200,8|8,0:1|0:0,0:0:0:0:
204,216,112647,1,8,0:0:0:0:
60,352,112795,1,10,0:1:0:0:
108,160,112943,2,0,L|144:124,1,50,10|0,0:1|0:0,0:0:0:0:
252,60,113091,6,0,L|110:201,1,200,12|0,0:1|0:0,0:0:0:0:
160,8,113536,2,0,L|302:149,1,200,8|8,0:0|0:1,0:0:0:0:
448,280,113980,2,0,B|400:284|400:284|360:272|360:272|324:272|292:284|292:284|236:276,1,200,8|0,0:1|0:0,0:0:0:0:
380,124,114425,2,0,L|352:336,1,200,8|0,0:0|0:0,0:0:0:0:
164,256,114869,6,0,L|137:57,1,200,12|2,0:1|0:1,0:0:0:0:
124,176,115314,2,0,L|109:295,1,120.000004577637,8|8,0:0|0:1,0:0:0:0:
224,132,115758,2,0,L|234:231,1,100,8|0,0:1|0:0,0:0:0:0:
137,57,116054,1,8,0:0:0:0:
332,99,116203,1,10,0:0:0:0:
364,4,116351,1,0,0:0:0:0:
266,24,116499,1,8,0:1:0:0:
296,272,116647,6,0,P|400:264|472:200,1,200,12|0,0:3|0:0,0:0:0:0:
272,188,117091,2,0,B|216:216|212:276|212:276|184:240|108:232,1,200,8|8,0:0|0:1,0:0:0:0:
334,271,117536,2,0,B|334:216|296:184|296:184|249:182|213:251,1,200,8|0,0:1|0:0,0:0:0:0:
421,255,117980,2,0,P|411:201|381:147,2,100,8|10|10,0:0|0:1|0:1,0:0:0:0:
218,241,118425,6,0,P|228:187|282:54,1,200,12|0,0:1|0:0,0:0:0:0:
218,241,118869,2,0,P|133:188|39:153,1,200,10|8,0:0|0:1,0:0:0:0:
128,336,119314,2,0,P|170:326|232:324,1,100,8|0,0:1|0:0,0:0:0:0:
248,124,119610,2,0,P|218:117|176:118,1,50
204,214,119758,2,0,P|252:213|303:202,1,100,10|0,0:0|0:0,0:0:0:0:
484,116,120054,1,8,0:1:0:0:
302,202,120203,6,0,P|288:250|283:290,1,80,4|0,0:0|0:0,0:0:0:0:
400,196,120647,2,0,P|393:156|376:100,1,100,8|0,0:1|0:0,0:0:0:0:
283,279,120943,1,8,0:0:0:0:
156,184,121091,6,0,P|169:232|175:272,1,80,4|0,0:0|0:0,0:0:0:0:
59,176,121536,2,0,P|65:136|83:80,1,100,8|0,0:1|0:0,0:0:0:0:
175,261,121832,1,8,0:0:0:0:
280,140,121980,6,0,P|288:92|288:44,1,80,12|0,0:1|0:0,0:0:0:0:
175,261,122425,2,0,P|176:300|183:340,1,80,12|0,0:1|0:0,0:0:0:0:
280,140,122869,6,0,P|288:92|288:44,1,80,6|0,0:0|0:0,0:0:0:0:
212,44,123166,1,8,0:0:0:0:
175,261,123314,2,0,P|176:300|183:340,1,80,6|0,0:0|0:0,0:0:0:0:
44,260,123610,1,8,0:0:0:0:
370,20,123758,6,0,P|378:128|358:220,1,200,12|0,0:3|0:0,0:0:0:0:
180,124,124203,2,0,P|281:112|385:116,1,200,8|8,0:0|0:0,0:0:0:0:
204,216,124647,2,0,P|108:184|92:92,1,200,8|0,0:1|0:0,0:0:0:0:
76,296,125091,1,8,0:0:0:0:
180,124,125240,1,10,0:1:0:0:
284,304,125388,1,10,0:1:0:0:
89,144,125536,6,0,P|119:52|216:38,1,200,12|0,0:0|0:0,0:0:0:0:
374,148,125980,2,0,B|327:156|291:136|291:136|246:111|158:127,1,200,8|8,0:0|0:0,0:0:0:0:
372,64,126425,2,0,P|448:112|416:220,1,200,8|8,0:1|0:0,0:0:0:0:
260,312,126869,1,8,0:0:0:0:
64,360,127017,1,10,0:1:0:0:
176,192,127166,2,0,L|96:188,1,50,10|0,0:1|0:0,0:0:0:0:
4,216,127314,6,0,L|212:224,1,200,12|0,0:1|0:0,0:0:0:0:
312,56,127758,2,0,L|104:64,1,200,8|8,0:0|0:1,0:0:0:0:
288,164,128203,2,0,B|360:168|360:168|392:180|392:180|424:168|424:168|492:160,1,200,8|0,0:1|0:0,0:0:0:0:
388,336,128647,2,0,L|392:116,1,200,8|0,0:0|0:0,0:0:0:0:
212,60,129091,6,0,L|215:259,1,200,12|2,0:1|0:1,0:0:0:0:
244,144,129536,2,0,L|108:196,1,120.000004577637,8|8,0:0|0:1,0:0:0:0:
300,84,129980,2,0,L|416:128,1,100,8|0,0:1|0:0,0:0:0:0:
276,284,130277,1,8,0:0:0:0:
300,84,130425,1,10,0:0:0:0:
393,119,130573,1,0,0:0:0:0:
316,184,130721,1,8,0:1:0:0:
72,128,130869,6,0,P|8:172|72:256,1,200,12|0,0:3|0:0,0:0:0:0:
176,84,131314,2,0,P|104:24|-8:40,1,200,8|8,0:0|0:1,0:0:0:0:
156,176,131758,2,0,B|208:180|208:180|252:168|308:164|308:164|368:176,1,200,8|0,0:1|0:0,0:0:0:0:
176,84,132203,2,0,P|132:88|80:124,2,100,8|10|10,0:0|0:1|0:1,0:0:0:0:
353,173,132647,6,0,B|321:203|329:266|329:266|276:294|233:272,1,200,12|0,0:1|0:0,0:0:0:0:
176,84,133091,2,0,B|128:76|86:118|86:118|112:176|88:220,1,200,10|8,0:0|0:1,0:0:0:0:
268,112,133536,2,0,P|280:64|280:12,1,100,8|0,0:1|0:0,0:0:0:0:
244,212,133832,2,0,P|276:211|308:208,1,50,0|0,0:0|0:0,0:0:0:0:
268,112,133980,2,0,P|224:88|172:84,1,100,10|0,0:0|0:0,0:0:0:0:
64,252,134277,1,8,0:1:0:0:
175,83,134425,6,0,P|188:40|187:-5,1,80,4|0,0:0|0:0,0:0:0:0:
52,40,134869,2,0,P|53:79|72:140,1,100,8|0,0:1|0:0,0:0:0:0:
196,296,135166,1,8,0:0:0:0:
276,156,135314,6,0,P|263:113|264:68,1,80,4|0,0:0|0:0,0:0:0:0:
399,113,135758,2,0,P|397:152|379:213,1,100,8|0,0:1|0:0,0:0:0:0:
255,369,136054,1,8,0:0:0:0:
140,256,136203,6,0,P|153:213|152:168,1,80,12|0,0:1|0:0,0:0:0:0:
380,210,136647,2,0,P|381:249|393:287,1,80,12|0,0:1|0:0,0:0:0:0:
140,256,137091,6,0,P|153:213|152:168,1,80,6|0,0:0|0:0,0:0:0:0:
188,104,137388,1,8,0:0:0:0:
380,210,137536,2,0,P|381:249|393:287,1,80,6|0,0:0|0:0,0:0:0:0:
428,132,137832,1,8,0:0:0:0:
295,332,137980,6,0,B|251:308|199:316|199:316|251:288|327:260|327:312|403:284,1,300,12|10,0:0|0:0,0:0:0:0:
448,180,138869,2,0,B|408:216|360:216|360:216|368:140|422:85|422:85|456:84|492:104,1,300.000011444092,12|8,0:0|0:1,0:0:0:0:
361,216,139758,6,0,P|273:213|183:241,1,160,8|0,0:1|0:0,0:0:0:0:
200,316,140202,2,0,P|288:313|378:341,1,160,8|8,0:0|0:0,0:0:0:0:
361,216,140647,5,0,0:0:0:0:
281,212,140795,1,0,0:0:0:0:
204,231,140943,1,0,0:0:0:0:
152,80,141091,5,6,0:0:0:0:
232,76,141240,1,2,0:3:0:0:
309,95,141388,1,8,0:1:0:0:
79,109,141536,5,4,0:1:0:0:
88,28,141684,1,0,0:0:0:0:
79,109,141832,1,0,0:0:0:0:
309,95,141980,5,12,0:1:0:0:
317,176,142129,1,0,0:0:0:0:
309,95,142277,1,10,0:0:0:0:
79,109,142425,5,12,0:1:0:0:
232,76,142573,1,0,0:0:0:0:
79,109,142721,1,0,0:0:0:0:
309,95,142869,5,12,0:0:0:0:
156,62,143017,1,8,0:0:0:0:
309,95,143166,1,8,0:0:0:0:
144,272,143314,6,0,B|136:316|148:360|148:360|204:340|204:340|264:352|264:352|308:340,1,240.000009155274,12|0,0:0|0:0,0:0:0:0:
428,256,143758,5,10,1:2:0:0:
16,184,144203,6,0,L|16:196,2,8,10|0|0,1:2|0:0|0:0,0:0:0:0:
256,112,144647,2,0,L|256:124,2,8
492,24,145091,5,12,0:0:0:0:
72,276,159314,5,2,0:1:0:0:
144,308,159610,1,2,0:3:0:0:
216,276,159758,5,8,0:0:0:0:
288,308,160054,1,8,0:0:0:0:
360,276,160203,5,2,0:1:0:0:
432,308,160647,5,8,0:0:0:0:
432,308,160943,1,0,0:0:0:0:
360,276,161091,5,2,0:1:0:0:
288,308,161388,1,2,0:3:0:0:
216,276,161536,5,8,0:0:0:0:
144,308,161832,1,8,0:0:0:0:
72,276,161980,5,2,0:3:0:0:
360,276,162277,1,2,0:3:0:0:
432,308,162425,5,8,0:1:0:0:
432,68,162869,5,2,0:1:0:0:
360,100,163166,1,2,0:3:0:0:
288,68,163314,5,8,0:0:0:0:
216,100,163610,1,8,0:0:0:0:
144,68,163758,5,2,0:1:0:0:
72,100,164203,5,8,0:0:0:0:
72,100,164499,1,0,0:0:0:0:
144,68,164647,5,2,0:1:0:0:
216,100,164943,1,2,0:3:0:0:
288,68,165091,5,8,0:0:0:0:
360,100,165388,1,8,0:0:0:0:
432,68,165536,5,2,0:3:0:0:
144,68,165832,1,10,0:0:0:0:
72,100,165980,5,8,0:1:0:0:
72,100,166277,1,2,0:1:0:0:
432,68,166425,5,2,0:1:0:0:
376,124,166721,1,2,0:3:0:0:
432,180,166869,5,8,0:0:0:0:
376,236,167166,1,8,0:0:0:0:
432,292,167314,5,2,0:1:0:0:
376,348,167758,5,8,0:0:0:0:
376,348,168054,1,0,0:0:0:0:
432,292,168203,5,2,0:1:0:0:
376,236,168499,1,2,0:3:0:0:
432,180,168647,5,8,0:0:0:0:
376,123,168943,1,8,0:0:0:0:
432,68,169091,5,2,0:3:0:0:
432,292,169388,1,2,0:3:0:0:
376,348,169536,5,8,0:1:0:0:
200,344,169980,5,2,0:1:0:0:
256,288,170277,1,2,0:3:0:0:
200,232,170425,5,8,0:0:0:0:
256,176,170721,1,8,0:0:0:0:
200,120,170869,5,2,0:1:0:0:
256,64,171314,5,8,0:0:0:0:
256,64,171610,1,0,0:0:0:0:
200,120,171758,5,2,0:1:0:0:
256,176,172054,1,2,0:3:0:0:
200,232,172203,5,8,0:0:0:0:
256,289,172499,1,8,0:0:0:0:
200,344,172647,5,2,0:3:0:0:
200,120,172943,1,8,0:0:0:0:
256,64,173091,5,8,0:1:0:0:
256,64,173388,1,2,0:1:0:0:
200,344,173536,6,0,P|152:344|68:332,1,120,4|8,0:0|0:0,0:0:0:0:
80,334,174277,1,8,0:0:0:0:
280,272,174573,5,0,0:0:0:0:
172,260,174721,1,2,0:0:0:0:
280,272,174869,2,0,P|299:271|318:265,2,40,8|0|0,0:0|0:0|0:0,0:0:0:0:
390,201,175314,6,0,P|409:249|409:296,1,80,0|0,0:3|0:0,0:0:0:0:
280,272,175758,1,8,0:0:0:0:
304,196,175906,1,0,0:0:0:0:
410,276,176054,1,8,0:0:0:0:
434,352,176203,1,0,0:0:0:0:
488,292,176351,2,0,L|512:288,3,20,0|0|0|0,0:0|0:0|0:0|0:0,0:0:0:0:
356,336,176647,2,0,L|332:332,3,20,8|0|0|0,0:0|0:0|0:0|0:0,0:0:0:0:
434,352,176943,1,0,0:0:0:0:
476,116,177091,6,0,L|472:20,1,80,12|0,0:0|1:0,0:0:0:0:
472,132,177536,1,8,0:0:0:0:
392,136,177832,1,8,0:0:0:0:
388,120,177980,1,0,1:0:0:0:
308,120,178277,1,0,1:0:0:0:
304,136,178425,1,8,1:2:0:0:
224,140,178721,1,0,0:0:0:0:
220,124,178869,6,0,L|223:44,1,80,4|0,0:0|1:0,0:0:0:0:
392,136,179314,2,0,L|395:215,1,80,8|0,0:0|1:0,0:0:0:0:
308,120,179758,6,0,L|308:0,1,120.000004577637,4|0,0:0|1:0,0:0:0:0:
472,132,180203,2,0,L|480:260,1,120.000004577637,8|0,0:0|0:0,0:0:0:0:
340,300,180647,6,0,P|256:284|208:344,1,160,4|0,0:1|0:0,0:0:0:0:
286,359,181091,1,8,0:0:0:0:
384,228,181388,1,8,0:0:0:0:
340,300,181536,2,0,B|388:308|388:308|516:280,1,160,10|0,0:0|0:0,0:0:0:0:
384,228,181980,2,0,P|304:224|256:300,1,160,8|2,0:0|0:1,0:0:0:0:
496,284,182425,6,0,P|504:248|504:200,1,80,4|0,0:1|0:0,0:0:0:0:
476,132,182721,1,8,0:0:0:0:
324,184,182869,2,0,P|316:148|316:100,1,80,8|0,0:0|0:0,0:0:0:0:
344,32,183166,1,8,0:0:0:0:
408,180,183314,1,8,0:0:0:0:
364,112,183610,1,8,0:0:0:0:
300,260,183758,1,8,0:0:0:0:
308,272,183906,1,8,0:0:0:0:
316,284,184054,1,8,0:0:0:0:
364,112,184203,6,0,P|280:104|200:104,1,160,12|0,0:0|0:0,0:0:0:0:
124,120,184647,1,8,0:0:0:0:
244,228,184943,1,8,0:0:0:0:
316,196,185091,2,0,P|400:188|480:188,1,160,8|0,0:0|0:0,0:0:0:0:
352,292,185536,2,0,P|344:200|352:116,1,160,8|0,0:0|0:0,0:0:0:0:
224,232,185980,6,0,B|148:268|148:200|44:244,1,160,12|0,0:1|0:0,0:0:0:0:
184,160,186425,2,0,P|272:164|304:228,1,160,8|0,0:0|0:0,0:0:0:0:
68,235,186869,6,0,L|56:143,1,80,12|0,0:0|0:0,0:0:0:0:
44,68,187166,1,8,0:0:0:0:
313,141,187314,2,0,L|301:232,1,80,12|0,0:0|0:0,0:0:0:0:
289,308,187610,1,8,0:0:0:0:
120,40,187758,6,0,P|216:28|252:76,1,160,12|6,0:1|0:1,0:0:0:0:
176,100,188203,1,8,0:0:0:0:
332,140,188499,1,8,0:0:0:0:
387,80,188647,2,0,P|291:68|255:116,1,160,8|0,0:0|0:0,0:0:0:0:
256,268,189091,2,0,B|263:210|263:210|247:158|247:158|258:102,1,160,8|0,0:0|0:0,0:0:0:0:
64,260,189536,6,0,L|144:264,1,80,4|0,0:1|0:0,0:0:0:0:
208,216,189832,1,8,0:0:0:0:
268,68,189980,2,0,L|188:72,1,80,8|0,0:0|0:0,0:0:0:0:
124,24,190277,1,8,0:0:0:0:
268,68,190425,1,8,0:0:0:0:
188,71,190721,1,8,0:0:0:0:
332,27,190869,1,8,0:0:0:0:
348,32,191017,1,8,0:0:0:0:
364,36,191166,1,8,0:0:0:0:
324,208,191314,6,0,P|256:216|144:192,1,160,12|0,0:0|0:0,0:0:0:0:
100,152,191758,1,8,0:0:0:0:
260,128,192054,1,8,0:0:0:0:
192,168,192203,2,0,P|200:84|272:48,1,160,8|0,0:0|0:0,0:0:0:0:
384,148,192647,2,0,P|464:148|540:124,1,160,8|0,0:0|0:0,0:0:0:0:
392,72,193091,6,0,L|376:244,1,160,12|0,0:1|0:0,0:0:0:0:
280,148,193536,2,0,L|294:307,1,160,8|0,0:0|0:0,0:0:0:0:
396,48,193980,6,0,P|356:39|308:40,1,80,4|0,0:0|0:0,0:0:0:0:
240,56,194277,1,8,0:0:0:0:
296,332,194425,2,0,P|335:323|384:324,1,80,12|0,0:0|0:0,0:0:0:0:
452,340,194721,1,0,0:0:0:0:
200,144,194870,6,0,P|156:140|112:144,1,80,12|0,0:1|0:0,0:0:0:0:
248,208,195314,1,8,0:0:0:0:
248,208,195610,1,8,0:0:0:0:
296,144,195758,1,4,0:1:0:0:
296,144,196054,1,8,0:0:0:0:
344,208,196203,2,0,P|388:204|432:208,1,80,8|0,0:0|0:0,0:0:0:0:
296,144,196647,6,0,P|252:140|208:144,1,80,12|10,0:1|0:1,0:0:0:0:
344,208,197091,1,8,0:0:0:0:
344,208,197388,1,8,0:0:0:0:
392,144,197536,5,4,0:1:0:0:
440,208,197684,1,0,0:0:0:0:
296,144,197832,1,4,0:1:0:0:
144,192,197980,2,0,L|92:188,1,40,8|0,0:0|0:0,0:0:0:0:
224,164,198277,1,0,0:0:0:0:
484,236,198425,6,0,P|480:192|484:152,1,80,12|10,0:1|0:0,0:0:0:0:
428,288,198869,2,0,P|424:332|428:372,1,80,8|8,0:0|0:0,0:0:0:0:
372,236,199314,1,4,0:1:0:0:
372,236,199610,1,0,0:0:0:0:
428,288,199758,1,8,0:0:0:0:
428,288,200054,1,0,0:0:0:0:
484,236,200203,5,4,0:1:0:0:
492,156,200351,1,0,0:0:0:0:
500,76,200499,1,2,0:0:0:0:
408,196,200647,5,12,0:1:0:0:
416,276,200795,1,0,0:0:0:0:
424,356,200943,1,2,0:0:0:0:
500,76,201091,2,0,L|448:68,2,40,4|0|8,0:0|0:0|0:1,0:0:0:0:
424,356,201536,2,0,L|463:349,2,40,4|0|8,0:0|0:0|0:1,0:0:0:0:
462,216,201980,6,0,L|356:200,1,80,12|2,0:1|0:1,0:0:0:0:
304,188,202425,1,8,0:0:0:0:
304,188,202721,1,0,0:0:0:0:
226,204,202869,1,4,0:1:0:0:
226,204,203166,1,8,0:0:0:0:
148,188,203314,2,0,L|68:199,1,80,8|0,0:0|0:0,0:0:0:0:
140,80,203758,6,0,L|220:91,1,80,12|10,0:1|0:1,0:0:0:0:
300,104,204203,1,8,0:0:0:0:
300,104,204499,1,8,0:0:0:0:
219,90,204647,5,4,0:1:0:0:
248,164,204795,1,0,0:0:0:0:
352,44,204943,1,4,0:1:0:0:
196,16,205091,2,0,L|136:20,1,40,2|0,0:0|0:0,0:0:0:0:
276,28,205388,1,0,0:0:0:0:
204,288,205536,6,0,P|156:284|120:288,1,80,12|10,0:1|0:1,0:0:0:0:
248,368,205980,2,0,P|296:372|332:368,1,80,8|2,0:0|0:1,0:0:0:0:
204,288,206425,1,2,0:1:0:0:
204,288,206721,1,4,0:1:0:0:
248,368,206869,1,8,0:0:0:0:
248,368,207166,1,0,0:0:0:0:
292,288,207314,5,4,0:1:0:0:
292,288,207610,1,4,0:1:0:0:
248,368,207758,1,8,0:0:0:0:
248,368,208054,1,10,0:0:0:0:
204,288,208203,2,0,P|156:284|120:288,1,80,12|2,0:0|0:1,0:0:0:0:
376,288,208647,2,0,P|424:284|460:288,1,80,12|2,0:0|0:1,0:0:0:0:
292,288,209092,6,0,B|308:232|276:232|292:168,1,120.000004577637,2|0,0:0|0:0,0:0:0:0:
368,60,209536,2,0,L|432:56,1,60.0000022888184,8|0,0:0|0:0,0:0:0:0:
291,169,209832,1,2,0:3:0:0:
204,156,209980,1,12,0:1:0:0:
378,182,210277,1,2,0:3:0:0:
291,169,210425,1,12,0:1:0:0:
472,200,210721,1,2,0:3:0:0:
204,156,210869,6,0,P|136:152|84:152,1,120.000004577637,12|0,0:1|0:0,0:0:0:0:
179,111,211314,6,0,P|115:136|77:155,1,103.999995239258,8|0,0:0|0:0,0:0:0:0:
142,86,211758,6,0,P|95:135|74:164,1,88.000002685547,12|0,0:1|0:0,0:0:0:0:
102,82,212203,6,0,P|86:135|78:175,1,71.9999978027344,8|0,0:0|0:0,0:0:0:0:
232,252,212647,6,0,P|224:212|196:136,1,120.000004577637,8|0,0:0|0:0,0:0:0:0:
196,137,213092,2,0,P|231:147|279:151,1,80,2|0,3:2|0:0,0:0:0:0:
196,366,213536,6,0,P|204:326|232:250,1,120.000004577637,8|0,0:0|0:0,0:0:0:0:
231,251,213981,2,0,P|195:261|147:265,1,80,2|0,3:2|0:0,0:0:0:0:
274,151,214425,6,0,P|336:156|436:148,1,160,12|0,0:0|0:0,0:0:0:0:
196,366,214869,2,0,P|157:369|112:364,1,80,8|0,0:0|0:0,0:0:0:0:
231,251,215166,1,8,0:0:0:0:
448,352,215314,1,4,0:1:0:0:
440,368,215462,1,2,0:0:0:0:
392,216,215610,1,8,0:0:0:0:
280,332,215758,1,8,0:0:0:0:
288,348,215906,1,0,0:0:0:0:
368,324,216054,1,10,0:0:0:0:
200,140,216203,6,0,B|172:128|140:120|140:120|80:120|-4:140,1,200,12|0,0:3|0:0,0:0:0:0:
184,224,216647,2,0,B|224:264|272:272|272:272|284:228|272:160,1,200,8|8,0:0|0:0,0:0:0:0:
80,124,217091,2,0,B|76:160|76:160|92:204|92:204|56:264|112:264|76:328,1,200,8|0,0:1|0:0,0:0:0:0:
168,136,217536,1,8,0:0:0:0:
4,248,217684,1,10,0:1:0:0:
176,348,217832,1,10,0:1:0:0:
252,112,217980,6,0,P|180:52|94:93,1,200,12|0,0:0|0:0,0:0:0:0:
196,268,218425,2,0,B|136:240|80:248|80:248|108:288|108:340,1,200,8|8,0:0|0:0,0:0:0:0:
304,348,218869,2,0,B|360:324|400:344|400:344|396:292|428:232,1,200,8|8,0:1|0:0,0:0:0:0:
388,48,219314,1,8,0:0:0:0:
420,246,219462,1,10,0:1:0:0:
260,128,219610,2,0,L|224:164,1,50,10|0,0:1|0:0,0:0:0:0:
116,228,219758,6,0,L|257:87,1,200,12|0,0:1|0:0,0:0:0:0:
216,284,220203,2,0,L|74:143,1,200,8|8,0:0|0:1,0:0:0:0:
264,208,220647,2,0,B|316:216|316:216|368:200|368:200|424:200|424:200|464:212,1,200,8|0,0:1|0:0,0:0:0:0:
296,324,221091,2,0,L|76:292,1,200,8|0,0:0|0:0,0:0:0:0:
272,196,221536,6,0,L|492:164,1,200,12|2,0:1|0:1,0:0:0:0:
352,148,221981,2,0,L|224:136,1,120.000004577637,8|8,0:0|0:1,0:0:0:0:
296,324,222425,2,0,L|420:312,1,100,8|0,0:1|0:0,0:0:0:0:
448,120,222721,1,8,0:0:0:0:
252,76,222869,1,10,0:0:0:0:
288,168,223017,1,0,0:0:0:0:
344,84,223166,1,8,0:1:0:0:
208,288,223314,6,0,P|312:304|400:260,1,200,12|0,0:3|0:0,0:0:0:0:
204,204,223758,2,0,B|152:212|132:260|132:260|80:260|40:208,1,200,8|8,0:0|0:1,0:0:0:0:
214,95,224203,2,0,P|234:192|208:288,1,200,8|0,0:1|0:0,0:0:0:0:
36,188,224647,2,0,P|36:144|48:88,2,100,8|10|10,0:0|0:1|0:1,0:0:0:0:
208,287,225091,6,0,P|300:276|416:276,1,200,12|0,0:1|0:0,0:0:0:0:
208,287,225536,2,0,P|265:214|347:132,1,200,10|8,0:0|0:1,0:0:0:0:
432,316,225980,2,0,P|384:308|312:308,1,100,8|0,0:1|0:0,0:0:0:0:
292,108,226277,2,0,P|322:103|360:104,1,50,0|0,0:0|0:0,0:0:0:0:
292,188,226425,2,0,P|242:186|192:178,1,100,10|0,0:0|0:0,0:0:0:0:
12,92,226721,1,8,0:1:0:0:
192,178,226870,6,0,P|192:226|184:262,1,80,4|0,0:0|0:0,0:0:0:0:
100,368,227314,2,0,P|56:360|0:360,1,100,8|0,0:1|0:0,0:0:0:0:
185,257,227610,1,8,0:0:0:0:
185,98,227758,6,0,P|185:146|193:182,1,80,4|0,0:0|0:0,0:0:0:0:
277,288,228203,2,0,P|321:280|377:280,1,100,8|0,0:1|0:0,0:0:0:0:
192,177,228499,1,8,0:0:0:0:
60,268,228647,6,0,P|16:264|-20:264,1,80,12|0,0:1|0:0,0:0:0:0:
204,224,229091,2,0,P|248:220|284:220,1,80,12|0,0:1|0:0,0:0:0:0:
60,268,229536,6,0,P|16:264|-20:264,1,80,6|0,0:0|0:0,0:0:0:0:
16,336,229832,1,8,0:0:0:0:
204,224,229980,2,0,P|248:220|284:220,1,80,6|0,0:0|0:0,0:0:0:0:
216,368,230277,1,8,0:0:0:0:
0,32,230425,6,0,P|104:20|220:20,1,200,12|0,0:3|0:0,0:0:0:0:
360,140,230869,2,0,P|256:128|140:128,1,200,8|8,0:0|0:0,0:0:0:0:
280,292,231314,2,0,B|392:320|392:260|492:296,1,200,8|0,0:1|0:0,0:0:0:0:
296,208,231758,1,8,0:0:0:0:
428,364,231906,1,10,0:1:0:0:
476,172,232054,1,10,0:1:0:0:
256,52,232203,6,0,P|230:153|306:209,1,200,12|0,0:0|0:0,0:0:0:0:
100,160,232647,2,0,P|126:261|50:317,1,200,8|8,0:0|0:0,0:0:0:0:
204,176,233091,2,0,B|236:164|268:164|268:164|332:184|412:168,1,200,8|8,0:1|0:0,0:0:0:0:
220,84,233536,1,8,0:0:0:0:
92,236,233684,1,10,0:1:0:0:
256,352,233832,2,0,L|324:344,1,50,10|0,0:1|0:0,0:0:0:0:
424,300,233980,6,0,L|208:324,1,200,12|0,0:1|0:0,0:0:0:0:
308,140,234425,2,0,L|524:164,1,200,8|8,0:0|0:1,0:0:0:0:
316,224,234869,2,0,B|272:232|272:232|212:220|212:220|156:232|156:232|104:224,1,200,8|0,0:1|0:0,0:0:0:0:
220,56,235314,2,0,L|212:272,1,200,8|0,0:0|0:0,0:0:0:0:
408,280,235758,6,0,L|396:80,1,200,12|2,0:1|0:1,0:0:0:0:
372,200,236203,2,0,L|496:188,1,120.000004577637,8|8,0:0|0:1,0:0:0:0:
319,63,236647,2,0,L|219:55,1,100,8|0,0:1|0:0,0:0:0:0:
28,104,236943,1,8,0:0:0:0:
219,55,237091,1,10,0:0:0:0:
164,140,237240,1,0,0:0:0:0:
116,52,237388,1,8,0:1:0:0:
348,148,237536,6,0,B|360:180|356:208|356:208|332:236|328:276|328:276|304:300|260:308,1,200,12|0,0:3|0:0,0:0:0:0:
480,292,237980,2,0,P|376:248|280:220,1,200,8|8,0:0|0:1,0:0:0:0:
152,80,238425,2,0,B|200:32|256:36|256:36|296:40|352:8,1,200,8|0,0:1|0:0,0:0:0:0:
192,152,238869,2,0,P|136:160|88:133,2,100,8|10|10,0:0|0:1|0:1,0:0:0:0:
380,80,239314,6,0,P|468:84|472:184,1,200,12|0,0:1|0:0,0:0:0:0:
288,250,239758,2,0,P|200:246|196:146,1,200,10|8,0:0|0:1,0:0:0:0:
380,216,240203,2,0,P|379:267|364:320,1,100,8|0,0:1|0:0,0:0:0:0:
276,136,240499,2,0,P|304:132|348:132,1,50
300,228,240647,2,0,P|248:227|195:212,1,100,10|0,0:0|0:0,0:0:0:0:
48,88,240943,1,8,0:1:0:0:
201,214,241092,6,0,P|200:260|184:312,1,80,4|0,0:0|0:0,0:0:0:0:
52,320,241536,2,0,P|81:293|120:232,1,100,8|0,0:1|0:0,0:0:0:0:
148,108,241832,1,8,0:0:0:0:
304,152,241981,6,0,P|305:198|321:250,1,80,4|0,0:0|0:0,0:0:0:0:
453,258,242425,2,0,P|423:231|385:170,1,100,8|0,0:1|0:0,0:0:0:0:
357,46,242721,1,8,0:0:0:0:
256,172,242870,6,0,P|256:212|261:250,1,80,12|0,0:1|0:0,0:0:0:0:
68,128,243314,2,0,P|85:92|108:59,1,80,12|0,0:1|0:0,0:0:0:0:
256,172,243758,6,0,P|256:212|261:250,1,80,6|0,0:0|0:0,0:0:0:0:
204,304,244054,1,8,0:0:0:0:
68,128,244203,2,0,P|85:92|108:59,1,80,6|0,0:0|0:0,0:0:0:0:
260,8,244499,1,8,0:0:0:0:
472,120,244647,6,0,B|491:170|456:212|456:212|416:264|448:292|444:328|444:328|408:328|380:292|380:260,1,300.000011444092,12|10,0:0|0:0,0:0:0:0:
308,196,245536,2,0,P|383:184|409:146,1,120.000004577637,12|0,0:0|0:0,0:0:0:0:
356,48,245980,2,0,P|280:60|254:98,1,120.000004577637,0|8,0:0|0:1,0:0:0:0:
332,124,246425,5,8,0:1:0:0:
412,108,246721,1,0,0:0:0:0:
256,91,246869,5,8,0:0:0:0:
184,60,247166,1,8,0:0:0:0:
340,43,247314,5,0,0:0:0:0:
332,124,247462,1,0,0:0:0:0:
324,205,247610,1,0,0:0:0:0:
204,304,247758,5,6,0:0:0:0:
196,223,247906,1,2,0:3:0:0:
188,142,248054,1,8,0:1:0:0:
416,168,248203,5,4,0:1:0:0:
488,136,248351,1,0,0:0:0:0:
416,168,248499,1,0,0:0:0:0:
196,223,248647,5,12,0:1:0:0:
124,191,248795,1,0,0:0:0:0:
196,223,248943,1,10,0:0:0:0:
416,168,249091,5,12,0:1:0:0:
436,8,249240,1,0,0:0:0:0:
416,168,249388,1,0,0:0:0:0:
196,223,249536,5,12,0:0:0:0:
176,63,249684,1,8,0:0:0:0:
196,223,249832,1,8,0:0:0:0:
428,276,249981,6,0,B|488:256|516:200|516:200|516:256|473:318,1,240.000009155274,12|0,0:0|0:0,0:0:0:0:
416,168,250425,1,10,1:2:0:0:
32,344,250869,6,0,L|32:356,2,8,10|0|0,1:2|0:0|0:0,0:0:0:0:
240,216,251314,2,0,L|240:228,2,8
442,91,251758,6,0,P|366:79|266:79,1,160,12|0,0:0|0:0,0:0:0:0:
192,156,252203,2,0,P|104:148|28:148,1,160,8|8,0:0|0:1,0:0:0:0:
164,232,252647,2,0,P|252:208|220:84,1,240,8|8,0:1|0:0,0:0:0:0:
192,156,253240,1,2,0:0:0:0:
348,188,253388,1,8,0:1:0:0:
160,40,253536,6,0,B|104:32|104:32|52:44|-12:32,1,160,8|0,0:1|0:0,0:0:0:0:
20,152,253980,2,0,L|108:140,1,80,8|0,0:0|0:0,0:0:0:0:
160,40,254277,1,8,0:1:0:0:
38,242,254425,2,0,B|36:288|54:326|54:326|88:352|136:360,1,160,12|2,0:1|0:0,0:0:0:0:
236,320,254869,2,0,P|336:312|412:312,1,160,8|8,0:0|0:1,0:0:0:0:
491,180,255314,6,0,P|396:190|316:190,1,160,12|2,0:1|0:0,0:0:0:0:
223,140,255758,2,0,P|307:132|331:196,1,160,8|8,0:0|0:1,0:0:0:0:
172,196,256203,2,0,P|88:204|64:140,1,160,8|2,0:1|0:0,0:0:0:0:
136,48,256647,2,0,B|168:40|200:36|200:36|252:36|316:48,1,160,8|8,0:0|0:1,0:0:0:0:
392,112,257091,6,0,P|408:64|448:0,1,120.000004577637,12|0,0:1|0:0,0:0:0:0:
368,68,257536,2,0,P|372:116|360:148,1,80,10|8,0:0|0:1,0:0:0:0:
361,145,257980,2,0,P|315:128|291:103,1,80,8|10,0:1|0:1,0:0:0:0:
392,24,258425,1,8,0:0:0:0:
476,108,258573,1,2,0:1:0:0:
361,145,258721,1,8,0:1:0:0:
124,108,258869,6,0,P|104:172|180:200,1,160,12|0,0:0|0:0,0:0:0:0:
204,84,259314,2,0,P|180:48|144:28,1,80,8|0,0:0|0:0,0:0:0:0:
124,108,259610,1,8,0:0:0:0:
280,132,259758,2,0,P|304:96|340:76,1,80,8|0,0:1|0:0,0:0:0:0:
356,156,260054,1,2,0:1:0:0:
256,284,260203,2,0,P|220:288|168:280,1,80,10|0,0:1|0:0,0:0:0:0:
104,244,260499,1,0,0:0:0:0:
256,284,260647,6,0,B|336:300|336:260|424:284,1,160,12|0,0:1|0:0,0:0:0:0:
464,172,261091,2,0,P|380:192|388:108,1,160,8|8,0:0|0:1,0:0:0:0:
452,52,261536,1,8,0:1:0:0:
452,52,261832,1,8,0:1:0:0:
296,92,261980,2,0,B|276:80|252:80|252:80|208:92|208:92|168:80|120:92,1,160,6|8,0:3|0:1,0:0:0:0:
156,248,262425,6,0,P|240:248|320:224,1,160,12|2,0:1|0:1,0:0:0:0:
357,161,262869,1,8,0:0:0:0:
423,207,263017,1,2,0:0:0:0:
376,272,263166,1,2,0:1:0:0:
156,248,263314,6,0,P|121:243|76:244,1,80,8|0,0:1|0:0,0:0:0:0:
216,324,263610,1,8,0:0:0:0:
197,165,263758,2,0,P|231:160|361:161,1,160,12|8,0:0|0:1,0:0:0:0:
156,248,264203,6,0,P|121:243|76:244,1,80,12|2,0:1|0:0,0:0:0:0:
197,165,264647,2,0,P|231:160|277:161,1,80,12|2,0:1|0:0,0:0:0:0:
8,286,265091,6,0,P|39:262|75:243,1,80,12|0,0:0|0:0,0:0:0:0:
344,203,265536,2,0,P|312:179|276:160,1,80,12|0,0:0|0:0,0:0:0:0:
8,120,265980,6,0,P|39:96|168:44,1,180.000006866455,0|2,0:0|0:0,0:0:0:0:
168,43,266721,1,8,0:0:0:0:
113,175,266869,2,0,P|81:151|5:119,1,120.000004577637
96,272,267314,2,0,P|164:256|212:196,1,120.000004577637,10|0,0:0|0:0,0:0:0:0:
172,340,267758,6,0,P|104:308|-16:288,1,180.000006866455,0|8,0:0|0:0,0:0:0:0:
1,288,268499,1,0,0:0:0:0:
87,302,268647,1,0,0:0:0:0:
156,136,268943,1,0,0:0:0:0:
70,150,269091,1,10,0:0:0:0:
70,150,269388,1,0,0:0:0:0:
242,122,269536,6,0,P|304:116|376:116,1,120.000004577637
448,140,269980,2,0,P|484:140|516:132,1,60.0000022888184,10|0,0:0|0:0,0:0:0:0:
464,56,270277,1,8,0:0:0:0:
361,115,270425,2,0,P|356:192|372:304,1,180.000006866455,0|8,0:0|0:0,0:0:0:0:
369,293,271166,1,0,0:0:0:0:
315,225,271314,6,0,P|335:161|367:105,1,120.000004577637
263,75,271758,6,0,P|291:127|315:231,1,160,8|8,0:0|0:0,0:0:0:0:
237,150,272203,6,0,P|251:104|271:56,1,80,2|8,0:3|0:0,0:0:0:0:
314,224,272647,1,8,0:0:0:0:
236,236,272795,1,8,0:0:0:0:
164,200,272943,1,8,0:0:0:0:
384,320,273091,5,8,0:1:0:0:
128,320,273536,1,8,0:0:0:0:
384,320,273832,1,8,0:0:0:0:
256,320,273980,1,8,0:1:0:0:
384,320,274277,1,0,0:0:0:0:
256,320,274425,1,8,0:0:0:0:
384,320,274721,1,0,0:0:0:0:
128,320,274869,5,8,0:1:0:0:
128,320,275166,1,0,0:0:0:0:
256,320,275314,1,8,0:0:0:0:
256,320,275610,1,8,0:0:0:0:
384,320,275758,1,8,0:1:0:0:
384,320,276054,1,8,0:0:0:0:
256,320,276203,1,0,0:0:0:0:
384,320,276647,5,8,0:1:0:0:
384,320,276943,1,0,0:0:0:0:
256,320,277091,1,8,0:0:0:0:
256,320,277388,1,8,0:0:0:0:
128,320,277536,2,0,L|128:224,1,80,8|0,0:1|0:0,0:0:0:0:
256,320,277832,1,8,0:1:0:0:
384,320,277980,2,0,L|384:224,1,80,8|0,0:0|0:0,0:0:0:0:
256,320,278277,1,8,0:1:0:0:
128,320,278425,6,0,L|128:224,1,80,12|0,0:0|0:0,0:0:0:0:
384,320,278869,2,0,L|384:224,1,80,12|0,0:0|0:0,0:0:0:0:
256,80,279314,2,0,L|256:340,1,240,6|0,0:3|0:0,0:0:0:0:
256,320,280647,5,0,0:0:0:0:
224,256,280795,1,0,0:0:0:0:
304,208,280943,1,0,0:0:0:0:
208,144,281091,1,0,0:0:0:0:
320,80,281240,1,0,0:0:0:0:
176,16,281388,1,2,0:3:0:0:
256,320,281536,6,0,L|256:368,1,40,6|0,0:3|0:0,0:0:0:0:
16,284,281980,6,0,P|128:284|128:200,1,200,12|0,0:3|0:0,0:0:0:0:
144,21,282425,2,0,P|123:118|148:245,1,200,8|8,0:0|0:0,0:0:0:0:
312,117,282869,2,0,B|256:96|227:56|227:56|196:20|140:21,1,200,8|0,0:1|0:0,0:0:0:0:
137,216,283314,1,8,0:0:0:0:
312,117,283462,1,10,0:1:0:0:
144,21,283610,1,10,0:1:0:0:
272,232,283758,6,0,P|376:220|432:148,1,200,12|0,0:0|0:0,0:0:0:0:
232,109,284203,2,0,B|192:217|272:217|232:325,1,200,8|8,0:0|0:0,0:0:0:0:
312,117,284647,2,0,B|308:52|280:17|280:17|232:17|176:49,1,200,8|8,0:1|0:0,0:0:0:0:
60,192,285091,1,8,0:0:0:0:
256,244,285240,1,10,0:1:0:0:
444,172,285388,2,0,L|440:248,1,50,10|0,0:1|0:0,0:0:0:0:
408,340,285536,6,0,L|416:128,1,200,12|0,0:1|0:0,0:0:0:0:
248,44,285980,2,0,L|255:243,1,200,8|8,0:0|0:1,0:0:0:0:
344,64,286425,2,0,B|296:40|248:44|248:44|300:136,1,200,8|0,0:1|0:0,0:0:0:0:
276,332,286869,2,0,L|168:140,1,200,8|0,0:0|0:0,0:0:0:0:
124,352,287314,6,0,L|222:177,1,200,12|2,0:1|0:1,0:0:0:0:
140,264,287758,2,0,L|76:152,1,120.000004577637,8|8,0:0|0:1,0:0:0:0:
252,264,288203,2,0,L|196:356,1,100,8|0,0:1|0:0,0:0:0:0:
192,148,288499,1,8,0:0:0:0:
388,192,288647,1,10,0:0:0:0:
452,116,288795,1,0,0:0:0:0:
356,92,288943,1,8,0:1:0:0:
108,140,289091,6,0,P|160:228|253:210,1,200,12|0,0:3|0:0,0:0:0:0:
74,306,289536,2,0,P|144:235|192:148,1,200,8|8,0:0|0:1,0:0:0:0:
244,340,289980,2,0,B|296:316|344:312|344:312|396:324|396:324|452:312,1,200,8|0,0:1|0:0,0:0:0:0:
248,248,290425,2,0,P|200:268|160:296,2,100,8|10|10,0:0|0:1|0:1,0:0:0:0:
404,124,290869,6,0,P|362:95|220:56,1,200,12|0,0:1|0:0,0:0:0:0:
404,124,291314,2,0,P|460:206|486:302,1,200,10|8,0:0|0:1,0:0:0:0:
340,168,291758,2,0,P|296:144|236:132,1,100,8|0,0:1|0:0,0:0:0:0:
64,56,292054,2,0,P|96:36|132:28,1,50,0|0,0:0|0:0,0:0:0:0:
200,72,292203,2,0,P|200:120|176:176,1,100,10|0,0:0|0:0,0:0:0:0:
72,336,292499,1,8,0:1:0:0:
181,167,292647,6,0,P|144:148|88:140,1,80,4|0,0:0|0:0,0:0:0:0:
180,260,293091,2,0,P|228:260|284:248,1,100,8|0,0:1|0:0,0:0:0:0:
106,140,293388,1,8,0:0:0:0:
278,249,293536,6,0,P|315:230|371:222,1,80,4|0,0:0|0:0,0:0:0:0:
279,342,293980,2,0,P|231:342|175:330,1,100,8|0,0:1|0:0,0:0:0:0:
353,222,294277,1,8,0:0:0:0:
452,348,294425,6,0,P|404:336|356:332,1,80,12|0,0:1|0:0,0:0:0:0:
192,192,294869,2,0,P|230:181|270:176,1,80,12|0,0:1|0:0,0:0:0:0:
452,348,295314,6,0,P|404:336|356:332,2,80,2|0|8,0:1|0:0|0:0,0:0:0:0:
192,192,295758,2,0,P|230:181|270:176,2,80,2|0|8,0:1|0:0|0:0,0:0:0:0:
408,60,296203,6,0,P|369:49|208:44,1,200,12|0,0:3|0:0,0:0:0:0:
380,156,296647,2,0,B|440:160|476:128|476:128|448:168|444:236,1,200,8|8,0:0|0:0,0:0:0:0:
296,348,297091,2,0,B|196:376|196:312|88:352,1,200,8|0,0:1|0:0,0:0:0:0:
256,220,297536,1,8,0:0:0:0:
204,28,297684,1,10,0:1:0:0:
56,164,297832,1,10,0:1:0:0:
300,104,297980,6,0,B|344:100|384:80|384:80|436:80|504:104,1,200,12|0,0:0|0:0,0:0:0:0:
392,276,298425,2,0,P|408:160|384:68,1,200,8|8,0:0|0:0,0:0:0:0:
196,136,298869,2,0,P|96:136|0:104,1,200,8|8,0:1|0:0,0:0:0:0:
192,36,299314,1,8,0:0:0:0:
1,104,299462,1,10,0:1:0:0:
160,224,299610,2,0,L|224:216,1,50,10|0,0:1|0:0,0:0:0:0:
328,176,299758,6,0,L|120:196,1,200,12|0,0:1|0:0,0:0:0:0:
292,76,300203,2,0,L|500:96,1,200,8|8,0:0|0:1,0:0:0:0:
456,292,300647,2,0,B|412:288|412:288|364:304|364:304|256:284,1,200,8|0,0:1|0:0,0:0:0:0:
100,164,301091,2,0,L|108:384,1,200,8|0,0:0|0:0,0:0:0:0:
220,200,301536,6,0,L|227:0,1,200,12|2,0:1|0:1,0:0:0:0:
192,116,301980,2,0,L|199:263,1,120.000004577637,8|8,0:0|0:1,0:0:0:0:
96,64,302425,2,0,L|100:188,1,100,8|0,0:1|0:0,0:0:0:0:
204,332,302721,1,8,0:0:0:0:
396,284,302869,1,10,0:0:0:0:
304,240,303017,1,0,0:0:0:0:
316,340,303166,1,8,0:1:0:0:
408,108,303314,6,0,B|368:88|328:108|328:108|296:88|296:88|256:104|204:88,1,200,12|0,0:3|0:0,0:0:0:0:
20,95,303758,2,0,B|123:115|123:67|226:93,1,200,8|8,0:0|0:1,0:0:0:0:
376,216,304203,2,0,P|356:316|264:308,1,200,8|0,0:1|0:0,0:0:0:0:
309,120,304647,2,0,P|361:108|413:108,2,100,8|10|10,0:0|0:1|0:1,0:0:0:0:
88,240,305091,6,0,B|44:220|4:240|4:240|48:192|108:192,1,200,12|0,0:1|0:0,0:0:0:0:
296,248,305536,2,0,B|271:206|227:199|227:199|290:185|339:220,1,200,10|8,0:0|0:1,0:0:0:0:
172,332,305980,2,0,P|116:340|56:324,1,100,8|0,0:1|0:0,0:0:0:0:
20,140,306277,2,0,P|46:129|76:124,1,50,0|0,0:0|0:0,0:0:0:0:
136,52,306425,2,0,P|88:40|32:40,1,100,10|0,0:0|0:0,0:0:0:0:
76,236,306721,1,8,0:1:0:0:
272,192,306869,6,0,P|316:184|376:184,1,80,4|0,0:0|0:0,0:0:0:0:
484,136,307314,2,0,P|458:172|408:220,1,100,8|0,0:1|0:0,0:0:0:0:
224,260,307610,1,8,0:0:0:0:
296,84,307758,6,0,P|252:76|192:76,1,80,4|0,0:0|0:0,0:0:0:0:
84,28,308203,2,0,P|109:64|160:112,1,100,8|0,0:1|0:0,0:0:0:0:
344,152,308499,1,8,0:0:0:0:
148,103,308647,6,0,B|108:69|84:28|84:28|28:60|40:123,1,200,12|0,0:1|0:0,0:0:0:0:
367,100,309091,6,0,B|407:66|431:25|431:25|487:57|475:120,1,200,12|8,0:1|0:0,0:0:0:0:
148,103,309536,6,0,B|208:144|256:147|256:147|304:144|371:98,1,240.000009155274,0|8,0:0|0:0,0:0:0:0:
256,52,309980,1,10,0:0:0:0:
256,292,310129,1,8,0:1:0:0:
256,52,310277,1,10,0:0:0:0:
256,292,310425,6,0,B|256:328|276:356|276:356|344:316|348:242|348:242|392:216|392:260|452:236,1,300.000011444092,12|10,0:0|0:0,0:0:0:0:
424,120,311314,2,0,P|364:156|288:156,1,120.000004577637,12|0,0:0|0:0,0:0:0:0:
220,92,311758,2,0,P|161:100|111:132,1,120.000004577637,0|8,0:0|0:1,0:0:0:0:
315,160,312203,6,0,P|374:152|424:120,1,120.000004577637,8|0,0:1|0:0,0:0:0:0:
423,120,312943,1,8,0:0:0:0:
315,160,313091,5,0,0:0:0:0:
236,171,313240,1,0,0:0:0:0:
171,216,313388,1,0,0:0:0:0:
16,252,313536,5,6,0:0:0:0:
95,262,313684,1,2,0:3:0:0:
160,307,313832,1,8,0:1:0:0:
376,220,313980,5,4,0:1:0:0:
364,300,314129,1,0,0:0:0:0:
376,220,314277,1,0,0:0:0:0:
159,136,314425,5,12,0:1:0:0:
171,216,314573,1,0,0:0:0:0:
159,136,314721,1,10,0:0:0:0:
376,220,314869,5,12,0:1:0:0:
504,124,315017,1,0,0:0:0:0:
376,220,315166,1,0,0:0:0:0:
159,136,315314,5,12,0:0:0:0:
31,40,315462,1,8,0:0:0:0:
159,136,315610,1,8,0:0:0:0:
376,220,315758,5,4,0:1:0:0:
364,300,315907,1,0,0:0:0:0:
376,220,316055,1,0,0:0:0:0:
159,136,316203,5,12,0:1:0:0:
171,216,316351,1,0,0:0:0:0:
159,136,316499,1,10,0:0:0:0:
376,220,316647,5,12,0:1:0:0:
504,124,316795,1,0,0:0:0:0:
376,220,316944,1,0,0:0:0:0:
159,136,317092,5,12,0:0:0:0:
31,40,317240,1,8,0:0:0:0:
159,136,317388,1,8,0:0:0:0:
376,220,317536,5,4,0:1:0:0:
364,300,317685,1,0,0:0:0:0:
376,220,317833,1,0,0:0:0:0:
159,136,317981,5,12,0:1:0:0:
171,216,318129,1,0,0:0:0:0:
159,136,318277,1,10,0:0:0:0:
376,220,318425,5,12,0:1:0:0:
504,124,318573,1,0,0:0:0:0:
376,220,318722,1,0,0:0:0:0:
159,136,318870,5,12,0:0:0:0:
31,40,319018,1,8,0:0:0:0:
159,136,319166,1,8,0:0:0:0:
148,88,322946,6,0,B|148:164|196:196|196:196|260:172|280:100,1,240.000009155274
9,112,323440,6,0,P|37:220|97:292,1,200,12|0,0:0|0:0,0:0:0:0:
203,129,323884,2,0,P|95:99|3:115,1,200,8|8,0:1|0:1,0:0:0:0:
203,129,324328,2,0,P|263:207|285:304,1,200,8|2,0:1|0:0,0:0:0:0:
368,129,324773,2,0,P|308:207|286:304,1,200,8|8,0:0|0:1,0:0:0:0:
476,226,325217,6,0,P|468:142|368:130,1,200,12|2,0:1|0:0,0:0:0:0:
191,213,325662,2,0,B|291:145|287:209|379:121,1,200,8|8,0:0|0:1,0:0:0:0:
191,213,326106,2,0,B|91:145|95:209|3:121,1,200,8|2,0:1|0:0,0:0:0:0:
181,16,326551,2,0,P|201:128|185:232,1,200,8|0,0:0|0:0,0:0:0:0:
181,16,326995,6,0,P|293:4|397:8,1,200,12|2,0:1|0:0,0:0:0:0:
181,16,327440,2,0,P|98:71|23:138,1,200,8|8,0:0|0:1,0:0:0:0:
213,206,327884,2,0,P|217:98|177:10,1,200,8|2,0:1|0:0,0:0:0:0:
30,147,328328,2,0,P|142:207|222:203,1,200,8|8,0:0|0:1,0:0:0:0:
96,37,328773,6,0,P|61:28|57:156,1,200,8|2,0:1|0:0,0:0:0:0:
224,164,329217,2,0,P|121:136|12:152,1,200,8|8,0:0|0:1,0:0:0:0:
224,164,329662,2,0,P|244:116|244:60,2,100,8|0|8,0:1|0:0|0:0,0:0:0:0:
50,241,330106,2,0,P|30:193|30:137,2,100,8|0|8,0:0|0:0|0:0,0:0:0:0:
224,164,330551,6,0,B|326:177|326:129|432:164,1,200,12|0,0:0|0:0,0:0:0:0:
310,326,330995,2,0,P|230:246|226:154,1,200,8|8,0:1|0:1,0:0:0:0:
310,326,331440,2,0,P|390:246|394:154,1,200,8|2,0:1|0:0,0:0:0:0:
140,253,331884,2,0,P|212:321|310:326,1,200,8|8,0:0|0:1,0:0:0:0:
239,137,332328,6,0,P|139:173|143:257,1,200,12|2,0:1|0:0,0:0:0:0:
84,65,332773,2,0,P|124:141|140:261,1,200,8|8,0:0|0:1,0:0:0:0:
84,65,333217,2,0,P|44:141|28:261,1,200,8|2,0:1|0:0,0:0:0:0:
84,65,333662,2,0,P|175:26|274:19,1,200,8|0,0:0|0:0,0:0:0:0:
166,180,334106,6,0,P|98:176|107:48,1,200,12|2,0:1|0:0,0:0:0:0:
279,65,334551,2,0,B|171:103|167:39|71:67,1,200,8|8,0:0|0:1,0:0:0:0:
279,65,334995,2,0,B|387:103|391:39|487:67,1,200,8|2,0:1|0:0,0:0:0:0:
362,239,335440,2,0,P|298:155|278:59,1,200,8|8,0:0|0:1,0:0:0:0:
362,239,335884,6,0,P|277:291|179:303,1,200,8|2,0:1|0:0,0:0:0:0:
362,239,336328,2,0,P|372:140|422:55,1,200,8|8,0:0|0:1,0:0:0:0:
362,239,336773,2,0,P|312:219|256:215,2,100,8|0|8,0:1|0:0|0:0,0:0:0:0:
422,55,337217,2,0,P|472:36|528:32,2,100,8|0|8,0:0|0:0|0:0,0:0:0:0:
362,239,337662,6,0,P|312:219|180:220,1,180.000006866455,2|2,0:1|0:1,0:0:0:0:
160,232,338254,1,0,0:0:0:0:
132,236,338402,1,2,0:1:0:0:
104,228,338551,2,0,P|76:140|96:44,1,180.000006866455,2|2,0:1|0:1,0:0:0:0:
112,36,339143,1,0,0:0:0:0:
140,24,339291,1,2,0:1:0:0:
176,16,339440,6,0,P|221:12|264:16,2,80,2|2|2,0:1|0:1|0:1,0:0:0:0:
108,116,339920,2,0,P|62:112|20:116,2,80,2|2|2,0:1|0:1|0:1,0:0:0:0:
176,216,340400,2,0,P|221:212|264:216,2,80,2|2|2,0:1|0:1|0:1,0:0:0:0:
108,316,340945,6,0,P|62:312|20:316,2,80,2|2|2,0:0|0:0|0:0,0:0:0:0:
176,16,341545,1,2,0:0:0:0:
256,192,341745,12,0,344545,0:0:0:0:
164,192,345045,6,0,P|172:230|167:270,1,80,2|0,0:3|0:0,0:0:0:0:
347,192,345481,6,0,P|338:230|343:270,1,80,2|0,0:3|0:0,0:0:0:0:
256,192,345939,5,4,0:0:0:0:
