osu file format v14

[General]
AudioFilename: audio.mp3
AudioLeadIn: 0
PreviewTime: 29214
Countdown: 0
SampleSet: Soft
StackLeniency: 0.7
Mode: 0
LetterboxInBreaks: 0
WidescreenStoryboard: 0

[Editor]
DistanceSpacing: 0.8
BeatDivisor: 4
GridSize: 16
TimelineZoom: 1

[Metadata]
Title:Doushite...
TitleUnicode:どうして...
Artist:RD-Sounds feat. Meramipop
ArtistUnicode:RD-Sounds feat. めらみぽっぷ
Creator:Hailie
Version:Lunatic
Source:東方Project
Tags:Reimu Hakurei Theme Touhou 東方永夜抄 ~ Imperishable Night 東方靈異伝 ~ Highly Responsive to Prayers 永遠の巫女 東方花映塚 ~ Phantasmagoria of Flower View 春色小径 ~ Colorful Path 少女綺想曲 ~ Dream Battle 凋叶棕 Diao ye zong 宴 Why... Comiket 77 C77
BeatmapID:1564826
BeatmapSetID:741768

[Difficulty]
HPDrainRate:6
CircleSize:7
OverallDifficulty:8.5
ApproachRate:8.5
SliderMultiplier:1.4
SliderTickRate:1

[Events]
//Background and Video events
0,0,"image.jpg",0,0
//Break Periods
2,203699,211396
//Storyboard Layer 0 (Background)
//Storyboard Layer 1 (Fail)
//Storyboard Layer 2 (Pass)
//Storyboard Layer 3 (Foreground)
//Storyboard Sound Samples

[TimingPoints]
2357,571.428571428571,4,2,1,40,1,0
20642,-125,4,2,1,50,0,0
29785,-100,4,2,1,70,0,1
30356,-100,4,2,1,70,0,0
38928,-100,4,2,1,70,0,1
39499,-100,4,2,1,70,0,0
48071,-100,4,2,1,70,0,1
48642,-100,4,2,1,70,0,0
57214,-100,4,2,1,70,0,1
57785,-100,4,2,1,70,0,0
66356,-100,4,2,1,45,0,0
68071,-100,4,2,1,45,0,0
75499,-125,4,2,1,40,0,0
96071,-111.111111111111,4,2,1,45,0,0
116642,-100,4,2,1,55,0,0
162356,-90.9090909090909,4,2,1,65,0,1
171214,-90.9090909090909,4,2,1,65,0,0
171499,-90.9090909090909,4,2,1,65,0,1
180071,-90.9090909090909,4,2,1,65,0,0
180642,-90.9090909090909,4,2,1,65,0,1
189499,-90.9090909090909,4,2,1,65,0,0
189785,-90.9090909090909,4,2,1,65,0,1
198928,-125,4,2,1,55,0,0
203499,-125,4,2,1,45,0,0
212642,-125,4,2,1,45,0,0
222356,-111.111111111111,4,2,1,45,0,0
233214,-111.111111111111,4,2,1,45,0,0
253785,-100,4,2,1,45,0,0
272071,-90.9090909090909,4,2,1,45,0,0
299499,-111.111111111111,4,2,1,55,0,1
300071,-111.111111111111,4,2,1,55,0,0
308642,-111.111111111111,4,2,1,55,0,1
309214,-111.111111111111,4,2,1,55,0,0
317785,-83.3333333333333,4,2,1,65,0,1
326642,-83.3333333333333,4,2,1,65,0,0
326928,-83.3333333333333,4,2,1,65,0,1
336071,-125,4,2,1,65,0,0

[Colours]
Combo1 : 5,141,165
Combo2 : 117,0,117
Combo3 : 149,0,74
Combo4 : 149,0,0

[HitObjects]
474,33,2357,5,2,0:0:0:0:
413,65,2642,1,0,0:0:0:0:
359,111,2928,1,0,0:0:0:0:
256,138,3214,1,2,0:0:0:0:
256,138,4356,5,0,0:0:0:0:
149,76,4642,5,2,0:0:0:0:
226,77,4928,1,0,0:0:0:0:
306,115,5214,1,0,0:0:0:0:
344,199,5499,1,2,0:0:0:0:
393,315,6071,5,2,0:0:0:0:
383,242,6356,1,0,0:0:0:0:
412,179,6642,1,0,0:0:0:0:
393,315,6928,5,2,0:0:0:0:
347,315,7214,1,0,0:0:0:0:
289,338,7499,1,0,0:0:0:0:
191,312,7785,1,2,0:0:0:0:
191,312,8928,5,0,0:0:0:0:
110,359,9214,5,2,0:0:0:0:
48,341,9499,1,0,0:0:0:0:
21,264,9785,1,0,0:0:0:0:
55,176,10071,1,2,0:0:0:0:
19,42,10642,5,2,0:0:0:0:
71,80,10928,1,0,0:0:0:0:
137,86,11214,1,0,0:0:0:0:
19,42,11499,5,2,0:0:0:0:
31,83,11785,1,0,0:0:0:0:
45,147,12071,1,0,0:0:0:0:
42,241,12356,1,2,0:0:0:0:
42,241,13499,5,0,0:0:0:0:
133,344,13785,5,2,0:0:0:0:
104,281,14071,1,0,0:0:0:0:
42,241,14356,1,0,0:0:0:0:
63,148,14642,1,2,0:0:0:0:
251,368,15214,5,2,0:0:0:0:
229,315,15499,1,0,0:0:0:0:
181,271,15785,1,0,0:0:0:0:
433,334,16071,5,2,0:0:0:0:
389,313,16356,1,0,0:0:0:0:
322,319,16642,1,0,0:0:0:0:
251,368,16928,1,2,0:0:0:0:
467,373,18071,5,0,0:0:0:0:
498,152,18356,5,2,0:0:0:0:
471,215,18642,1,0,0:0:0:0:
498,296,18928,1,0,0:0:0:0:
467,372,19214,1,2,0:0:0:0:
439,158,19785,5,2,0:0:0:0:
372,89,20071,1,0,0:0:0:0:
257,75,20356,1,0,0:0:0:0:
60,32,20642,6,0,P|121:64|155:80,1,84,4|0,3:0|0:0,0:0:0:0:
188,114,21214,1,0,3:0:0:0:
90,106,21499,1,2,0:0:0:0:
90,106,21642,1,0,3:0:0:0:
90,106,21785,1,0,3:3:0:0:
159,208,22071,5,2,0:0:0:0:
187,124,22356,1,0,3:0:0:0:
276,102,22642,1,0,0:0:0:0:
391,181,22928,6,0,P|366:137|358:87,1,84,4|0,0:3|0:0,0:0:0:0:
386,43,23499,1,2,3:2:0:0:
451,102,23785,1,2,0:0:0:0:
451,102,23928,1,0,3:0:0:0:
451,102,24071,1,2,3:2:0:0:
391,181,24356,1,2,0:0:0:0:
489,192,24642,1,4,0:3:0:0:
258,367,25213,5,4,0:3:0:0:
239,350,25356,1,0,0:0:0:0:
220,329,25499,1,0,0:0:0:0:
200,310,25642,1,0,0:0:0:0:
181,291,25785,1,2,3:2:0:0:
73,353,26071,1,0,0:0:0:0:
73,353,26214,1,0,3:0:0:0:
73,353,26356,1,4,0:3:0:0:
44,43,27499,6,0,L|50:82,2,28,4|0|2,0:3|0:0|0:0,0:0:0:0:
56,140,28071,1,0,3:0:0:0:
127,175,28356,1,2,0:0:0:0:
206,112,28642,1,2,0:0:0:0:
302,100,28928,1,2,0:0:0:0:
396,177,29214,5,4,0:3:0:0:
499,75,29499,1,2,0:0:0:0:
499,75,29642,1,0,0:0:0:0:
481,200,29785,6,0,P|474:169|474:116,1,70,4|2,1:0|0:0,0:0:0:0:
446,80,30214,1,0,0:0:0:0:
377,92,30356,6,0,P|316:121|271:124,1,105,2|0,1:2|3:0,0:0:0:0:
289,271,30928,2,0,P|259:231|236:164,1,105,2|2,1:2|0:0,0:0:0:0:
204,342,31499,2,0,P|193:314|171:278,1,70,2|2,1:2|0:0,0:0:0:0:
120,248,31928,1,0,3:0:0:0:
89,57,32071,6,0,P|89:90|84:142,2,70,8|2|2,1:3|0:0|1:2,0:0:0:0:
161,169,32928,1,2,0:0:0:0:
221,128,33071,1,0,3:0:0:0:
304,117,33214,6,0,P|378:105|413:71,1,105,2|2,1:2|0:0,0:0:0:0:
460,232,33785,2,0,P|453:197|456:148,1,70,0|2,1:0|0:0,0:0:0:0:
481,107,34214,1,0,0:0:0:0:
495,274,34356,6,0,P|479:227|479:147,1,105,0|0,1:0|0:0,0:0:0:0:
391,320,34928,2,0,P|406:291|423:220,1,105,2|0,1:2|3:0,0:0:0:0:
306,322,35499,2,0,P|328:287|338:240,1,70,2|2,1:2|0:0,0:0:0:0:
302,184,35928,1,2,0:0:0:0:
410,149,36071,2,0,P|371:147|327:131,1,70,0|2,1:0|0:0,0:0:0:0:
300,89,36499,1,0,3:0:0:0:
169,48,36642,6,0,P|166:90|163:128,1,70,2|2,1:2|0:0,0:0:0:0:
207,336,37214,1,2,1:2:0:0:
70,239,37499,5,2,0:0:0:0:
70,239,37642,1,0,3:0:0:0:
70,239,37785,1,2,1:2:0:0:
149,75,38071,5,2,0:0:0:0:
298,83,38356,1,0,1:0:0:0:
479,187,38928,6,0,P|442:193|400:190,1,70,4|2,1:0|0:0,0:0:0:0:
440,130,39356,1,0,0:0:0:0:
386,298,39499,6,0,P|355:249|348:187,1,105,2|0,1:2|3:0,0:0:0:0:
195,216,40071,2,0,P|260:197|296:163,1,105,2|2,1:2|0:0,0:0:0:0:
135,158,40642,2,0,P|175:157|213:140,1,70,2|2,1:2|0:0,0:0:0:0:
244,105,41071,1,0,3:0:0:0:
92,313,41214,6,0,L|98:228,2,70,8|2|2,1:3|0:0|1:2,0:0:0:0:
243,344,42071,1,2,0:0:0:0:
289,322,42214,1,0,3:0:0:0:
359,341,42356,6,0,P|364:287|391:226,1,105,2|2,1:2|0:0,0:0:0:0:
243,344,42928,2,0,P|261:322|281:262,1,70,0|2,1:0|0:0,0:0:0:0:
295,226,43356,1,0,0:0:0:0:
147,374,43499,6,0,P|193:354|242:285,1,105,0|0,1:0|0:0,0:0:0:0:
63,360,44071,2,0,P|102:341|147:295,1,105,2|0,1:2|3:0,0:0:0:0:
0,341,44642,2,0,P|31:323|58:289,1,70,2|2,1:2|0:0,0:0:0:0:
72,205,45071,1,2,0:0:0:0:
188,217,45214,2,0,P|154:203|117:168,1,70,0|2,1:0|0:0,0:0:0:0:
88,127,45642,1,0,3:0:0:0:
242,198,45785,6,0,P|246:245|249:279,1,70,2|2,1:2|0:0,0:0:0:0:
461,360,46356,1,2,1:2:0:0:
370,193,46642,5,2,0:0:0:0:
370,193,46785,1,0,3:0:0:0:
370,193,46928,1,2,1:2:0:0:
144,197,47214,5,2,0:0:0:0:
71,70,47499,1,0,1:0:0:0:
366,27,48071,6,0,P|326:39|274:43,1,70,4|2,1:0|0:0,0:0:0:0:
245,37,48499,1,0,0:0:0:0:
169,38,48642,6,0,P|108:67|63:70,1,105,2|0,1:2|3:0,0:0:0:0:
55,216,49214,2,0,P|20:163|10:107,1,105,2|2,1:2|0:0,0:0:0:0:
151,210,49785,2,0,P|122:182|108:152,1,70,2|2,1:2|0:0,0:0:0:0:
87,91,50214,1,0,3:0:0:0:
194,245,50357,6,0,P|194:278|191:330,2,70,8|2|2,1:3|0:0|1:2,0:0:0:0:
291,366,51214,1,2,0:0:0:0:
335,321,51357,1,0,3:0:0:0:
417,322,51499,6,0,P|379:289|349:234,1,105,2|2,1:2|0:0,0:0:0:0:
501,275,52070,2,0,P|463:255|431:216,1,70,0|2,1:0|0:0,0:0:0:0:
373,160,52499,1,0,0:0:0:0:
510,242,52642,6,0,P|461:220|420:170,1,105,0|0,1:0|0:0,0:0:0:0:
512,94,53214,2,0,P|451:97|398:81,1,105,2|0,1:2|3:0,0:0:0:0:
498,4,53785,2,0,P|458:6|425:-2,1,70,2|2,1:2|0:0,0:0:0:0:
338,100,54213,1,2,0:0:0:0:
223,11,54356,2,0,P|257:20|294:22,1,70,0|2,1:0|0:0,0:0:0:0:
346,15,54784,1,0,3:0:0:0:
446,179,54928,6,0,P|443:221|440:255,1,70,2|2,1:2|0:0,0:0:0:0:
254,364,55499,1,2,1:2:0:0:
344,196,55784,5,2,0:0:0:0:
344,196,55927,1,0,3:0:0:0:
344,196,56070,1,2,1:2:0:0:
178,156,56356,5,2,0:0:0:0:
303,38,56641,1,0,1:0:0:0:
109,143,57214,6,0,P|142:153|197:154,1,70,4|2,1:0|0:0,0:0:0:0:
232,155,57642,1,0,0:0:0:0:
291,295,57785,6,0,P|275:237|281:172,1,105,2|0,1:2|3:0,0:0:0:0:
405,281,58357,2,0,P|365:237|348:191,1,105,2|2,1:2|0:0,0:0:0:0:
498,240,58928,2,0,P|465:226|429:197,1,70,2|2,1:2|0:0,0:0:0:0:
403,154,59357,1,0,3:0:0:0:
249,18,59500,6,0,L|245:88,2,70,8|2|2,1:3|0:0|1:2,0:0:0:0:
402,74,60357,1,2,0:0:0:0:
453,49,60500,1,0,3:0:0:0:
504,72,60642,6,0,P|486:121|442:159,1,105,2|2,1:2|0:0,0:0:0:0:
507,290,61214,2,0,P|473:278|433:232,1,70,0|2,1:0|0:0,0:0:0:0:
381,198,61642,1,0,0:0:0:0:
502,325,61785,6,0,P|448:295|415:249,1,105,0|0,1:0|0:0,0:0:0:0:
379,384,62357,2,0,P|355:341|352:276,1,105,2|0,1:2|3:0,0:0:0:0:
216,382,62928,2,0,P|247:364|272:326,1,70,2|2,1:2|0:0,0:0:0:0:
270,261,63357,1,2,0:0:0:0:
374,205,63500,2,0,P|337:206|295:194,1,70,0|2,1:0|0:0,0:0:0:0:
234,164,63928,1,0,3:0:0:0:
103,28,64071,6,0,P|107:75|110:109,1,70,2|2,1:2|0:0,0:0:0:0:
55,299,64642,1,2,1:2:0:0:
205,197,64928,5,2,0:0:0:0:
205,197,65071,1,0,3:0:0:0:
205,197,65214,1,2,1:2:0:0:
345,298,65500,5,2,0:0:0:0:
374,181,65785,1,0,1:0:0:0:
512,142,66071,1,2,0:0:0:0:
512,142,66214,1,2,0:0:0:0:
512,142,66356,1,2,0:0:0:0:
338,44,68071,5,2,0:0:0:0:
269,65,68356,1,0,0:0:0:0:
191,37,68642,5,2,0:0:0:0:
145,87,68928,1,0,0:0:0:0:
166,138,69214,1,2,0:0:0:0:
124,188,69499,1,0,0:0:0:0:
198,223,69785,1,2,0:0:0:0:
121,294,70071,1,0,0:0:0:0:
212,290,70356,1,2,0:0:0:0:
228,377,70642,1,0,0:0:0:0:
352,289,70928,5,6,0:0:0:0:
479,189,71499,1,0,0:0:0:0:
255,193,72071,5,2,0:0:0:0:
68,45,73214,5,2,0:0:0:0:
84,230,74356,5,2,0:0:0:0:
489,33,75499,6,0,P|418:25|390:15,1,84,4|0,0:0|0:0,0:0:0:0:
396,94,76071,2,0,P|379:136|376:163,1,56,2|2,0:0|0:0,0:0:0:0:
254,37,76642,2,0,P|289:57|245:62,1,112,2|0,0:0|0:0,0:0:0:0:
262,359,77785,6,0,B|266:309|245:328|251:264,1,84,2|0,0:0|0:0,0:0:0:0:
191,186,78356,2,0,P|216:202|266:209,1,56,2|2,0:0|0:0,0:0:0:0:
391,206,78928,2,0,P|428:192|387:190,1,112,2|0,0:0|0:0,0:0:0:0:
53,184,80071,6,0,P|73:191|117:177,1,56,2|0,0:0|0:0,0:0:0:0:
133,138,80642,2,0,P|107:129|71:141,1,56
107,185,81214,2,0,P|124:169|133:129,1,56,2|0,0:0|0:0,0:0:0:0:
79,135,81785,2,0,P|92:169|116:191,1,56
107,240,82356,2,0,P|109:203|103:172,1,56,2|0,0:0|0:0,0:0:0:0:
118,294,82928,2,0,P|109:262|106:226,1,56,2|0,0:0|0:0,0:0:0:0:
368,368,84642,6,0,P|407:321|470:315,1,112,2|2,0:0|0:0,0:0:0:0:
489,252,85499,1,2,0:0:0:0:
401,255,85785,2,0,P|396:284|378:318,1,56,2|2,0:0|0:0,0:0:0:0:
476,30,86928,5,2,0:0:0:0:
303,69,87499,1,2,0:0:0:0:
224,15,87785,1,2,0:0:0:0:
111,18,88071,2,0,P|79:36|46:42,1,56,2|2,0:0|0:0,0:0:0:0:
142,272,89214,6,0,P|158:308|184:357,1,84,2|0,0:0|0:0,0:0:0:0:
206,274,89785,2,0,P|189:240|165:191,1,84
240,221,90356,2,0,P|265:272|275:293,1,56,2|0,0:0|0:0,0:0:0:0:
279,157,90928,1,0,0:0:0:0:
403,264,91499,1,2,0:0:0:0:
374,92,92071,1,0,0:0:0:0:
500,180,92642,1,2,0:0:0:0:
501,295,92928,5,0,0:0:0:0:
419,241,93214,1,2,0:0:0:0:
430,156,93499,1,0,0:0:0:0:
512,73,93785,5,2,0:0:0:0:
430,156,94214,1,2,0:0:0:0:
352,239,94642,1,2,0:0:0:0:
310,306,94928,1,2,0:0:0:0:
41,352,96071,6,0,P|123:326|174:318,1,125.999996154785,4|0,0:0|3:0,0:0:0:0:
266,286,96928,1,2,0:0:0:0:
209,255,97071,1,0,3:0:0:0:
253,213,97214,2,0,P|220:187|197:151,1,62.9999980773926,2|0,0:0|0:0,0:0:0:0:
128,100,97785,2,0,P|136:128|144:178,1,62.9999980773926,4|0,0:3|0:0,0:0:0:0:
268,287,98356,6,0,P|326:318|386:364,1,125.999996154785,4|0,0:3|3:0,0:0:0:0:
488,343,99214,1,2,0:0:0:0:
416,307,99356,1,0,3:0:0:0:
457,262,99499,2,0,P|413:253|377:233,1,62.9999980773926,2|0,0:0|0:0,0:0:0:0:
279,190,100071,2,0,P|304:218|327:248,1,62.9999980773926,4|0,0:3|0:0,0:0:0:0:
206,87,100642,6,0,B|162:76|139:110|93:79,1,94.499997116089,4|0,0:3|0:0,0:0:0:0:
0,83,101214,2,0,P|6:50|1:8,1,62.9999980773926,2|0,3:2|0:0,0:0:0:0:
15,134,101642,1,0,3:0:0:0:
58,171,101785,2,0,P|66:202|80:281,1,94.499997116089,4|0,0:3|0:0,0:0:0:0:
120,160,102356,2,0,P|107:121|94:92,2,62.9999980773926,2|0|4,0:2|0:0|3:0,0:0:0:0:
179,208,103214,1,2,0:0:0:0:
252,159,103499,1,2,3:2:0:0:
353,152,103785,1,0,0:0:0:0:
353,152,103928,1,0,3:0:0:0:
353,152,104071,1,2,0:0:0:0:
484,166,104356,5,0,0:0:0:0:
411,103,104642,1,4,0:3:0:0:
469,21,104928,1,0,0:0:0:0:
484,166,105214,6,0,P|457:198|462:293,1,125.999996154785,4|0,0:0|3:0,0:0:0:0:
472,368,106071,1,2,0:0:0:0:
414,335,106214,1,0,3:0:0:0:
364,369,106356,2,0,P|325:341|297:324,1,62.9999980773926,2|0,0:0|0:0,0:0:0:0:
146,363,106928,1,4,0:3:0:0:
238,182,107499,6,0,P|167:202|113:210,1,125.999996154785,4|0,0:3|3:0,0:0:0:0:
0,229,108356,1,2,0:0:0:0:
37,272,108499,1,0,3:0:0:0:
45,325,108642,2,0,P|81:310|121:301,1,62.9999980773926,2|0,0:0|0:0,0:0:0:0:
257,313,109214,1,4,0:3:0:0:
275,220,109499,1,0,0:0:0:0:
346,101,109785,6,0,P|303:125|253:145,1,94.499997116089,4|0,0:3|0:0,0:0:0:0:
149,163,110356,2,0,P|190:183|220:201,1,62.9999980773926,2|2,3:2|0:0,0:0:0:0:
275,220,110785,1,0,3:0:0:0:
378,257,110928,2,0,P|314:272|246:291,1,125.999996154785,4|2,0:3|0:2,0:0:0:0:
69,357,112071,2,0,P|68:300|15:313,1,125.999996154785,4|2,3:0|3:2,0:0:0:0:
126,247,112928,1,0,0:0:0:0:
179,262,113071,1,0,3:0:0:0:
216,213,113214,2,0,P|256:206|290:188,1,62.9999980773926,2|2,3:2|0:0,0:0:0:0:
400,257,113785,5,4,0:3:0:0:
356,192,114071,1,0,0:0:0:0:
468,376,114356,5,2,0:0:0:0:
455,262,114785,1,2,0:0:0:0:
512,159,115214,1,2,0:0:0:0:
354,190,115499,5,4,0:3:0:0:
255,80,116071,1,4,0:3:0:0:
110,75,116642,6,0,P|138:98|181:138,2,70,4|2|4,0:0|0:0|0:3,0:0:0:0:
186,166,117499,1,2,0:0:0:0:
179,203,117642,1,0,3:0:0:0:
204,291,117785,2,0,P|198:246|199:201,1,70,4|2,0:3|0:0,0:0:0:0:
222,307,118214,1,0,0:0:0:0:
255,384,118356,2,0,P|246:349|242:295,1,70,4|0,0:3|0:0,0:0:0:0:
410,194,118928,6,0,P|375:222|348:245,2,70,4|2|4,0:3|0:0|0:3,0:0:0:0:
328,299,119785,1,2,0:0:0:0:
318,272,119928,1,0,3:0:0:0:
276,201,120071,1,4,0:3:0:0:
202,146,120356,1,2,0:0:0:0:
183,143,120499,1,0,0:0:0:0:
118,138,120642,1,4,0:3:0:0:
43,62,120928,1,2,0:0:0:0:
227,159,121214,6,0,P|252:142|297:115,2,70,4|2|4,0:3|0:0|0:3,0:0:0:0:
341,114,122071,1,2,0:0:0:0:
361,138,122214,1,0,3:0:0:0:
435,192,122356,2,0,P|409:168|385:143,1,70,4|2,0:3|0:0,0:0:0:0:
439,216,122785,1,0,0:0:0:0:
501,211,122928,1,4,0:3:0:0:
394,367,123499,6,0,P|393:320|390:279,2,70,4|2|4,0:3|0:0|0:3,0:0:0:0:
390,224,124356,1,2,0:0:0:0:
405,194,124499,1,0,3:0:0:0:
447,143,124642,2,0,P|402:165|346:183,1,105,4|0,0:3|0:0,0:0:0:0:
253,154,125214,1,4,0:3:0:0:
51,195,125499,1,2,0:0:0:0:
126,85,125785,6,0,P|148:111|175:155,2,70,6|2|4,0:0|0:0|0:3,0:0:0:0:
192,194,126642,1,0,0:0:0:0:
152,299,126928,2,0,P|153:263|144:200,1,70,4|2,0:3|0:0,0:0:0:0:
135,310,127356,1,0,0:0:0:0:
110,384,127499,2,0,P|115:342|116:315,1,70,4|0,0:3|0:0,0:0:0:0:
320,294,128071,6,0,P|273:293|222:295,2,70,4|2|4,0:3|0:0|0:3,0:0:0:0:
452,203,128928,1,2,0:0:0:0:
410,208,129071,1,0,3:0:0:0:
370,130,129214,1,4,0:3:0:0:
294,202,129499,1,2,0:0:0:0:
233,105,129785,1,4,0:3:0:0:
108,79,130071,1,2,0:0:0:0:
62,228,130356,6,0,P|75:200|94:153,2,70,4|2|4,0:3|0:0|0:3,0:0:0:0:
135,241,131214,1,2,0:0:0:0:
145,192,131356,1,0,3:0:0:0:
190,145,131499,2,0,P|177:181|154:234,2,70,4|2|4,0:3|0:0|0:3,0:0:0:0:
249,348,132642,6,0,P|262:303|275:264,2,70,4|2|4,0:3|0:0|0:3,0:0:0:0:
397,244,133499,1,2,0:0:0:0:
377,272,133642,1,0,3:0:0:0:
366,322,133785,1,4,0:3:0:0:
475,353,134071,5,2,0:0:0:0:
397,244,134356,1,4,0:3:0:0:
267,284,134642,1,2,0:0:0:0:
141,227,134928,6,0,P|181:216|223:202,1,70,6|2,0:0|0:0,0:0:0:0:
125,254,135356,1,0,0:0:0:0:
91,212,135499,2,0,P|51:221|13:231,1,70,2|2,1:2|0:0,0:0:0:0:
155,54,136071,2,0,P|161:97|168:144,1,70,4|2,0:3|0:0,0:0:0:0:
124,49,136499,1,0,0:0:0:0:
195,132,136642,2,0,P|202:176|210:227,1,70,4|0,1:3|0:0,0:0:0:0:
259,350,137214,6,0,P|262:301|265:263,2,70,4|2|2,0:3|0:0|1:2,0:0:0:0:
341,270,138071,1,2,0:0:0:0:
341,210,138214,1,0,3:0:0:0:
374,159,138356,2,0,P|369:208|364:251,1,70,4|2,0:3|0:0,0:0:0:0:
453,117,138928,1,2,1:2:0:0:
373,14,139214,1,2,0:0:0:0:
153,28,139499,6,0,P|181:52|220:83,1,70,4|2,0:3|0:0,0:0:0:0:
144,0,139928,1,0,0:0:0:0:
236,68,140071,2,0,P|205:95|176:121,1,70,2|2,1:2|0:0,0:0:0:0:
160,305,140642,2,0,P|123:259|97:230,1,70,4|2,0:3|0:0,0:0:0:0:
191,300,141071,1,0,0:0:0:0:
274,353,141214,2,0,P|236:321|200:290,1,70,4|0,1:3|0:0,0:0:0:0:
396,346,141785,6,0,P|359:308|336:283,2,70,4|2|2,0:3|0:0|1:2,0:0:0:0:
280,234,142642,1,2,0:0:0:0:
249,234,142785,1,0,3:0:0:0:
347,295,142928,1,4,0:3:0:0:
356,178,143214,1,2,0:0:0:0:
389,67,143499,1,2,1:2:0:0:
505,29,143785,1,2,0:0:0:0:
253,20,144071,6,0,P|292:21|345:21,1,70,6|2,0:0|0:0,0:0:0:0:
233,39,144499,1,0,0:0:0:0:
139,48,144642,2,0,P|178:50|229:50,1,70,2|2,1:2|0:0,0:0:0:0:
253,112,145071,1,0,3:0:0:0:
228,192,145214,2,0,P|228:163|225:107,1,70,4|2,0:3|0:0,0:0:0:0:
252,210,145642,1,0,0:0:0:0:
230,296,145785,2,0,P|228:247|226:218,1,70,4|0,1:3|0:0,0:0:0:0:
303,44,146356,6,0,P|307:75|317:122,2,70,4|2|2,0:3|0:0|1:2,0:0:0:0:
335,157,147214,1,2,0:0:0:0:
363,171,147356,1,0,3:0:0:0:
364,275,147499,1,4,0:3:0:0:
255,231,147785,1,2,0:0:0:0:
253,364,148071,1,2,1:2:0:0:
145,330,148356,1,2,0:0:0:0:
30,246,148642,6,0,P|61:244|114:243,1,70,4|2,0:3|0:0,0:0:0:0:
9,270,149071,1,0,0:0:0:0:
161,272,149214,2,0,P|109:274|71:273,1,70,2|2,1:2|0:0,0:0:0:0:
182,250,149642,1,0,3:0:0:0:
297,280,149785,2,0,P|250:280|218:280,1,70,4|2,0:3|0:0,0:0:0:0:
361,195,150356,2,0,P|384:195|431:195,1,70,4|0,1:3|0:0,0:0:0:0:
453,328,150928,5,4,0:3:0:0:
431,195,151214,1,2,0:0:0:0:
407,146,151356,1,0,0:0:0:0:
452,85,151499,1,2,1:2:0:0:
298,114,151785,1,2,0:0:0:0:
322,162,151928,1,0,3:0:0:0:
269,217,152071,1,4,0:3:0:0:
401,302,152356,5,2,0:0:0:0:
284,272,152642,1,2,1:2:0:0:
155,358,152928,1,2,0:0:0:0:
21,338,153214,6,0,P|77:298|102:233,1,140,4|2,0:0|1:2,0:0:0:0:
91,158,154071,1,2,0:0:0:0:
123,110,154214,1,0,3:0:0:0:
118,51,154356,2,0,P|172:62|231:44,1,105,4|0,0:3|0:0,0:0:0:0:
381,41,154928,6,0,P|422:33|381:40,1,105,4|0,1:3|0:0,0:0:0:0:
510,84,155499,6,0,P|435:72|376:37,1,140,4|2,3:0|1:2,0:0:0:0:
436,159,156356,1,2,0:0:0:0:
482,129,156499,1,0,3:0:0:0:
472,265,156642,2,0,P|445:218|400:161,1,105,4|0,0:3|0:0,0:0:0:0:
291,148,157214,6,0,P|261:172|304:178,1,105,0|0,1:3|0:0,0:0:0:0:
219,266,157785,6,0,B|139:203|171:114|206:72|206:72|154:149|108:181|31:167|-8:67|31:12|96:-1,1,560,2|4,0:0|3:0,0:0:0:0:
219,266,160499,5,0,0:0:0:0:
261,225,160642,1,2,1:2:0:0:
394,200,160928,5,0,0:0:0:0:
396,145,161071,1,0,3:0:0:0:
460,125,161214,1,4,0:3:0:0:
310,135,161499,5,0,0:0:0:0:
246,133,161642,1,0,0:0:0:0:
186,182,161785,2,2,P|151:166|191:174,1,105,12|0,1:3|0:0,0:0:0:0:
256,285,162356,6,0,P|296:242|351:200,1,115.50000352478,4|0,1:0|0:0,0:0:0:0:
449,97,162928,2,0,P|407:137|376:155,1,77.0000023498536,2|2,1:2|0:0,0:0:0:0:
492,64,163356,1,0,3:0:0:0:
447,233,163499,2,0,P|449:185|471:111,1,115.50000352478,2|2,1:2|0:0,0:0:0:0:
428,283,164071,2,0,P|431:239|420:172,1,77.0000023498536,2|2,1:2|0:0,0:0:0:0:
415,146,164499,1,0,3:0:0:0:
393,300,164642,2,0,P|447:285|523:261,1,115.50000352478,8|0,1:3|0:0,0:0:0:0:
366,358,165214,2,0,P|315:354|274:354,1,77.0000023498536,2|2,1:2|0:0,0:0:0:0:
374,380,165642,1,0,3:0:0:0:
191,348,165785,2,0,P|246:342|308:331,1,115.50000352478,2|2,1:2|0:0,0:0:0:0:
113,351,166356,2,0,P|150:338|199:325,1,77.0000023498536,0|2,1:0|0:0,0:0:0:0:
250,320,166785,1,0,0:0:0:0:
105,384,166928,6,0,P|90:341|69:306,2,77.0000023498536,8|2|2,1:3|0:0|1:2,0:0:0:0:
83,279,167642,1,0,0:0:0:0:
32,169,167785,2,0,P|36:214|41:264,1,77.0000023498536,2|2,0:0|1:2,0:0:0:0:
7,37,168356,1,2,0:0:0:0:
79,24,168499,1,2,0:0:0:0:
136,79,168642,2,0,P|95:78|56:75,1,77.0000023498536,0|2,1:0|0:0,0:0:0:0:
203,82,169071,1,0,3:0:0:0:
312,85,169214,2,0,P|267:91|218:95,2,77.0000023498536,2|2|2,1:2|0:0|1:2,0:0:0:0:
454,11,170071,2,0,P|413:13|377:12,1,77.0000023498536,2|2,0:0|1:2,0:0:0:0:
512,88,170642,2,0,P|469:88|416:87,1,77.0000023498536,2|0,0:0|1:0,0:0:0:0:
415,326,171214,5,2,0:0:0:0:
372,299,171356,1,0,0:0:0:0:
448,362,171499,6,0,P|387:324|333:295,1,115.50000352478,4|0,1:0|0:0,0:0:0:0:
288,126,172071,2,0,P|321:147|374:171,1,77.0000023498536,2|2,1:2|0:0,0:0:0:0:
259,127,172499,1,0,3:0:0:0:
432,174,172642,2,0,P|366:145|314:109,1,115.50000352478,2|2,1:2|0:0,0:0:0:0:
486,135,173214,2,0,P|451:122|408:96,1,77.0000023498536,2|2,1:2|0:0,0:0:0:0:
370,81,173642,1,0,3:0:0:0:
454,205,173785,2,0,P|463:144|473:92,1,115.50000352478,8|0,1:3|0:0,0:0:0:0:
512,204,174356,2,0,P|506:241|493:297,1,77.0000023498536,2|2,1:2|0:0,0:0:0:0:
512,144,174785,1,0,3:0:0:0:
507,365,174928,2,0,P|484:293|459:249,1,115.50000352478,2|2,1:2|0:0,0:0:0:0:
467,384,175499,2,0,P|468:334|473:292,1,77.0000023498536,0|2,1:0|0:0,0:0:0:0:
464,258,175928,1,0,0:0:0:0:
301,199,176071,6,0,P|253:232|252:306,1,115.50000352478,0|0,1:0|0:0,0:0:0:0:
355,178,176642,2,0,P|313:163|271:148,1,77.0000023498536,2|0,1:2|0:0,0:0:0:0:
365,200,177071,1,2,3:2:0:0:
161,176,177214,2,0,P|217:172|284:169,1,115.50000352478,2|2,1:2|0:0,0:0:0:0:
121,158,177785,2,0,P|145:198|167:239,1,77.0000023498536,0|2,1:0|0:0,0:0:0:0:
237,369,178356,5,2,1:2:0:0:
192,283,178642,1,2,0:0:0:0:
121,158,178928,1,2,1:2:0:0:
93,297,179214,5,2,0:0:0:0:
93,297,179356,1,0,3:0:0:0:
93,297,179499,1,2,1:2:0:0:
61,147,179785,1,2,0:0:0:0:
233,41,180071,6,0,P|206:48|231:28,1,77.0000023498536,0|2,1:0|0:0,0:0:0:0:
55,194,180642,6,0,P|56:137|43:57,1,115.50000352478,4|0,1:0|0:0,0:0:0:0:
16,222,181214,2,0,P|21:257|31:298,1,77.0000023498536,2|2,1:2|0:0,0:0:0:0:
0,203,181642,1,0,3:0:0:0:
76,365,181785,2,0,P|50:318|-3:263,1,115.50000352478,2|2,1:2|0:0,0:0:0:0:
154,353,182356,2,0,P|111:348|58:348,1,77.0000023498536,2|2,1:2|0:0,0:0:0:0:
17,350,182785,1,0,3:0:0:0:
181,372,182928,2,0,P|168:313|157:238,1,115.50000352478,8|0,1:3|0:0,0:0:0:0:
226,133,183499,2,0,P|234:175|242:224,1,77.0000023498536,2|2,1:2|0:0,0:0:0:0:
235,107,183928,1,0,3:0:0:0:
278,284,184071,2,0,P|250:237|206:180,1,115.50000352478,2|2,1:2|0:0,0:0:0:0:
334,315,184642,2,0,P|297:302|243:286,1,77.0000023498536,0|2,1:0|0:0,0:0:0:0:
194,269,185071,1,0,0:0:0:0:
361,297,185214,6,0,P|333:336|386:335,1,115.50000352478,8|0,1:3|0:0,0:0:0:0:
365,210,185785,2,0,P|346:176|314:136,1,77.0000023498536,2|2,1:2|0:0,0:0:0:0:
394,211,186214,1,2,3:2:0:0:
367,154,186356,1,2,1:2:0:0:
218,25,186642,1,2,0:0:0:0:
188,73,186785,1,2,0:0:0:0:
120,102,186928,1,0,1:0:0:0:
16,208,187214,1,2,0:0:0:0:
111,193,187356,1,0,3:0:0:0:
149,287,187499,2,0,P|142:250|129:194,2,77.0000023498536,2|2|2,1:2|0:0|1:2,0:0:0:0:
191,92,188356,2,0,P|201:147|208:188,1,77.0000023498536,2|2,0:0|1:2,0:0:0:0:
264,0,188928,2,0,P|274:57|284:107,1,77.0000023498536,2|0,0:0|1:0,0:0:0:0:
461,241,189499,5,2,0:0:0:0:
439,194,189642,1,0,0:0:0:0:
452,273,189785,6,0,P|428:215|403:154,1,115.50000352478,4|0,1:0|0:0,0:0:0:0:
383,300,190356,2,0,P|406:348|425:393,1,77.0000023498536,2|2,1:2|0:0,0:0:0:0:
360,275,190785,1,0,3:0:0:0:
446,368,190928,2,0,P|411:354|321:340,1,115.50000352478,2|2,1:2|0:0,0:0:0:0:
476,346,191499,2,0,P|447:332|392:318,1,77.0000023498536,2|2,1:2|0:0,0:0:0:0:
360,275,191928,1,0,3:0:0:0:
492,365,192071,2,0,P|490:321|498:236,1,115.50000352478,8|0,1:3|0:0,0:0:0:0:
475,113,192642,1,2,1:2:0:0:
349,251,192928,2,0,P|323:251|292:251,1,38.5000011749268,2|0,0:0|3:0,0:0:0:0:
170,273,193214,2,0,B|223:293|238:248|300:270,1,115.50000352478,2|2,1:2|0:0,0:0:0:0:
162,298,193785,2,0,P|145:253|117:212,1,77.0000023498536,0|2,1:0|0:0,0:0:0:0:
96,192,194214,1,0,0:0:0:0:
161,340,194356,6,0,P|200:321|167:350,1,115.50000352478,0|0,1:0|0:0,0:0:0:0:
341,358,194928,2,0,P|296:357|253:359,1,77.0000023498536,2|0,1:2|0:0,0:0:0:0:
368,373,195356,1,2,3:2:0:0:
229,368,195499,2,0,P|261:341|295:268,1,115.50000352478,2|2,1:2|0:0,0:0:0:0:
324,149,196071,2,0,P|351:188|377:216,1,77.0000023498536,0|2,1:0|0:0,0:0:0:0:
276,110,196642,5,2,1:2:0:0:
159,89,196928,1,2,0:0:0:0:
66,15,197214,1,2,1:2:0:0:
43,191,197499,5,2,0:0:0:0:
43,191,197642,1,0,3:0:0:0:
43,191,197785,1,2,1:2:0:0:
156,287,198071,1,2,0:0:0:0:
264,194,198356,6,0,P|302:212|341:244,1,77.0000023498536,0|2,1:0|0:0,0:0:0:0:
370,269,198785,1,0,0:0:0:0:
439,306,198928,6,0,P|423:240|452:188,1,112,4|0,0:0|0:0,0:0:0:0:
407,145,199785,1,2,0:0:0:0:
346,115,200071,2,0,P|295:97|249:38,1,112,2|0,0:0|3:0,0:0:0:0:
25,27,201214,5,2,0:0:0:0:
65,149,201785,6,0,P|86:112|97:67,1,84,2|0,0:0|0:0,0:0:0:0:
151,94,202356,2,0,P|137:140|111:186,1,84,2|0,0:0|0:0,0:0:0:0:
176,195,202928,2,0,P|195:161|208:106,1,84,2|0,0:0|0:0,0:0:0:0:
255,193,203499,5,6,3:2:0:0:
15,119,212071,5,2,0:0:0:0:
15,119,212642,6,0,P|37:61|62:47,1,84,2|0,0:0|0:0,0:0:0:0:
106,51,213214,2,0,P|138:62|166:66,1,56,0|2,3:0|0:0,0:0:0:0:
221,83,213642,1,0,3:0:0:0:
258,42,213785,2,0,B|307:27|323:65|371:46,1,112,2|2,0:0|0:2,0:0:0:0:
440,319,214928,6,0,P|443:276|477:247,1,84,2|0,0:2|0:0,0:0:0:0:
494,310,215499,2,0,P|485:357|459:384,1,84,0|0,3:0|3:0,0:0:0:0:
390,355,216071,2,0,B|335:340|336:376|276:356,1,112,2|2,0:0|0:2,0:0:0:0:
35,360,217214,6,0,P|38:314|41:267,1,84,2|0,0:2|0:0,0:0:0:0:
202,214,217785,2,0,P|144:226|118:231,1,84,2|0,3:2|3:0,0:0:0:0:
0,217,218356,2,0,P|51:202|78:194,1,84,0|0,0:3|0:0,0:0:0:0:
105,104,218928,1,2,0:2:0:0:
157,145,219214,1,0,0:0:0:0:
254,87,219499,2,0,P|296:80|329:74,1,56,2|2,0:2|0:0,0:0:0:0:
384,75,220071,2,0,P|332:82|323:83,2,56,2|2|0,3:2|0:0|0:0,0:0:0:0:
488,192,221214,1,4,0:3:0:0:
341,64,221785,5,4,3:2:0:0:
287,172,222356,2,0,P|282:131|277:92,1,62.9999980773926,0|2,1:0|0:0,0:0:0:0:
239,81,222785,1,0,3:0:0:0:
185,51,222928,2,0,P|191:97|194:122,1,62.9999980773926,4|0,1:3|0:0,0:0:0:0:
190,163,223356,1,0,0:0:0:0:
153,197,223499,2,0,L|165:270,1,62.9999980773926,4|0,0:3|0:0,0:0:0:0:
139,377,224071,6,0,P|183:342|244:292,1,125.999996154785,4|0,0:3|1:0,0:0:0:0:
336,250,224928,1,2,0:0:0:0:
324,296,225071,1,0,3:0:0:0:
359,209,225214,2,0,L|344:283,1,62.9999980773926,4|0,0:3|0:0,0:0:0:0:
353,140,225785,1,4,0:3:0:0:
445,97,226071,1,0,0:0:0:0:
255,98,226356,6,0,P|223:87|157:61,1,94.499997116089,4|0,0:3|0:0,0:0:0:0:
96,105,226928,2,0,P|134:124|158:135,1,62.9999980773926,2|2,1:2|0:0,0:0:0:0:
202,155,227356,1,0,3:0:0:0:
138,187,227499,2,0,P|104:172|68:154,1,62.9999980773926,4|0,0:3|0:0,0:0:0:0:
151,253,228071,1,4,3:0:0:0:
289,99,228642,2,0,P|249:76|299:40,1,125.999996154785,4|2,3:0|1:2,0:0:0:0:
352,86,229785,1,4,0:3:0:0:
343,221,230071,5,2,0:0:0:0:
319,153,230356,1,4,0:3:0:0:
352,86,230642,1,2,0:0:0:0:
125,46,230928,5,2,0:0:0:0:
223,105,231356,1,2,0:0:0:0:
352,85,231785,1,2,0:2:0:0:
86,13,232071,5,4,0:3:0:0:
224,104,232642,5,4,0:3:0:0:
313,47,232928,1,0,0:0:0:0:
377,138,233214,6,0,L|383:221,1,62.9999980773926,4|2,3:2|0:0,0:0:0:0:
329,170,233642,1,0,0:0:0:0:
285,148,233785,2,0,L|281:83,1,62.9999980773926,4|2,1:3|0:0,0:0:0:0:
232,84,234214,1,0,3:0:0:0:
181,73,234356,2,0,L|175:0,1,62.9999980773926,4|2,0:3|0:0,0:0:0:0:
129,59,234785,1,0,0:0:0:0:
125,7,234928,1,4,0:3:0:0:
67,210,235499,6,0,P|121:221|207:240,1,125.999996154785,4|4,0:3|1:3,0:0:0:0:
275,198,236356,1,2,0:0:0:0:
322,208,236499,1,0,3:0:0:0:
366,229,236642,2,0,L|289:211,2,62.9999980773926,4|2|4,0:3|0:0|0:3,0:0:0:0:
183,325,237785,6,0,P|139:328|83:333,1,94.499997116089,4|0,0:3|0:0,0:0:0:0:
10,284,238356,2,0,P|44:281|83:277,1,62.9999980773926,4|0,1:3|0:0,0:0:0:0:
148,234,238785,1,0,3:0:0:0:
195,171,238928,2,0,P|144:176|116:178,1,62.9999980773926,4|0,0:3|0:0,0:0:0:0:
201,80,239499,1,4,0:3:0:0:
286,159,239785,2,0,L|355:196,1,62.9999980773926,0|4,0:0|0:3,0:0:0:0:
429,236,240356,1,2,0:0:0:0:
429,236,240499,1,0,0:0:0:0:
429,236,240642,1,4,1:3:0:0:
478,133,240928,1,2,0:0:0:0:
478,133,241071,1,0,3:0:0:0:
478,133,241214,1,4,0:3:0:0:
374,143,241499,1,2,0:0:0:0:
256,74,241785,5,4,0:3:0:0:
236,129,242071,1,2,0:0:0:0:
192,236,242356,6,0,P|185:190|160:148,1,94.499997116089,6|0,0:0|0:0,0:0:0:0:
83,109,242928,2,0,P|91:140|118:176,1,62.9999980773926,4|2,1:3|0:0,0:0:0:0:
76,209,243356,1,0,3:0:0:0:
50,255,243499,2,0,L|50:333,2,62.9999980773926,4|2|4,0:3|0:0|0:3,0:0:0:0:
256,347,244642,6,0,P|205:347|149:348,1,94.499997116089,4|0,0:3|0:0,0:0:0:0:
259,293,245214,2,0,P|292:292|341:294,1,62.9999980773926,4|2,1:3|0:0,0:0:0:0:
382,304,245642,1,0,3:0:0:0:
446,360,245785,2,0,L|440:287,2,62.9999980773926,4|2|4,0:3|0:0|0:3,0:0:0:0:
478,266,246642,1,2,0:0:0:0:
404,161,246928,6,0,B|409:122|386:114|401:48,1,94.499997116089,4|0,0:3|0:0,0:0:0:0:
336,168,247499,2,0,P|346:194|365:238,1,62.9999980773926,4|2,1:3|0:0,0:0:0:0:
290,178,247928,1,0,3:0:0:0:
239,169,248071,2,0,P|228:141|213:101,2,62.9999980773926,4|2|4,0:3|0:0|0:3,0:0:0:0:
96,73,249214,2,0,P|55:93|56:30,1,125.999996154785,4|4,0:3|1:3,0:0:0:0:
146,35,250071,1,2,0:0:0:0:
199,44,250214,1,0,3:0:0:0:
261,69,250356,2,0,L|181:56,1,62.9999980773926,4|2,0:3|0:0,0:0:0:0:
292,108,250928,5,4,0:3:0:0:
331,173,251214,1,2,0:0:0:0:
306,288,251499,5,2,0:0:0:0:
331,173,251928,1,2,0:0:0:0:
448,204,252356,1,2,0:0:0:0:
382,85,252642,5,4,0:3:0:0:
495,5,253214,1,4,0:3:0:0:
383,86,253785,6,0,P|355:109|312:149,2,70,4|2|4,0:0|0:0|0:3,0:0:0:0:
262,120,254642,1,2,0:0:0:0:
269,157,254785,1,0,3:0:0:0:
250,217,254928,2,0,P|240:176|231:133,1,70,4|2,0:3|0:0,0:0:0:0:
211,248,255357,1,0,0:0:0:0:
204,345,255499,2,0,P|199:308|192:258,1,70,4|2,0:3|0:0,0:0:0:0:
76,235,256071,6,0,P|102:218|143:186,2,70,4|2|4,0:3|0:0|0:3,0:0:0:0:
127,136,256928,1,2,0:0:0:0:
145,116,257071,1,0,3:0:0:0:
190,187,257214,1,4,0:3:0:0:
308,175,257499,1,2,0:0:0:0:
318,203,257642,1,0,0:0:0:0:
437,163,257785,1,4,0:3:0:0:
450,54,258071,1,0,0:0:0:0:
379,199,258357,6,0,P|408:217|438:237,2,70,4|2|4,0:3|0:0|0:3,0:0:0:0:
400,281,259214,1,2,0:0:0:0:
436,299,259357,1,0,3:0:0:0:
494,313,259499,2,0,P|463:296|415:271,1,70,4|2,0:3|0:0,0:0:0:0:
382,325,259928,1,0,0:0:0:0:
324,289,260071,1,4,0:3:0:0:
146,360,260642,6,0,P|151:315|150:272,2,70,4|2|4,0:3|0:0|0:3,0:0:0:0:
195,260,261499,1,0,0:0:0:0:
177,230,261642,1,0,3:0:0:0:
129,196,261785,2,0,P|175:197|257:195,1,105,4|0,0:3|0:0,0:0:0:0:
346,239,262357,1,4,0:3:0:0:
505,160,262642,1,0,0:0:0:0:
421,78,262928,6,0,P|409:113|385:153,2,70,4|2|4,0:3|0:0|0:3,0:0:0:0:
321,162,263785,1,2,0:0:0:0:
351,294,264071,2,0,P|364:257|375:200,1,70,4|2,0:3|0:0,0:0:0:0:
372,312,264499,1,0,0:0:0:0:
390,384,264642,2,0,P|396:351|407:309,1,70,4|2,0:3|0:0,0:0:0:0:
197,299,265214,6,0,P|235:301|293:293,2,70,4|2|4,0:3|0:0|0:3,0:0:0:0:
68,213,266071,1,2,0:0:0:0:
85,187,266214,1,0,3:0:0:0:
168,167,266357,1,4,0:3:0:0:
244,104,266642,1,2,0:0:0:0:
349,124,266928,1,4,0:3:0:0:
437,49,267214,1,0,0:0:0:0:
459,207,267499,6,0,P|446:179|427:132,2,70,4|2|4,0:3|0:0|0:3,0:0:0:0:
393,238,268357,1,2,0:0:0:0:
366,196,268499,1,0,3:0:0:0:
312,131,268642,2,0,P|325:167|348:220,2,70,4|2|4,0:3|0:0|0:3,0:0:0:0:
263,348,269785,6,0,P|250:303|237:264,2,70,4|2|4,0:3|0:0|3:3,0:0:0:0:
115,244,270642,1,2,0:0:0:0:
111,278,270785,1,0,3:0:0:0:
143,330,270928,1,4,0:3:0:0:
26,335,271214,5,2,0:0:0:0:
115,244,271499,1,4,0:3:0:0:
245,284,271785,1,0,0:0:0:0:
368,229,272071,6,0,P|328:222|290:228,1,77.0000023498536,4|2,0:0|0:0,0:0:0:0:
385,249,272499,1,0,0:0:0:0:
423,213,272642,2,0,P|460:220|501:218,1,77.0000023498536,2|0,1:2|0:0,0:0:0:0:
391,106,273214,2,0,P|354:109|306:102,1,77.0000023498536,4|2,0:3|0:0,0:0:0:0:
429,87,273642,1,0,0:0:0:0:
290,94,273785,2,0,P|248:100|200:89,1,77.0000023498536,2|2,1:2|0:0,0:0:0:0:
66,203,274357,6,0,P|66:158|60:116,2,77.0000023498536,4|2|2,0:3|0:0|1:2,0:0:0:0:
171,321,275214,1,2,0:0:0:0:
171,261,275357,1,0,3:0:0:0:
139,210,275499,2,0,P|148:250|149:302,1,77.0000023498536,4|2,0:3|0:0,0:0:0:0:
224,155,276071,1,4,1:3:0:0:
113,56,276357,1,0,0:0:0:0:
345,60,276642,6,0,P|305:66|247:59,1,77.0000023498536,4|2,0:3|0:0,0:0:0:0:
377,43,277071,1,0,0:0:0:0:
264,98,277214,2,0,P|298:116|326:149,1,77.0000023498536,2|2,1:2|0:0,0:0:0:0:
410,304,277785,2,0,P|401:255|406:213,1,77.0000023498536,4|2,0:3|0:0,0:0:0:0:
386,317,278214,1,0,0:0:0:0:
293,363,278356,2,0,P|327:347|367:300,1,77.0000023498536,2|2,1:2|0:0,0:0:0:0:
120,319,278928,6,0,P|161:317|211:323,2,77.0000023498536,4|2|0,0:3|0:0|1:3,0:0:0:0:
257,258,279785,1,2,0:0:0:0:
251,225,279928,1,0,3:0:0:0:
197,321,280071,1,4,0:3:0:0:
251,225,280357,1,2,0:0:0:0:
366,179,280642,1,4,1:3:0:0:
380,55,280928,1,0,0:0:0:0:
258,23,281214,6,0,P|290:27|346:21,1,77.0000023498536,4|2,0:0|0:0,0:0:0:0:
239,47,281642,1,0,0:0:0:0:
136,63,281785,2,0,P|174:66|222:63,1,77.0000023498536,2|2,1:2|0:0,0:0:0:0:
105,74,282214,1,0,3:0:0:0:
84,203,282357,2,0,P|86:170|80:114,1,77.0000023498536,4|2,0:3|0:0,0:0:0:0:
112,213,282785,1,0,0:0:0:0:
146,294,282928,2,0,P|139:251|143:216,1,77.0000023498536,2|2,1:2|0:0,0:0:0:0:
241,73,283499,6,0,P|246:106|238:149,2,77.0000023498536,4|2|2,0:3|0:0|1:2,0:0:0:0:
196,178,284357,1,2,0:0:0:0:
208,202,284499,1,0,3:0:0:0:
281,257,284642,1,4,0:3:0:0:
369,221,284928,1,2,0:0:0:0:
415,330,285214,1,4,1:3:0:0:
512,242,285499,1,0,0:0:0:0:
415,330,285785,6,0,P|377:333|326:327,1,77.0000023498536,4|2,0:3|0:0,0:0:0:0:
438,347,286214,1,0,0:0:0:0:
281,357,286357,2,0,P|319:354|377:360,1,77.0000023498536,2|2,1:2|0:0,0:0:0:0:
255,336,286785,1,0,3:0:0:0:
130,357,286928,2,0,P|171:354|223:357,1,77.0000023498536,4|2,0:3|0:0,0:0:0:0:
152,209,287499,2,0,P|117:212|66:209,1,77.0000023498536,2|2,1:2|0:0,0:0:0:0:
53,325,288071,5,4,0:3:0:0:
28,185,288357,1,2,0:0:0:0:
81,162,288499,1,0,0:0:0:0:
91,92,288642,1,4,1:3:0:0:
225,106,288928,1,2,0:0:0:0:
282,126,289071,1,0,3:0:0:0:
361,106,289214,1,4,0:3:0:0:
443,260,289499,5,2,0:0:0:0:
339,190,289785,1,4,1:3:0:0:
356,47,290071,1,2,0:0:0:0:
442,258,290357,6,0,P|386:218|362:284,1,154.000004699707,6|4,0:2|1:3,0:0:0:0:
351,131,291214,1,2,0:0:0:0:
405,107,291357,1,0,3:0:0:0:
311,90,291499,2,0,P|250:101|198:83,1,115.50000352478,4|0,0:3|0:0,0:0:0:0:
110,243,292071,6,0,P|72:242|111:250,1,115.50000352478,4|0,1:3|0:0,0:0:0:0:
261,240,292642,6,0,B|183:224|185:264|103:241,1,154.000004699707,4|4,3:0|1:3,0:0:0:0:
314,236,293499,1,2,0:0:0:0:
290,178,293642,1,0,3:0:0:0:
370,135,293785,2,0,P|353:188|404:218,1,115.50000352478,4|0,0:3|0:0,0:0:0:0:
325,65,294356,6,0,P|278:92|305:44,1,115.50000352478,4|0,1:3|0:0,0:0:0:0:
87,67,294928,6,0,B|98:5|27:-34|-28:23|-31:90|48:140|48:140|139:89|205:141|205:141|204:118|190:97,1,462.000014099122,12|4,1:3|0:3,0:0:0:0:
313,278,297214,6,0,P|353:324|294:328,1,115.50000352478,4|0,0:3|0:0,0:0:0:0:
288,199,297785,2,0,P|315:186|402:227,1,115.50000352478,4|2,1:3|3:2,0:0:0:0:
219,309,298356,2,0,B|163:297|142:332|95:305,1,115.50000352478,4|0,0:3|0:0,0:0:0:0:
17,234,298928,5,12,1:3:0:0:
155,66,299214,1,2,3:2:0:0:
280,200,299499,6,0,L|272:93,1,94.499997116089,4|0,1:0|0:0,0:0:0:0:
330,126,300071,1,2,3:2:0:0:
432,182,300356,1,2,0:0:0:0:
444,202,300499,1,0,0:0:0:0:
454,220,300642,2,0,P|398:245|394:280,1,94.499997116089,2|2,3:2|0:0,0:0:0:0:
353,319,301214,2,0,P|319:328|300:362,1,62.9999980773926,4|2,3:3|0:0,0:0:0:0:
252,373,301642,1,0,3:0:0:0:
177,358,301785,2,0,P|118:354|69:359,1,94.499997116089,8|0,1:3|0:0,0:0:0:0:
20,366,302356,1,2,3:2:0:0:
2,252,302642,1,2,0:0:0:0:
12,230,302785,1,0,0:0:0:0:
30,214,302928,2,0,P|75:202|134:215,1,94.499997116089,2|0,3:2|0:0,0:0:0:0:
200,222,303499,2,0,P|186:253|194:298,1,62.9999980773926,4|2,3:0|0:0,0:0:0:0:
249,185,304071,6,0,B|257:145|239:121|252:78,1,94.499997116089,8|0,1:3|0:0,0:0:0:0:
311,61,304642,2,0,P|318:95|319:137,2,62.9999980773926,2|2|2,3:2|0:0|3:2,0:0:0:0:
209,12,305499,1,2,0:0:0:0:
182,10,305642,1,2,0:0:0:0:
159,14,305785,2,0,P|128:20|96:46,1,62.9999980773926,4|2,3:0|0:0,0:0:0:0:
43,56,306356,2,0,P|34:94|56:88,2,62.9999980773926,6|2|6,3:3|0:0|3:3,0:0:0:0:
91,145,307214,2,0,L|100:222,1,62.9999980773926,2|2,0:0|3:2,0:0:0:0:
173,292,307785,2,0,L|183:369,1,62.9999980773926,2|0,0:0|3:0,0:0:0:0:
383,358,308642,6,0,P|420:345|424:289,1,94.499997116089,4|0,1:0|0:0,0:0:0:0:
384,267,309214,1,2,3:2:0:0:
272,244,309499,1,2,0:0:0:0:
259,229,309642,1,0,3:0:0:0:
252,206,309785,2,0,B|262:161|227:160|244:93,1,94.499997116089,2|2,3:2|0:0,0:0:0:0:
203,67,310356,2,0,P|167:79|134:75,1,62.9999980773926,4|2,3:3|0:0,0:0:0:0:
96,59,310785,1,0,3:0:0:0:
4,125,310928,2,0,P|-4:179|14:219,1,94.499997116089,8|0,1:3|0:0,0:0:0:0:
68,241,311499,1,2,3:2:0:0:
173,195,311785,1,2,0:0:0:0:
193,190,311928,1,0,3:0:0:0:
217,192,312071,2,0,B|267:204|267:168|328:190,1,94.499997116089,2|2,3:2|0:0,0:0:0:0:
354,219,312642,2,0,P|326:198|327:122,1,94.499997116089,4|0,3:0|0:0,0:0:0:0:
369,41,313214,6,0,P|399:72|400:138,1,94.499997116089,4|0,3:0|0:0,0:0:0:0:
316,141,313785,1,2,3:2:0:0:
419,209,314071,1,0,0:0:0:0:
440,226,314214,1,2,3:2:0:0:
459,245,314356,2,0,P|422:280|414:335,1,94.499997116089,4|2,3:3|0:0,0:0:0:0:
336,346,314928,2,0,P|299:344|256:356,1,62.9999980773926,0|2,3:0|0:0,0:0:0:0:
179,317,315499,5,2,1:2:0:0:
143,231,315785,1,2,0:0:0:0:
79,174,316071,1,2,3:2:0:0:
265,27,316356,5,2,0:0:0:0:
197,128,316642,1,4,0:3:0:0:
79,174,316928,1,2,0:0:0:0:
93,352,317214,6,2,P|117:336|83:344,1,94.499997116089,12|0,1:3|0:0,0:0:0:0:
273,267,317785,6,0,P|213:277|136:270,1,125.999996154785,4|0,1:0|0:0,0:0:0:0:
291,239,318356,2,0,P|323:272|348:313,1,83.9999974365235,2|2,1:2|0:0,0:0:0:0:
337,251,318785,1,0,3:0:0:0:
263,122,318928,2,0,P|307:155|355:222,1,125.999996154785,2|2,1:2|0:0,0:0:0:0:
324,65,319499,2,0,P|277:49|229:16,1,83.9999974365235,2|2,1:2|0:0,0:0:0:0:
168,11,319928,1,0,3:0:0:0:
27,73,320071,2,0,P|103:74|160:57,1,125.999996154785,8|0,1:3|0:0,0:0:0:0:
2,119,320642,2,0,P|9:77|4:33,1,83.9999974365235,2|2,1:2|0:0,0:0:0:0:
42,77,321071,1,0,3:0:0:0:
62,228,321214,2,0,P|55:168|61:99,1,125.999996154785,2|2,1:2|0:0,0:0:0:0:
126,236,321785,2,0,P|132:277|131:319,1,83.9999974365235,0|2,1:0|0:0,0:0:0:0:
180,215,322214,1,0,0:0:0:0:
138,106,322356,6,0,P|203:123|255:125,1,83.9999974365235,8|2,1:3|0:0,0:0:0:0:
296,138,322785,1,0,0:0:0:0:
364,110,322928,1,2,1:2:0:0:
504,74,323214,2,0,P|453:105|426:119,1,83.9999974365235,2|2,0:0|1:2,0:0:0:0:
296,138,323785,1,2,0:0:0:0:
207,168,323928,1,2,0:0:0:0:
125,112,324071,1,0,1:0:0:0:
0,32,324356,1,2,0:0:0:0:
223,22,324642,1,2,1:2:0:0:
71,176,324928,2,0,P|102:143|145:79,1,83.9999974365235,2|2,0:0|1:2,0:0:0:0:
49,268,325499,2,0,P|82:240|122:195,1,83.9999974365235,2|2,0:0|1:2,0:0:0:0:
9,384,326071,2,0,P|55:357|104:315,1,83.9999974365235,2|0,0:0|1:0,0:0:0:0:
301,193,326642,5,2,0:0:0:0:
271,241,326785,1,0,0:0:0:0:
374,100,326928,6,0,P|380:166|362:240,1,125.999996154785,4|0,1:0|0:0,0:0:0:0:
411,90,327499,2,0,P|377:52|331:26,1,83.9999974365235,2|2,1:2|0:0,0:0:0:0:
459,95,327928,1,0,3:0:0:0:
502,249,328071,2,0,P|483:189|483:118,1,125.999996154785,2|2,1:2|0:0,0:0:0:0:
430,251,328642,2,0,P|435:291|429:339,1,83.9999974365235,2|2,1:2|0:0,0:0:0:0:
387,219,329071,1,0,3:0:0:0:
216,216,329214,2,0,P|270:201|232:168,1,125.999996154785,8|0,1:3|0:0,0:0:0:0:
176,248,329785,1,2,1:2:0:0:
346,136,330071,2,0,P|310:137|288:135,1,41.9999987182618,2|0,0:0|3:0,0:0:0:0:
139,108,330356,2,0,B|210:86|191:127|268:104,1,125.999996154785,2|2,1:2|0:0,0:0:0:0:
90,85,330928,2,0,P|83:114|90:143,1,41.9999987182618,0|0,1:0|0:0,0:0:0:0:
53,232,331214,2,0,L|49:168,1,41.9999987182618,2|0,0:0|0:0,0:0:0:0:
145,317,331499,6,0,P|211:323|284:353,1,125.999996154785,0|0,1:0|0:0,0:0:0:0:
417,345,332071,2,0,P|375:337|330:319,1,83.9999974365235,2|0,1:2|0:0,0:0:0:0:
470,328,332499,1,2,3:2:0:0:
299,249,332642,2,0,P|252:285|266:344,1,125.999996154785,2|2,1:2|0:0,0:0:0:0:
206,222,333214,2,0,L|196:176,1,41.9999987182618,0|0,1:0|0:0,0:0:0:0:
340,248,333499,2,0,P|298:248|273:237,1,41.9999987182618,2|0,0:0|3:0,0:0:0:0:
406,205,333785,5,2,1:2:0:0:
494,291,334071,1,2,0:0:0:0:
404,376,334356,1,2,1:2:0:0:
344,252,334642,5,2,0:0:0:0:
344,252,334785,1,0,3:0:0:0:
344,252,334928,1,2,1:2:0:0:
217,204,335214,1,2,0:0:0:0:
188,72,335499,1,2,1:2:0:0:
217,204,335785,1,2,0:0:0:0:
228,229,335928,1,0,0:0:0:0:
266,322,336071,6,0,P|226:285|182:321,1,112,4|0,0:0|0:0,0:0:0:0:
131,353,336928,1,2,0:0:0:0:
80,316,337214,2,0,P|61:292|116:243,1,112,2|0,0:0|0:0,0:0:0:0:
264,323,338356,5,2,0:0:0:0:
390,193,338928,6,0,P|391:240|364:271,1,84,2|0,0:0|0:0,0:0:0:0:
294,252,339499,2,0,P|328:275|369:267,1,84,2|0,0:0|0:0,0:0:0:0:
294,252,340071,2,0,P|268:241|215:263,1,84,2|0,0:0|0:0,0:0:0:0:
369,267,340642,5,2,3:2:0:0:
