osu file format v14

[General]
AudioFilename: Restless Confination.mp3
AudioLeadIn: 0
PreviewTime: 214416
Countdown: 0
SampleSet: None
StackLeniency: 0.7
Mode: 3
LetterboxInBreaks: 0
SpecialStyle: 0
WidescreenStoryboard: 0

[Editor]
DistanceSpacing: 1
BeatDivisor: 4
GridSize: 8
TimelineZoom: 3.799998

[Metadata]
Title:Problematic Mapping // EVENT_#1
TitleUnicode:Problematic Mapping // EVENT_#1
Artist:RD-Sounds - Prison Sign "Restless Confination"
ArtistUnicode:RD-Sounds - Prison Sign "Restless Confination"
Creator:Dreamwalker
Version:Overcharge // First Step, The Hardest Step
Source:
Tags:
BeatmapID:2160069
BeatmapSetID:1033111

[Difficulty]
HPDrainRate:8
CircleSize:4
OverallDifficulty:8
ApproachRate:5
SliderMultiplier:1.4
SliderTickRate:1

[Events]
//Background and Video events
0,0,"Restless Confination.jpg",0,0
//Break Periods
//Storyboard Layer 0 (Background)
//Storyboard Layer 1 (Fail)
//Storyboard Layer 2 (Pass)
//Storyboard Layer 3 (Foreground)
//Storyboard Layer 4 (Overlay)
//Storyboard Sound Samples

[TimingPoints]
1004,324.324324324324,4,2,0,25,1,0
7490,358.637178720861,4,2,0,25,1,0
7490,-90.9090909090909,4,2,0,25,0,0
44788,338.983050847458,4,2,0,25,1,0
44888,-95.2380952380952,4,2,0,25,0,0
48855,320.855614973262,4,2,0,25,1,0

[HitObjects]
64,192,1004,128,0,1652:0:0:0:0:
448,192,1004,128,0,1652:0:0:0:0:
192,192,1652,1,0,0:0:0:0:
320,192,1733,1,0,0:0:0:0:
192,192,1814,1,0,0:0:0:0:
320,192,1895,1,0,0:0:0:0:
64,192,1976,1,0,0:0:0:0:
192,192,2058,1,0,0:0:0:0:
320,192,2139,1,0,0:0:0:0:
192,192,2220,1,0,0:0:0:0:
64,192,2301,1,0,0:0:0:0:
192,192,2382,1,0,0:0:0:0:
320,192,2463,1,0,0:0:0:0:
192,192,2544,1,0,0:0:0:0:
448,192,2625,1,0,0:0:0:0:
320,192,2706,1,0,0:0:0:0:
192,192,2787,1,0,0:0:0:0:
320,192,2868,1,0,0:0:0:0:
448,192,2949,1,0,0:0:0:0:
320,192,3031,1,0,0:0:0:0:
192,192,3112,1,0,0:0:0:0:
320,192,3193,1,0,0:0:0:0:
64,192,3274,1,0,0:0:0:0:
192,192,3355,1,0,0:0:0:0:
320,192,3436,1,0,0:0:0:0:
192,192,3517,1,0,0:0:0:0:
64,192,3598,1,0,0:0:0:0:
192,192,3679,1,0,0:0:0:0:
320,192,3760,1,0,0:0:0:0:
192,192,3841,1,0,0:0:0:0:
448,192,3922,1,0,0:0:0:0:
320,192,4003,1,0,0:0:0:0:
192,192,4085,1,0,0:0:0:0:
320,192,4166,1,0,0:0:0:0:
448,192,4247,1,0,0:0:0:0:
320,192,4328,1,0,0:0:0:0:
192,192,4409,1,0,0:0:0:0:
320,192,4490,1,0,0:0:0:0:
64,192,4571,1,0,0:0:0:0:
192,192,4652,1,0,0:0:0:0:
320,192,4733,1,0,0:0:0:0:
192,192,4814,1,0,0:0:0:0:
64,192,4895,1,0,0:0:0:0:
192,192,4976,1,0,0:0:0:0:
320,192,5058,1,0,0:0:0:0:
192,192,5139,1,0,0:0:0:0:
64,192,5220,1,0,0:0:0:0:
192,192,5301,1,0,0:0:0:0:
320,192,5382,1,0,0:0:0:0:
448,192,5463,1,0,0:0:0:0:
192,192,5544,1,0,0:0:0:0:
320,192,5625,1,0,0:0:0:0:
192,192,5706,1,0,0:0:0:0:
320,192,5787,1,0,0:0:0:0:
448,192,5868,1,0,0:0:0:0:
320,192,5949,1,0,0:0:0:0:
448,192,6031,1,0,0:0:0:0:
320,192,6112,1,0,0:0:0:0:
448,192,6193,1,0,0:0:0:0:
320,192,6274,1,0,0:0:0:0:
192,192,6355,1,0,0:0:0:0:
64,192,6436,1,0,0:0:0:0:
320,192,6517,1,0,0:0:0:0:
192,192,6598,1,0,0:0:0:0:
320,192,6679,1,0,0:0:0:0:
192,192,6760,1,0,0:0:0:0:
64,192,6841,1,0,0:0:0:0:
448,192,6922,1,0,0:0:0:0:
320,192,7003,1,0,0:0:0:0:
192,192,7085,1,0,0:0:0:0:
64,192,7166,1,0,0:0:0:0:
320,192,7247,1,0,0:0:0:0:
192,192,7328,1,0,0:0:0:0:
64,192,7409,1,0,0:0:0:0:
192,192,7490,1,0,0:0:0:0:
448,192,7490,1,0,0:0:0:0:
320,192,7490,1,0,0:0:0:0:
448,192,8207,1,0,0:0:0:0:
320,192,8207,1,0,0:0:0:0:
64,192,8207,1,0,0:0:0:0:
64,192,8924,1,0,0:0:0:0:
192,192,8924,1,0,0:0:0:0:
320,192,8924,1,0,0:0:0:0:
448,192,9014,1,0,0:0:0:0:
320,192,9103,1,0,0:0:0:0:
448,192,9193,1,0,0:0:0:0:
320,192,9283,1,0,0:0:0:0:
192,192,9462,1,0,0:0:0:0:
448,192,9641,1,0,0:0:0:0:
64,192,9641,1,0,0:0:0:0:
320,192,9641,1,0,0:0:0:0:
320,192,10269,1,0,0:0:0:0:
64,192,10359,1,0,0:0:0:0:
192,192,10359,1,0,0:0:0:0:
448,192,10359,1,0,0:0:0:0:
320,192,10448,1,0,0:0:0:0:
192,192,10538,1,0,0:0:0:0:
320,192,10628,1,0,0:0:0:0:
192,192,10717,1,0,0:0:0:0:
320,192,10807,1,0,0:0:0:0:
64,192,10897,1,0,0:0:0:0:
192,192,10986,1,0,0:0:0:0:
448,192,11076,1,0,0:0:0:0:
320,192,11076,1,0,0:0:0:0:
64,192,11076,1,0,0:0:0:0:
192,192,11614,1,0,0:0:0:0:
320,192,11703,1,0,0:0:0:0:
448,192,11793,1,0,0:0:0:0:
192,192,11793,1,0,0:0:0:0:
64,192,11793,1,0,0:0:0:0:
320,192,11883,1,0,0:0:0:0:
192,192,11972,1,0,0:0:0:0:
320,192,12062,1,0,0:0:0:0:
192,192,12152,1,0,0:0:0:0:
64,192,12241,1,0,0:0:0:0:
448,192,12331,1,0,0:0:0:0:
320,192,12421,1,0,0:0:0:0:
448,192,12510,1,0,0:0:0:0:
64,192,12510,1,0,0:0:0:0:
192,192,12510,1,0,0:0:0:0:
320,192,12600,1,0,0:0:0:0:
192,192,12690,1,0,0:0:0:0:
64,192,12779,1,0,0:0:0:0:
320,192,12869,1,0,0:0:0:0:
192,192,12959,1,0,0:0:0:0:
448,192,13048,1,0,0:0:0:0:
320,192,13138,1,0,0:0:0:0:
192,192,13228,1,0,0:0:0:0:
64,192,13228,1,0,0:0:0:0:
448,192,13228,1,0,0:0:0:0:
320,192,13407,1,0,0:0:0:0:
192,192,13586,1,0,0:0:0:0:
64,192,13586,1,0,0:0:0:0:
320,192,13766,1,0,0:0:0:0:
64,192,13945,1,0,0:0:0:0:
192,192,13945,1,0,0:0:0:0:
448,192,13945,1,0,0:0:0:0:
320,192,14124,1,0,0:0:0:0:
192,192,14304,1,0,0:0:0:0:
448,192,14304,1,0,0:0:0:0:
320,192,14483,1,0,0:0:0:0:
448,192,14662,1,0,0:0:0:0:
64,192,14662,1,0,0:0:0:0:
320,192,14662,1,0,0:0:0:0:
192,192,14842,1,0,0:0:0:0:
320,192,15021,1,0,0:0:0:0:
448,192,15021,1,0,0:0:0:0:
192,192,15200,1,0,0:0:0:0:
320,192,15380,1,0,0:0:0:0:
448,192,15380,1,0,0:0:0:0:
64,192,15380,1,0,0:0:0:0:
192,192,15559,1,0,0:0:0:0:
64,192,15738,1,0,0:0:0:0:
320,192,15738,1,0,0:0:0:0:
448,192,15917,1,0,0:0:0:0:
64,192,16097,1,0,0:0:0:0:
192,192,16097,1,0,0:0:0:0:
320,192,16097,1,0,0:0:0:0:
448,192,16276,1,0,0:0:0:0:
320,192,16276,1,0,0:0:0:0:
192,192,16276,1,0,0:0:0:0:
64,192,16455,1,0,0:0:0:0:
192,192,16455,1,0,0:0:0:0:
320,192,16455,1,0,0:0:0:0:
448,192,16635,1,0,0:0:0:0:
320,192,16635,1,0,0:0:0:0:
192,192,16635,1,0,0:0:0:0:
64,192,16814,1,0,0:0:0:0:
192,192,16814,1,0,0:0:0:0:
448,192,16814,1,0,0:0:0:0:
448,192,16993,1,0,0:0:0:0:
320,192,16993,1,0,0:0:0:0:
192,192,16993,1,0,0:0:0:0:
64,192,17173,1,0,0:0:0:0:
192,192,17173,1,0,0:0:0:0:
448,192,17173,1,0,0:0:0:0:
448,192,17352,1,0,0:0:0:0:
320,192,17352,1,0,0:0:0:0:
192,192,17352,1,0,0:0:0:0:
448,192,17531,1,0,0:0:0:0:
320,192,17531,1,0,0:0:0:0:
192,192,17531,1,0,0:0:0:0:
64,192,17531,1,0,0:0:0:0:
192,192,17890,1,0,0:0:0:0:
64,192,17980,1,0,0:0:0:0:
320,192,18069,1,0,0:0:0:0:
192,192,18159,1,0,0:0:0:0:
320,192,18249,1,0,0:0:0:0:
192,192,18338,1,0,0:0:0:0:
64,192,18428,1,0,0:0:0:0:
192,192,18518,1,0,0:0:0:0:
320,192,18607,1,0,0:0:0:0:
64,192,18697,1,0,0:0:0:0:
192,192,18787,1,0,0:0:0:0:
320,192,18876,1,0,0:0:0:0:
448,192,18966,1,0,0:0:0:0:
64,192,18966,1,0,0:0:0:0:
320,192,19145,1,0,0:0:0:0:
192,192,19145,1,0,0:0:0:0:
448,192,19325,1,0,0:0:0:0:
64,192,19504,1,0,0:0:0:0:
192,192,19683,1,0,0:0:0:0:
448,192,19683,1,0,0:0:0:0:
320,192,19862,1,0,0:0:0:0:
448,192,20042,1,0,0:0:0:0:
64,192,20042,1,0,0:0:0:0:
192,192,20221,1,0,0:0:0:0:
64,192,20400,1,0,0:0:0:0:
320,192,20400,1,0,0:0:0:0:
448,192,20580,1,0,0:0:0:0:
192,192,20759,1,0,0:0:0:0:
64,192,20938,1,0,0:0:0:0:
192,192,21118,1,0,0:0:0:0:
448,192,21118,1,0,0:0:0:0:
320,192,21297,1,0,0:0:0:0:
448,192,21476,1,0,0:0:0:0:
192,192,21476,1,0,0:0:0:0:
320,192,21656,1,0,0:0:0:0:
192,192,21656,1,0,0:0:0:0:
448,192,21835,1,0,0:0:0:0:
64,192,21835,1,0,0:0:0:0:
320,192,22014,1,0,0:0:0:0:
192,192,22194,1,0,0:0:0:0:
448,192,22373,1,0,0:0:0:0:
320,192,22373,1,0,0:0:0:0:
192,192,22552,1,0,0:0:0:0:
64,192,22732,1,0,0:0:0:0:
192,192,22911,1,0,0:0:0:0:
320,192,22911,1,0,0:0:0:0:
448,192,23090,1,0,0:0:0:0:
64,192,23270,1,0,0:0:0:0:
320,192,23270,1,0,0:0:0:0:
64,192,23987,1,0,0:0:0:0:
192,192,24166,1,0,0:0:0:0:
320,192,24166,1,0,0:0:0:0:
320,192,24345,1,0,0:0:0:0:
64,192,24345,1,0,0:0:0:0:
448,192,24525,1,0,0:0:0:0:
320,192,24525,1,0,0:0:0:0:
448,192,24704,1,0,0:0:0:0:
64,192,24704,1,0,0:0:0:0:
192,192,24794,1,0,0:0:0:0:
64,192,24883,1,0,0:0:0:0:
320,192,24883,1,0,0:0:0:0:
192,192,24973,1,0,0:0:0:0:
64,192,25063,1,0,0:0:0:0:
448,192,25063,1,0,0:0:0:0:
192,192,25152,1,0,0:0:0:0:
64,192,25242,1,0,0:0:0:0:
320,192,25242,1,0,0:0:0:0:
192,192,25332,1,0,0:0:0:0:
64,192,25421,1,0,0:0:0:0:
448,192,25421,1,0,0:0:0:0:
192,192,25511,1,0,0:0:0:0:
320,192,25601,1,0,0:0:0:0:
448,192,25690,1,0,0:0:0:0:
320,192,25780,1,0,0:0:0:0:
64,192,25780,1,0,0:0:0:0:
448,192,25870,1,0,0:0:0:0:
320,192,25959,1,0,0:0:0:0:
192,192,26049,1,0,0:0:0:0:
64,192,26139,1,0,0:0:0:0:
320,192,26139,1,0,0:0:0:0:
448,192,26228,1,0,0:0:0:0:
320,192,26318,1,0,0:0:0:0:
192,192,26408,1,0,0:0:0:0:
320,192,26497,1,0,0:0:0:0:
192,192,26587,1,0,0:0:0:0:
320,192,26677,1,0,0:0:0:0:
192,192,26766,1,0,0:0:0:0:
64,192,26856,1,0,0:0:0:0:
192,192,26946,1,0,0:0:0:0:
320,192,27035,1,0,0:0:0:0:
448,192,27125,1,0,0:0:0:0:
320,192,27215,1,0,0:0:0:0:
64,192,27215,1,0,0:0:0:0:
448,192,27394,1,0,0:0:0:0:
320,192,27394,1,0,0:0:0:0:
448,192,27573,1,0,0:0:0:0:
192,192,27573,1,0,0:0:0:0:
320,192,27753,1,0,0:0:0:0:
192,192,27753,1,0,0:0:0:0:
64,192,27932,1,0,0:0:0:0:
320,192,27932,1,0,0:0:0:0:
320,192,28290,1,0,0:0:0:0:
192,192,28290,1,0,0:0:0:0:
192,192,28470,1,0,0:0:0:0:
448,192,28470,1,0,0:0:0:0:
64,192,28649,1,0,0:0:0:0:
192,192,28649,1,0,0:0:0:0:
192,192,29008,1,0,0:0:0:0:
448,192,29008,1,0,0:0:0:0:
320,192,29366,1,0,0:0:0:0:
192,192,30084,1,0,0:0:0:0:
448,192,30442,1,0,0:0:0:0:
192,192,30442,1,0,0:0:0:0:
320,192,30442,1,0,0:0:0:0:
64,192,30622,1,0,0:0:0:0:
192,192,30622,1,0,0:0:0:0:
448,192,30801,1,0,0:0:0:0:
320,192,30801,1,0,0:0:0:0:
64,192,30980,1,0,0:0:0:0:
320,192,30980,1,0,0:0:0:0:
192,192,31160,1,0,0:0:0:0:
320,192,31160,1,0,0:0:0:0:
448,192,31518,1,0,0:0:0:0:
64,192,31518,1,0,0:0:0:0:
320,192,31518,1,0,0:0:0:0:
448,192,31877,1,0,0:0:0:0:
192,192,31877,1,0,0:0:0:0:
64,192,31877,1,0,0:0:0:0:
320,192,32235,1,0,0:0:0:0:
192,192,32415,1,0,0:0:0:0:
64,192,32594,1,0,0:0:0:0:
192,192,32594,1,0,0:0:0:0:
320,192,32594,1,0,0:0:0:0:
448,192,32773,1,0,0:0:0:0:
320,192,32953,1,0,0:0:0:0:
192,192,32953,1,0,0:0:0:0:
64,192,33132,1,0,0:0:0:0:
320,192,33132,1,0,0:0:0:0:
448,192,33311,1,0,0:0:0:0:
64,192,33311,1,0,0:0:0:0:
192,192,33311,1,0,0:0:0:0:
320,192,33491,1,0,0:0:0:0:
192,192,33491,1,0,0:0:0:0:
64,192,33670,1,0,0:0:0:0:
320,192,33670,1,0,0:0:0:0:
448,192,33849,1,0,0:0:0:0:
320,192,33849,1,0,0:0:0:0:
192,192,33849,1,0,0:0:0:0:
448,192,34029,1,0,0:0:0:0:
320,192,34029,1,0,0:0:0:0:
320,192,34208,1,0,0:0:0:0:
64,192,34208,1,0,0:0:0:0:
64,192,34387,1,0,0:0:0:0:
192,192,34387,1,0,0:0:0:0:
192,192,34567,1,0,0:0:0:0:
448,192,34567,1,0,0:0:0:0:
64,192,34746,1,0,0:0:0:0:
192,192,34746,1,0,0:0:0:0:
320,192,34746,1,0,0:0:0:0:
64,192,35463,1,0,0:0:0:0:
192,192,35643,1,0,0:0:0:0:
320,192,35643,1,0,0:0:0:0:
192,192,35822,1,0,0:0:0:0:
448,192,35822,1,0,0:0:0:0:
320,192,35822,1,0,0:0:0:0:
448,192,36001,1,0,0:0:0:0:
320,192,36001,1,0,0:0:0:0:
448,192,36180,1,0,0:0:0:0:
320,192,36180,1,0,0:0:0:0:
192,192,36180,1,0,0:0:0:0:
320,192,36360,1,0,0:0:0:0:
192,192,36360,1,0,0:0:0:0:
64,192,36539,1,0,0:0:0:0:
320,192,36539,1,0,0:0:0:0:
448,192,36539,1,0,0:0:0:0:
320,192,36718,1,0,0:0:0:0:
192,192,36718,1,0,0:0:0:0:
64,192,36898,1,0,0:0:0:0:
192,192,36898,1,0,0:0:0:0:
448,192,36898,1,0,0:0:0:0:
448,192,37256,1,0,0:0:0:0:
320,192,37256,1,0,0:0:0:0:
192,192,37256,1,0,0:0:0:0:
448,192,37615,1,0,0:0:0:0:
192,192,37615,1,0,0:0:0:0:
64,192,37615,1,0,0:0:0:0:
320,192,37705,1,0,0:0:0:0:
64,192,37794,1,0,0:0:0:0:
192,192,37884,1,0,0:0:0:0:
320,192,37974,1,0,0:0:0:0:
192,192,38063,1,0,0:0:0:0:
320,192,38153,1,0,0:0:0:0:
448,192,38243,1,0,0:0:0:0:
320,192,38332,1,0,0:0:0:0:
448,192,38422,1,0,0:0:0:0:
320,192,38512,1,0,0:0:0:0:
192,192,38601,1,0,0:0:0:0:
320,192,38691,1,0,0:0:0:0:
448,192,38781,1,0,0:0:0:0:
320,192,38870,1,0,0:0:0:0:
192,192,38960,1,0,0:0:0:0:
64,192,39050,1,0,0:0:0:0:
448,192,39050,1,0,0:0:0:0:
320,192,39229,1,0,0:0:0:0:
192,192,39229,1,0,0:0:0:0:
64,192,39408,1,0,0:0:0:0:
320,192,39408,1,0,0:0:0:0:
64,192,39767,1,0,0:0:0:0:
192,192,39767,1,0,0:0:0:0:
320,192,39857,1,0,0:0:0:0:
448,192,39946,1,0,0:0:0:0:
192,192,39946,1,0,0:0:0:0:
64,192,40036,1,0,0:0:0:0:
192,192,40125,1,0,0:0:0:0:
448,192,40125,1,0,0:0:0:0:
320,192,40215,1,0,0:0:0:0:
192,192,40305,1,0,0:0:0:0:
64,192,40394,1,0,0:0:0:0:
448,192,40484,1,0,0:0:0:0:
320,192,40484,1,0,0:0:0:0:
192,192,40574,1,0,0:0:0:0:
64,192,40663,1,0,0:0:0:0:
192,192,40753,1,0,0:0:0:0:
320,192,40843,1,0,0:0:0:0:
192,192,40932,1,0,0:0:0:0:
64,192,41022,1,0,0:0:0:0:
192,192,41112,1,0,0:0:0:0:
64,192,41201,1,0,0:0:0:0:
192,192,41291,1,0,0:0:0:0:
320,192,41381,1,0,0:0:0:0:
192,192,41470,1,0,0:0:0:0:
448,192,41560,1,0,0:0:0:0:
320,192,41650,1,0,0:0:0:0:
192,192,41739,1,0,0:0:0:0:
64,192,41829,1,0,0:0:0:0:
448,192,41919,1,0,0:0:0:0:
320,192,41919,1,0,0:0:0:0:
192,192,41919,1,0,0:0:0:0:
64,192,41919,1,0,0:0:0:0:
64,192,42277,1,0,0:0:0:0:
192,192,42277,1,0,0:0:0:0:
320,192,42277,1,0,0:0:0:0:
64,192,42636,1,0,0:0:0:0:
448,192,42815,1,0,0:0:0:0:
320,192,42815,1,0,0:0:0:0:
192,192,42815,1,0,0:0:0:0:
192,192,42995,1,0,0:0:0:0:
320,192,43174,1,0,0:0:0:0:
448,192,43353,1,0,0:0:0:0:
192,192,43353,1,0,0:0:0:0:
64,192,43353,1,0,0:0:0:0:
320,192,43533,1,0,0:0:0:0:
448,192,43712,1,0,0:0:0:0:
192,192,43712,1,0,0:0:0:0:
320,192,43891,1,0,0:0:0:0:
192,192,43891,1,0,0:0:0:0:
64,192,43891,1,0,0:0:0:0:
64,192,44070,1,0,0:0:0:0:
192,192,44250,1,0,0:0:0:0:
64,192,44429,1,0,0:0:0:0:
448,192,44429,1,0,0:0:0:0:
320,192,44429,1,0,0:0:0:0:
192,192,44608,1,0,0:0:0:0:
448,192,44788,1,0,0:0:0:0:
320,192,44957,1,0,0:0:0:0:
192,192,45126,1,0,0:0:0:0:
64,192,45296,1,0,0:0:0:0:
320,192,45465,1,0,0:0:0:0:
192,192,45635,1,0,0:0:0:0:
320,192,45804,1,0,0:0:0:0:
192,192,45974,1,0,0:0:0:0:
320,192,46059,1,0,0:0:0:0:
192,192,46143,1,0,0:0:0:0:
320,192,46228,1,0,0:0:0:0:
192,192,46313,1,0,0:0:0:0:
320,192,46398,1,0,0:0:0:0:
192,192,46482,1,0,0:0:0:0:
320,192,46567,1,0,0:0:0:0:
192,192,46652,1,0,0:0:0:0:
320,192,46737,1,0,0:0:0:0:
64,192,46821,1,0,0:0:0:0:
192,192,46906,1,0,0:0:0:0:
320,192,46991,1,0,0:0:0:0:
192,192,47076,1,0,0:0:0:0:
64,192,47160,1,0,0:0:0:0:
192,192,47245,1,0,0:0:0:0:
320,192,47330,1,0,0:0:0:0:
448,192,47415,1,0,0:0:0:0:
192,192,47499,1,0,0:0:0:0:
320,192,47584,1,0,0:0:0:0:
448,192,47669,1,0,0:0:0:0:
320,192,47754,1,0,0:0:0:0:
448,192,47838,1,0,0:0:0:0:
320,192,47923,1,0,0:0:0:0:
192,192,48008,1,0,0:0:0:0:
64,192,48093,1,0,0:0:0:0:
320,192,48177,1,0,0:0:0:0:
192,192,48262,1,0,0:0:0:0:
320,192,48347,1,0,0:0:0:0:
192,192,48432,1,0,0:0:0:0:
448,192,48516,1,0,0:0:0:0:
320,192,48601,1,0,0:0:0:0:
192,192,48686,1,0,0:0:0:0:
448,192,48771,1,0,0:0:0:0:
192,192,48855,1,0,0:0:0:0:
320,192,48855,1,0,0:0:0:0:
64,192,48855,128,0,49496:0:0:0:0:
320,192,49496,1,0,0:0:0:0:
192,192,49496,1,0,0:0:0:0:
448,192,49496,128,0,50138:0:0:0:0:
192,192,50138,1,0,0:0:0:0:
64,192,50138,128,0,50780:0:0:0:0:
192,192,50780,1,0,0:0:0:0:
448,192,50780,1,0,0:0:0:0:
320,192,50780,128,0,51421:0:0:0:0:
64,192,51421,1,0,0:0:0:0:
192,192,51502,1,0,0:0:0:0:
64,192,51582,1,0,0:0:0:0:
192,192,51662,1,0,0:0:0:0:
320,192,51742,1,0,0:0:0:0:
192,192,51822,1,0,0:0:0:0:
320,192,51903,1,0,0:0:0:0:
192,192,51983,1,0,0:0:0:0:
320,192,52063,1,0,0:0:0:0:
448,192,52063,1,0,0:0:0:0:
64,192,52063,128,0,52705:0:0:0:0:
192,192,52544,1,0,0:0:0:0:
320,192,52625,1,0,0:0:0:0:
448,192,52705,1,0,0:0:0:0:
192,192,52705,1,0,0:0:0:0:
320,192,52785,1,0,0:0:0:0:
192,192,52865,1,0,0:0:0:0:
64,192,52945,1,0,0:0:0:0:
320,192,53026,1,0,0:0:0:0:
192,192,53106,1,0,0:0:0:0:
320,192,53186,1,0,0:0:0:0:
192,192,53266,1,0,0:0:0:0:
64,192,53346,1,0,0:0:0:0:
320,192,53346,1,0,0:0:0:0:
448,192,53346,128,0,53988:0:0:0:0:
192,192,53427,1,0,0:0:0:0:
320,192,53507,1,0,0:0:0:0:
192,192,53587,1,0,0:0:0:0:
64,192,53667,1,0,0:0:0:0:
320,192,53748,1,0,0:0:0:0:
192,192,53828,1,0,0:0:0:0:
64,192,53908,1,0,0:0:0:0:
320,192,53988,1,0,0:0:0:0:
192,192,53988,1,0,0:0:0:0:
64,192,54149,1,0,0:0:0:0:
192,192,54309,1,0,0:0:0:0:
320,192,54469,1,0,0:0:0:0:
64,192,54469,1,0,0:0:0:0:
192,192,54630,1,0,0:0:0:0:
64,192,54790,1,0,0:0:0:0:
448,192,54951,1,0,0:0:0:0:
320,192,54951,1,0,0:0:0:0:
192,192,54951,1,0,0:0:0:0:
64,192,55111,1,0,0:0:0:0:
192,192,55272,1,0,0:0:0:0:
448,192,55272,1,0,0:0:0:0:
448,192,55432,1,0,0:0:0:0:
64,192,55432,1,0,0:0:0:0:
320,192,55432,1,0,0:0:0:0:
192,192,55592,1,0,0:0:0:0:
64,192,55592,1,0,0:0:0:0:
320,192,55753,1,0,0:0:0:0:
192,192,55913,1,0,0:0:0:0:
448,192,55913,1,0,0:0:0:0:
320,192,56074,1,0,0:0:0:0:
192,192,56234,1,0,0:0:0:0:
64,192,56234,1,0,0:0:0:0:
320,192,56395,1,0,0:0:0:0:
64,192,56555,1,0,0:0:0:0:
192,192,56555,1,0,0:0:0:0:
320,192,56555,1,0,0:0:0:0:
448,192,56715,1,0,0:0:0:0:
320,192,56715,1,0,0:0:0:0:
192,192,56715,1,0,0:0:0:0:
64,192,56876,1,0,0:0:0:0:
192,192,56876,1,0,0:0:0:0:
320,192,56876,1,0,0:0:0:0:
448,192,57036,1,0,0:0:0:0:
320,192,57036,1,0,0:0:0:0:
192,192,57036,1,0,0:0:0:0:
64,192,57197,1,0,0:0:0:0:
192,192,57197,1,0,0:0:0:0:
448,192,57197,1,0,0:0:0:0:
448,192,57357,1,0,0:0:0:0:
320,192,57357,1,0,0:0:0:0:
192,192,57357,1,0,0:0:0:0:
64,192,57518,1,0,0:0:0:0:
192,192,57518,1,0,0:0:0:0:
448,192,57518,1,0,0:0:0:0:
448,192,57678,1,0,0:0:0:0:
320,192,57678,1,0,0:0:0:0:
192,192,57678,1,0,0:0:0:0:
64,192,57838,1,0,0:0:0:0:
192,192,57838,1,0,0:0:0:0:
320,192,57838,1,0,0:0:0:0:
448,192,57838,1,0,0:0:0:0:
448,192,57999,1,0,0:0:0:0:
320,192,58079,1,0,0:0:0:0:
64,192,58159,1,0,0:0:0:0:
448,192,58159,1,0,0:0:0:0:
320,192,58240,1,0,0:0:0:0:
192,192,58320,1,0,0:0:0:0:
64,192,58320,1,0,0:0:0:0:
448,192,58320,1,0,0:0:0:0:
320,192,58400,1,0,0:0:0:0:
192,192,58480,1,0,0:0:0:0:
64,192,58480,1,0,0:0:0:0:
448,192,58560,1,0,0:0:0:0:
192,192,58641,1,0,0:0:0:0:
320,192,58641,1,0,0:0:0:0:
64,192,58641,1,0,0:0:0:0:
448,192,58721,1,0,0:0:0:0:
320,192,58801,1,0,0:0:0:0:
64,192,58801,1,0,0:0:0:0:
192,192,58881,1,0,0:0:0:0:
320,192,58961,1,0,0:0:0:0:
448,192,58961,1,0,0:0:0:0:
192,192,59042,1,0,0:0:0:0:
64,192,59122,1,0,0:0:0:0:
320,192,59122,1,0,0:0:0:0:
448,192,59122,1,0,0:0:0:0:
192,192,59202,1,0,0:0:0:0:
448,192,59282,1,0,0:0:0:0:
320,192,59282,1,0,0:0:0:0:
192,192,59363,1,0,0:0:0:0:
448,192,59443,1,0,0:0:0:0:
64,192,59443,1,0,0:0:0:0:
320,192,59443,1,0,0:0:0:0:
192,192,59523,1,0,0:0:0:0:
448,192,59603,1,0,0:0:0:0:
320,192,59603,1,0,0:0:0:0:
64,192,59683,1,0,0:0:0:0:
192,192,59764,1,0,0:0:0:0:
320,192,59764,1,0,0:0:0:0:
448,192,59764,1,0,0:0:0:0:
64,192,59844,1,0,0:0:0:0:
320,192,59924,1,0,0:0:0:0:
448,192,59924,1,0,0:0:0:0:
192,192,60004,1,0,0:0:0:0:
64,192,60084,1,0,0:0:0:0:
320,192,60084,1,0,0:0:0:0:
448,192,60084,1,0,0:0:0:0:
192,192,60165,1,0,0:0:0:0:
64,192,60245,1,0,0:0:0:0:
448,192,60245,1,0,0:0:0:0:
320,192,60325,1,0,0:0:0:0:
64,192,60405,1,0,0:0:0:0:
192,192,60405,1,0,0:0:0:0:
448,192,60405,1,0,0:0:0:0:
320,192,60486,1,0,0:0:0:0:
192,192,60566,1,0,0:0:0:0:
64,192,60566,1,0,0:0:0:0:
448,192,60646,1,0,0:0:0:0:
192,192,60726,1,0,0:0:0:0:
320,192,60726,1,0,0:0:0:0:
64,192,60726,1,0,0:0:0:0:
448,192,60806,1,0,0:0:0:0:
64,192,60887,1,0,0:0:0:0:
192,192,60887,1,0,0:0:0:0:
320,192,60967,1,0,0:0:0:0:
192,192,61047,1,0,0:0:0:0:
64,192,61047,1,0,0:0:0:0:
448,192,61047,1,0,0:0:0:0:
320,192,61127,1,0,0:0:0:0:
64,192,61207,1,0,0:0:0:0:
448,192,61207,1,0,0:0:0:0:
192,192,61288,1,0,0:0:0:0:
320,192,61368,1,0,0:0:0:0:
64,192,61368,1,0,0:0:0:0:
448,192,61368,1,0,0:0:0:0:
192,192,61448,1,0,0:0:0:0:
320,192,61528,1,0,0:0:0:0:
448,192,61528,1,0,0:0:0:0:
64,192,61609,1,0,0:0:0:0:
192,192,61689,1,0,0:0:0:0:
320,192,61689,1,0,0:0:0:0:
448,192,61689,1,0,0:0:0:0:
64,192,61769,1,0,0:0:0:0:
320,192,61849,1,0,0:0:0:0:
448,192,61849,1,0,0:0:0:0:
192,192,61929,1,0,0:0:0:0:
320,192,62010,1,0,0:0:0:0:
64,192,62010,1,0,0:0:0:0:
448,192,62010,1,0,0:0:0:0:
192,192,62090,1,0,0:0:0:0:
64,192,62170,1,0,0:0:0:0:
448,192,62170,1,0,0:0:0:0:
320,192,62250,1,0,0:0:0:0:
64,192,62330,1,0,0:0:0:0:
448,192,62330,1,0,0:0:0:0:
192,192,62330,1,0,0:0:0:0:
320,192,62411,1,0,0:0:0:0:
192,192,62491,1,0,0:0:0:0:
64,192,62491,1,0,0:0:0:0:
448,192,62571,1,0,0:0:0:0:
320,192,62651,1,0,0:0:0:0:
192,192,62651,1,0,0:0:0:0:
64,192,62651,1,0,0:0:0:0:
448,192,62732,1,0,0:0:0:0:
64,192,62812,1,0,0:0:0:0:
192,192,62812,1,0,0:0:0:0:
320,192,62892,1,0,0:0:0:0:
448,192,62972,1,0,0:0:0:0:
64,192,62972,1,0,0:0:0:0:
192,192,62972,1,0,0:0:0:0:
64,192,63133,1,0,0:0:0:0:
192,192,63133,1,0,0:0:0:0:
320,192,63133,1,0,0:0:0:0:
448,192,63293,1,0,0:0:0:0:
320,192,63293,1,0,0:0:0:0:
192,192,63293,1,0,0:0:0:0:
64,192,63373,1,0,0:0:0:0:
192,192,63453,1,0,0:0:0:0:
320,192,63534,1,0,0:0:0:0:
64,192,63614,1,0,0:0:0:0:
192,192,63614,1,0,0:0:0:0:
448,192,63614,128,0,63855:0:0:0:0:
320,192,63774,1,0,0:0:0:0:
192,192,63855,1,0,0:0:0:0:
64,192,63855,128,0,64095:0:0:0:0:
320,192,63935,1,0,0:0:0:0:
448,192,63935,1,0,0:0:0:0:
320,192,64095,1,0,0:0:0:0:
192,192,64095,1,0,0:0:0:0:
448,192,64095,128,0,64256:0:0:0:0:
320,192,64256,1,0,0:0:0:0:
64,192,64256,1,0,0:0:0:0:
192,192,64256,1,0,0:0:0:0:
448,192,64336,1,0,0:0:0:0:
320,192,64416,1,0,0:0:0:0:
64,192,64416,1,0,0:0:0:0:
192,192,64496,1,0,0:0:0:0:
448,192,64576,1,0,0:0:0:0:
320,192,64576,1,0,0:0:0:0:
64,192,64576,1,0,0:0:0:0:
192,192,64657,1,0,0:0:0:0:
320,192,64737,1,0,0:0:0:0:
448,192,64737,1,0,0:0:0:0:
64,192,64817,1,0,0:0:0:0:
320,192,64897,1,0,0:0:0:0:
448,192,64897,1,0,0:0:0:0:
192,192,64897,1,0,0:0:0:0:
64,192,64977,1,0,0:0:0:0:
448,192,65058,1,0,0:0:0:0:
320,192,65058,1,0,0:0:0:0:
192,192,65138,1,0,0:0:0:0:
64,192,65218,1,0,0:0:0:0:
320,192,65218,1,0,0:0:0:0:
448,192,65218,1,0,0:0:0:0:
192,192,65298,1,0,0:0:0:0:
64,192,65379,1,0,0:0:0:0:
448,192,65379,1,0,0:0:0:0:
320,192,65459,1,0,0:0:0:0:
448,192,65539,1,0,0:0:0:0:
64,192,65539,1,0,0:0:0:0:
192,192,65539,1,0,0:0:0:0:
320,192,65619,1,0,0:0:0:0:
192,192,65699,1,0,0:0:0:0:
320,192,65780,1,0,0:0:0:0:
192,192,65860,1,0,0:0:0:0:
448,192,65940,1,0,0:0:0:0:
320,192,66020,1,0,0:0:0:0:
192,192,66100,1,0,0:0:0:0:
320,192,66181,1,0,0:0:0:0:
192,192,66261,1,0,0:0:0:0:
64,192,66341,1,0,0:0:0:0:
320,192,66341,1,0,0:0:0:0:
448,192,66341,1,0,0:0:0:0:
192,192,66421,1,0,0:0:0:0:
320,192,66502,1,0,0:0:0:0:
448,192,66502,1,0,0:0:0:0:
64,192,66582,1,0,0:0:0:0:
192,192,66662,1,0,0:0:0:0:
448,192,66662,1,0,0:0:0:0:
320,192,66742,1,0,0:0:0:0:
448,192,66822,1,0,0:0:0:0:
192,192,66822,1,0,0:0:0:0:
64,192,66822,1,0,0:0:0:0:
320,192,66983,1,0,0:0:0:0:
192,192,66983,1,0,0:0:0:0:
64,192,67143,1,0,0:0:0:0:
192,192,67143,1,0,0:0:0:0:
320,192,67143,1,0,0:0:0:0:
448,192,67223,1,0,0:0:0:0:
320,192,67304,1,0,0:0:0:0:
448,192,67384,1,0,0:0:0:0:
64,192,67464,1,0,0:0:0:0:
320,192,67464,1,0,0:0:0:0:
192,192,67464,1,0,0:0:0:0:
448,192,67625,1,0,0:0:0:0:
320,192,67625,1,0,0:0:0:0:
64,192,67785,1,0,0:0:0:0:
192,192,67785,1,0,0:0:0:0:
320,192,67785,1,0,0:0:0:0:
448,192,67865,1,0,0:0:0:0:
192,192,67945,1,0,0:0:0:0:
320,192,67945,1,0,0:0:0:0:
64,192,68026,1,0,0:0:0:0:
192,192,68106,1,0,0:0:0:0:
448,192,68106,1,0,0:0:0:0:
320,192,68106,1,0,0:0:0:0:
64,192,68266,1,0,0:0:0:0:
320,192,68266,1,0,0:0:0:0:
192,192,68427,1,0,0:0:0:0:
64,192,68427,1,0,0:0:0:0:
64,192,68587,1,0,0:0:0:0:
320,192,68587,1,0,0:0:0:0:
192,192,68667,1,0,0:0:0:0:
320,192,68748,1,0,0:0:0:0:
448,192,68748,1,0,0:0:0:0:
192,192,68828,1,0,0:0:0:0:
448,192,68908,1,0,0:0:0:0:
320,192,68988,1,0,0:0:0:0:
192,192,69068,1,0,0:0:0:0:
448,192,69068,1,0,0:0:0:0:
64,192,69149,1,0,0:0:0:0:
320,192,69229,1,0,0:0:0:0:
192,192,69309,1,0,0:0:0:0:
448,192,69389,1,0,0:0:0:0:
64,192,69389,1,0,0:0:0:0:
320,192,69389,1,0,0:0:0:0:
192,192,69469,1,0,0:0:0:0:
320,192,69550,1,0,0:0:0:0:
448,192,69550,1,0,0:0:0:0:
192,192,69630,1,0,0:0:0:0:
320,192,69710,1,0,0:0:0:0:
64,192,69710,1,0,0:0:0:0:
448,192,69710,1,0,0:0:0:0:
192,192,69790,1,0,0:0:0:0:
320,192,69871,1,0,0:0:0:0:
448,192,69871,1,0,0:0:0:0:
192,192,69951,1,0,0:0:0:0:
64,192,70031,1,0,0:0:0:0:
320,192,70031,1,0,0:0:0:0:
448,192,70031,1,0,0:0:0:0:
192,192,70111,1,0,0:0:0:0:
320,192,70191,1,0,0:0:0:0:
448,192,70191,1,0,0:0:0:0:
192,192,70272,1,0,0:0:0:0:
64,192,70352,1,0,0:0:0:0:
320,192,70352,1,0,0:0:0:0:
448,192,70352,1,0,0:0:0:0:
192,192,70432,1,0,0:0:0:0:
448,192,70512,1,0,0:0:0:0:
64,192,70512,1,0,0:0:0:0:
320,192,70592,1,0,0:0:0:0:
64,192,70673,1,0,0:0:0:0:
448,192,70673,1,0,0:0:0:0:
192,192,70673,1,0,0:0:0:0:
320,192,70753,1,0,0:0:0:0:
64,192,70833,1,0,0:0:0:0:
192,192,70833,1,0,0:0:0:0:
320,192,70913,1,0,0:0:0:0:
192,192,70994,1,0,0:0:0:0:
448,192,70994,1,0,0:0:0:0:
64,192,70994,1,0,0:0:0:0:
320,192,71074,1,0,0:0:0:0:
192,192,71154,1,0,0:0:0:0:
64,192,71154,1,0,0:0:0:0:
320,192,71234,1,0,0:0:0:0:
448,192,71314,1,0,0:0:0:0:
192,192,71314,1,0,0:0:0:0:
64,192,71314,1,0,0:0:0:0:
320,192,71395,1,0,0:0:0:0:
192,192,71475,1,0,0:0:0:0:
64,192,71475,1,0,0:0:0:0:
320,192,71555,1,0,0:0:0:0:
448,192,71635,1,0,0:0:0:0:
192,192,71635,1,0,0:0:0:0:
64,192,71635,1,0,0:0:0:0:
320,192,71715,1,0,0:0:0:0:
192,192,71796,1,0,0:0:0:0:
64,192,71796,1,0,0:0:0:0:
320,192,71876,1,0,0:0:0:0:
448,192,71956,1,0,0:0:0:0:
192,192,71956,1,0,0:0:0:0:
64,192,71956,1,0,0:0:0:0:
320,192,72036,1,0,0:0:0:0:
192,192,72117,1,0,0:0:0:0:
448,192,72117,1,0,0:0:0:0:
64,192,72197,1,0,0:0:0:0:
192,192,72277,1,0,0:0:0:0:
320,192,72277,1,0,0:0:0:0:
448,192,72277,1,0,0:0:0:0:
64,192,72357,1,0,0:0:0:0:
448,192,72437,1,0,0:0:0:0:
320,192,72437,1,0,0:0:0:0:
192,192,72437,1,0,0:0:0:0:
64,192,72518,1,0,0:0:0:0:
448,192,72598,1,0,0:0:0:0:
320,192,72598,1,0,0:0:0:0:
64,192,72678,1,0,0:0:0:0:
192,192,72758,1,0,0:0:0:0:
320,192,72758,1,0,0:0:0:0:
448,192,72838,1,0,0:0:0:0:
320,192,72919,1,0,0:0:0:0:
192,192,72919,1,0,0:0:0:0:
64,192,72919,1,0,0:0:0:0:
448,192,72999,1,0,0:0:0:0:
64,192,73079,1,0,0:0:0:0:
192,192,73079,1,0,0:0:0:0:
320,192,73079,1,0,0:0:0:0:
448,192,73159,1,0,0:0:0:0:
192,192,73240,1,0,0:0:0:0:
64,192,73240,1,0,0:0:0:0:
64,192,73400,1,0,0:0:0:0:
192,192,73400,1,0,0:0:0:0:
320,192,73400,1,0,0:0:0:0:
64,192,73560,1,0,0:0:0:0:
192,192,73560,1,0,0:0:0:0:
320,192,73560,1,0,0:0:0:0:
448,192,73560,1,0,0:0:0:0:
64,192,73881,1,0,0:0:0:0:
192,192,73881,1,0,0:0:0:0:
320,192,73881,1,0,0:0:0:0:
192,192,74042,1,0,0:0:0:0:
320,192,74042,1,0,0:0:0:0:
192,192,74202,1,0,0:0:0:0:
448,192,74202,1,0,0:0:0:0:
320,192,74363,1,0,0:0:0:0:
448,192,74363,1,0,0:0:0:0:
64,192,74523,1,0,0:0:0:0:
448,192,74523,1,0,0:0:0:0:
192,192,74603,1,0,0:0:0:0:
320,192,74683,1,0,0:0:0:0:
448,192,74683,1,0,0:0:0:0:
192,192,74764,1,0,0:0:0:0:
64,192,74844,1,0,0:0:0:0:
320,192,74844,1,0,0:0:0:0:
192,192,74924,1,0,0:0:0:0:
320,192,75004,1,0,0:0:0:0:
448,192,75004,1,0,0:0:0:0:
192,192,75084,1,0,0:0:0:0:
64,192,75165,1,0,0:0:0:0:
320,192,75165,1,0,0:0:0:0:
192,192,75245,1,0,0:0:0:0:
320,192,75325,1,0,0:0:0:0:
448,192,75325,1,0,0:0:0:0:
192,192,75405,1,0,0:0:0:0:
320,192,75486,1,0,0:0:0:0:
448,192,75486,1,0,0:0:0:0:
192,192,75566,1,0,0:0:0:0:
320,192,75646,1,0,0:0:0:0:
448,192,75646,1,0,0:0:0:0:
192,192,75726,1,0,0:0:0:0:
448,192,75806,1,0,0:0:0:0:
64,192,75806,1,0,0:0:0:0:
320,192,75887,1,0,0:0:0:0:
192,192,75967,1,0,0:0:0:0:
64,192,76047,1,0,0:0:0:0:
320,192,76127,1,0,0:0:0:0:
448,192,76127,1,0,0:0:0:0:
192,192,76207,1,0,0:0:0:0:
448,192,76288,1,0,0:0:0:0:
320,192,76368,1,0,0:0:0:0:
448,192,76448,1,0,0:0:0:0:
64,192,76448,1,0,0:0:0:0:
192,192,76528,1,0,0:0:0:0:
64,192,76609,1,0,0:0:0:0:
320,192,76609,1,0,0:0:0:0:
448,192,76689,1,0,0:0:0:0:
192,192,76769,1,0,0:0:0:0:
320,192,76769,1,0,0:0:0:0:
64,192,76849,1,0,0:0:0:0:
448,192,76929,1,0,0:0:0:0:
192,192,76929,1,0,0:0:0:0:
64,192,77010,1,0,0:0:0:0:
448,192,77090,1,0,0:0:0:0:
320,192,77090,1,0,0:0:0:0:
192,192,77090,1,0,0:0:0:0:
320,192,77250,1,0,0:0:0:0:
192,192,77250,1,0,0:0:0:0:
64,192,77411,1,0,0:0:0:0:
192,192,77411,1,0,0:0:0:0:
320,192,77411,1,0,0:0:0:0:
64,192,77732,1,0,0:0:0:0:
192,192,77732,1,0,0:0:0:0:
448,192,77732,1,0,0:0:0:0:
448,192,77892,1,0,0:0:0:0:
320,192,77892,1,0,0:0:0:0:
64,192,78052,1,0,0:0:0:0:
192,192,78052,1,0,0:0:0:0:
320,192,78052,1,0,0:0:0:0:
192,192,78213,1,0,0:0:0:0:
320,192,78213,1,0,0:0:0:0:
192,192,78373,1,0,0:0:0:0:
320,192,78373,1,0,0:0:0:0:
448,192,78373,1,0,0:0:0:0:
64,192,78534,1,0,0:0:0:0:
192,192,78694,1,0,0:0:0:0:
320,192,78694,1,0,0:0:0:0:
448,192,78855,1,0,0:0:0:0:
64,192,78855,1,0,0:0:0:0:
192,192,79015,1,0,0:0:0:0:
448,192,79015,1,0,0:0:0:0:
64,192,79175,1,0,0:0:0:0:
192,192,79336,1,0,0:0:0:0:
320,192,79336,1,0,0:0:0:0:
448,192,79496,1,0,0:0:0:0:
64,192,79496,1,0,0:0:0:0:
192,192,79657,1,0,0:0:0:0:
320,192,79657,1,0,0:0:0:0:
448,192,79657,1,0,0:0:0:0:
64,192,79737,1,0,0:0:0:0:
192,192,79817,1,0,0:0:0:0:
448,192,79817,1,0,0:0:0:0:
320,192,79897,1,0,0:0:0:0:
192,192,79977,1,0,0:0:0:0:
64,192,79977,1,0,0:0:0:0:
448,192,79977,1,0,0:0:0:0:
320,192,80058,1,0,0:0:0:0:
192,192,80138,1,0,0:0:0:0:
64,192,80138,1,0,0:0:0:0:
448,192,80218,1,0,0:0:0:0:
192,192,80298,1,0,0:0:0:0:
320,192,80298,1,0,0:0:0:0:
64,192,80298,1,0,0:0:0:0:
448,192,80379,1,0,0:0:0:0:
320,192,80459,1,0,0:0:0:0:
192,192,80539,1,0,0:0:0:0:
448,192,80619,1,0,0:0:0:0:
320,192,80619,1,0,0:0:0:0:
64,192,80699,1,0,0:0:0:0:
192,192,80780,1,0,0:0:0:0:
320,192,80860,1,0,0:0:0:0:
64,192,80940,1,0,0:0:0:0:
192,192,80940,1,0,0:0:0:0:
448,192,81020,1,0,0:0:0:0:
320,192,81100,1,0,0:0:0:0:
192,192,81181,1,0,0:0:0:0:
448,192,81261,1,0,0:0:0:0:
320,192,81261,1,0,0:0:0:0:
64,192,81341,1,0,0:0:0:0:
192,192,81421,1,0,0:0:0:0:
320,192,81502,1,0,0:0:0:0:
192,192,81582,1,0,0:0:0:0:
64,192,81582,1,0,0:0:0:0:
320,192,81662,1,0,0:0:0:0:
192,192,81742,1,0,0:0:0:0:
320,192,81822,1,0,0:0:0:0:
64,192,81903,1,0,0:0:0:0:
448,192,81903,1,0,0:0:0:0:
448,192,82063,1,0,0:0:0:0:
192,192,82063,1,0,0:0:0:0:
448,192,82223,1,0,0:0:0:0:
320,192,82223,1,0,0:0:0:0:
192,192,82223,1,0,0:0:0:0:
64,192,82304,1,0,0:0:0:0:
448,192,82384,1,0,0:0:0:0:
320,192,82384,1,0,0:0:0:0:
192,192,82464,1,0,0:0:0:0:
448,192,82544,1,0,0:0:0:0:
320,192,82544,1,0,0:0:0:0:
64,192,82544,1,0,0:0:0:0:
192,192,82625,1,0,0:0:0:0:
448,192,82705,1,0,0:0:0:0:
64,192,82705,1,0,0:0:0:0:
320,192,82785,1,0,0:0:0:0:
192,192,82865,1,0,0:0:0:0:
64,192,82865,1,0,0:0:0:0:
448,192,82945,1,0,0:0:0:0:
320,192,83026,1,0,0:0:0:0:
192,192,83106,1,0,0:0:0:0:
320,192,83186,1,0,0:0:0:0:
448,192,83186,1,0,0:0:0:0:
64,192,83266,1,0,0:0:0:0:
192,192,83346,1,0,0:0:0:0:
320,192,83427,1,0,0:0:0:0:
64,192,83507,1,0,0:0:0:0:
192,192,83507,1,0,0:0:0:0:
448,192,83587,1,0,0:0:0:0:
320,192,83667,1,0,0:0:0:0:
192,192,83748,1,0,0:0:0:0:
448,192,83828,1,0,0:0:0:0:
320,192,83828,1,0,0:0:0:0:
64,192,83908,1,0,0:0:0:0:
192,192,83988,1,0,0:0:0:0:
320,192,83988,1,0,0:0:0:0:
448,192,84068,1,0,0:0:0:0:
64,192,84149,1,0,0:0:0:0:
192,192,84149,1,0,0:0:0:0:
320,192,84229,1,0,0:0:0:0:
192,192,84309,1,0,0:0:0:0:
448,192,84309,1,0,0:0:0:0:
64,192,84389,1,0,0:0:0:0:
448,192,84469,1,0,0:0:0:0:
320,192,84469,1,0,0:0:0:0:
192,192,84550,1,0,0:0:0:0:
64,192,84630,1,0,0:0:0:0:
448,192,84630,1,0,0:0:0:0:
192,192,84710,1,0,0:0:0:0:
320,192,84710,1,0,0:0:0:0:
64,192,84790,1,0,0:0:0:0:
448,192,84790,1,0,0:0:0:0:
192,192,84871,1,0,0:0:0:0:
320,192,84951,1,0,0:0:0:0:
448,192,84951,1,0,0:0:0:0:
64,192,85031,1,0,0:0:0:0:
448,192,85111,1,0,0:0:0:0:
192,192,85111,1,0,0:0:0:0:
320,192,85111,1,0,0:0:0:0:
64,192,85191,1,0,0:0:0:0:
192,192,85272,1,0,0:0:0:0:
320,192,85272,1,0,0:0:0:0:
448,192,85352,1,0,0:0:0:0:
192,192,85432,1,0,0:0:0:0:
320,192,85432,1,0,0:0:0:0:
64,192,85432,1,0,0:0:0:0:
448,192,85512,1,0,0:0:0:0:
320,192,85592,1,0,0:0:0:0:
192,192,85673,1,0,0:0:0:0:
448,192,85753,1,0,0:0:0:0:
320,192,85753,1,0,0:0:0:0:
64,192,85833,1,0,0:0:0:0:
192,192,85913,1,0,0:0:0:0:
320,192,85994,1,0,0:0:0:0:
192,192,86074,1,0,0:0:0:0:
64,192,86074,1,0,0:0:0:0:
320,192,86154,1,0,0:0:0:0:
192,192,86234,1,0,0:0:0:0:
448,192,86234,1,0,0:0:0:0:
64,192,86314,1,0,0:0:0:0:
192,192,86395,1,0,0:0:0:0:
320,192,86395,1,0,0:0:0:0:
448,192,86475,1,0,0:0:0:0:
320,192,86555,1,0,0:0:0:0:
64,192,86555,1,0,0:0:0:0:
192,192,86635,1,0,0:0:0:0:
64,192,86715,1,0,0:0:0:0:
320,192,86715,1,0,0:0:0:0:
448,192,86796,1,0,0:0:0:0:
320,192,86876,1,0,0:0:0:0:
192,192,86876,1,0,0:0:0:0:
64,192,86956,1,0,0:0:0:0:
192,192,87036,1,0,0:0:0:0:
448,192,87036,1,0,0:0:0:0:
320,192,87117,1,0,0:0:0:0:
448,192,87197,1,0,0:0:0:0:
64,192,87197,1,0,0:0:0:0:
192,192,87277,1,0,0:0:0:0:
64,192,87357,1,0,0:0:0:0:
448,192,87357,1,0,0:0:0:0:
320,192,87357,1,0,0:0:0:0:
192,192,87437,1,0,0:0:0:0:
320,192,87518,1,0,0:0:0:0:
64,192,87518,1,0,0:0:0:0:
448,192,87598,1,0,0:0:0:0:
64,192,87678,1,0,0:0:0:0:
192,192,87678,1,0,0:0:0:0:
320,192,87678,1,0,0:0:0:0:
192,192,87838,1,0,0:0:0:0:
448,192,87838,1,0,0:0:0:0:
64,192,87999,1,0,0:0:0:0:
320,192,87999,1,0,0:0:0:0:
448,192,87999,1,0,0:0:0:0:
192,192,88079,1,0,0:0:0:0:
448,192,88159,1,0,0:0:0:0:
64,192,88159,1,0,0:0:0:0:
192,192,88240,1,0,0:0:0:0:
320,192,88320,1,0,0:0:0:0:
448,192,88320,1,0,0:0:0:0:
64,192,88320,1,0,0:0:0:0:
448,192,88480,1,0,0:0:0:0:
320,192,88480,1,0,0:0:0:0:
64,192,88480,1,0,0:0:0:0:
64,192,88641,1,0,0:0:0:0:
448,192,88641,1,0,0:0:0:0:
192,192,88641,1,0,0:0:0:0:
64,192,88801,1,0,0:0:0:0:
192,192,88801,1,0,0:0:0:0:
320,192,88801,1,0,0:0:0:0:
64,192,88961,1,0,0:0:0:0:
192,192,88961,1,0,0:0:0:0:
448,192,88961,1,0,0:0:0:0:
320,192,89122,1,0,0:0:0:0:
64,192,89122,1,0,0:0:0:0:
448,192,89122,1,0,0:0:0:0:
192,192,89282,1,0,0:0:0:0:
448,192,89282,1,0,0:0:0:0:
320,192,89282,1,0,0:0:0:0:
448,192,89443,1,0,0:0:0:0:
192,192,89443,1,0,0:0:0:0:
64,192,89443,1,0,0:0:0:0:
64,192,89603,1,0,0:0:0:0:
320,192,89603,1,0,0:0:0:0:
192,192,89603,1,0,0:0:0:0:
192,192,89764,1,0,0:0:0:0:
320,192,89764,1,0,0:0:0:0:
64,192,89924,1,0,0:0:0:0:
448,192,89924,1,0,0:0:0:0:
320,192,89924,1,0,0:0:0:0:
448,192,90245,1,0,0:0:0:0:
64,192,90245,1,0,0:0:0:0:
192,192,90245,1,0,0:0:0:0:
320,192,90325,1,0,0:0:0:0:
192,192,90405,1,0,0:0:0:0:
448,192,90486,1,0,0:0:0:0:
320,192,90566,1,0,0:0:0:0:
64,192,90646,1,0,0:0:0:0:
192,192,90726,1,0,0:0:0:0:
448,192,90726,1,0,0:0:0:0:
320,192,90726,1,0,0:0:0:0:
64,192,90806,1,0,0:0:0:0:
448,192,90887,1,0,0:0:0:0:
320,192,90967,1,0,0:0:0:0:
192,192,91047,1,0,0:0:0:0:
448,192,91127,1,0,0:0:0:0:
192,192,91207,1,0,0:0:0:0:
320,192,91207,1,0,0:0:0:0:
64,192,91207,1,0,0:0:0:0:
448,192,91288,1,0,0:0:0:0:
64,192,91368,1,0,0:0:0:0:
192,192,91448,1,0,0:0:0:0:
64,192,91528,1,0,0:0:0:0:
320,192,91609,1,0,0:0:0:0:
192,192,91689,1,0,0:0:0:0:
64,192,91689,1,0,0:0:0:0:
448,192,91689,1,0,0:0:0:0:
320,192,91769,1,0,0:0:0:0:
448,192,91849,1,0,0:0:0:0:
192,192,91929,1,0,0:0:0:0:
64,192,92010,1,0,0:0:0:0:
320,192,92090,1,0,0:0:0:0:
448,192,92170,1,0,0:0:0:0:
64,192,92170,1,0,0:0:0:0:
192,192,92170,1,0,0:0:0:0:
320,192,92250,1,0,0:0:0:0:
192,192,92330,1,0,0:0:0:0:
64,192,92330,1,0,0:0:0:0:
320,192,92411,1,0,0:0:0:0:
448,192,92491,1,0,0:0:0:0:
64,192,92491,1,0,0:0:0:0:
192,192,92491,1,0,0:0:0:0:
320,192,92571,1,0,0:0:0:0:
192,192,92651,1,0,0:0:0:0:
64,192,92651,1,0,0:0:0:0:
448,192,92732,1,0,0:0:0:0:
64,192,92812,1,0,0:0:0:0:
192,192,92812,1,0,0:0:0:0:
320,192,92812,1,0,0:0:0:0:
448,192,92892,1,0,0:0:0:0:
64,192,92972,1,0,0:0:0:0:
192,192,92972,1,0,0:0:0:0:
320,192,93052,1,0,0:0:0:0:
192,192,93133,1,0,0:0:0:0:
448,192,93133,1,0,0:0:0:0:
64,192,93213,1,0,0:0:0:0:
448,192,93293,1,0,0:0:0:0:
320,192,93293,1,0,0:0:0:0:
192,192,93293,1,0,0:0:0:0:
64,192,93373,1,0,0:0:0:0:
448,192,93453,1,0,0:0:0:0:
192,192,93453,1,0,0:0:0:0:
320,192,93534,1,0,0:0:0:0:
192,192,93614,1,0,0:0:0:0:
64,192,93614,1,0,0:0:0:0:
320,192,93694,1,0,0:0:0:0:
192,192,93774,1,0,0:0:0:0:
64,192,93774,1,0,0:0:0:0:
448,192,93774,1,0,0:0:0:0:
320,192,93855,1,0,0:0:0:0:
192,192,93935,1,0,0:0:0:0:
448,192,93935,1,0,0:0:0:0:
64,192,94015,1,0,0:0:0:0:
320,192,94095,1,0,0:0:0:0:
448,192,94095,1,0,0:0:0:0:
192,192,94175,1,0,0:0:0:0:
448,192,94256,1,0,0:0:0:0:
320,192,94256,1,0,0:0:0:0:
64,192,94256,1,0,0:0:0:0:
192,192,94336,1,0,0:0:0:0:
320,192,94416,1,0,0:0:0:0:
448,192,94416,1,0,0:0:0:0:
64,192,94496,1,0,0:0:0:0:
320,192,94576,1,0,0:0:0:0:
448,192,94576,1,0,0:0:0:0:
192,192,94657,1,0,0:0:0:0:
64,192,94737,1,0,0:0:0:0:
448,192,94737,1,0,0:0:0:0:
320,192,94737,1,0,0:0:0:0:
192,192,94817,1,0,0:0:0:0:
320,192,94897,1,0,0:0:0:0:
448,192,94897,1,0,0:0:0:0:
192,192,94977,1,0,0:0:0:0:
64,192,95058,1,0,0:0:0:0:
448,192,95058,1,0,0:0:0:0:
320,192,95058,1,0,0:0:0:0:
320,192,95218,1,0,0:0:0:0:
192,192,95218,1,0,0:0:0:0:
64,192,95379,1,0,0:0:0:0:
320,192,95379,1,0,0:0:0:0:
448,192,95379,1,0,0:0:0:0:
320,192,95539,1,0,0:0:0:0:
192,192,95539,1,0,0:0:0:0:
320,192,95699,1,0,0:0:0:0:
448,192,95699,1,0,0:0:0:0:
192,192,95699,1,0,0:0:0:0:
192,192,95780,1,0,0:0:0:0:
64,192,95780,1,0,0:0:0:0:
320,192,95860,1,0,0:0:0:0:
448,192,95860,1,0,0:0:0:0:
448,192,96020,1,0,0:0:0:0:
320,192,96020,1,0,0:0:0:0:
192,192,96020,1,0,0:0:0:0:
64,192,96181,1,0,0:0:0:0:
192,192,96181,1,0,0:0:0:0:
448,192,96261,1,0,0:0:0:0:
320,192,96261,1,0,0:0:0:0:
320,192,96341,1,0,0:0:0:0:
448,192,96341,1,0,0:0:0:0:
192,192,96341,1,0,0:0:0:0:
320,192,96502,1,0,0:0:0:0:
192,192,96502,1,0,0:0:0:0:
192,192,96662,1,0,0:0:0:0:
320,192,96662,1,0,0:0:0:0:
448,192,96662,1,0,0:0:0:0:
320,192,96822,1,0,0:0:0:0:
448,192,96822,1,0,0:0:0:0:
64,192,96903,1,0,0:0:0:0:
192,192,96903,1,0,0:0:0:0:
320,192,96983,1,0,0:0:0:0:
192,192,96983,1,0,0:0:0:0:
64,192,96983,1,0,0:0:0:0:
64,192,97143,1,0,0:0:0:0:
192,192,97143,1,0,0:0:0:0:
320,192,97223,1,0,0:0:0:0:
192,192,97304,1,0,0:0:0:0:
64,192,97304,1,0,0:0:0:0:
448,192,97304,1,0,0:0:0:0:
448,192,97464,1,0,0:0:0:0:
320,192,97464,1,0,0:0:0:0:
64,192,97544,1,0,0:0:0:0:
192,192,97544,1,0,0:0:0:0:
320,192,97625,1,0,0:0:0:0:
448,192,97625,1,0,0:0:0:0:
192,192,97625,1,0,0:0:0:0:
64,192,97785,1,0,0:0:0:0:
192,192,97785,1,0,0:0:0:0:
192,192,97945,1,0,0:0:0:0:
64,192,97945,1,0,0:0:0:0:
320,192,97945,1,0,0:0:0:0:
192,192,98106,1,0,0:0:0:0:
64,192,98106,1,0,0:0:0:0:
448,192,98186,1,0,0:0:0:0:
320,192,98186,1,0,0:0:0:0:
192,192,98266,1,0,0:0:0:0:
320,192,98266,1,0,0:0:0:0:
448,192,98266,1,0,0:0:0:0:
64,192,98346,1,0,0:0:0:0:
192,192,98427,1,0,0:0:0:0:
320,192,98427,1,0,0:0:0:0:
192,192,98587,1,0,0:0:0:0:
320,192,98587,1,0,0:0:0:0:
448,192,98587,1,0,0:0:0:0:
448,192,98748,1,0,0:0:0:0:
320,192,98748,1,0,0:0:0:0:
192,192,98828,1,0,0:0:0:0:
64,192,98828,1,0,0:0:0:0:
320,192,98908,1,0,0:0:0:0:
448,192,98908,1,0,0:0:0:0:
192,192,98908,1,0,0:0:0:0:
64,192,99068,1,0,0:0:0:0:
192,192,99068,1,0,0:0:0:0:
192,192,99229,1,0,0:0:0:0:
64,192,99229,1,0,0:0:0:0:
320,192,99229,128,0,99389:0:0:0:0:
192,192,99389,1,0,0:0:0:0:
448,192,99389,1,0,0:0:0:0:
64,192,99550,1,0,0:0:0:0:
192,192,99550,1,0,0:0:0:0:
320,192,99550,128,0,99790:0:0:0:0:
192,192,99790,1,0,0:0:0:0:
448,192,99790,1,0,0:0:0:0:
64,192,99790,128,0,100031:0:0:0:0:
320,192,100031,1,0,0:0:0:0:
192,192,100031,1,0,0:0:0:0:
448,192,100031,128,0,100191:0:0:0:0:
320,192,100191,1,0,0:0:0:0:
192,192,100191,1,0,0:0:0:0:
64,192,100191,1,0,0:0:0:0:
320,192,100352,1,0,0:0:0:0:
192,192,100352,1,0,0:0:0:0:
320,192,100512,1,0,0:0:0:0:
448,192,100512,1,0,0:0:0:0:
64,192,100512,1,0,0:0:0:0:
320,192,100673,1,0,0:0:0:0:
192,192,100673,1,0,0:0:0:0:
320,192,100833,1,0,0:0:0:0:
448,192,100833,1,0,0:0:0:0:
192,192,100833,1,0,0:0:0:0:
192,192,100913,1,0,0:0:0:0:
64,192,100913,1,0,0:0:0:0:
320,192,100994,1,0,0:0:0:0:
448,192,100994,1,0,0:0:0:0:
320,192,101154,1,0,0:0:0:0:
192,192,101154,1,0,0:0:0:0:
448,192,101154,1,0,0:0:0:0:
64,192,101314,1,0,0:0:0:0:
192,192,101314,1,0,0:0:0:0:
320,192,101395,1,0,0:0:0:0:
448,192,101395,1,0,0:0:0:0:
192,192,101475,1,0,0:0:0:0:
448,192,101475,1,0,0:0:0:0:
320,192,101475,1,0,0:0:0:0:
64,192,101555,1,0,0:0:0:0:
192,192,101635,1,0,0:0:0:0:
448,192,101635,1,0,0:0:0:0:
320,192,101715,1,0,0:0:0:0:
192,192,101796,1,0,0:0:0:0:
64,192,101796,1,0,0:0:0:0:
448,192,101796,1,0,0:0:0:0:
320,192,101876,1,0,0:0:0:0:
192,192,101956,1,0,0:0:0:0:
64,192,101956,1,0,0:0:0:0:
320,192,102036,1,0,0:0:0:0:
192,192,102117,1,0,0:0:0:0:
64,192,102117,1,0,0:0:0:0:
448,192,102117,1,0,0:0:0:0:
192,192,102277,1,0,0:0:0:0:
320,192,102277,1,0,0:0:0:0:
192,192,102437,1,0,0:0:0:0:
320,192,102437,1,0,0:0:0:0:
448,192,102437,1,0,0:0:0:0:
320,192,102598,1,0,0:0:0:0:
448,192,102598,1,0,0:0:0:0:
192,192,102678,1,0,0:0:0:0:
64,192,102678,1,0,0:0:0:0:
448,192,102758,1,0,0:0:0:0:
320,192,102758,1,0,0:0:0:0:
192,192,102758,1,0,0:0:0:0:
320,192,102919,1,0,0:0:0:0:
192,192,102919,1,0,0:0:0:0:
448,192,103079,1,0,0:0:0:0:
320,192,103079,1,0,0:0:0:0:
192,192,103079,1,0,0:0:0:0:
192,192,103159,1,0,0:0:0:0:
64,192,103159,1,0,0:0:0:0:
448,192,103240,1,0,0:0:0:0:
320,192,103240,1,0,0:0:0:0:
64,192,103400,1,0,0:0:0:0:
192,192,103400,1,0,0:0:0:0:
448,192,103400,1,0,0:0:0:0:
448,192,103560,1,0,0:0:0:0:
320,192,103560,1,0,0:0:0:0:
192,192,103560,1,0,0:0:0:0:
64,192,103721,128,0,104042:0:0:0:0:
320,192,103721,1,0,0:0:0:0:
192,192,103721,1,0,0:0:0:0:
448,192,103801,1,0,0:0:0:0:
192,192,103881,1,0,0:0:0:0:
320,192,103881,1,0,0:0:0:0:
448,192,103961,1,0,0:0:0:0:
192,192,104042,1,0,0:0:0:0:
320,192,104042,1,0,0:0:0:0:
64,192,104202,1,0,0:0:0:0:
320,192,104363,1,0,0:0:0:0:
192,192,104363,1,0,0:0:0:0:
64,192,104523,1,0,0:0:0:0:
192,192,104683,1,0,0:0:0:0:
320,192,104683,1,0,0:0:0:0:
448,192,104683,1,0,0:0:0:0:
64,192,104764,1,0,0:0:0:0:
192,192,104764,1,0,0:0:0:0:
448,192,104844,1,0,0:0:0:0:
320,192,104844,1,0,0:0:0:0:
192,192,104924,1,0,0:0:0:0:
320,192,105004,1,0,0:0:0:0:
64,192,105004,1,0,0:0:0:0:
448,192,105004,1,0,0:0:0:0:
64,192,105165,1,0,0:0:0:0:
192,192,105165,1,0,0:0:0:0:
448,192,105245,1,0,0:0:0:0:
320,192,105245,1,0,0:0:0:0:
192,192,105325,1,0,0:0:0:0:
320,192,105325,1,0,0:0:0:0:
448,192,105325,1,0,0:0:0:0:
64,192,105486,1,0,0:0:0:0:
192,192,105486,1,0,0:0:0:0:
448,192,105646,1,0,0:0:0:0:
320,192,105646,1,0,0:0:0:0:
64,192,105646,1,0,0:0:0:0:
192,192,105806,1,0,0:0:0:0:
64,192,105806,1,0,0:0:0:0:
320,192,105967,1,0,0:0:0:0:
448,192,105967,1,0,0:0:0:0:
64,192,106047,1,0,0:0:0:0:
192,192,106047,1,0,0:0:0:0:
320,192,106127,1,0,0:0:0:0:
64,192,106127,1,0,0:0:0:0:
192,192,106127,1,0,0:0:0:0:
448,192,106288,1,0,0:0:0:0:
320,192,106288,1,0,0:0:0:0:
192,192,106288,1,0,0:0:0:0:
64,192,106448,1,0,0:0:0:0:
192,192,106448,1,0,0:0:0:0:
448,192,106528,1,0,0:0:0:0:
320,192,106528,1,0,0:0:0:0:
320,192,106609,1,0,0:0:0:0:
448,192,106609,1,0,0:0:0:0:
192,192,106609,1,0,0:0:0:0:
192,192,106769,1,0,0:0:0:0:
64,192,106769,1,0,0:0:0:0:
448,192,106929,1,0,0:0:0:0:
320,192,106929,1,0,0:0:0:0:
192,192,106929,1,0,0:0:0:0:
192,192,107090,1,0,0:0:0:0:
64,192,107090,1,0,0:0:0:0:
320,192,107170,1,0,0:0:0:0:
448,192,107170,1,0,0:0:0:0:
64,192,107250,1,0,0:0:0:0:
320,192,107250,1,0,0:0:0:0:
192,192,107250,1,0,0:0:0:0:
448,192,107411,1,0,0:0:0:0:
320,192,107411,1,0,0:0:0:0:
448,192,107571,1,0,0:0:0:0:
192,192,107571,1,0,0:0:0:0:
192,192,107732,1,0,0:0:0:0:
64,192,107732,1,0,0:0:0:0:
320,192,107812,1,0,0:0:0:0:
448,192,107812,1,0,0:0:0:0:
192,192,107892,1,0,0:0:0:0:
64,192,107892,1,0,0:0:0:0:
320,192,107892,1,0,0:0:0:0:
320,192,108052,1,0,0:0:0:0:
192,192,108052,1,0,0:0:0:0:
64,192,108213,1,0,0:0:0:0:
192,192,108213,1,0,0:0:0:0:
448,192,108373,1,0,0:0:0:0:
320,192,108373,1,0,0:0:0:0:
64,192,108453,1,0,0:0:0:0:
192,192,108453,1,0,0:0:0:0:
192,192,108534,1,0,0:0:0:0:
320,192,108534,1,0,0:0:0:0:
64,192,108534,1,0,0:0:0:0:
192,192,108694,1,0,0:0:0:0:
64,192,108694,1,0,0:0:0:0:
64,192,108855,1,0,0:0:0:0:
192,192,108855,1,0,0:0:0:0:
320,192,108855,1,0,0:0:0:0:
192,192,109015,1,0,0:0:0:0:
64,192,109015,1,0,0:0:0:0:
320,192,109095,1,0,0:0:0:0:
448,192,109095,1,0,0:0:0:0:
320,192,109175,1,0,0:0:0:0:
448,192,109175,1,0,0:0:0:0:
192,192,109175,1,0,0:0:0:0:
192,192,109336,1,0,0:0:0:0:
64,192,109336,1,0,0:0:0:0:
448,192,109336,1,0,0:0:0:0:
64,192,109496,1,0,0:0:0:0:
192,192,109496,1,0,0:0:0:0:
320,192,109496,128,0,109817:0:0:0:0:
64,192,109817,1,0,0:0:0:0:
192,192,109817,1,0,0:0:0:0:
448,192,109817,1,0,0:0:0:0:
448,192,110018,1,0,0:0:0:0:
320,192,110018,1,0,0:0:0:0:
64,192,110018,1,0,0:0:0:0:
192,192,110138,1,0,0:0:0:0:
320,192,110138,1,0,0:0:0:0:
64,192,110218,1,0,0:0:0:0:
448,192,110298,1,0,0:0:0:0:
320,192,110298,1,0,0:0:0:0:
192,192,110298,1,0,0:0:0:0:
448,192,110459,1,0,0:0:0:0:
320,192,110459,1,0,0:0:0:0:
192,192,110539,1,0,0:0:0:0:
320,192,110619,1,0,0:0:0:0:
64,192,110619,1,0,0:0:0:0:
192,192,110699,1,0,0:0:0:0:
320,192,110780,1,0,0:0:0:0:
448,192,110780,1,0,0:0:0:0:
192,192,110860,1,0,0:0:0:0:
320,192,110940,1,0,0:0:0:0:
64,192,110940,1,0,0:0:0:0:
192,192,111020,1,0,0:0:0:0:
320,192,111100,1,0,0:0:0:0:
448,192,111100,1,0,0:0:0:0:
192,192,111181,1,0,0:0:0:0:
320,192,111261,1,0,0:0:0:0:
192,192,111341,1,0,0:0:0:0:
64,192,111421,1,0,0:0:0:0:
448,192,111421,1,0,0:0:0:0:
192,192,111502,1,0,0:0:0:0:
320,192,111582,1,0,0:0:0:0:
448,192,111662,1,0,0:0:0:0:
64,192,111742,1,0,0:0:0:0:
192,192,111742,1,0,0:0:0:0:
320,192,111822,1,0,0:0:0:0:
192,192,111903,1,0,0:0:0:0:
448,192,111903,1,0,0:0:0:0:
320,192,111983,1,0,0:0:0:0:
64,192,112063,1,0,0:0:0:0:
448,192,112063,1,0,0:0:0:0:
192,192,112143,1,0,0:0:0:0:
320,192,112223,1,0,0:0:0:0:
448,192,112223,1,0,0:0:0:0:
192,192,112304,1,0,0:0:0:0:
64,192,112384,1,0,0:0:0:0:
320,192,112384,1,0,0:0:0:0:
448,192,112384,1,0,0:0:0:0:
192,192,112464,1,0,0:0:0:0:
448,192,112544,1,0,0:0:0:0:
320,192,112544,1,0,0:0:0:0:
192,192,112625,1,0,0:0:0:0:
64,192,112705,1,0,0:0:0:0:
448,192,112705,1,0,0:0:0:0:
320,192,112865,1,0,0:0:0:0:
192,192,112865,1,0,0:0:0:0:
448,192,113026,1,0,0:0:0:0:
320,192,113026,1,0,0:0:0:0:
192,192,113026,1,0,0:0:0:0:
320,192,113186,1,0,0:0:0:0:
192,192,113186,1,0,0:0:0:0:
64,192,113346,1,0,0:0:0:0:
320,192,113346,1,0,0:0:0:0:
64,192,113667,1,0,0:0:0:0:
192,192,113667,1,0,0:0:0:0:
320,192,113667,1,0,0:0:0:0:
448,192,113828,1,0,0:0:0:0:
320,192,113828,1,0,0:0:0:0:
64,192,113988,1,0,0:0:0:0:
192,192,113988,1,0,0:0:0:0:
320,192,113988,1,0,0:0:0:0:
448,192,114309,1,0,0:0:0:0:
320,192,114309,1,0,0:0:0:0:
192,192,114309,1,0,0:0:0:0:
64,192,114469,1,0,0:0:0:0:
320,192,114550,1,0,0:0:0:0:
192,192,114630,1,0,0:0:0:0:
64,192,114710,1,0,0:0:0:0:
320,192,114790,1,0,0:0:0:0:
192,192,114871,1,0,0:0:0:0:
448,192,114951,1,0,0:0:0:0:
320,192,115031,1,0,0:0:0:0:
192,192,115111,1,0,0:0:0:0:
64,192,115191,1,0,0:0:0:0:
192,192,115272,1,0,0:0:0:0:
320,192,115272,1,0,0:0:0:0:
320,192,115592,1,0,0:0:0:0:
64,192,115592,1,0,0:0:0:0:
192,192,115592,128,0,116074:0:0:0:0:
448,192,115673,1,0,0:0:0:0:
320,192,115753,1,0,0:0:0:0:
64,192,115833,1,0,0:0:0:0:
320,192,115913,1,0,0:0:0:0:
320,192,116074,1,0,0:0:0:0:
448,192,116074,1,0,0:0:0:0:
64,192,116074,128,0,116555:0:0:0:0:
320,192,116555,1,0,0:0:0:0:
192,192,116555,1,0,0:0:0:0:
448,192,116555,128,0,116876:0:0:0:0:
64,192,116796,1,0,0:0:0:0:
192,192,116796,1,0,0:0:0:0:
192,192,116876,1,0,0:0:0:0:
320,192,116876,1,0,0:0:0:0:
64,192,116876,1,0,0:0:0:0:
448,192,117036,1,0,0:0:0:0:
320,192,117036,128,0,117197:0:0:0:0:
192,192,117197,1,0,0:0:0:0:
64,192,117197,1,0,0:0:0:0:
64,192,117357,1,0,0:0:0:0:
192,192,117357,1,0,0:0:0:0:
192,192,117518,1,0,0:0:0:0:
320,192,117518,1,0,0:0:0:0:
448,192,117518,1,0,0:0:0:0:
448,192,117678,1,0,0:0:0:0:
320,192,117678,128,0,117838:0:0:0:0:
64,192,117838,1,0,0:0:0:0:
192,192,117838,1,0,0:0:0:0:
448,192,117919,1,0,0:0:0:0:
320,192,117999,1,0,0:0:0:0:
192,192,117999,1,0,0:0:0:0:
64,192,118079,1,0,0:0:0:0:
448,192,118159,1,0,0:0:0:0:
320,192,118159,1,0,0:0:0:0:
192,192,118159,128,0,118480:0:0:0:0:
64,192,118240,1,0,0:0:0:0:
320,192,118320,1,0,0:0:0:0:
64,192,118400,1,0,0:0:0:0:
448,192,118480,1,0,0:0:0:0:
320,192,118480,1,0,0:0:0:0:
64,192,118641,1,0,0:0:0:0:
192,192,118641,1,0,0:0:0:0:
64,192,118801,1,0,0:0:0:0:
192,192,118801,1,0,0:0:0:0:
448,192,118881,1,0,0:0:0:0:
320,192,118961,1,0,0:0:0:0:
192,192,118961,1,0,0:0:0:0:
448,192,119042,1,0,0:0:0:0:
192,192,119122,1,0,0:0:0:0:
64,192,119122,1,0,0:0:0:0:
320,192,119122,1,0,0:0:0:0:
448,192,119202,1,0,0:0:0:0:
64,192,119282,1,0,0:0:0:0:
192,192,119282,1,0,0:0:0:0:
448,192,119443,1,0,0:0:0:0:
192,192,119443,1,0,0:0:0:0:
320,192,119443,128,0,119764:0:0:0:0:
448,192,119764,1,0,0:0:0:0:
192,192,119764,1,0,0:0:0:0:
64,192,119764,128,0,120084:0:0:0:0:
320,192,119924,1,0,0:0:0:0:
192,192,119924,1,0,0:0:0:0:
448,192,120084,1,0,0:0:0:0:
320,192,120084,1,0,0:0:0:0:
192,192,120165,1,0,0:0:0:0:
320,192,120245,1,0,0:0:0:0:
192,192,120325,1,0,0:0:0:0:
448,192,120405,128,0,120726:0:0:0:0:
64,192,120405,1,0,0:0:0:0:
320,192,120405,1,0,0:0:0:0:
64,192,120726,1,0,0:0:0:0:
192,192,120726,1,0,0:0:0:0:
320,192,120726,128,0,121207:0:0:0:0:
448,192,121207,1,0,0:0:0:0:
192,192,121207,1,0,0:0:0:0:
64,192,121207,128,0,121689:0:0:0:0:
192,192,121368,1,0,0:0:0:0:
320,192,121448,1,0,0:0:0:0:
448,192,121528,1,0,0:0:0:0:
320,192,121609,1,0,0:0:0:0:
192,192,121689,1,0,0:0:0:0:
448,192,121689,128,0,122010:0:0:0:0:
64,192,121929,1,0,0:0:0:0:
192,192,121929,1,0,0:0:0:0:
64,192,122010,1,0,0:0:0:0:
192,192,122010,1,0,0:0:0:0:
320,192,122010,1,0,0:0:0:0:
64,192,122170,1,0,0:0:0:0:
192,192,122170,128,0,122330:0:0:0:0:
448,192,122330,1,0,0:0:0:0:
320,192,122330,1,0,0:0:0:0:
64,192,122330,1,0,0:0:0:0:
64,192,122491,1,0,0:0:0:0:
192,192,122491,1,0,0:0:0:0:
64,192,122651,1,0,0:0:0:0:
192,192,122732,1,0,0:0:0:0:
320,192,122812,1,0,0:0:0:0:
192,192,122892,1,0,0:0:0:0:
448,192,122972,1,0,0:0:0:0:
64,192,122972,1,0,0:0:0:0:
320,192,122972,1,0,0:0:0:0:
192,192,123213,1,0,0:0:0:0:
64,192,123213,1,0,0:0:0:0:
64,192,123293,1,0,0:0:0:0:
192,192,123293,1,0,0:0:0:0:
320,192,123293,1,0,0:0:0:0:
192,192,123453,128,0,123614:0:0:0:0:
64,192,123453,1,0,0:0:0:0:
64,192,123614,1,0,0:0:0:0:
320,192,123614,1,0,0:0:0:0:
448,192,123614,1,0,0:0:0:0:
64,192,123774,1,0,0:0:0:0:
192,192,123774,1,0,0:0:0:0:
64,192,123935,1,0,0:0:0:0:
448,192,123935,1,0,0:0:0:0:
192,192,124015,1,0,0:0:0:0:
320,192,124095,1,0,0:0:0:0:
192,192,124175,1,0,0:0:0:0:
448,192,124256,1,0,0:0:0:0:
64,192,124256,1,0,0:0:0:0:
320,192,124256,1,0,0:0:0:0:
192,192,124416,1,0,0:0:0:0:
320,192,124496,1,0,0:0:0:0:
448,192,124576,1,0,0:0:0:0:
64,192,124576,1,0,0:0:0:0:
192,192,124576,1,0,0:0:0:0:
320,192,124737,1,0,0:0:0:0:
448,192,124737,1,0,0:0:0:0:
320,192,124897,1,0,0:0:0:0:
64,192,124897,1,0,0:0:0:0:
320,192,125058,1,0,0:0:0:0:
192,192,125058,1,0,0:0:0:0:
64,192,125218,1,0,0:0:0:0:
192,192,125218,1,0,0:0:0:0:
320,192,125218,1,0,0:0:0:0:
64,192,125379,1,0,0:0:0:0:
448,192,125379,1,0,0:0:0:0:
192,192,125459,1,0,0:0:0:0:
320,192,125459,1,0,0:0:0:0:
192,192,125780,1,0,0:0:0:0:
64,192,125780,1,0,0:0:0:0:
192,192,125860,1,0,0:0:0:0:
320,192,125860,128,0,126341:0:0:0:0:
64,192,125860,1,0,0:0:0:0:
448,192,126341,1,0,0:0:0:0:
192,192,126341,1,0,0:0:0:0:
64,192,126341,128,0,126822:0:0:0:0:
320,192,126822,1,0,0:0:0:0:
192,192,126822,1,0,0:0:0:0:
448,192,126822,128,0,127143:0:0:0:0:
64,192,127063,1,0,0:0:0:0:
192,192,127063,1,0,0:0:0:0:
64,192,127143,1,0,0:0:0:0:
192,192,127143,1,0,0:0:0:0:
320,192,127143,1,0,0:0:0:0:
192,192,127304,1,0,0:0:0:0:
64,192,127304,128,0,127464:0:0:0:0:
192,192,127464,1,0,0:0:0:0:
320,192,127464,1,0,0:0:0:0:
64,192,127625,1,0,0:0:0:0:
192,192,127625,1,0,0:0:0:0:
448,192,127785,1,0,0:0:0:0:
320,192,127785,1,0,0:0:0:0:
64,192,127785,1,0,0:0:0:0:
192,192,127865,1,0,0:0:0:0:
320,192,127945,1,0,0:0:0:0:
192,192,128026,1,0,0:0:0:0:
64,192,128106,1,0,0:0:0:0:
448,192,128106,1,0,0:0:0:0:
320,192,128186,1,0,0:0:0:0:
64,192,128266,1,0,0:0:0:0:
192,192,128346,1,0,0:0:0:0:
64,192,128427,1,0,0:0:0:0:
448,192,128427,1,0,0:0:0:0:
320,192,128427,1,0,0:0:0:0:
192,192,128507,1,0,0:0:0:0:
320,192,128587,1,0,0:0:0:0:
192,192,128667,1,0,0:0:0:0:
64,192,128748,1,0,0:0:0:0:
448,192,128748,1,0,0:0:0:0:
192,192,128828,1,0,0:0:0:0:
320,192,128908,1,0,0:0:0:0:
448,192,128908,1,0,0:0:0:0:
192,192,128988,1,0,0:0:0:0:
64,192,129068,1,0,0:0:0:0:
448,192,129068,1,0,0:0:0:0:
320,192,129068,1,0,0:0:0:0:
192,192,129149,1,0,0:0:0:0:
320,192,129229,1,0,0:0:0:0:
448,192,129229,1,0,0:0:0:0:
192,192,129309,1,0,0:0:0:0:
448,192,129389,1,0,0:0:0:0:
64,192,129389,1,0,0:0:0:0:
320,192,129469,1,0,0:0:0:0:
192,192,129550,1,0,0:0:0:0:
320,192,129630,1,0,0:0:0:0:
448,192,129630,1,0,0:0:0:0:
192,192,129710,1,0,0:0:0:0:
320,192,129710,1,0,0:0:0:0:
448,192,129710,128,0,130031:0:0:0:0:
320,192,130031,1,0,0:0:0:0:
64,192,130031,1,0,0:0:0:0:
192,192,130031,128,0,130352:0:0:0:0:
320,192,130191,1,0,0:0:0:0:
448,192,130191,1,0,0:0:0:0:
448,192,130352,1,0,0:0:0:0:
64,192,130352,1,0,0:0:0:0:
320,192,130352,128,0,130673:0:0:0:0:
64,192,130673,1,0,0:0:0:0:
192,192,130673,1,0,0:0:0:0:
448,192,130673,128,0,130994:0:0:0:0:
64,192,130994,1,0,0:0:0:0:
320,192,130994,1,0,0:0:0:0:
192,192,130994,128,0,131475:0:0:0:0:
448,192,131475,1,0,0:0:0:0:
320,192,131475,1,0,0:0:0:0:
64,192,131475,128,0,131956:0:0:0:0:
192,192,131635,1,0,0:0:0:0:
320,192,131715,1,0,0:0:0:0:
448,192,131796,1,0,0:0:0:0:
320,192,131876,1,0,0:0:0:0:
448,192,131956,1,0,0:0:0:0:
192,192,131956,1,0,0:0:0:0:
192,192,132197,1,0,0:0:0:0:
64,192,132197,1,0,0:0:0:0:
64,192,132277,1,0,0:0:0:0:
192,192,132277,1,0,0:0:0:0:
320,192,132277,1,0,0:0:0:0:
448,192,132357,1,0,0:0:0:0:
320,192,132437,1,0,0:0:0:0:
192,192,132518,1,0,0:0:0:0:
64,192,132598,1,0,0:0:0:0:
448,192,132598,1,0,0:0:0:0:
192,192,132678,1,0,0:0:0:0:
320,192,132758,1,0,0:0:0:0:
448,192,132758,1,0,0:0:0:0:
192,192,132838,1,0,0:0:0:0:
64,192,132919,1,0,0:0:0:0:
448,192,132919,1,0,0:0:0:0:
192,192,132999,1,0,0:0:0:0:
320,192,133079,1,0,0:0:0:0:
448,192,133079,1,0,0:0:0:0:
192,192,133159,1,0,0:0:0:0:
448,192,133240,1,0,0:0:0:0:
64,192,133240,1,0,0:0:0:0:
320,192,133320,1,0,0:0:0:0:
192,192,133400,1,0,0:0:0:0:
64,192,133400,1,0,0:0:0:0:
320,192,133480,1,0,0:0:0:0:
64,192,133560,1,0,0:0:0:0:
192,192,133560,1,0,0:0:0:0:
448,192,133560,1,0,0:0:0:0:
320,192,133641,1,0,0:0:0:0:
192,192,133721,1,0,0:0:0:0:
64,192,133721,1,0,0:0:0:0:
192,192,133881,1,0,0:0:0:0:
320,192,133881,1,0,0:0:0:0:
448,192,134042,1,0,0:0:0:0:
64,192,134042,1,0,0:0:0:0:
192,192,134122,1,0,0:0:0:0:
320,192,134202,1,0,0:0:0:0:
192,192,134282,1,0,0:0:0:0:
320,192,134363,1,0,0:0:0:0:
448,192,134363,1,0,0:0:0:0:
192,192,134443,1,0,0:0:0:0:
320,192,134523,1,0,0:0:0:0:
64,192,134523,1,0,0:0:0:0:
192,192,134603,1,0,0:0:0:0:
320,192,134683,1,0,0:0:0:0:
192,192,134764,1,0,0:0:0:0:
64,192,134844,1,0,0:0:0:0:
448,192,134844,1,0,0:0:0:0:
320,192,134924,1,0,0:0:0:0:
192,192,135004,1,0,0:0:0:0:
64,192,135084,1,0,0:0:0:0:
320,192,135165,1,0,0:0:0:0:
448,192,135165,1,0,0:0:0:0:
192,192,135245,1,0,0:0:0:0:
320,192,135325,1,0,0:0:0:0:
192,192,135405,1,0,0:0:0:0:
64,192,135486,1,0,0:0:0:0:
320,192,135486,1,0,0:0:0:0:
448,192,135566,1,0,0:0:0:0:
320,192,135646,1,0,0:0:0:0:
192,192,135726,1,0,0:0:0:0:
64,192,135806,1,0,0:0:0:0:
448,192,135806,1,0,0:0:0:0:
192,192,135887,1,0,0:0:0:0:
320,192,135967,1,0,0:0:0:0:
448,192,135967,1,0,0:0:0:0:
192,192,136047,1,0,0:0:0:0:
64,192,136127,1,0,0:0:0:0:
448,192,136127,1,0,0:0:0:0:
320,192,136127,1,0,0:0:0:0:
320,192,136288,1,0,0:0:0:0:
192,192,136288,1,0,0:0:0:0:
192,192,136448,1,0,0:0:0:0:
320,192,136448,1,0,0:0:0:0:
320,192,136609,1,0,0:0:0:0:
192,192,136609,1,0,0:0:0:0:
448,192,136609,1,0,0:0:0:0:
64,192,136769,1,0,0:0:0:0:
192,192,136769,1,0,0:0:0:0:
320,192,136769,1,0,0:0:0:0:
448,192,136929,1,0,0:0:0:0:
320,192,136929,1,0,0:0:0:0:
192,192,136929,1,0,0:0:0:0:
448,192,137090,1,0,0:0:0:0:
320,192,137090,1,0,0:0:0:0:
64,192,137090,1,0,0:0:0:0:
320,192,137250,1,0,0:0:0:0:
192,192,137250,1,0,0:0:0:0:
64,192,137250,1,0,0:0:0:0:
64,192,137411,1,0,0:0:0:0:
448,192,137411,1,0,0:0:0:0:
192,192,137411,1,0,0:0:0:0:
320,192,137571,1,0,0:0:0:0:
192,192,137571,1,0,0:0:0:0:
320,192,137732,1,0,0:0:0:0:
192,192,137732,1,0,0:0:0:0:
64,192,137892,1,0,0:0:0:0:
192,192,137892,1,0,0:0:0:0:
320,192,137892,1,0,0:0:0:0:
64,192,138052,1,0,0:0:0:0:
192,192,138052,1,0,0:0:0:0:
448,192,138052,1,0,0:0:0:0:
448,192,138213,1,0,0:0:0:0:
320,192,138213,1,0,0:0:0:0:
192,192,138213,1,0,0:0:0:0:
448,192,138373,1,0,0:0:0:0:
320,192,138373,1,0,0:0:0:0:
64,192,138373,1,0,0:0:0:0:
64,192,138534,1,0,0:0:0:0:
192,192,138534,1,0,0:0:0:0:
320,192,138534,1,0,0:0:0:0:
64,192,138694,1,0,0:0:0:0:
192,192,138694,1,0,0:0:0:0:
448,192,138694,1,0,0:0:0:0:
64,192,138855,1,0,0:0:0:0:
192,192,138855,1,0,0:0:0:0:
192,192,139015,1,0,0:0:0:0:
64,192,139015,1,0,0:0:0:0:
320,192,139015,1,0,0:0:0:0:
192,192,139175,1,0,0:0:0:0:
320,192,139175,1,0,0:0:0:0:
448,192,139175,1,0,0:0:0:0:
448,192,139336,1,0,0:0:0:0:
320,192,139336,1,0,0:0:0:0:
192,192,139496,1,0,0:0:0:0:
64,192,139496,1,0,0:0:0:0:
448,192,139496,1,0,0:0:0:0:
192,192,139657,1,0,0:0:0:0:
64,192,139657,1,0,0:0:0:0:
320,192,139657,1,0,0:0:0:0:
448,192,139817,1,0,0:0:0:0:
320,192,139817,1,0,0:0:0:0:
192,192,139817,1,0,0:0:0:0:
448,192,139977,1,0,0:0:0:0:
192,192,139977,1,0,0:0:0:0:
64,192,139977,1,0,0:0:0:0:
320,192,140138,1,0,0:0:0:0:
192,192,140138,1,0,0:0:0:0:
64,192,140138,1,0,0:0:0:0:
320,192,140298,1,0,0:0:0:0:
64,192,140298,1,0,0:0:0:0:
448,192,140379,1,0,0:0:0:0:
192,192,140459,1,0,0:0:0:0:
320,192,140459,1,0,0:0:0:0:
64,192,140539,1,0,0:0:0:0:
192,192,140619,1,0,0:0:0:0:
320,192,140619,1,0,0:0:0:0:
64,192,140780,1,0,0:0:0:0:
448,192,140780,1,0,0:0:0:0:
64,192,140940,1,0,0:0:0:0:
192,192,140940,1,0,0:0:0:0:
320,192,141020,1,0,0:0:0:0:
192,192,141100,1,0,0:0:0:0:
64,192,141181,1,0,0:0:0:0:
192,192,141261,1,0,0:0:0:0:
320,192,141261,1,0,0:0:0:0:
448,192,141261,1,0,0:0:0:0:
320,192,141421,1,0,0:0:0:0:
192,192,141421,1,0,0:0:0:0:
64,192,141421,1,0,0:0:0:0:
448,192,141582,1,0,0:0:0:0:
320,192,141582,1,0,0:0:0:0:
64,192,141582,1,0,0:0:0:0:
64,192,141742,1,0,0:0:0:0:
192,192,141742,1,0,0:0:0:0:
320,192,141742,1,0,0:0:0:0:
448,192,141903,1,0,0:0:0:0:
320,192,141903,1,0,0:0:0:0:
64,192,141903,1,0,0:0:0:0:
192,192,142063,1,0,0:0:0:0:
64,192,142063,1,0,0:0:0:0:
448,192,142223,1,0,0:0:0:0:
320,192,142223,1,0,0:0:0:0:
192,192,142223,1,0,0:0:0:0:
320,192,142384,1,0,0:0:0:0:
192,192,142384,1,0,0:0:0:0:
64,192,142544,1,0,0:0:0:0:
192,192,142544,1,0,0:0:0:0:
320,192,142544,1,0,0:0:0:0:
448,192,142865,1,0,0:0:0:0:
320,192,142865,1,0,0:0:0:0:
192,192,142865,1,0,0:0:0:0:
448,192,143186,1,0,0:0:0:0:
192,192,143186,1,0,0:0:0:0:
64,192,143186,1,0,0:0:0:0:
64,192,143507,1,0,0:0:0:0:
320,192,143507,1,0,0:0:0:0:
192,192,143507,1,0,0:0:0:0:
192,192,143828,1,0,0:0:0:0:
320,192,143828,1,0,0:0:0:0:
448,192,143828,1,0,0:0:0:0:
448,192,143988,1,0,0:0:0:0:
320,192,143988,1,0,0:0:0:0:
320,192,144149,1,0,0:0:0:0:
64,192,144149,1,0,0:0:0:0:
192,192,144149,1,0,0:0:0:0:
448,192,144229,1,0,0:0:0:0:
64,192,144309,1,0,0:0:0:0:
192,192,144309,1,0,0:0:0:0:
448,192,144389,1,0,0:0:0:0:
320,192,144469,1,0,0:0:0:0:
64,192,144469,1,0,0:0:0:0:
192,192,144469,1,0,0:0:0:0:
448,192,144550,1,0,0:0:0:0:
192,192,144630,1,0,0:0:0:0:
64,192,144630,1,0,0:0:0:0:
320,192,144710,1,0,0:0:0:0:
192,192,144790,1,0,0:0:0:0:
64,192,144790,1,0,0:0:0:0:
320,192,144871,1,0,0:0:0:0:
448,192,144951,1,0,0:0:0:0:
192,192,144951,1,0,0:0:0:0:
320,192,145031,1,0,0:0:0:0:
64,192,145111,1,0,0:0:0:0:
192,192,145111,1,0,0:0:0:0:
448,192,145111,1,0,0:0:0:0:
192,192,145332,1,0,0:0:0:0:
320,192,145332,1,0,0:0:0:0:
448,192,145332,1,0,0:0:0:0:
64,192,145552,1,0,0:0:0:0:
192,192,145552,1,0,0:0:0:0:
448,192,145552,1,0,0:0:0:0:
320,192,145753,1,0,0:0:0:0:
192,192,145753,1,0,0:0:0:0:
64,192,145753,1,0,0:0:0:0:
192,192,145973,1,0,0:0:0:0:
448,192,145973,1,0,0:0:0:0:
320,192,146194,1,0,0:0:0:0:
192,192,146194,1,0,0:0:0:0:
64,192,146395,1,0,0:0:0:0:
448,192,146395,1,0,0:0:0:0:
192,192,146555,1,0,0:0:0:0:
320,192,146715,1,0,0:0:0:0:
448,192,146876,1,0,0:0:0:0:
64,192,147036,1,0,0:0:0:0:
320,192,147036,1,0,0:0:0:0:
192,192,147197,1,0,0:0:0:0:
320,192,147357,1,0,0:0:0:0:
448,192,147518,1,0,0:0:0:0:
192,192,147678,1,0,0:0:0:0:
320,192,147678,1,0,0:0:0:0:
64,192,147838,1,0,0:0:0:0:
192,192,147919,1,0,0:0:0:0:
320,192,147999,1,0,0:0:0:0:
192,192,148079,1,0,0:0:0:0:
448,192,148159,1,0,0:0:0:0:
64,192,148240,1,0,0:0:0:0:
192,192,148320,1,0,0:0:0:0:
320,192,148320,1,0,0:0:0:0:
448,192,148400,1,0,0:0:0:0:
64,192,148480,1,0,0:0:0:0:
192,192,148560,1,0,0:0:0:0:
320,192,148641,1,0,0:0:0:0:
448,192,148641,1,0,0:0:0:0:
192,192,148721,1,0,0:0:0:0:
320,192,148801,1,0,0:0:0:0:
192,192,148881,1,0,0:0:0:0:
320,192,148961,1,0,0:0:0:0:
448,192,148961,1,0,0:0:0:0:
192,192,149042,1,0,0:0:0:0:
320,192,149122,1,0,0:0:0:0:
192,192,149202,1,0,0:0:0:0:
320,192,149282,1,0,0:0:0:0:
448,192,149282,1,0,0:0:0:0:
192,192,149363,1,0,0:0:0:0:
64,192,149443,1,0,0:0:0:0:
192,192,149523,1,0,0:0:0:0:
320,192,149603,1,0,0:0:0:0:
448,192,149603,1,0,0:0:0:0:
192,192,149683,1,0,0:0:0:0:
64,192,149764,1,0,0:0:0:0:
448,192,149844,1,0,0:0:0:0:
192,192,149924,1,0,0:0:0:0:
320,192,149924,1,0,0:0:0:0:
64,192,150004,1,0,0:0:0:0:
448,192,150084,1,0,0:0:0:0:
320,192,150165,1,0,0:0:0:0:
192,192,150245,1,0,0:0:0:0:
64,192,150245,1,0,0:0:0:0:
320,192,150325,1,0,0:0:0:0:
192,192,150405,1,0,0:0:0:0:
320,192,150486,1,0,0:0:0:0:
192,192,150566,1,0,0:0:0:0:
448,192,150566,1,0,0:0:0:0:
64,192,150566,1,0,0:0:0:0:
320,192,150646,1,0,0:0:0:0:
64,192,150726,1,0,0:0:0:0:
192,192,150726,1,0,0:0:0:0:
448,192,150806,1,0,0:0:0:0:
320,192,150887,1,0,0:0:0:0:
192,192,150887,1,0,0:0:0:0:
64,192,150887,1,0,0:0:0:0:
448,192,150967,1,0,0:0:0:0:
64,192,151047,1,0,0:0:0:0:
192,192,151047,1,0,0:0:0:0:
320,192,151127,1,0,0:0:0:0:
64,192,151207,1,0,0:0:0:0:
192,192,151207,1,0,0:0:0:0:
448,192,151207,1,0,0:0:0:0:
320,192,151288,1,0,0:0:0:0:
448,192,151368,1,0,0:0:0:0:
192,192,151368,1,0,0:0:0:0:
64,192,151448,1,0,0:0:0:0:
448,192,151528,1,0,0:0:0:0:
320,192,151528,1,0,0:0:0:0:
192,192,151528,1,0,0:0:0:0:
320,192,151689,1,0,0:0:0:0:
64,192,151689,1,0,0:0:0:0:
192,192,151849,1,0,0:0:0:0:
448,192,151849,1,0,0:0:0:0:
192,192,152010,1,0,0:0:0:0:
64,192,152010,1,0,0:0:0:0:
320,192,152170,1,0,0:0:0:0:
192,192,152170,1,0,0:0:0:0:
448,192,152491,1,0,0:0:0:0:
320,192,152491,1,0,0:0:0:0:
64,192,152812,1,0,0:0:0:0:
320,192,152812,1,0,0:0:0:0:
192,192,152972,1,0,0:0:0:0:
320,192,153133,1,0,0:0:0:0:
64,192,153293,1,0,0:0:0:0:
192,192,153453,1,0,0:0:0:0:
320,192,153614,1,0,0:0:0:0:
64,192,153614,1,0,0:0:0:0:
192,192,153774,1,0,0:0:0:0:
448,192,153774,1,0,0:0:0:0:
64,192,153935,1,0,0:0:0:0:
448,192,153935,1,0,0:0:0:0:
448,192,154095,1,0,0:0:0:0:
192,192,154095,1,0,0:0:0:0:
64,192,154256,1,0,0:0:0:0:
320,192,154256,1,0,0:0:0:0:
192,192,154416,1,0,0:0:0:0:
320,192,154416,1,0,0:0:0:0:
64,192,154576,1,0,0:0:0:0:
192,192,154576,1,0,0:0:0:0:
320,192,154737,1,0,0:0:0:0:
192,192,154737,1,0,0:0:0:0:
192,192,154897,1,0,0:0:0:0:
448,192,154897,1,0,0:0:0:0:
448,192,155058,1,0,0:0:0:0:
320,192,155058,1,0,0:0:0:0:
192,192,155218,1,0,0:0:0:0:
448,192,155218,1,0,0:0:0:0:
320,192,155379,1,0,0:0:0:0:
64,192,155379,1,0,0:0:0:0:
192,192,155459,1,0,0:0:0:0:
320,192,155539,1,0,0:0:0:0:
192,192,155619,1,0,0:0:0:0:
448,192,155699,1,0,0:0:0:0:
64,192,155699,1,0,0:0:0:0:
320,192,155780,1,0,0:0:0:0:
192,192,155860,1,0,0:0:0:0:
320,192,155940,1,0,0:0:0:0:
192,192,156020,1,0,0:0:0:0:
64,192,156020,1,0,0:0:0:0:
320,192,156100,1,0,0:0:0:0:
192,192,156181,1,0,0:0:0:0:
320,192,156261,1,0,0:0:0:0:
448,192,156341,1,0,0:0:0:0:
64,192,156341,1,0,0:0:0:0:
320,192,156421,1,0,0:0:0:0:
192,192,156502,1,0,0:0:0:0:
64,192,156582,1,0,0:0:0:0:
320,192,156662,1,0,0:0:0:0:
448,192,156742,1,0,0:0:0:0:
320,192,156822,1,0,0:0:0:0:
192,192,156903,1,0,0:0:0:0:
320,192,156983,1,0,0:0:0:0:
448,192,157063,1,0,0:0:0:0:
320,192,157143,1,0,0:0:0:0:
192,192,157223,1,0,0:0:0:0:
64,192,157304,1,0,0:0:0:0:
320,192,157384,1,0,0:0:0:0:
192,192,157464,1,0,0:0:0:0:
64,192,157544,1,0,0:0:0:0:
320,192,157625,1,0,0:0:0:0:
448,192,157705,1,0,0:0:0:0:
320,192,157785,1,0,0:0:0:0:
192,192,157865,1,0,0:0:0:0:
320,192,157945,1,0,0:0:0:0:
448,192,158026,1,0,0:0:0:0:
320,192,158106,1,0,0:0:0:0:
192,192,158186,1,0,0:0:0:0:
64,192,158266,1,0,0:0:0:0:
448,192,158346,1,0,0:0:0:0:
320,192,158427,1,0,0:0:0:0:
192,192,158507,1,0,0:0:0:0:
320,192,158587,1,0,0:0:0:0:
448,192,158667,1,0,0:0:0:0:
320,192,158748,1,0,0:0:0:0:
192,192,158828,1,0,0:0:0:0:
64,192,158908,1,0,0:0:0:0:
320,192,158988,1,0,0:0:0:0:
192,192,159068,1,0,0:0:0:0:
64,192,159149,1,0,0:0:0:0:
192,192,159229,1,0,0:0:0:0:
320,192,159309,1,0,0:0:0:0:
192,192,159389,1,0,0:0:0:0:
64,192,159469,1,0,0:0:0:0:
192,192,159550,1,0,0:0:0:0:
320,192,159630,1,0,0:0:0:0:
192,192,159710,1,0,0:0:0:0:
64,192,159790,1,0,0:0:0:0:
192,192,159871,1,0,0:0:0:0:
64,192,159951,1,0,0:0:0:0:
320,192,160031,1,0,0:0:0:0:
192,192,160111,1,0,0:0:0:0:
448,192,160191,1,0,0:0:0:0:
64,192,160272,1,0,0:0:0:0:
192,192,160352,1,0,0:0:0:0:
320,192,160432,1,0,0:0:0:0:
448,192,160512,1,0,0:0:0:0:
320,192,160592,1,0,0:0:0:0:
192,192,160673,1,0,0:0:0:0:
448,192,160753,1,0,0:0:0:0:
320,192,160833,1,0,0:0:0:0:
192,192,160913,1,0,0:0:0:0:
64,192,160994,1,0,0:0:0:0:
320,192,161074,1,0,0:0:0:0:
192,192,161154,1,0,0:0:0:0:
64,192,161234,1,0,0:0:0:0:
448,192,161314,1,0,0:0:0:0:
320,192,161395,1,0,0:0:0:0:
192,192,161475,1,0,0:0:0:0:
320,192,161555,1,0,0:0:0:0:
192,192,161635,1,0,0:0:0:0:
64,192,161715,1,0,0:0:0:0:
192,192,161796,1,0,0:0:0:0:
320,192,161796,1,0,0:0:0:0:
448,192,161796,1,0,0:0:0:0:
64,192,161796,128,0,162437:0:0:0:0:
320,192,162437,1,0,0:0:0:0:
192,192,162437,1,0,0:0:0:0:
448,192,162437,128,0,163079:0:0:0:0:
64,192,163079,1,0,0:0:0:0:
320,192,163079,1,0,0:0:0:0:
192,192,163079,128,0,163721:0:0:0:0:
448,192,163721,1,0,0:0:0:0:
64,192,163721,1,0,0:0:0:0:
320,192,163721,128,0,164363:0:0:0:0:
192,192,164363,1,0,0:0:0:0:
448,192,164363,1,0,0:0:0:0:
64,192,164363,128,0,165004:0:0:0:0:
192,192,165004,1,0,0:0:0:0:
448,192,165004,1,0,0:0:0:0:
320,192,165004,128,0,165646:0:0:0:0:
64,192,165646,1,0,0:0:0:0:
448,192,165646,1,0,0:0:0:0:
192,192,165646,128,0,166288:0:0:0:0:
64,192,166288,1,0,0:0:0:0:
320,192,166288,1,0,0:0:0:0:
448,192,166288,128,0,166929:0:0:0:0:
192,192,166929,1,0,0:0:0:0:
64,192,166929,128,0,167330:0:0:0:0:
320,192,167330,1,0,0:0:0:0:
192,192,167330,128,0,167732:0:0:0:0:
448,192,167732,1,0,0:0:0:0:
320,192,167732,128,0,168213:0:0:0:0:
192,192,167892,128,0,168213:0:0:0:0:
448,192,168213,128,0,168534:0:0:0:0:
64,192,168213,128,0,168534:0:0:0:0:
320,192,168534,128,0,168855:0:0:0:0:
192,192,168534,128,0,168855:0:0:0:0:
448,192,168855,128,0,169175:0:0:0:0:
64,192,168855,128,0,169496:0:0:0:0:
320,192,169175,128,0,169496:0:0:0:0:
448,192,169496,1,0,0:0:0:0:
192,192,169496,1,0,0:0:0:0:
64,192,169657,1,0,0:0:0:0:
320,192,169657,1,0,0:0:0:0:
448,192,169817,1,0,0:0:0:0:
192,192,169817,1,0,0:0:0:0:
320,192,169977,1,0,0:0:0:0:
64,192,169977,1,0,0:0:0:0:
448,192,170138,1,0,0:0:0:0:
192,192,170138,1,0,0:0:0:0:
320,192,170298,1,0,0:0:0:0:
64,192,170298,1,0,0:0:0:0:
448,192,170459,1,0,0:0:0:0:
192,192,170459,1,0,0:0:0:0:
320,192,170619,1,0,0:0:0:0:
64,192,170619,1,0,0:0:0:0:
64,192,170780,1,0,0:0:0:0:
192,192,170780,1,0,0:0:0:0:
320,192,170780,1,0,0:0:0:0:
64,192,171582,1,0,0:0:0:0:
192,192,171582,1,0,0:0:0:0:
320,192,171582,1,0,0:0:0:0:
320,192,171662,1,0,0:0:0:0:
192,192,171662,1,0,0:0:0:0:
64,192,171662,1,0,0:0:0:0:
64,192,171742,1,0,0:0:0:0:
192,192,171742,1,0,0:0:0:0:
320,192,171742,1,0,0:0:0:0:
192,192,171903,1,0,0:0:0:0:
320,192,171903,1,0,0:0:0:0:
320,192,172063,1,0,0:0:0:0:
192,192,172063,1,0,0:0:0:0:
448,192,172063,128,0,172384:0:0:0:0:
192,192,172384,1,0,0:0:0:0:
64,192,172384,1,0,0:0:0:0:
320,192,172384,1,0,0:0:0:0:
64,192,172544,1,0,0:0:0:0:
192,192,172544,1,0,0:0:0:0:
320,192,172705,1,0,0:0:0:0:
192,192,172705,1,0,0:0:0:0:
64,192,172705,1,0,0:0:0:0:
448,192,172785,1,0,0:0:0:0:
320,192,172785,1,0,0:0:0:0:
192,192,172865,1,0,0:0:0:0:
64,192,172865,1,0,0:0:0:0:
448,192,173026,1,0,0:0:0:0:
320,192,173026,1,0,0:0:0:0:
192,192,173026,1,0,0:0:0:0:
448,192,173186,1,0,0:0:0:0:
320,192,173186,1,0,0:0:0:0:
192,192,173266,1,0,0:0:0:0:
64,192,173266,1,0,0:0:0:0:
320,192,173346,1,0,0:0:0:0:
448,192,173346,1,0,0:0:0:0:
192,192,173346,1,0,0:0:0:0:
320,192,173507,1,0,0:0:0:0:
192,192,173507,1,0,0:0:0:0:
192,192,173667,1,0,0:0:0:0:
320,192,173667,1,0,0:0:0:0:
448,192,173667,1,0,0:0:0:0:
448,192,173828,1,0,0:0:0:0:
320,192,173828,1,0,0:0:0:0:
64,192,173908,1,0,0:0:0:0:
192,192,173908,1,0,0:0:0:0:
320,192,173988,1,0,0:0:0:0:
192,192,173988,1,0,0:0:0:0:
448,192,173988,1,0,0:0:0:0:
448,192,174149,1,0,0:0:0:0:
320,192,174149,1,0,0:0:0:0:
192,192,174229,1,0,0:0:0:0:
320,192,174309,1,0,0:0:0:0:
64,192,174309,1,0,0:0:0:0:
448,192,174309,1,0,0:0:0:0:
64,192,174469,1,0,0:0:0:0:
192,192,174469,1,0,0:0:0:0:
448,192,174550,1,0,0:0:0:0:
320,192,174550,1,0,0:0:0:0:
320,192,174630,1,0,0:0:0:0:
192,192,174630,1,0,0:0:0:0:
64,192,174630,1,0,0:0:0:0:
64,192,174790,1,0,0:0:0:0:
192,192,174790,1,0,0:0:0:0:
192,192,174951,1,0,0:0:0:0:
64,192,174951,1,0,0:0:0:0:
320,192,174951,1,0,0:0:0:0:
192,192,175111,1,0,0:0:0:0:
64,192,175111,1,0,0:0:0:0:
320,192,175191,1,0,0:0:0:0:
448,192,175191,1,0,0:0:0:0:
192,192,175272,1,0,0:0:0:0:
320,192,175272,1,0,0:0:0:0:
448,192,175272,1,0,0:0:0:0:
64,192,175352,1,0,0:0:0:0:
192,192,175432,1,0,0:0:0:0:
320,192,175432,1,0,0:0:0:0:
192,192,175592,1,0,0:0:0:0:
320,192,175592,1,0,0:0:0:0:
64,192,175592,1,0,0:0:0:0:
448,192,175753,1,0,0:0:0:0:
320,192,175753,1,0,0:0:0:0:
192,192,175833,1,0,0:0:0:0:
64,192,175833,1,0,0:0:0:0:
320,192,175913,1,0,0:0:0:0:
192,192,175913,1,0,0:0:0:0:
64,192,175913,1,0,0:0:0:0:
448,192,176074,1,0,0:0:0:0:
320,192,176074,1,0,0:0:0:0:
192,192,176234,1,0,0:0:0:0:
320,192,176234,1,0,0:0:0:0:
64,192,176234,1,0,0:0:0:0:
64,192,176395,1,0,0:0:0:0:
192,192,176395,1,0,0:0:0:0:
320,192,176475,1,0,0:0:0:0:
448,192,176475,1,0,0:0:0:0:
64,192,176555,1,0,0:0:0:0:
192,192,176555,1,0,0:0:0:0:
320,192,176555,1,0,0:0:0:0:
64,192,176715,1,0,0:0:0:0:
192,192,176715,1,0,0:0:0:0:
192,192,176876,1,0,0:0:0:0:
320,192,176876,1,0,0:0:0:0:
64,192,177036,1,0,0:0:0:0:
192,192,177036,1,0,0:0:0:0:
448,192,177117,1,0,0:0:0:0:
320,192,177117,1,0,0:0:0:0:
320,192,177197,1,0,0:0:0:0:
448,192,177197,1,0,0:0:0:0:
192,192,177197,1,0,0:0:0:0:
320,192,177357,1,0,0:0:0:0:
192,192,177357,1,0,0:0:0:0:
320,192,177518,1,0,0:0:0:0:
448,192,177518,1,0,0:0:0:0:
64,192,177518,1,0,0:0:0:0:
64,192,177678,1,0,0:0:0:0:
192,192,177678,1,0,0:0:0:0:
448,192,177758,1,0,0:0:0:0:
320,192,177758,1,0,0:0:0:0:
320,192,177838,1,0,0:0:0:0:
64,192,177838,1,0,0:0:0:0:
192,192,177838,1,0,0:0:0:0:
448,192,177919,1,0,0:0:0:0:
320,192,177999,1,0,0:0:0:0:
192,192,177999,1,0,0:0:0:0:
320,192,178159,1,0,0:0:0:0:
192,192,178159,1,0,0:0:0:0:
64,192,178159,1,0,0:0:0:0:
64,192,178320,1,0,0:0:0:0:
192,192,178320,1,0,0:0:0:0:
320,192,178400,1,0,0:0:0:0:
448,192,178400,1,0,0:0:0:0:
448,192,178480,1,0,0:0:0:0:
192,192,178480,1,0,0:0:0:0:
320,192,178480,1,0,0:0:0:0:
192,192,178641,1,0,0:0:0:0:
320,192,178641,1,0,0:0:0:0:
320,192,178801,1,0,0:0:0:0:
192,192,178801,1,0,0:0:0:0:
64,192,178801,1,0,0:0:0:0:
320,192,178961,1,0,0:0:0:0:
448,192,178961,1,0,0:0:0:0:
64,192,179042,1,0,0:0:0:0:
192,192,179042,1,0,0:0:0:0:
192,192,179122,1,0,0:0:0:0:
320,192,179122,1,0,0:0:0:0:
64,192,179122,1,0,0:0:0:0:
448,192,179202,1,0,0:0:0:0:
192,192,179282,1,0,0:0:0:0:
320,192,179282,1,0,0:0:0:0:
64,192,179363,1,0,0:0:0:0:
192,192,179443,1,0,0:0:0:0:
320,192,179443,1,0,0:0:0:0:
448,192,179443,1,0,0:0:0:0:
192,192,179603,1,0,0:0:0:0:
64,192,179603,1,0,0:0:0:0:
320,192,179683,1,0,0:0:0:0:
448,192,179683,1,0,0:0:0:0:
448,192,179764,1,0,0:0:0:0:
320,192,179764,1,0,0:0:0:0:
192,192,179764,1,0,0:0:0:0:
320,192,179924,1,0,0:0:0:0:
192,192,179924,1,0,0:0:0:0:
64,192,180084,1,0,0:0:0:0:
192,192,180084,1,0,0:0:0:0:
448,192,180084,1,0,0:0:0:0:
192,192,180245,1,0,0:0:0:0:
320,192,180245,1,0,0:0:0:0:
64,192,180405,1,0,0:0:0:0:
192,192,180405,1,0,0:0:0:0:
320,192,180405,1,0,0:0:0:0:
448,192,180566,1,0,0:0:0:0:
320,192,180566,1,0,0:0:0:0:
192,192,180566,1,0,0:0:0:0:
192,192,180726,1,0,0:0:0:0:
320,192,180726,1,0,0:0:0:0:
64,192,180726,128,0,181047:0:0:0:0:
192,192,181047,1,0,0:0:0:0:
320,192,181047,1,0,0:0:0:0:
448,192,181047,1,0,0:0:0:0:
64,192,181207,1,0,0:0:0:0:
320,192,181368,1,0,0:0:0:0:
192,192,181368,1,0,0:0:0:0:
64,192,181528,1,0,0:0:0:0:
192,192,181689,1,0,0:0:0:0:
320,192,181689,1,0,0:0:0:0:
448,192,181689,1,0,0:0:0:0:
192,192,181849,1,0,0:0:0:0:
320,192,181849,1,0,0:0:0:0:
320,192,182010,1,0,0:0:0:0:
192,192,182010,1,0,0:0:0:0:
64,192,182010,1,0,0:0:0:0:
192,192,182170,1,0,0:0:0:0:
320,192,182170,1,0,0:0:0:0:
64,192,182330,1,0,0:0:0:0:
192,192,182330,1,0,0:0:0:0:
448,192,182411,1,0,0:0:0:0:
192,192,182491,1,0,0:0:0:0:
64,192,182491,1,0,0:0:0:0:
320,192,182491,1,0,0:0:0:0:
64,192,182571,1,0,0:0:0:0:
320,192,182651,1,0,0:0:0:0:
448,192,182651,1,0,0:0:0:0:
192,192,182732,1,0,0:0:0:0:
64,192,182812,1,0,0:0:0:0:
448,192,182812,1,0,0:0:0:0:
320,192,182812,1,0,0:0:0:0:
448,192,182892,1,0,0:0:0:0:
192,192,182972,1,0,0:0:0:0:
64,192,182972,1,0,0:0:0:0:
320,192,183052,1,0,0:0:0:0:
192,192,183133,1,0,0:0:0:0:
64,192,183133,1,0,0:0:0:0:
448,192,183133,1,0,0:0:0:0:
320,192,183213,1,0,0:0:0:0:
192,192,183293,1,0,0:0:0:0:
64,192,183293,1,0,0:0:0:0:
448,192,183293,1,0,0:0:0:0:
320,192,183373,1,0,0:0:0:0:
64,192,183453,1,0,0:0:0:0:
192,192,183453,1,0,0:0:0:0:
448,192,183534,1,0,0:0:0:0:
320,192,183534,1,0,0:0:0:0:
192,192,183614,1,0,0:0:0:0:
448,192,183614,1,0,0:0:0:0:
64,192,183614,1,0,0:0:0:0:
320,192,183694,1,0,0:0:0:0:
192,192,183774,1,0,0:0:0:0:
320,192,183854,1,0,0:0:0:0:
192,192,183935,1,0,0:0:0:0:
448,192,183935,1,0,0:0:0:0:
64,192,183935,1,0,0:0:0:0:
320,192,184015,1,0,0:0:0:0:
192,192,184095,1,0,0:0:0:0:
64,192,184095,1,0,0:0:0:0:
320,192,184175,1,0,0:0:0:0:
448,192,184256,1,0,0:0:0:0:
64,192,184256,1,0,0:0:0:0:
192,192,184256,1,0,0:0:0:0:
320,192,184336,1,0,0:0:0:0:
192,192,184416,1,0,0:0:0:0:
448,192,184416,1,0,0:0:0:0:
64,192,184496,1,0,0:0:0:0:
320,192,184576,1,0,0:0:0:0:
192,192,184576,1,0,0:0:0:0:
448,192,184576,1,0,0:0:0:0:
64,192,184657,1,0,0:0:0:0:
192,192,184737,1,0,0:0:0:0:
320,192,184737,1,0,0:0:0:0:
448,192,184817,1,0,0:0:0:0:
192,192,184897,1,0,0:0:0:0:
64,192,184897,1,0,0:0:0:0:
320,192,184897,1,0,0:0:0:0:
448,192,185058,1,0,0:0:0:0:
320,192,185058,1,0,0:0:0:0:
192,192,185058,1,0,0:0:0:0:
192,192,185218,1,0,0:0:0:0:
64,192,185218,1,0,0:0:0:0:
448,192,185218,1,0,0:0:0:0:
64,192,185379,1,0,0:0:0:0:
192,192,185379,1,0,0:0:0:0:
320,192,185379,1,0,0:0:0:0:
448,192,185539,1,0,0:0:0:0:
320,192,185539,1,0,0:0:0:0:
192,192,185539,1,0,0:0:0:0:
320,192,185699,1,0,0:0:0:0:
64,192,185699,1,0,0:0:0:0:
448,192,185699,1,0,0:0:0:0:
192,192,185860,1,0,0:0:0:0:
64,192,185860,1,0,0:0:0:0:
448,192,185860,1,0,0:0:0:0:
448,192,186020,1,0,0:0:0:0:
320,192,186020,1,0,0:0:0:0:
64,192,186020,1,0,0:0:0:0:
64,192,186181,1,0,0:0:0:0:
192,192,186181,1,0,0:0:0:0:
320,192,186181,1,0,0:0:0:0:
448,192,186341,1,0,0:0:0:0:
320,192,186502,1,0,0:0:0:0:
192,192,186502,1,0,0:0:0:0:
448,192,186662,1,0,0:0:0:0:
320,192,186662,1,0,0:0:0:0:
320,192,186822,1,0,0:0:0:0:
192,192,186822,1,0,0:0:0:0:
64,192,186822,1,0,0:0:0:0:
192,192,187063,1,0,0:0:0:0:
64,192,187063,1,0,0:0:0:0:
448,192,187063,1,0,0:0:0:0:
192,192,187264,1,0,0:0:0:0:
320,192,187264,1,0,0:0:0:0:
448,192,187264,1,0,0:0:0:0:
448,192,187464,1,0,0:0:0:0:
320,192,187464,1,0,0:0:0:0:
64,192,187464,1,0,0:0:0:0:
192,192,187544,1,0,0:0:0:0:
320,192,187625,1,0,0:0:0:0:
448,192,187625,1,0,0:0:0:0:
448,192,187785,1,0,0:0:0:0:
64,192,187785,1,0,0:0:0:0:
192,192,187785,1,0,0:0:0:0:
320,192,187865,1,0,0:0:0:0:
192,192,187945,1,0,0:0:0:0:
64,192,187945,1,0,0:0:0:0:
64,192,188106,1,0,0:0:0:0:
320,192,188106,1,0,0:0:0:0:
448,192,188106,1,0,0:0:0:0:
448,192,188186,1,0,0:0:0:0:
320,192,188266,1,0,0:0:0:0:
192,192,188266,1,0,0:0:0:0:
64,192,188346,1,0,0:0:0:0:
192,192,188427,1,0,0:0:0:0:
320,192,188427,1,0,0:0:0:0:
64,192,188507,1,0,0:0:0:0:
448,192,188587,1,0,0:0:0:0:
320,192,188587,1,0,0:0:0:0:
192,192,188667,1,0,0:0:0:0:
64,192,188667,1,0,0:0:0:0:
320,192,188748,1,0,0:0:0:0:
448,192,188748,1,0,0:0:0:0:
192,192,188748,1,0,0:0:0:0:
64,192,188828,1,0,0:0:0:0:
320,192,188908,1,0,0:0:0:0:
192,192,188988,1,0,0:0:0:0:
320,192,189068,1,0,0:0:0:0:
64,192,189068,1,0,0:0:0:0:
448,192,189149,1,0,0:0:0:0:
320,192,189229,1,0,0:0:0:0:
64,192,189309,1,0,0:0:0:0:
192,192,189389,1,0,0:0:0:0:
320,192,189389,1,0,0:0:0:0:
448,192,189469,1,0,0:0:0:0:
320,192,189550,1,0,0:0:0:0:
192,192,189630,1,0,0:0:0:0:
448,192,189710,1,0,0:0:0:0:
64,192,189710,1,0,0:0:0:0:
320,192,189790,1,0,0:0:0:0:
192,192,189871,1,0,0:0:0:0:
64,192,189951,1,0,0:0:0:0:
192,192,190031,1,0,0:0:0:0:
448,192,190031,1,0,0:0:0:0:
320,192,190031,1,0,0:0:0:0:
64,192,190191,1,0,0:0:0:0:
192,192,190191,1,0,0:0:0:0:
64,192,190352,1,0,0:0:0:0:
192,192,190352,1,0,0:0:0:0:
320,192,190352,1,0,0:0:0:0:
448,192,190512,1,0,0:0:0:0:
64,192,190512,1,0,0:0:0:0:
192,192,190512,1,0,0:0:0:0:
448,192,190673,1,0,0:0:0:0:
320,192,190673,1,0,0:0:0:0:
64,192,190673,1,0,0:0:0:0:
192,192,190833,1,0,0:0:0:0:
320,192,190833,1,0,0:0:0:0:
448,192,190833,1,0,0:0:0:0:
64,192,190994,1,0,0:0:0:0:
192,192,190994,1,0,0:0:0:0:
320,192,190994,1,0,0:0:0:0:
192,192,191154,1,0,0:0:0:0:
64,192,191154,1,0,0:0:0:0:
320,192,191314,1,0,0:0:0:0:
64,192,191314,1,0,0:0:0:0:
192,192,191314,1,0,0:0:0:0:
448,192,191475,1,0,0:0:0:0:
64,192,191475,1,0,0:0:0:0:
320,192,191555,1,0,0:0:0:0:
192,192,191635,1,0,0:0:0:0:
64,192,191635,1,0,0:0:0:0:
448,192,191715,1,0,0:0:0:0:
192,192,191796,1,0,0:0:0:0:
320,192,191796,1,0,0:0:0:0:
64,192,191876,1,0,0:0:0:0:
448,192,191956,1,0,0:0:0:0:
192,192,191956,1,0,0:0:0:0:
320,192,192036,1,0,0:0:0:0:
192,192,192117,1,0,0:0:0:0:
64,192,192117,1,0,0:0:0:0:
320,192,192197,1,0,0:0:0:0:
448,192,192277,1,0,0:0:0:0:
64,192,192277,1,0,0:0:0:0:
320,192,192357,1,0,0:0:0:0:
192,192,192437,1,0,0:0:0:0:
64,192,192518,1,0,0:0:0:0:
448,192,192598,1,0,0:0:0:0:
320,192,192598,1,0,0:0:0:0:
192,192,192598,1,0,0:0:0:0:
64,192,192758,1,0,0:0:0:0:
192,192,192758,1,0,0:0:0:0:
448,192,192758,1,0,0:0:0:0:
64,192,192919,1,0,0:0:0:0:
192,192,192919,1,0,0:0:0:0:
320,192,192919,1,0,0:0:0:0:
448,192,193079,1,0,0:0:0:0:
320,192,193079,1,0,0:0:0:0:
64,192,193079,1,0,0:0:0:0:
448,192,193240,1,0,0:0:0:0:
192,192,193240,1,0,0:0:0:0:
64,192,193240,1,0,0:0:0:0:
192,192,193460,1,0,0:0:0:0:
320,192,193460,1,0,0:0:0:0:
448,192,193460,1,0,0:0:0:0:
64,192,193681,1,0,0:0:0:0:
192,192,193681,1,0,0:0:0:0:
320,192,193681,1,0,0:0:0:0:
320,192,193881,1,0,0:0:0:0:
64,192,193881,1,0,0:0:0:0:
192,192,193881,128,0,194363:0:0:0:0:
448,192,193961,1,0,0:0:0:0:
320,192,194042,1,0,0:0:0:0:
64,192,194122,1,0,0:0:0:0:
320,192,194202,1,0,0:0:0:0:
320,192,194363,1,0,0:0:0:0:
448,192,194363,1,0,0:0:0:0:
64,192,194363,128,0,194844:0:0:0:0:
320,192,194844,1,0,0:0:0:0:
192,192,194844,1,0,0:0:0:0:
448,192,194844,128,0,195165:0:0:0:0:
64,192,195084,1,0,0:0:0:0:
192,192,195084,1,0,0:0:0:0:
192,192,195165,1,0,0:0:0:0:
320,192,195165,1,0,0:0:0:0:
64,192,195165,1,0,0:0:0:0:
448,192,195325,1,0,0:0:0:0:
320,192,195325,128,0,195486:0:0:0:0:
192,192,195486,1,0,0:0:0:0:
64,192,195486,1,0,0:0:0:0:
64,192,195646,1,0,0:0:0:0:
192,192,195646,1,0,0:0:0:0:
192,192,195806,1,0,0:0:0:0:
320,192,195806,1,0,0:0:0:0:
448,192,195806,1,0,0:0:0:0:
448,192,195967,1,0,0:0:0:0:
320,192,195967,128,0,196127:0:0:0:0:
64,192,196127,1,0,0:0:0:0:
192,192,196127,1,0,0:0:0:0:
448,192,196207,1,0,0:0:0:0:
320,192,196288,1,0,0:0:0:0:
192,192,196288,1,0,0:0:0:0:
64,192,196368,1,0,0:0:0:0:
448,192,196448,1,0,0:0:0:0:
320,192,196448,1,0,0:0:0:0:
192,192,196448,128,0,196769:0:0:0:0:
64,192,196528,1,0,0:0:0:0:
320,192,196609,1,0,0:0:0:0:
64,192,196689,1,0,0:0:0:0:
448,192,196769,1,0,0:0:0:0:
320,192,196769,1,0,0:0:0:0:
64,192,196929,1,0,0:0:0:0:
192,192,196929,1,0,0:0:0:0:
64,192,197090,1,0,0:0:0:0:
192,192,197090,1,0,0:0:0:0:
448,192,197170,1,0,0:0:0:0:
320,192,197250,1,0,0:0:0:0:
192,192,197250,1,0,0:0:0:0:
448,192,197330,1,0,0:0:0:0:
192,192,197411,1,0,0:0:0:0:
64,192,197411,1,0,0:0:0:0:
320,192,197411,1,0,0:0:0:0:
448,192,197491,1,0,0:0:0:0:
64,192,197571,1,0,0:0:0:0:
192,192,197571,1,0,0:0:0:0:
448,192,197732,1,0,0:0:0:0:
192,192,197732,1,0,0:0:0:0:
320,192,197732,128,0,198052:0:0:0:0:
448,192,198052,1,0,0:0:0:0:
192,192,198052,1,0,0:0:0:0:
64,192,198052,128,0,198373:0:0:0:0:
320,192,198213,1,0,0:0:0:0:
192,192,198213,1,0,0:0:0:0:
448,192,198373,1,0,0:0:0:0:
320,192,198373,1,0,0:0:0:0:
192,192,198453,1,0,0:0:0:0:
320,192,198534,1,0,0:0:0:0:
192,192,198614,1,0,0:0:0:0:
448,192,198694,128,0,199015:0:0:0:0:
64,192,198694,1,0,0:0:0:0:
320,192,198694,1,0,0:0:0:0:
64,192,199015,1,0,0:0:0:0:
192,192,199015,1,0,0:0:0:0:
320,192,199015,128,0,199496:0:0:0:0:
448,192,199496,1,0,0:0:0:0:
192,192,199496,1,0,0:0:0:0:
64,192,199496,128,0,199977:0:0:0:0:
192,192,199657,1,0,0:0:0:0:
320,192,199737,1,0,0:0:0:0:
448,192,199817,1,0,0:0:0:0:
320,192,199897,1,0,0:0:0:0:
192,192,199977,1,0,0:0:0:0:
448,192,199977,128,0,200298:0:0:0:0:
64,192,200218,1,0,0:0:0:0:
192,192,200218,1,0,0:0:0:0:
64,192,200298,1,0,0:0:0:0:
192,192,200298,1,0,0:0:0:0:
320,192,200298,1,0,0:0:0:0:
64,192,200459,1,0,0:0:0:0:
192,192,200459,128,0,200619:0:0:0:0:
448,192,200619,1,0,0:0:0:0:
320,192,200619,1,0,0:0:0:0:
64,192,200619,1,0,0:0:0:0:
64,192,200780,1,0,0:0:0:0:
192,192,200780,1,0,0:0:0:0:
64,192,200940,1,0,0:0:0:0:
192,192,201020,1,0,0:0:0:0:
320,192,201100,1,0,0:0:0:0:
192,192,201181,1,0,0:0:0:0:
448,192,201261,1,0,0:0:0:0:
64,192,201261,1,0,0:0:0:0:
320,192,201261,1,0,0:0:0:0:
192,192,201502,1,0,0:0:0:0:
64,192,201502,1,0,0:0:0:0:
64,192,201582,1,0,0:0:0:0:
192,192,201582,1,0,0:0:0:0:
320,192,201582,1,0,0:0:0:0:
192,192,201742,128,0,201903:0:0:0:0:
64,192,201742,1,0,0:0:0:0:
64,192,201903,1,0,0:0:0:0:
320,192,201903,1,0,0:0:0:0:
448,192,201903,1,0,0:0:0:0:
64,192,202063,1,0,0:0:0:0:
192,192,202063,1,0,0:0:0:0:
64,192,202223,1,0,0:0:0:0:
448,192,202223,1,0,0:0:0:0:
192,192,202304,1,0,0:0:0:0:
320,192,202384,1,0,0:0:0:0:
192,192,202464,1,0,0:0:0:0:
448,192,202544,1,0,0:0:0:0:
64,192,202544,1,0,0:0:0:0:
320,192,202544,1,0,0:0:0:0:
192,192,202705,1,0,0:0:0:0:
320,192,202785,1,0,0:0:0:0:
448,192,202865,1,0,0:0:0:0:
64,192,202865,1,0,0:0:0:0:
192,192,202865,1,0,0:0:0:0:
320,192,203026,1,0,0:0:0:0:
448,192,203026,1,0,0:0:0:0:
192,192,203106,1,0,0:0:0:0:
64,192,203186,1,0,0:0:0:0:
320,192,203186,1,0,0:0:0:0:
448,192,203266,1,0,0:0:0:0:
64,192,203346,1,0,0:0:0:0:
192,192,203346,1,0,0:0:0:0:
320,192,203427,1,0,0:0:0:0:
192,192,203507,1,0,0:0:0:0:
448,192,203507,1,0,0:0:0:0:
64,192,203587,1,0,0:0:0:0:
448,192,203667,1,0,0:0:0:0:
320,192,203748,1,0,0:0:0:0:
192,192,203828,1,0,0:0:0:0:
448,192,203828,1,0,0:0:0:0:
64,192,203908,1,0,0:0:0:0:
320,192,203988,1,0,0:0:0:0:
192,192,204068,1,0,0:0:0:0:
320,192,204149,128,0,204630:0:0:0:0:
64,192,204149,1,0,0:0:0:0:
448,192,204149,1,0,0:0:0:0:
192,192,204229,1,0,0:0:0:0:
448,192,204309,1,0,0:0:0:0:
192,192,204389,1,0,0:0:0:0:
448,192,204630,1,0,0:0:0:0:
192,192,204630,1,0,0:0:0:0:
64,192,204630,128,0,205111:0:0:0:0:
320,192,205111,1,0,0:0:0:0:
192,192,205111,1,0,0:0:0:0:
448,192,205111,128,0,205432:0:0:0:0:
64,192,205352,1,0,0:0:0:0:
192,192,205352,1,0,0:0:0:0:
64,192,205432,1,0,0:0:0:0:
192,192,205432,1,0,0:0:0:0:
320,192,205432,1,0,0:0:0:0:
192,192,205592,1,0,0:0:0:0:
64,192,205592,128,0,205753:0:0:0:0:
192,192,205753,1,0,0:0:0:0:
320,192,205753,1,0,0:0:0:0:
64,192,205913,1,0,0:0:0:0:
192,192,205913,1,0,0:0:0:0:
448,192,206074,1,0,0:0:0:0:
320,192,206074,1,0,0:0:0:0:
64,192,206074,1,0,0:0:0:0:
192,192,206154,1,0,0:0:0:0:
320,192,206234,1,0,0:0:0:0:
192,192,206314,1,0,0:0:0:0:
64,192,206395,1,0,0:0:0:0:
448,192,206395,1,0,0:0:0:0:
320,192,206475,1,0,0:0:0:0:
64,192,206555,1,0,0:0:0:0:
192,192,206635,1,0,0:0:0:0:
64,192,206715,1,0,0:0:0:0:
448,192,206715,1,0,0:0:0:0:
320,192,206715,1,0,0:0:0:0:
192,192,206796,1,0,0:0:0:0:
320,192,206876,1,0,0:0:0:0:
192,192,206956,1,0,0:0:0:0:
64,192,207036,1,0,0:0:0:0:
448,192,207036,1,0,0:0:0:0:
192,192,207117,1,0,0:0:0:0:
320,192,207197,1,0,0:0:0:0:
448,192,207197,1,0,0:0:0:0:
192,192,207277,1,0,0:0:0:0:
64,192,207357,1,0,0:0:0:0:
448,192,207357,1,0,0:0:0:0:
320,192,207357,1,0,0:0:0:0:
192,192,207437,1,0,0:0:0:0:
320,192,207518,1,0,0:0:0:0:
448,192,207518,1,0,0:0:0:0:
192,192,207598,1,0,0:0:0:0:
448,192,207678,1,0,0:0:0:0:
64,192,207678,1,0,0:0:0:0:
320,192,207758,1,0,0:0:0:0:
192,192,207838,1,0,0:0:0:0:
320,192,207919,1,0,0:0:0:0:
448,192,207919,1,0,0:0:0:0:
192,192,207999,1,0,0:0:0:0:
320,192,207999,1,0,0:0:0:0:
448,192,207999,128,0,208320:0:0:0:0:
320,192,208320,1,0,0:0:0:0:
64,192,208320,1,0,0:0:0:0:
192,192,208320,128,0,208641:0:0:0:0:
320,192,208480,1,0,0:0:0:0:
448,192,208480,1,0,0:0:0:0:
448,192,208641,1,0,0:0:0:0:
64,192,208641,1,0,0:0:0:0:
320,192,208641,128,0,208961:0:0:0:0:
64,192,208961,1,0,0:0:0:0:
192,192,208961,1,0,0:0:0:0:
448,192,208961,128,0,209282:0:0:0:0:
64,192,209282,1,0,0:0:0:0:
320,192,209282,1,0,0:0:0:0:
192,192,209282,128,0,209764:0:0:0:0:
448,192,209764,1,0,0:0:0:0:
320,192,209764,1,0,0:0:0:0:
64,192,209764,128,0,210245:0:0:0:0:
192,192,209924,1,0,0:0:0:0:
320,192,210004,1,0,0:0:0:0:
448,192,210084,1,0,0:0:0:0:
320,192,210165,1,0,0:0:0:0:
448,192,210245,1,0,0:0:0:0:
192,192,210245,1,0,0:0:0:0:
192,192,210486,1,0,0:0:0:0:
64,192,210486,1,0,0:0:0:0:
64,192,210566,1,0,0:0:0:0:
192,192,210566,1,0,0:0:0:0:
320,192,210566,1,0,0:0:0:0:
448,192,210646,1,0,0:0:0:0:
320,192,210726,1,0,0:0:0:0:
192,192,210806,1,0,0:0:0:0:
64,192,210887,1,0,0:0:0:0:
448,192,210887,1,0,0:0:0:0:
192,192,210967,1,0,0:0:0:0:
320,192,211047,1,0,0:0:0:0:
448,192,211047,1,0,0:0:0:0:
192,192,211127,1,0,0:0:0:0:
64,192,211207,1,0,0:0:0:0:
448,192,211207,1,0,0:0:0:0:
192,192,211288,1,0,0:0:0:0:
320,192,211368,1,0,0:0:0:0:
448,192,211368,1,0,0:0:0:0:
192,192,211448,1,0,0:0:0:0:
448,192,211528,1,0,0:0:0:0:
64,192,211528,1,0,0:0:0:0:
320,192,211609,1,0,0:0:0:0:
192,192,211689,1,0,0:0:0:0:
64,192,211689,1,0,0:0:0:0:
320,192,211769,1,0,0:0:0:0:
64,192,211849,1,0,0:0:0:0:
192,192,211849,1,0,0:0:0:0:
448,192,211849,1,0,0:0:0:0:
320,192,211929,1,0,0:0:0:0:
192,192,212010,1,0,0:0:0:0:
64,192,212010,1,0,0:0:0:0:
192,192,212170,1,0,0:0:0:0:
320,192,212170,1,0,0:0:0:0:
448,192,212330,1,0,0:0:0:0:
64,192,212330,1,0,0:0:0:0:
192,192,212411,1,0,0:0:0:0:
320,192,212491,1,0,0:0:0:0:
192,192,212571,1,0,0:0:0:0:
320,192,212651,1,0,0:0:0:0:
448,192,212651,1,0,0:0:0:0:
192,192,212732,1,0,0:0:0:0:
320,192,212812,1,0,0:0:0:0:
64,192,212812,1,0,0:0:0:0:
192,192,212892,1,0,0:0:0:0:
320,192,212972,1,0,0:0:0:0:
192,192,213052,1,0,0:0:0:0:
64,192,213133,1,0,0:0:0:0:
448,192,213133,1,0,0:0:0:0:
320,192,213213,1,0,0:0:0:0:
192,192,213293,1,0,0:0:0:0:
64,192,213373,1,0,0:0:0:0:
320,192,213453,1,0,0:0:0:0:
448,192,213453,1,0,0:0:0:0:
192,192,213534,1,0,0:0:0:0:
320,192,213614,1,0,0:0:0:0:
192,192,213694,1,0,0:0:0:0:
64,192,213774,1,0,0:0:0:0:
320,192,213774,1,0,0:0:0:0:
448,192,213854,1,0,0:0:0:0:
320,192,213935,1,0,0:0:0:0:
192,192,214015,1,0,0:0:0:0:
64,192,214095,1,0,0:0:0:0:
448,192,214095,1,0,0:0:0:0:
192,192,214175,1,0,0:0:0:0:
320,192,214256,1,0,0:0:0:0:
448,192,214256,1,0,0:0:0:0:
192,192,214336,1,0,0:0:0:0:
448,192,214416,1,0,0:0:0:0:
320,192,214416,1,0,0:0:0:0:
64,192,214416,1,0,0:0:0:0:
192,192,214576,1,0,0:0:0:0:
320,192,214576,1,0,0:0:0:0:
320,192,214737,1,0,0:0:0:0:
448,192,214737,1,0,0:0:0:0:
64,192,214737,1,0,0:0:0:0:
320,192,214897,1,0,0:0:0:0:
192,192,214897,1,0,0:0:0:0:
64,192,215058,1,0,0:0:0:0:
192,192,215058,1,0,0:0:0:0:
320,192,215058,1,0,0:0:0:0:
448,192,215218,1,0,0:0:0:0:
320,192,215218,1,0,0:0:0:0:
192,192,215218,1,0,0:0:0:0:
448,192,215379,1,0,0:0:0:0:
320,192,215379,1,0,0:0:0:0:
64,192,215379,1,0,0:0:0:0:
64,192,215539,1,0,0:0:0:0:
192,192,215539,1,0,0:0:0:0:
320,192,215539,1,0,0:0:0:0:
448,192,215699,1,0,0:0:0:0:
64,192,215699,1,0,0:0:0:0:
192,192,215699,1,0,0:0:0:0:
320,192,215860,1,0,0:0:0:0:
192,192,215860,1,0,0:0:0:0:
64,192,216020,1,0,0:0:0:0:
192,192,216020,1,0,0:0:0:0:
448,192,216020,1,0,0:0:0:0:
320,192,216181,1,0,0:0:0:0:
192,192,216181,1,0,0:0:0:0:
64,192,216341,1,0,0:0:0:0:
192,192,216341,1,0,0:0:0:0:
320,192,216341,1,0,0:0:0:0:
448,192,216502,1,0,0:0:0:0:
320,192,216502,1,0,0:0:0:0:
64,192,216502,1,0,0:0:0:0:
448,192,216662,1,0,0:0:0:0:
192,192,216662,1,0,0:0:0:0:
320,192,216662,1,0,0:0:0:0:
64,192,216822,1,0,0:0:0:0:
192,192,216822,1,0,0:0:0:0:
448,192,216822,1,0,0:0:0:0:
64,192,216983,1,0,0:0:0:0:
192,192,216983,1,0,0:0:0:0:
320,192,216983,1,0,0:0:0:0:
64,192,217143,1,0,0:0:0:0:
192,192,217143,1,0,0:0:0:0:
64,192,217304,1,0,0:0:0:0:
192,192,217304,1,0,0:0:0:0:
320,192,217304,1,0,0:0:0:0:
320,192,217464,1,0,0:0:0:0:
192,192,217464,1,0,0:0:0:0:
64,192,217625,1,0,0:0:0:0:
192,192,217625,1,0,0:0:0:0:
448,192,217625,1,0,0:0:0:0:
448,192,217785,1,0,0:0:0:0:
320,192,217785,1,0,0:0:0:0:
320,192,217945,1,0,0:0:0:0:
448,192,217945,1,0,0:0:0:0:
64,192,217945,1,0,0:0:0:0:
320,192,218106,1,0,0:0:0:0:
192,192,218106,1,0,0:0:0:0:
192,192,218266,1,0,0:0:0:0:
64,192,218266,1,0,0:0:0:0:
448,192,218266,1,0,0:0:0:0:
64,192,218427,1,0,0:0:0:0:
192,192,218427,1,0,0:0:0:0:
320,192,218427,1,0,0:0:0:0:
320,192,218587,1,0,0:0:0:0:
192,192,218587,1,0,0:0:0:0:
448,192,218667,1,0,0:0:0:0:
192,192,218748,1,0,0:0:0:0:
320,192,218748,1,0,0:0:0:0:
64,192,218828,1,0,0:0:0:0:
192,192,218908,1,0,0:0:0:0:
320,192,218908,1,0,0:0:0:0:
448,192,218908,1,0,0:0:0:0:
192,192,219068,1,0,0:0:0:0:
320,192,219068,1,0,0:0:0:0:
64,192,219229,1,0,0:0:0:0:
448,192,219229,1,0,0:0:0:0:
192,192,219229,1,0,0:0:0:0:
320,192,219309,1,0,0:0:0:0:
192,192,219389,1,0,0:0:0:0:
64,192,219389,1,0,0:0:0:0:
320,192,219469,1,0,0:0:0:0:
64,192,219550,1,0,0:0:0:0:
192,192,219550,1,0,0:0:0:0:
448,192,219550,1,0,0:0:0:0:
320,192,219710,1,0,0:0:0:0:
192,192,219710,1,0,0:0:0:0:
64,192,219710,1,0,0:0:0:0:
448,192,219871,1,0,0:0:0:0:
320,192,219871,1,0,0:0:0:0:
192,192,219871,1,0,0:0:0:0:
320,192,220031,1,0,0:0:0:0:
192,192,220031,1,0,0:0:0:0:
64,192,220031,1,0,0:0:0:0:
64,192,220191,1,0,0:0:0:0:
192,192,220191,1,0,0:0:0:0:
448,192,220191,1,0,0:0:0:0:
320,192,220352,1,0,0:0:0:0:
192,192,220352,1,0,0:0:0:0:
64,192,220512,1,0,0:0:0:0:
320,192,220512,1,0,0:0:0:0:
448,192,220512,1,0,0:0:0:0:
320,192,220673,1,0,0:0:0:0:
192,192,220673,1,0,0:0:0:0:
64,192,220833,1,0,0:0:0:0:
192,192,220833,1,0,0:0:0:0:
320,192,220833,1,0,0:0:0:0:
448,192,221154,1,0,0:0:0:0:
320,192,221154,1,0,0:0:0:0:
192,192,221154,1,0,0:0:0:0:
320,192,221314,1,0,0:0:0:0:
192,192,221314,1,0,0:0:0:0:
64,192,221475,1,0,0:0:0:0:
192,192,221475,1,0,0:0:0:0:
448,192,221475,1,0,0:0:0:0:
64,192,221796,1,0,0:0:0:0:
192,192,221796,1,0,0:0:0:0:
320,192,221796,1,0,0:0:0:0:
64,192,222117,1,0,0:0:0:0:
320,192,222117,1,0,0:0:0:0:
448,192,222117,1,0,0:0:0:0:
192,192,222197,1,0,0:0:0:0:
320,192,222277,1,0,0:0:0:0:
192,192,222357,1,0,0:0:0:0:
64,192,222437,1,0,0:0:0:0:
448,192,222437,1,0,0:0:0:0:
320,192,222518,1,0,0:0:0:0:
192,192,222598,1,0,0:0:0:0:
64,192,222598,1,0,0:0:0:0:
320,192,222678,1,0,0:0:0:0:
64,192,222758,1,0,0:0:0:0:
192,192,222758,1,0,0:0:0:0:
320,192,222838,1,0,0:0:0:0:
448,192,222919,1,0,0:0:0:0:
320,192,222999,1,0,0:0:0:0:
192,192,223079,1,0,0:0:0:0:
448,192,223079,1,0,0:0:0:0:
320,192,223159,1,0,0:0:0:0:
64,192,223159,1,0,0:0:0:0:
448,192,223240,1,0,0:0:0:0:
192,192,223240,1,0,0:0:0:0:
64,192,223320,1,0,0:0:0:0:
192,192,223400,1,0,0:0:0:0:
320,192,223400,1,0,0:0:0:0:
448,192,223400,1,0,0:0:0:0:
320,192,223641,1,0,0:0:0:0:
192,192,223641,1,0,0:0:0:0:
64,192,223641,1,0,0:0:0:0:
448,192,223841,1,0,0:0:0:0:
320,192,223841,1,0,0:0:0:0:
64,192,223841,1,0,0:0:0:0:
64,192,224042,1,0,0:0:0:0:
192,192,224042,1,0,0:0:0:0:
320,192,224042,1,0,0:0:0:0:
320,192,224282,1,0,0:0:0:0:
448,192,224282,1,0,0:0:0:0:
192,192,224282,1,0,0:0:0:0:
64,192,224483,1,0,0:0:0:0:
192,192,224483,1,0,0:0:0:0:
448,192,224483,1,0,0:0:0:0:
448,192,224683,1,0,0:0:0:0:
320,192,224683,1,0,0:0:0:0:
64,192,224683,1,0,0:0:0:0:
192,192,224844,1,0,0:0:0:0:
320,192,224844,1,0,0:0:0:0:
320,192,225004,1,0,0:0:0:0:
448,192,225004,1,0,0:0:0:0:
64,192,225004,1,0,0:0:0:0:
192,192,225165,1,0,0:0:0:0:
320,192,225165,1,0,0:0:0:0:
64,192,225325,1,0,0:0:0:0:
192,192,225325,1,0,0:0:0:0:
320,192,225325,1,0,0:0:0:0:
448,192,225486,1,0,0:0:0:0:
320,192,225486,1,0,0:0:0:0:
192,192,225486,1,0,0:0:0:0:
448,192,225646,1,0,0:0:0:0:
320,192,225646,1,0,0:0:0:0:
64,192,225646,1,0,0:0:0:0:
64,192,225806,1,0,0:0:0:0:
192,192,225806,1,0,0:0:0:0:
320,192,225806,1,0,0:0:0:0:
448,192,225967,1,0,0:0:0:0:
64,192,225967,1,0,0:0:0:0:
192,192,225967,1,0,0:0:0:0:
320,192,226127,1,0,0:0:0:0:
192,192,226127,1,0,0:0:0:0:
64,192,226288,1,0,0:0:0:0:
192,192,226288,1,0,0:0:0:0:
448,192,226288,1,0,0:0:0:0:
320,192,226448,1,0,0:0:0:0:
192,192,226448,1,0,0:0:0:0:
64,192,226609,1,0,0:0:0:0:
192,192,226609,1,0,0:0:0:0:
320,192,226609,1,0,0:0:0:0:
448,192,226769,1,0,0:0:0:0:
320,192,226769,1,0,0:0:0:0:
64,192,226769,1,0,0:0:0:0:
448,192,226929,1,0,0:0:0:0:
192,192,226929,1,0,0:0:0:0:
320,192,226929,1,0,0:0:0:0:
64,192,227090,1,0,0:0:0:0:
192,192,227090,1,0,0:0:0:0:
448,192,227090,1,0,0:0:0:0:
64,192,227250,1,0,0:0:0:0:
192,192,227250,1,0,0:0:0:0:
320,192,227250,1,0,0:0:0:0:
64,192,227411,1,0,0:0:0:0:
192,192,227411,1,0,0:0:0:0:
320,192,227571,1,0,0:0:0:0:
448,192,227571,1,0,0:0:0:0:
448,192,227732,1,0,0:0:0:0:
320,192,227732,1,0,0:0:0:0:
192,192,227732,1,0,0:0:0:0:
64,192,227892,1,0,0:0:0:0:
192,192,227892,1,0,0:0:0:0:
320,192,227892,1,0,0:0:0:0:
192,192,228052,1,0,0:0:0:0:
64,192,228052,1,0,0:0:0:0:
320,192,228213,1,0,0:0:0:0:
448,192,228213,1,0,0:0:0:0:
448,192,228373,1,0,0:0:0:0:
320,192,228373,1,0,0:0:0:0:
192,192,228373,1,0,0:0:0:0:
192,192,228534,1,0,0:0:0:0:
64,192,228534,1,0,0:0:0:0:
448,192,228534,1,0,0:0:0:0:
64,192,228694,1,0,0:0:0:0:
192,192,228694,1,0,0:0:0:0:
320,192,228694,1,0,0:0:0:0:
320,192,228854,1,0,0:0:0:0:
192,192,228854,1,0,0:0:0:0:
448,192,228935,1,0,0:0:0:0:
192,192,229015,1,0,0:0:0:0:
320,192,229015,1,0,0:0:0:0:
64,192,229095,1,0,0:0:0:0:
192,192,229175,1,0,0:0:0:0:
320,192,229175,1,0,0:0:0:0:
448,192,229175,1,0,0:0:0:0:
192,192,229336,1,0,0:0:0:0:
320,192,229336,1,0,0:0:0:0:
64,192,229496,1,0,0:0:0:0:
448,192,229496,1,0,0:0:0:0:
192,192,229496,1,0,0:0:0:0:
320,192,229576,1,0,0:0:0:0:
192,192,229657,1,0,0:0:0:0:
64,192,229657,1,0,0:0:0:0:
320,192,229737,1,0,0:0:0:0:
64,192,229817,1,0,0:0:0:0:
192,192,229817,1,0,0:0:0:0:
448,192,229817,1,0,0:0:0:0:
320,192,229977,1,0,0:0:0:0:
192,192,229977,1,0,0:0:0:0:
64,192,229977,1,0,0:0:0:0:
448,192,230138,1,0,0:0:0:0:
320,192,230138,1,0,0:0:0:0:
192,192,230138,1,0,0:0:0:0:
320,192,230298,1,0,0:0:0:0:
192,192,230298,1,0,0:0:0:0:
64,192,230298,1,0,0:0:0:0:
64,192,230459,1,0,0:0:0:0:
192,192,230459,1,0,0:0:0:0:
448,192,230459,1,0,0:0:0:0:
320,192,230619,1,0,0:0:0:0:
192,192,230619,1,0,0:0:0:0:
64,192,230780,1,0,0:0:0:0:
320,192,230780,1,0,0:0:0:0:
448,192,230780,1,0,0:0:0:0:
320,192,230940,1,0,0:0:0:0:
192,192,230940,1,0,0:0:0:0:
64,192,231100,1,0,0:0:0:0:
192,192,231100,1,0,0:0:0:0:
320,192,231100,1,0,0:0:0:0:
448,192,231421,1,0,0:0:0:0:
320,192,231421,1,0,0:0:0:0:
192,192,231421,1,0,0:0:0:0:
320,192,231582,1,0,0:0:0:0:
192,192,231582,1,0,0:0:0:0:
64,192,231742,1,0,0:0:0:0:
192,192,231742,1,0,0:0:0:0:
448,192,231742,1,0,0:0:0:0:
64,192,232063,1,0,0:0:0:0:
192,192,232063,1,0,0:0:0:0:
320,192,232063,1,0,0:0:0:0:
64,192,232384,1,0,0:0:0:0:
320,192,232384,1,0,0:0:0:0:
448,192,232384,1,0,0:0:0:0:
192,192,232464,1,0,0:0:0:0:
320,192,232544,1,0,0:0:0:0:
192,192,232625,1,0,0:0:0:0:
64,192,232705,1,0,0:0:0:0:
448,192,232705,1,0,0:0:0:0:
320,192,232785,1,0,0:0:0:0:
192,192,232865,1,0,0:0:0:0:
64,192,232865,1,0,0:0:0:0:
320,192,232945,1,0,0:0:0:0:
64,192,233026,1,0,0:0:0:0:
192,192,233026,1,0,0:0:0:0:
320,192,233106,1,0,0:0:0:0:
448,192,233186,1,0,0:0:0:0:
320,192,233266,1,0,0:0:0:0:
192,192,233346,1,0,0:0:0:0:
448,192,233346,1,0,0:0:0:0:
320,192,233427,1,0,0:0:0:0:
64,192,233427,1,0,0:0:0:0:
448,192,233507,1,0,0:0:0:0:
192,192,233507,1,0,0:0:0:0:
64,192,233587,1,0,0:0:0:0:
192,192,233667,1,0,0:0:0:0:
448,192,233667,1,0,0:0:0:0:
320,192,233748,1,0,0:0:0:0:
448,192,233828,1,0,0:0:0:0:
320,192,233908,1,0,0:0:0:0:
448,192,233988,1,0,0:0:0:0:
320,192,234068,1,0,0:0:0:0:
192,192,234149,1,0,0:0:0:0:
320,192,234229,1,0,0:0:0:0:
192,192,234309,1,0,0:0:0:0:
64,192,234389,1,0,0:0:0:0:
320,192,234469,1,0,0:0:0:0:
192,192,234550,1,0,0:0:0:0:
448,192,234630,1,0,0:0:0:0:
320,192,234710,1,0,0:0:0:0:
192,192,234790,1,0,0:0:0:0:
64,192,234871,1,0,0:0:0:0:
448,192,234951,1,0,0:0:0:0:
320,192,234951,1,0,0:0:0:0:
192,192,234951,1,0,0:0:0:0:
320,192,235171,1,0,0:0:0:0:
192,192,235171,1,0,0:0:0:0:
64,192,235171,1,0,0:0:0:0:
448,192,235392,1,0,0:0:0:0:
320,192,235392,1,0,0:0:0:0:
64,192,235392,1,0,0:0:0:0:
320,192,235592,1,0,0:0:0:0:
192,192,235592,1,0,0:0:0:0:
64,192,235592,1,0,0:0:0:0:
448,192,235813,1,0,0:0:0:0:
320,192,235813,1,0,0:0:0:0:
64,192,235813,1,0,0:0:0:0:
448,192,236034,1,0,0:0:0:0:
192,192,236034,1,0,0:0:0:0:
64,192,236034,1,0,0:0:0:0:
448,192,236234,1,0,0:0:0:0:
320,192,236234,1,0,0:0:0:0:
192,192,236234,1,0,0:0:0:0:
64,192,236395,1,0,0:0:0:0:
320,192,236555,1,0,0:0:0:0:
64,192,236715,1,0,0:0:0:0:
192,192,236715,1,0,0:0:0:0:
448,192,236876,1,0,0:0:0:0:
320,192,236876,1,0,0:0:0:0:
192,192,236876,1,0,0:0:0:0:
64,192,237036,1,0,0:0:0:0:
320,192,237197,1,0,0:0:0:0:
192,192,237357,1,0,0:0:0:0:
64,192,237357,1,0,0:0:0:0:
192,192,237518,1,0,0:0:0:0:
320,192,237518,1,0,0:0:0:0:
448,192,237518,1,0,0:0:0:0:
64,192,237678,1,0,0:0:0:0:
192,192,237838,1,0,0:0:0:0:
320,192,237838,1,0,0:0:0:0:
64,192,237999,1,0,0:0:0:0:
192,192,237999,1,0,0:0:0:0:
448,192,238159,1,0,0:0:0:0:
64,192,238159,1,0,0:0:0:0:
192,192,238240,1,0,0:0:0:0:
320,192,238320,1,0,0:0:0:0:
192,192,238400,1,0,0:0:0:0:
320,192,238480,1,0,0:0:0:0:
192,192,238560,1,0,0:0:0:0:
320,192,238641,1,0,0:0:0:0:
192,192,238721,1,0,0:0:0:0:
320,192,238801,1,0,0:0:0:0:
192,192,238881,1,0,0:0:0:0:
320,192,238961,1,0,0:0:0:0:
192,192,239042,1,0,0:0:0:0:
320,192,239122,1,0,0:0:0:0:
192,192,239202,1,0,0:0:0:0:
320,192,239282,1,0,0:0:0:0:
192,192,239363,1,0,0:0:0:0:
320,192,239443,1,0,0:0:0:0:
192,192,239523,1,0,0:0:0:0:
320,192,239603,1,0,0:0:0:0:
192,192,239683,1,0,0:0:0:0:
320,192,239764,1,0,0:0:0:0:
192,192,239844,1,0,0:0:0:0:
320,192,239924,1,0,0:0:0:0:
192,192,240004,1,0,0:0:0:0:
448,192,240084,1,0,0:0:0:0:
320,192,240084,1,0,0:0:0:0:
64,192,240165,1,0,0:0:0:0:
192,192,240165,1,0,0:0:0:0:
320,192,240245,1,0,0:0:0:0:
448,192,240245,1,0,0:0:0:0:
192,192,240325,1,0,0:0:0:0:
64,192,240325,1,0,0:0:0:0:
320,192,240405,1,0,0:0:0:0:
448,192,240405,1,0,0:0:0:0:
192,192,240486,1,0,0:0:0:0:
64,192,240486,1,0,0:0:0:0:
320,192,240566,1,0,0:0:0:0:
448,192,240566,1,0,0:0:0:0:
192,192,240646,1,0,0:0:0:0:
64,192,240646,1,0,0:0:0:0:
448,192,240726,1,0,0:0:0:0:
320,192,240726,1,0,0:0:0:0:
64,192,240806,1,0,0:0:0:0:
192,192,240806,1,0,0:0:0:0:
320,192,240806,1,0,0:0:0:0:
320,192,241167,1,0,0:0:0:0:
64,192,241167,1,0,0:0:0:0:
192,192,241167,1,0,0:0:0:0:
448,192,241889,1,0,0:0:0:0:
320,192,241889,1,0,0:0:0:0:
192,192,241889,1,0,0:0:0:0:
