osu file format v14

[General]
AudioFilename: KiraiNoWaKeLychee.mp3
AudioLeadIn: 0
PreviewTime: 51550
Countdown: 0
SampleSet: Soft
StackLeniency: 0.4
Mode: 0
LetterboxInBreaks: 0
WidescreenStoryboard: 0

[Editor]
Bookmarks: 10000,22800,35600,50000,62800,75600
DistanceSpacing: 1.8
BeatDivisor: 4
GridSize: 32
TimelineZoom: 1.6

[Metadata]
Title:Kirai na Wake Lychee (TV Size)
TitleUnicode:嫌いなワケLychee (TV Size)
Artist:RAMM ni Haiyoru Tamao-san
ArtistUnicode:RAMMに這いよる珠緒さん
Creator:papapa213
Version:Pata-Mon's Insane
Source:這いよれ!ニャル子さんW
Tags:大坪由佳 japanese anime ending Pata-Mon Imouto koko Another Crawling Chaos Haiyore! Nyaruko-san W
BeatmapID:1769733
BeatmapSetID:633738

[Difficulty]
HPDrainRate:5
CircleSize:3.8
OverallDifficulty:8
ApproachRate:9
SliderMultiplier:1.8
SliderTickRate:1

[Events]
//Background and Video events
0,0,"patamon.jpg",0,0
Video,245,"video.flv"
//Break Periods
//Storyboard Layer 0 (Background)
//Storyboard Layer 1 (Fail)
//Storyboard Layer 2 (Pass)
//Storyboard Layer 3 (Foreground)
//Storyboard Layer 4 (Overlay)
//Storyboard Sound Samples

[TimingPoints]
450,400,4,2,0,50,1,0
5450,-66.6666666666667,4,2,0,50,0,0
5650,-100,4,2,0,50,0,0
5850,-66.6666666666667,4,2,0,50,0,0
6050,-100,4,2,0,50,0,0
6250,-66.6666666666667,4,2,0,50,0,0
6450,-100,4,2,0,50,0,0
6650,-66.6666666666667,4,2,0,50,0,0
6850,-83.3333333333333,4,2,0,65,0,0
8450,-66.6666666666667,4,2,0,65,0,0
10850,-83.3333333333333,4,2,0,65,0,0
21250,-66.6666666666667,4,2,0,65,0,0
23850,-83.3333333333333,4,2,0,65,0,0
24450,-142.857142857143,4,2,0,50,0,0
30850,-117.647058823529,4,2,0,50,0,0
35650,-83.3333333333333,4,2,0,50,0,0
36450,-66.6666666666667,4,2,0,50,0,0
36850,-100,4,2,0,60,0,0
43650,-100,4,2,0,70,0,0
50050,-200,4,2,0,50,0,0
50850,-100,4,2,0,50,0,0
51650,-83.3333333333333,4,2,0,80,0,1
73850,-83.3333333333333,4,2,0,50,0,1
74050,-66.6666666666667,4,2,0,80,0,1
77250,-83.3333333333333,4,2,0,65,0,0
86850,-66.6666666666667,4,2,0,65,0,0
89450,-83.3333333333333,4,2,0,50,0,0

[Colours]
Combo1 : 242,228,183
Combo2 : 255,32,32
Combo3 : 255,128,0

[HitObjects]
153,192,2050,6,0,L|151:126,1,45,6|0,0:0|0:0,0:0:0:0:
197,80,2250,2,0,P|256:68|321:71,1,90,2|0,0:0|0:0,0:0:0:0:
348,218,2650,2,0,P|288:229|224:227,1,90,2|0,0:0|0:0,0:0:0:0:
198,49,3050,2,0,P|257:58|317:82,1,90,2|0,0:0|0:0,0:0:0:0:
346,249,3450,2,0,P|286:239|226:215,1,90,2|0,0:0|0:0,0:0:0:0:
398,33,3850,6,0,L|394:153,1,90,2|0,0:0|0:0,0:0:0:0:
259,230,4250,2,0,L|263:110,1,90,2|0,0:0|0:0,0:0:0:0:
415,57,4650,2,0,L|411:177,1,90,2|0,0:0|0:0,0:0:0:0:
259,230,5050,2,0,L|196:234,1,45,2|0,0:0|0:0,0:0:0:0:
192,69,5250,6,0,L|129:65,1,45,0|0,1:0|0:0,0:0:0:0:
329,34,5450,6,0,L|325:154,1,67.5000025749208,2|0,0:0|0:0,0:0:0:0:
203,151,5650,6,0,L|140:147,1,45,0|0,1:0|0:0,0:0:0:0:
340,116,5850,6,0,L|336:236,1,67.5000025749208,2|0,0:0|0:0,0:0:0:0:
214,233,6050,6,0,L|151:229,1,45,0|0,1:0|0:0,0:0:0:0:
351,198,6250,6,0,L|347:318,1,67.5000025749208,2|0,0:0|0:0,0:0:0:0:
225,315,6450,6,0,L|162:311,1,45,0|0,1:0|0:0,0:0:0:0:
362,280,6650,6,0,L|358:400,1,67.5000025749208,2|0,0:0|0:0,0:0:0:0:
274,165,6850,5,2,0:0:0:0:
373,362,7050,1,0,1:0:0:0:
373,106,7250,5,2,0:0:0:0:
274,303,7450,1,0,1:0:0:0:
274,47,7650,5,2,0:0:0:0:
373,244,7850,1,0,1:0:0:0:
387,273,7950,1,0,1:0:0:0:
401,302,8050,2,0,L|389:370,3,53.9999983520508,2|2|2|2,0:0|0:0|0:0|0:0,0:0:0:0:
359,215,8450,6,0,P|419:210|503:211,1,135.000005149842,6|0,1:2|0:0,0:0:0:0:
227,284,8850,2,0,L|117:278,1,67.5000025749208,2|0,1:2|0:0,0:0:0:0:
359,215,9050,2,0,P|367:279|366:363,1,135.000005149842,2|0,1:2|0:0,0:0:0:0:
27,349,9450,2,0,P|19:285|20:201,1,135.000005149842,2|0,1:2|0:0,0:0:0:0:
188,29,9850,6,0,P|188:97|180:164,1,135.000005149842,2|0,1:2|0:0,0:0:0:0:
166,380,10250,2,0,L|157:278,1,67.5000025749208,2|0,1:2|0:0,0:0:0:0:
72,164,10450,1,2,0:0:0:0:
247,253,10650,1,0,1:0:0:0:
10,251,10850,5,2,0:0:0:0:
187,110,11050,2,0,L|177:188,1,53.9999983520508,0|0,1:0|0:0,0:0:0:0:
90,52,11250,1,0,1:0:0:0:
138,28,11350,1,0,1:0:0:0:
191,18,11450,1,0,1:0:0:0:
244,20,11550,1,0,1:0:0:0:
293,42,11650,6,0,L|283:120,1,53.9999983520508,6|0,0:0|0:0,0:0:0:0:
256,188,11850,2,0,P|285:234|375:243,1,107.999996704102,0|0,1:0|0:0,0:0:0:0:
460,103,12250,2,0,P|431:57|341:48,1,107.999996704102,0|0,1:0|0:0,0:0:0:0:
333,252,12650,2,0,L|469:255,1,107.999996704102,0|0,1:0|0:0,0:0:0:0:
382,39,13050,2,0,L|246:36,1,107.999996704102,0|0,1:0|0:0,0:0:0:0:
333,252,13450,2,0,P|334:176|313:110,1,107.999996704102,0|0,1:0|0:0,0:0:0:0:
135,176,13850,2,0,L|131:252,1,53.9999983520508,0|0,1:0|0:0,0:0:0:0:
185,312,14050,5,2,0:0:0:0:
223,121,14250,1,0,1:0:0:0:
201,97,14350,1,0,1:0:0:0:
179,73,14450,2,0,L|94:65,1,53.9999983520508,0|0,1:0|0:0,0:0:0:0:
228,211,14650,2,0,L|313:203,1,53.9999983520508,0|0,1:0|0:0,0:0:0:0:
365,156,14850,5,2,0:0:0:0:
324,346,15050,2,0,L|154:362,1,107.999996704102,0|0,1:0|0:0,0:0:0:0:
365,156,15450,2,0,L|535:172,1,107.999996704102,0|0,1:0|0:0,0:0:0:0:
235,206,15850,2,0,L|251:36,1,107.999996704102,0|0,1:0|0:0,0:0:0:0:
428,276,16250,2,0,L|444:446,1,107.999996704102,0|0,1:0|0:0,0:0:0:0:
217,356,16650,2,0,L|387:340,1,107.999996704102,0|0,1:0|0:0,0:0:0:0:
472,166,17050,1,0,1:0:0:0:
278,181,17250,5,2,0:0:0:0:
288,212,17350,1,0,1:0:0:0:
298,243,17450,2,0,L|371:249,1,53.9999983520508,0|0,1:0|0:0,0:0:0:0:
472,166,17650,2,0,L|399:172,1,53.9999983520508,0|0,1:0|0:0,0:0:0:0:
448,315,17850,2,0,L|456:224,1,53.9999983520508,0|0,1:0|0:0,0:0:0:0:
326,150,18050,6,0,L|318:59,1,53.9999983520508,6|0,0:0|0:0,0:0:0:0:
418,170,18250,2,0,P|387:222|327:247,1,107.999996704102,0|0,1:0|0:0,0:0:0:0:
229,76,18650,2,0,P|260:24|320:-1,1,107.999996704102,0|0,1:0|0:0,0:0:0:0:
237,200,19050,2,0,P|187:200|93:191,1,107.999996704102,0|0,1:0|0:0,0:0:0:0:
321,96,19450,2,0,P|371:96|465:105,1,107.999996704102,0|0,1:0|0:0,0:0:0:0:
247,307,19850,2,0,P|239:251|239:158,1,107.999996704102,0|0,1:0|0:0,0:0:0:0:
428,100,20250,2,0,L|423:178,1,53.9999983520508,0|0,1:0|0:0,0:0:0:0:
333,189,20450,5,2,0:0:0:0:
186,56,20650,2,0,L|102:49,1,53.9999983520508,0|0,1:0|0:0,0:0:0:0:
274,97,20850,2,0,L|358:90,1,53.9999983520508,0|0,1:0|0:0,0:0:0:0:
194,153,21050,1,0,1:0:0:0:
175,179,21150,1,0,1:0:0:0:
156,205,21250,5,6,0:0:0:0:
412,141,21450,1,0,1:0:0:0:
132,52,21650,1,2,0:0:0:0:
287,320,21850,2,0,P|295:253|298:186,1,135.000005149842,2|0,1:2|0:0,0:0:0:0:
132,52,22250,2,0,P|124:119|121:186,1,135.000005149842,2|0,1:2|0:0,0:0:0:0:
298,186,22650,6,0,P|295:118|287:51,1,135.000005149842,2|0,1:2|0:0,0:0:0:0:
121,186,23050,2,0,P|122:228|126:276,1,67.5000025749208,2|0,1:2|0:0,0:0:0:0:
283,171,23250,2,0,P|280:103|272:36,1,135.000005149842,2|0,1:2|0:0,0:0:0:0:
22,125,23650,6,0,P|20:159|20:193,1,67.5000025749208,2|0,1:2|0:0,0:0:0:0:
26,289,23850,1,2,0:0:0:0:
55,303,23950,1,2,0:0:0:0:
84,317,24050,2,0,P|149:271|81:215,1,161.999995056153,2|0,0:0|0:0,0:0:0:0:
245,288,24450,6,0,P|294:293|393:289,1,125.999996154785,6|0,0:0|0:0,0:0:0:0:
512,220,25050,1,2,0:0:0:0:
385,307,25250,2,0,P|322:309|259:302,1,125.999996154785,2|0,0:0|0:0,0:0:0:0:
111,80,26050,6,0,P|174:78|237:85,1,125.999996154785,2|0,0:0|0:0,0:0:0:0:
378,152,26650,1,2,0:0:0:0:
252,70,26850,2,0,P|203:65|104:69,1,125.999996154785,2|0,0:0|0:0,0:0:0:0:
286,348,27650,6,0,P|291:299|287:200,1,125.999996154785,2|0,0:0|0:0,0:0:0:0:
252,70,28250,1,2,0:0:0:0:
305,207,28450,2,0,P|307:270|300:333,1,125.999996154785,2|0,0:0|0:0,0:0:0:0:
189,68,29250,6,0,L|261:70,1,62.9999980773926,2|0,0:0|0:0,0:0:0:0:
498,18,29650,1,0,1:0:0:0:
394,136,29850,1,2,0:0:0:0:
387,25,30050,1,2,0:0:0:0:
505,129,30250,2,0,L|501:180,2,31.4999990386963,2|2|2,0:0|0:0|0:0,0:0:0:0:
295,87,30650,1,0,1:0:0:0:
270,107,30750,1,0,1:0:0:0:
245,127,30850,6,0,P|248:199|260:264,1,114.750002188683,6|0,0:0|0:0,0:0:0:0:
285,315,31250,1,0,1:0:0:0:
245,127,31450,1,2,0:0:0:0:
285,315,31650,2,0,P|228:323|170:324,1,114.750002188683,2|0,0:0|0:0,0:0:0:0:
29,279,32050,2,0,L|106:275,1,76.5000014591217,0|0,1:0|0:0,0:0:0:0:
245,127,32450,6,0,P|188:119|130:118,1,114.750002188683,2|0,0:0|0:0,0:0:0:0:
53,140,32850,1,0,1:0:0:0:
245,127,33050,1,2,0:0:0:0:
53,140,33250,2,0,L|63:287,1,114.750002188683,2|0,0:0|0:0,0:0:0:0:
122,376,33650,2,0,L|132:229,1,76.5000014591217,0|0,1:0|0:0,0:0:0:0:
245,127,34050,6,0,P|302:119|360:118,1,114.750002188683,2|0,0:0|0:0,0:0:0:0:
437,140,34450,1,0,1:0:0:0:
245,127,34650,1,2,0:0:0:0:
437,140,34850,2,0,L|427:287,1,114.750002188683,2|0,0:0|0:0,0:0:0:0:
422,334,35250,1,0,1:0:0:0:
302,182,35450,1,2,0:0:0:0:
328,189,35550,1,2,0:0:0:0:
354,196,35650,6,0,P|436:143|431:76,1,107.999996704102,2|0,1:2|0:0,0:0:0:0:
353,15,35950,2,0,P|340:51|360:115,1,107.999996704102,2|0,1:2|0:0,0:0:0:0:
473,67,36250,2,0,P|424:60|386:77,1,53.9999983520508,2|0,1:2|0:0,0:0:0:0:
429,275,36450,6,0,P|435:216|435:101,1,135.000005149842,6|0,0:0|0:0,0:0:0:0:
262,64,36850,6,0,L|260:137,1,45,2|0,0:0|0:0,0:0:0:0:
317,167,37050,2,0,L|319:240,1,45,2|0,0:0|0:0,0:0:0:0:
262,270,37250,6,0,P|209:282|35:286,2,180,6|2|2,0:0|0:0|0:0,0:0:0:0:
379,157,38250,1,0,1:0:0:0:
407,192,38350,1,0,1:0:0:0:
435,227,38450,2,0,L|427:338,1,90,2|0,0:0|0:0,0:0:0:0:
283,80,38850,6,0,P|336:68|510:64,2,180,2|2|2,0:0|0:0|0:0,0:0:0:0:
166,193,39850,1,0,1:0:0:0:
138,158,39950,1,0,1:0:0:0:
110,123,40050,2,0,L|118:12,1,90,2|0,0:0|0:0,0:0:0:0:
350,66,40450,6,0,P|362:119|366:293,2,180,2|2|2,0:0|0:0|0:0,0:0:0:0:
230,177,41450,1,0,1:0:0:0:
255,214,41550,1,0,1:0:0:0:
280,251,41650,2,0,L|395:242,1,90,2|0,0:0|0:0,0:0:0:0:
162,66,42050,6,0,P|150:119|146:293,2,180,2|2|2,0:0|0:0|0:0,0:0:0:0:
282,177,43050,1,0,1:0:0:0:
257,214,43150,1,0,1:0:0:0:
232,251,43250,2,0,L|117:242,1,90,2|0,0:0|0:0,0:0:0:0:
387,31,43650,6,0,L|390:132,1,90,4|0,1:2|0:0,0:0:0:0:
438,186,43950,1,0,1:0:0:0:
430,212,44050,1,2,0:0:0:0:
229,141,44250,2,0,L|232:40,1,90,0|0,1:0|0:0,0:0:0:0:
422,238,44650,1,2,1:2:0:0:
154,202,44850,1,2,1:2:0:0:
288,220,45050,1,2,0:0:0:0:
17,94,45250,6,0,L|20:195,1,90,4|0,1:2|0:0,0:0:0:0:
68,249,45550,1,0,1:0:0:0:
60,275,45650,1,2,0:0:0:0:
229,141,45850,2,0,L|335:138,1,90,0|0,1:0|0:0,0:0:0:0:
150,82,46250,1,2,1:2:0:0:
186,350,46450,1,2,1:2:0:0:
168,216,46650,1,2,0:0:0:0:
360,267,46850,6,0,L|466:264,1,90,4|0,1:2|0:0,0:0:0:0:
506,206,47150,1,0,1:0:0:0:
490,184,47250,1,2,0:0:0:0:
365,352,47450,1,0,1:0:0:0:
376,130,47650,6,0,L|270:127,1,90,0|0,1:0|0:0,0:0:0:0:
205,127,47950,1,0,1:0:0:0:
187,147,48050,1,2,0:0:0:0:
294,305,48250,1,0,1:0:0:0:
108,81,48450,5,0,1:0:0:0:
106,126,48550,1,0,1:0:0:0:
104,171,48650,1,0,1:0:0:0:
102,216,48750,1,0,1:0:0:0:
143,235,48850,5,2,0:0:0:0:
170,231,48950,1,2,0:0:0:0:
197,227,49050,1,2,0:0:0:0:
224,223,49150,1,2,0:0:0:0:
257,193,49250,6,0,L|245:131,1,45,2|0,0:0|0:0,0:0:0:0:
210,313,49450,2,0,L|256:356,1,45,2|0,0:0|0:0,0:0:0:0:
177,188,49650,2,0,L|114:180,1,45,2|0,0:0|0:0,0:0:0:0:
276,269,49850,2,0,L|331:238,1,45,2|0,0:0|0:0,0:0:0:0:
149,263,50050,6,0,L|122:320,1,45,2|0,0:0|0:0,0:0:0:0:
248,149,50450,2,0,L|275:92,1,45,2|0,0:0|0:0,0:0:0:0:
97,20,50850,5,0,1:0:0:0:
75,59,50950,1,0,1:0:0:0:
84,103,51050,1,0,1:0:0:0:
62,142,51150,1,0,1:0:0:0:
71,186,51250,2,0,P|153:153|168:104,1,135,2|0,0:0|0:0,0:0:0:0:
84,103,51650,5,6,0:0:0:0:
128,314,51850,1,0,1:0:0:0:
289,171,52050,2,0,P|332:155|433:154,1,107.999996704102,2|0,0:0|1:0,0:0:0:0:
227,343,52450,1,2,0:0:0:0:
183,132,52650,1,0,1:0:0:0:
359,256,52850,1,2,0:0:0:0:
143,239,53050,2,0,P|89:234|38:216,1,107.999996704102,0|0,1:0|0:0,0:0:0:0:
289,171,53450,5,0,1:0:0:0:
163,346,53650,1,2,0:0:0:0:
364,251,53850,1,0,1:0:0:0:
183,132,54050,2,0,L|26:119,1,107.999996704102,2|0,0:0|1:0,0:0:0:0:
364,251,54450,2,0,L|521:238,1,107.999996704102,2|0,0:0|1:0,0:0:0:0:
272,35,54850,6,0,P|274:93|292:190,1,107.999996704102,2|0,0:0|1:0,0:0:0:0:
464,350,55250,2,0,P|471:296|472:242,1,107.999996704102,2|0,0:0|1:0,0:0:0:0:
405,36,55650,1,2,0:0:0:0:
251,234,55850,2,0,L|408:221,1,107.999996704102,0|0,1:0|0:0,0:0:0:0:
512,45,56250,2,0,L|355:32,1,107.999996704102,0|0,1:0|0:0,0:0:0:0:
216,142,56650,5,0,1:0:0:0:
329,327,56850,1,2,0:0:0:0:
432,138,57050,1,0,1:0:0:0:
251,255,57250,2,0,P|203:264|107:257,1,107.999996704102,2|0,0:0|1:0,0:0:0:0:
77,179,57550,1,0,1:0:0:0:
83,147,57650,1,2,0:0:0:0:
70,362,57850,1,0,1:0:0:0:
157,49,58050,5,6,0:0:0:0:
144,264,58250,1,0,1:0:0:0:
337,168,58450,2,0,P|368:160|465:155,1,107.999996704102,2|0,0:0|1:0,0:0:0:0:
359,376,58850,2,0,P|305:372|252:362,1,107.999996704102,2|0,0:0|1:0,0:0:0:0:
204,150,59250,1,2,0:0:0:0:
431,243,59450,2,0,P|400:251|303:256,1,107.999996704102,0|0,1:0|0:0,0:0:0:0:
103,205,59850,5,0,1:0:0:0:
313,155,60050,1,2,0:0:0:0:
252,362,60250,1,0,1:0:0:0:
189,98,60450,5,2,0:0:0:0:
412,252,60650,1,0,1:0:0:0:
103,205,60850,1,2,0:0:0:0:
441,267,61050,1,0,1:0:0:0:
470,282,61150,1,0,1:0:0:0:
499,297,61250,5,2,0:0:0:0:
297,374,61450,1,0,1:0:0:0:
331,161,61650,1,2,0:0:0:0:
499,297,61850,2,0,P|439:309|379:310,1,107.999996704102,2|0,1:2|0:0,0:0:0:0:
224,147,62250,2,0,P|278:149|331:161,1,107.999996704102,2|0,1:2|0:0,0:0:0:0:
512,15,62650,6,0,P|458:17|405:29,1,107.999996704102,2|0,1:2|0:0,0:0:0:0:
224,147,63050,1,2,1:2:0:0:
440,232,63250,2,0,P|437:163|425:92,1,107.999996704102,2|0,1:2|0:0,0:0:0:0:
233,40,63650,2,0,P|226:93|224:147,1,107.999996704102,2|0,1:2|0:0,0:0:0:0:
243,253,63950,1,2,0:0:0:0:
271,269,64050,2,0,P|346:235|322:166,1,161.999995056153,2|0,1:2|0:0,0:0:0:0:
224,147,64450,5,6,0:0:0:0:
436,137,64650,1,0,1:0:0:0:
271,269,64850,2,0,P|229:277|150:256,1,107.999996704102,2|0,0:0|1:0,0:0:0:0:
326,65,65250,1,2,0:0:0:0:
401,262,65450,2,0,P|395:305|346:378,1,107.999996704102,0|0,1:0|0:0,0:0:0:0:
326,65,65850,2,0,P|354:34|431:4,1,107.999996704102,0|0,1:0|0:0,0:0:0:0:
401,262,66250,5,0,1:0:0:0:
224,147,66450,1,2,0:0:0:0:
436,137,66650,1,0,1:0:0:0:
259,22,66850,2,0,L|136:13,1,107.999996704102,2|0,0:0|1:0,0:0:0:0:
293,270,67250,2,0,L|416:261,1,107.999996704102,2|0,0:0|1:0,0:0:0:0:
159,160,67650,6,0,P|148:210|145:293,1,107.999996704102,2|0,0:0|1:0,0:0:0:0:
391,133,68050,2,0,P|387:79|376:26,1,107.999996704102,2|0,0:0|1:0,0:0:0:0:
293,270,68450,1,2,0:0:0:0:
498,202,68650,2,0,P|508:151|512:69,1,107.999996704102,0|0,1:0|0:0,0:0:0:0:
283,129,69050,2,0,P|337:133|419:131,1,107.999996704102,0|0,1:0|0:0,0:0:0:0:
163,29,69450,5,0,1:0:0:0:
174,244,69650,1,2,0:0:0:0:
41,73,69850,1,0,1:0:0:0:
52,288,70050,2,0,P|126:364|188:373,1,107.999996704102,2|0,0:0|1:0,0:0:0:0:
233,359,70350,1,0,1:0:0:0:
260,341,70450,1,2,0:0:0:0:
52,288,70650,1,0,1:0:0:0:
281,20,70850,5,2,1:2:0:0:
174,244,71050,1,2,1:2:0:0:
422,225,71250,1,2,1:2:0:0:
422,225,71650,5,2,1:2:0:0:
174,244,71850,1,2,1:2:0:0:
281,20,72050,1,2,1:2:0:0:
301,268,72250,2,0,P|299:327|286:380,1,107.999996704102,2|0,1:2|0:0,0:0:0:0:
292,164,72650,5,0,1:0:0:0:
313,147,73050,5,0,1:0:0:0:
334,130,73450,6,0,L|403:134,2,53.9999983520508,0|0|0,1:0|1:0|1:0,0:0:0:0:
129,56,73850,2,0,L|94:58,1,26.9999991760254,0|0,1:0|1:0,0:0:0:0:
140,31,73950,2,0,L|105:33,1,26.9999991760254,0|0,1:0|1:0,0:0:0:0:
151,6,74050,6,0,P|223:10|309:40,1,135.000005149842,6|0,1:2|0:0,0:0:0:0:
69,192,74450,2,0,L|-27:192,1,67.5000025749208,2|0,1:2|0:0,0:0:0:0:
195,259,74650,2,0,P|201:189|191:104,1,135.000005149842,2|0,1:2|0:0,0:0:0:0:
151,378,75050,2,0,P|223:374|309:344,1,135.000005149842,2|0,1:2|0:0,0:0:0:0:
283,28,75450,6,0,P|218:9|151:6,1,135.000005149842,2|0,1:2|0:0,0:0:0:0:
349,192,75850,2,0,L|445:192,1,67.5000025749208,2|0,1:2|0:0,0:0:0:0:
223,259,76050,2,0,P|217:189|227:104,1,135.000005149842,2|0,1:2|0:0,0:0:0:0:
508,159,76450,6,0,P|512:190|507:229,1,67.5000025749208,2|0,1:2|0:0,0:0:0:0:
433,320,76650,1,0,1:0:0:0:
393,325,76750,1,0,1:0:0:0:
353,320,76850,2,0,P|322:218|395:193,1,202.500007724762,2|0,0:0|0:0,0:0:0:0:
262,139,77250,6,0,L|174:151,1,53.9999983520508,6|0,0:0|0:0,0:0:0:0:
152,226,77450,2,0,P|152:288|166:354,1,107.999996704102,0|0,1:0|0:0,0:0:0:0:
262,139,77850,2,0,P|262:77|248:11,1,107.999996704102,0|0,1:0|0:0,0:0:0:0:
124,232,78250,2,0,P|140:291|170:352,1,107.999996704102,0|0,1:0|0:0,0:0:0:0:
289,133,78650,2,0,P|273:74|243:13,1,107.999996704102,0|0,1:0|0:0,0:0:0:0:
264,260,79050,2,0,P|318:271|399:268,1,107.999996704102,0|0,1:0|0:0,0:0:0:0:
254,32,79450,2,0,L|182:39,1,53.9999983520508,0|0,1:0|0:0,0:0:0:0:
142,116,79650,5,2,0:0:0:0:
334,144,79850,1,0,1:0:0:0:
344,113,79950,1,0,1:0:0:0:
354,82,80050,2,0,L|347:17,1,53.9999983520508,0|0,1:0|0:0,0:0:0:0:
238,130,80250,2,0,L|231:195,1,53.9999983520508,0|0,1:0|0:0,0:0:0:0:
254,32,80450,6,0,L|182:39,1,53.9999983520508,6|0,0:0|0:0,0:0:0:0:
142,116,80650,2,0,P|88:115|5:95,1,107.999996704102,0|0,1:0|0:0,0:0:0:0:
254,32,81050,2,0,P|308:33|391:53,1,107.999996704102,0|0,1:0|0:0,0:0:0:0:
131,223,81450,2,0,P|132:169|152:86,1,107.999996704102,0|0,1:0|0:0,0:0:0:0:
330,166,81850,2,0,L|324:219,1,53.9999983520508,0|0,1:0|0:0,0:0:0:0:
288,311,82050,6,0,L|367:315,3,53.9999983520508,2|2|2|2,0:0|0:0|0:0|0:0,0:0:0:0:
414,380,82450,2,0,L|493:376,3,53.9999983520508,2|2|2|2,0:0|0:0|0:0|0:0,0:0:0:0:
512,289,82850,5,0,1:0:0:0:
498,260,82950,1,0,1:0:0:0:
484,231,83050,2,0,L|405:235,1,53.9999983520508,0|0,1:0|0:0,0:0:0:0:
327,341,83250,2,0,L|363:270,1,53.9999983520508,0|0,1:0|0:0,0:0:0:0:
310,150,83450,2,0,L|352:216,1,53.9999983520508,0|0,1:0|0:0,0:0:0:0:
442,331,83650,6,0,L|484:397,1,53.9999983520508,6|0,0:0|0:0,0:0:0:0:
430,234,83850,2,0,P|435:178|427:112,1,107.999996704102,0|0,1:0|0:0,0:0:0:0:
229,126,84250,2,0,P|224:182|232:248,1,107.999996704102,0|0,1:0|0:0,0:0:0:0:
283,9,84650,2,0,P|227:4|161:12,1,107.999996704102,0|0,1:0|0:0,0:0:0:0:
358,115,85050,2,0,P|390:69|416:7,1,107.999996704102,0|0,1:0|0:0,0:0:0:0:
229,126,85450,2,0,P|252:176|292:230,1,107.999996704102,0|0,1:0|0:0,0:0:0:0:
119,111,85850,2,0,L|43:118,1,53.9999983520508,0|0,1:0|0:0,0:0:0:0:
0,188,86050,5,2,0:0:0:0:
156,304,86250,2,0,L|232:297,1,53.9999983520508,0|0,1:0|0:0,0:0:0:0:
78,246,86450,2,0,L|46:315,1,53.9999983520508,0|0,1:0|0:0,0:0:0:0:
168,208,86650,1,0,1:0:0:0:
150,181,86750,1,0,1:0:0:0:
132,154,86850,5,6,0:0:0:0:
271,375,87050,1,0,1:0:0:0:
316,41,87250,1,2,0:0:0:0:
143,265,87450,2,0,P|199:269|298:265,1,135.000005149842,2|0,1:2|0:0,0:0:0:0:
451,43,87850,2,0,P|394:38|296:43,1,135.000005149842,2|0,1:2|0:0,0:0:0:0:
408,308,88250,6,0,P|412:251|408:153,1,135.000005149842,2|0,1:2|0:0,0:0:0:0:
186,0,88650,2,0,P|183:35|183:87,1,67.5000025749208,2|0,1:2|0:0,0:0:0:0:
275,171,88850,2,0,P|331:175|430:171,1,135.000005149842,2|0,1:2|0:0,0:0:0:0:
182,275,89250,6,0,P|182:308|185:342,1,67.5000025749208,2|0,1:2|0:0,0:0:0:0:
275,378,89450,1,2,0:0:0:0:
305,366,89550,1,2,0:0:0:0:
335,354,89650,2,0,P|356:311|353:237,1,107.999996704102,2|0,0:0|0:0,0:0:0:0:
