osu file format v14

[General]
AudioFilename: KiraiNoWaKeLychee.mp3
AudioLeadIn: 0
PreviewTime: 51550
Countdown: 0
SampleSet: Drum
StackLeniency: 0.7
Mode: 0
LetterboxInBreaks: 0
WidescreenStoryboard: 0

[Editor]
Bookmarks: 2200,13200,23600,40400,60200,72700
DistanceSpacing: 1
BeatDivisor: 4
GridSize: 16
TimelineZoom: 1

[Metadata]
Title:Kirai na Wake Lychee (TV Size)
TitleUnicode:嫌いなワケLychee (TV Size)
Artist:RAMM ni Haiyoru Tamao-san
ArtistUnicode:RAMMに這いよる珠緒さん
Creator:papapa213
Version:Normal
Source:這いよれ!ニャル子さんW
Tags:大坪由佳 japanese anime ending Pata-Mon Imouto koko Another Crawling Chaos Haiyore! Nyaruko-san W
BeatmapID:1769732
BeatmapSetID:633738

[Difficulty]
HPDrainRate:3
CircleSize:3
OverallDifficulty:4
ApproachRate:5
SliderMultiplier:1.1
SliderTickRate:1

[Events]
//Background and Video events
0,0,"shatakun.jpg",0,0
Video,245,"video.flv"
//Break Periods
//Storyboard Layer 0 (Background)
//Storyboard Layer 1 (Fail)
//Storyboard Layer 2 (Pass)
//Storyboard Layer 3 (Foreground)
//Storyboard Layer 4 (Overlay)
//Storyboard Sound Samples

[TimingPoints]
450,400,4,3,1,60,1,0
2250,-100,4,3,1,60,0,0
5250,-100,4,3,2,40,0,0
8450,-100,4,3,1,60,0,0
11250,-100,4,3,1,60,0,0
11850,-100,4,3,1,70,0,0
24450,-100,4,2,1,50,0,0
24850,-100,4,3,1,50,0,0
37250,-100,4,3,1,50,0,0
37650,-100,4,3,1,50,0,0
51250,-100,4,2,0,50,0,0
51650,-100,4,3,1,80,0,1
77250,-100,4,3,1,50,0,0

[Colours]
Combo1 : 196,77,128
Combo2 : 0,255,255
Combo3 : 106,106,106

[HitObjects]
74,93,1650,6,0,P|131:114|197:97,1,110,8|12,0:0|0:0,0:0:0:0:
221,72,2250,6,0,L|205:202,1,110,0|0,0:0|0:0,0:0:0:0:
296,246,3050,2,0,L|406:199,1,110,0|0,0:0|0:0,0:0:0:0:
410,93,3850,2,0,L|305:14,1,110,0|0,0:0|0:0,0:0:0:0:
221,72,4650,2,0,L|206:191,1,110,0|0,0:0|0:0,0:0:0:0:
192,234,5250,6,0,P|135:262|59:251,1,110,2|2,0:0|0:0,0:0:0:0:
14,180,6050,2,0,P|71:152|147:163,1,110,2|2,0:0|0:0,0:0:0:0:
153,193,6650,1,0,0:0:0:0:
192,234,6850,6,0,P|251:235|304:208,1,110,2|2,0:0|0:0,0:0:0:0:
386,149,7650,2,0,L|404:79,2,55,2|2|2,0:0|0:0|0:0,0:0:0:0:
407,256,8450,6,0,L|422:397,1,110,2|6,1:3|1:3,0:0:0:0:
372,335,9050,2,0,P|317:310|247:320,1,110,2|6,1:3|1:3,0:0:0:0:
165,350,9850,2,0,L|16:370,1,110,2|6,1:3|1:3,0:0:0:0:
0,363,10450,2,0,P|32:306|34:234,1,110,2|0,1:3|1:3,0:0:0:0:
38,207,11050,1,2,0:0:0:0:
20,154,11250,2,0,L|149:157,1,110,2|12,1:3|1:3,0:0:0:0:
182,171,11850,6,0,P|227:224|275:249,1,110,2|2,1:3|1:3,0:0:0:0:
335,325,12650,2,0,P|266:337|220:366,1,110,2|2,1:3|1:3,0:0:0:0:
125,380,13450,2,0,P|148:314|146:260,1,110,2|2,1:3|1:3,0:0:0:0:
182,171,14250,2,0,L|165:95,2,55,6|6|6,1:3|1:3|1:3,0:0:0:0:
223,207,14850,1,4,0:0:0:0:
266,241,15050,6,0,P|324:249|399:216,1,110,2|2,1:3|1:3,0:0:0:0:
416,133,15850,2,0,P|393:78|327:30,1,110,2|2,1:3|1:3,0:0:0:0:
247,57,16650,2,0,P|211:103|202:184,1,110,2|2,1:3|1:3,0:0:0:0:
144,247,17450,2,0,L|44:269,2,55,6|6|6,1:3|1:3|1:3,0:0:0:0:
198,254,18050,1,4,0:0:0:0:
252,250,18250,6,0,P|308:215|348:170,1,110,2|2,1:3|1:3,0:0:0:0:
433,128,19050,2,0,P|435:193|454:251,1,110,2|2,1:3|1:3,0:0:0:0:
449,346,19850,2,0,P|390:315|331:302,1,110,2|2,1:3|1:3,0:0:0:0:
298,327,20450,2,0,P|241:348|183:329,1,110,4|6,1:3|1:3,0:0:0:0:
154,298,21050,1,6,0:0:0:0:
149,243,21250,6,0,L|140:107,1,110,4|4,1:3|1:3,0:0:0:0:
162,82,21850,2,0,P|219:61|277:80,1,110,4|4,1:3|1:3,0:0:0:0:
314,171,22650,2,0,P|367:181|417:161,1,110,4|4,1:3|1:3,0:0:0:0:
443,113,23250,2,0,L|435:3,1,110,4|4,1:3|1:3,0:0:0:0:
313,186,24450,6,0,P|239:209|181:196,1,110,4|0,0:0|0:0,0:0:0:0:
173,171,25050,1,0,0:0:0:0:
173,171,25250,2,0,P|150:97|163:39,1,110,4|0,0:0|0:0,0:0:0:0:
51,108,26050,2,0,L|32:276,1,165,4|0,0:0|0:0,0:0:0:0:
53,322,26850,1,4,0:0:0:0:
53,322,27050,2,0,L|44:393,2,55,0|0|0,0:0|0:0|0:0,0:0:0:0:
104,302,27650,6,0,P|167:330|229:324,1,110,4|0,0:0|0:0,0:0:0:0:
252,298,28250,1,0,0:0:0:0:
252,298,28450,2,0,L|253:183,1,110,4|0,0:0|0:0,0:0:0:0:
308,92,29250,1,4,0:0:0:0:
308,92,29450,2,0,L|370:77,1,55,0|0,0:0|0:0,0:0:0:0:
420,74,29850,1,2,0:0:0:0:
420,74,30050,2,0,P|436:153|430:203,1,110,4|0,0:0|0:0,0:0:0:0:
413,232,30650,1,10,0:0:0:0:
382,278,30850,6,0,P|309:262|260:276,1,110,4|4,0:1|0:0,0:0:0:0:
244,314,31450,1,0,0:0:0:0:
264,364,31650,2,0,P|337:380|386:366,1,110,6|4,0:0|0:0,0:0:0:0:
471,333,32450,2,0,L|456:159,1,165,6|0,0:0|0:0,0:0:0:0:
432,126,33250,1,6,0:0:0:0:
432,126,33450,2,0,L|477:62,2,55,0|4|0,0:0|0:0|0:0,0:0:0:0:
379,143,34050,6,0,P|321:111|281:48,1,110,6|4,0:0|0:0,0:0:0:0:
263,30,34650,1,0,0:0:0:0:
210,13,34850,2,0,P|148:19|71:73,1,110,6|0,0:0|0:3,0:0:0:0:
82,90,35450,1,0,0:0:0:0:
80,144,35650,2,0,P|18:153|-18:142,2,82.5,6|6|6,0:0|0:0|0:0,0:0:0:0:
133,130,36450,2,8,L|131:260,1,110,6|0,0:0|1:3,0:0:0:0:
230,291,37250,6,0,P|284:313|355:303,1,110,4|0,1:0|0:0,0:0:0:0:
399,222,38050,2,0,L|419:154,2,55,2|0|8,0:0|0:0|0:0,0:0:0:0:
334,310,38850,2,0,P|281:322|228:312,1,110,0|0,0:0|0:0,0:0:0:0:
200,204,39650,2,0,L|197:134,2,55,2|0|8,0:0|0:0|0:0,0:0:0:0:
227,311,40450,6,0,P|172:333|101:323,1,110,0|0,0:0|0:0,0:0:0:0:
55,242,41250,2,0,L|35:174,2,55,2|0|8,0:0|0:0|0:0,0:0:0:0:
122,330,42050,2,0,P|174:342|227:332,1,110,0|0,0:0|0:0,0:0:0:0:
246,222,42850,2,0,L|249:152,2,55,2|0|8,0:0|0:0|0:0,0:0:0:0:
230,331,43650,6,0,L|343:318,1,110,2|2,0:0|0:0,0:0:0:0:
391,336,44250,2,0,P|460:340|493:314,1,110,2|0,0:0|0:0,0:0:0:0:
500,262,44850,1,2,0:0:0:0:
441,169,45250,2,0,L|328:156,1,110,2|2,0:0|0:0,0:0:0:0:
288,191,45850,2,0,P|219:195|186:169,1,110,2|0,0:0|0:0,0:0:0:0:
168,120,46450,1,2,0:0:0:0:
59,143,46850,6,0,L|56:263,1,110,2|10,0:0|0:0,0:0:0:0:
58,308,47450,2,0,P|157:295|195:307,1,110,2|0,0:0|0:0,0:0:0:0:
215,318,48050,1,10,0:0:0:0:
263,344,48250,2,0,P|328:350|393:331,2,110,2|10|10,0:0|0:0|0:0,0:0:0:0:
215,318,49250,2,0,L|214:195,1,110,0|4,1:3|1:3,0:0:0:0:
232,99,50050,6,0,P|160:103|113:131,2,110,12|8|8,0:0|0:0|0:0,0:0:0:0:
343,89,51250,1,8,0:0:0:0:
404,182,51650,6,0,P|343:216|286:210,1,110,4|0,0:2|0:0,0:0:0:0:
258,198,52250,1,2,0:0:0:0:
258,198,52450,2,0,L|269:324,1,110,0|0,0:0|0:0,0:0:0:0:
290,357,53050,1,2,0:0:0:0:
290,357,53250,2,0,P|344:354|389:323,1,110,0|0,0:0|0:0,0:0:0:0:
305,250,54050,2,0,L|190:260,1,110,10|10,0:0|0:0,0:0:0:0:
111,188,54850,6,0,P|172:154|229:160,1,110,12|0,0:0|0:0,0:0:0:0:
257,172,55450,1,2,0:0:0:0:
257,172,55650,2,0,L|246:46,1,110
217,16,56250,1,2,0:0:0:0:
127,79,56650,2,0,L|109:199,1,110,2|2,0:0|0:0,0:0:0:0:
103,242,57250,2,0,L|236:238,1,110,2|2,0:0|0:0,0:0:0:0:
288,158,58050,6,0,P|322:219|316:276,1,110,8|0,0:0|0:0,0:0:0:0:
304,304,58650,1,2,0:0:0:0:
304,304,58850,2,0,L|430:293,1,110,0|0,0:0|0:0,0:0:0:0:
463,272,59450,1,2,0:0:0:0:
463,272,59650,2,0,P|460:218|429:173,1,110,0|0,0:0|0:0,0:0:0:0:
356,257,60450,2,0,L|366:372,1,110,10|10,0:0|0:0,0:0:0:0:
258,338,61250,6,0,P|195:323|116:349,1,110,2|6,0:0|0:0,0:0:0:0:
114,371,61850,2,0,L|103:241,1,110,2|2,0:0|0:0,0:0:0:0:
109,151,62650,2,0,L|118:41,1,110,2|2,0:0|0:0,0:0:0:0:
167,64,63250,2,0,P|221:71|273:56,1,110,2|2,0:0|0:0,0:0:0:0:
373,9,64050,1,10,0:0:0:0:
392,118,64450,6,0,L|397:262,1,110,4|0,0:2|0:0,0:0:0:0:
400,287,65050,1,2,0:0:0:0:
400,287,65250,2,0,P|312:298|266:270,1,110,0|0,0:0|0:0,0:0:0:0:
254,263,65850,1,2,0:0:0:0:
254,263,66050,2,0,P|166:252|120:280,1,110,0|0,0:0|0:0,0:0:0:0:
45,297,66850,2,0,L|48:180,1,110,10|10,0:0|0:0,0:0:0:0:
152,149,67650,6,0,L|147:293,1,110,8|0,0:0|0:0,0:0:0:0:
144,318,68250,1,2,0:0:0:0:
144,318,68450,2,0,P|232:329|278:301,1,110,0|0,0:0|0:0,0:0:0:0:
290,294,69050,1,2,0:0:0:0:
375,225,69450,2,0,P|463:214|509:242,1,110,2|2,0:0|0:0,0:0:0:0:
503,270,70050,2,0,L|500:153,1,110,10|2,0:0|0:0,0:0:0:0:
492,110,70650,1,0,0:0:0:0:
492,110,70850,6,0,L|525:44,2,55,2|2|2,0:0|0:0|0:0,0:0:0:0:
391,155,71650,2,0,L|387:220,2,55,2|2|2,3:0|0:0|0:0,0:0:0:0:
371,103,72250,2,0,P|348:81|313:67,1,55,10|0,3:0|0:0,3:3:0:0:
272,67,72650,2,0,P|214:94|174:168,1,110,2|2,0:0|0:0,0:0:0:0:
175,239,73450,1,2,0:0:0:0:
175,239,73650,2,0,L|268:239,1,55,10|2,0:0|0:0,0:0:0:0:
284,238,74050,6,0,P|345:222|400:159,1,110,2|2,0:0|0:0,0:0:0:0:
411,148,74650,2,0,L|421:287,1,110,2|2,0:0|0:0,0:0:0:0:
511,197,75450,2,0,L|503:87,1,110,2|2,0:0|0:0,0:0:0:0:
490,33,76050,2,0,P|439:54|385:50,1,110,2|2,0:0|0:0,0:0:0:0:
171,83,77250,5,6,0:0:0:0:
171,83,77450,2,0,P|194:148|192:202,1,110,2|2,1:3|1:3,0:3:0:0:
228,293,78250,2,0,P|272:239|321:213,1,110,2|2,1:3|1:3,0:3:0:0:
380,138,79050,2,0,P|311:124|265:96,1,110,2|2,1:3|1:3,0:3:0:0:
171,83,79850,2,0,L|143:15,2,55,6|6|6,1:3|1:3|1:3,0:3:0:0:
196,132,80450,1,4,0:3:0:0:
220,181,80650,6,0,P|239:236|223:316,1,110,2|2,1:3|1:3,0:3:0:0:
145,349,81450,2,0,P|86:337|25:283,1,110,2|2,1:3|1:3,0:3:0:0:
23,259,82050,2,8,L|35:386,1,110,2|2,1:3|1:3,0:3:0:0:
145,349,82850,2,0,P|232:341|296:362,1,110,10|14,1:3|1:3,0:3:0:0:
305,361,83450,1,2,1:3:0:0:
362,378,83650,1,4,0:3:0:0:
409,350,83850,6,0,P|450:296|453:231,1,110,2|2,1:3|1:3,0:3:0:0:
382,173,84650,2,0,P|314:164|256:194,1,110,2|2,1:3|1:3,0:3:0:0:
205,262,85450,2,0,P|153:278|99:268,1,110,2|2,1:3|1:3,0:3:0:0:
93,218,86050,1,4,0:3:0:0:
93,218,86250,2,0,L|139:181,2,55,6|6|6,1:3|1:3|1:3,0:3:0:0:
41,199,86850,6,0,P|47:144|78:100,1,110,6|6,1:3|1:3,0:3:0:0:
129,79,87450,2,4,P|188:89|265:60,1,110,6|2,1:3|1:3,0:3:0:0:
333,26,88250,2,0,P|386:16|445:32,1,110,6|2,1:3|1:3,0:3:0:0:
462,79,88850,2,0,L|454:189,1,110,2|2,1:3|1:3,0:3:0:0:
