osu file format v14

[General]
AudioFilename: KiraiNoWaKeLychee.mp3
AudioLeadIn: 0
PreviewTime: 51550
Countdown: 0
SampleSet: Soft
StackLeniency: 0.5
Mode: 0
LetterboxInBreaks: 0
WidescreenStoryboard: 0

[Editor]
Bookmarks: 13200,40400,60200,72700
DistanceSpacing: 1
BeatDivisor: 4
GridSize: 16
TimelineZoom: 1.6

[Metadata]
Title:Kirai na Wake Lychee (TV Size)
TitleUnicode:嫌いなワケLychee (TV Size)
Artist:RAMM ni Haiyoru Tamao-san
ArtistUnicode:RAMMに這いよる珠緒さん
Creator:papapa213
Version:Hard
Source:這いよれ!ニャル子さんW
Tags:大坪由佳 japanese anime ending Pata-Mon Imouto koko Another Crawling Chaos Haiyore! Nyaruko-san W
BeatmapID:1769729
BeatmapSetID:633738

[Difficulty]
HPDrainRate:5
CircleSize:4
OverallDifficulty:6
ApproachRate:7
SliderMultiplier:1.5
SliderTickRate:1

[Events]
//Background and Video events
0,0,"nyaruko.jpg",0,0
Video,245,"video.flv"
//Break Periods
//Storyboard Layer 0 (Background)
//Storyboard Layer 1 (Fail)
//Storyboard Layer 2 (Pass)
//Storyboard Layer 3 (Foreground)
//Storyboard Layer 4 (Overlay)
//Storyboard Sound Samples

[TimingPoints]
450,400,4,1,3,60,1,0
1850,-100,4,1,2,60,0,0
2250,-100,4,3,1,60,0,0
5250,-90.9090909090909,4,3,2,50,0,0
8050,-90.9090909090909,4,3,1,40,0,0
8450,-100,4,3,1,50,0,0
11250,-100,4,1,3,60,0,0
11850,-100,4,3,1,50,0,0
24450,-166.666666666667,4,2,1,50,0,0
24850,-166.666666666667,4,3,1,50,0,0
29250,-125,4,3,1,50,0,0
30450,-100,4,3,1,50,0,0
30850,-90.9090909090909,4,3,1,78,0,0
31450,-100,4,3,1,50,0,0
35250,-100,4,2,1,50,0,0
35450,-100,4,3,1,50,0,0
35650,-100,4,2,1,50,0,0
36850,-100,4,1,3,50,0,0
37050,-100,4,1,2,50,0,0
37450,-100,4,3,1,50,0,0
43650,-90.9090909090909,4,3,1,50,0,0
48450,-90.9090909090909,4,1,7,50,0,0
50050,-90.9090909090909,4,3,1,50,0,0
50450,-90.9090909090909,4,3,1,69,0,0
51250,-90.9090909090909,4,2,0,50,0,0
51650,-86.9565217391304,4,3,1,71,0,1
77250,-100,4,3,1,60,0,0
82050,-100,4,1,2,60,0,0
82450,-100,4,1,3,60,0,0
83450,-100,4,3,1,60,0,0
86850,-90.9090909090909,4,3,1,60,0,0

[Colours]
Combo1 : 54,52,48
Combo2 : 173,165,165

[HitObjects]
155,192,1650,6,0,L|155:253,3,37.5,8|8|8|8,0:0|0:0|0:0|0:0,0:0:0:0:
156,269,2050,6,0,P|191:278|229:270,1,75,12|0,0:0|0:0,0:0:0:0:
287,211,2450,2,0,P|323:204|359:213,1,75,4|0,0:0|0:0,0:0:0:0:
433,250,2850,2,0,P|442:213|434:177,1,75,4|0,0:0|0:0,0:0:0:0:
376,119,3250,2,0,P|368:82|377:46,1,75,4|0,0:0|0:0,0:0:0:0:
296,63,3650,6,0,P|261:72|223:64,1,75,4|0,0:0|0:0,0:0:0:0:
165,6,4050,2,0,P|128:-1|92:7,1,75,4|0,0:0|0:0,0:0:0:0:
131,79,4450,2,0,P|139:115|131:151,1,75,4|0,0:0|0:0,0:0:0:0:
73,210,4850,2,0,P|65:246|74:282,1,75,4|0,0:0|0:0,0:0:0:0:
138,339,5250,6,0,L|221:339,1,82.5000025177003,2|0,0:0|0:0,0:0:0:0:
181,249,5650,2,0,L|263:249,1,82.5000025177003,2|0,0:0|0:0,0:0:0:0:
308,337,6050,2,0,L|390:337,1,82.5000025177003,2|0,0:0|0:0,0:0:0:0:
436,248,6450,2,0,L|354:248,1,82.5000025177003,2|0,0:0|0:0,0:0:0:0:
267,195,6850,5,2,0:0:0:0:
243,106,7050,1,2,0:0:0:0:
332,85,7250,1,2,0:0:0:0:
356,175,7450,1,2,0:0:0:0:
267,195,7650,1,2,0:0:0:0:
171,155,7850,5,2,0:0:0:0:
165,152,7950,1,2,0:0:0:0:
160,149,8050,2,0,L|66:149,1,82.5000025177003,2|2,0:0|0:0,0:0:0:0:
126,236,8450,6,0,P|163:309|117:384,1,150,2|6,1:3|1:3,0:0:0:0:
81,307,9050,1,2,1:3:0:0:
230,237,9450,1,6,1:3:0:0:
78,172,9850,1,2,1:3:0:0:
178,302,10250,1,6,1:3:0:0:
230,237,10450,2,0,P|187:220|144:230,1,75,2|6,1:3|0:0,0:0:0:0:
200,140,10850,2,0,P|260:124|295:142,1,75,0|2,1:3|0:0,0:0:0:0:
342,171,11250,6,0,L|344:218,3,37.5,8|8|8|8,2:1|2:1|2:1|2:1,0:0:0:0:
355,254,11650,2,0,P|371:293|419:318,1,75,12|0,1:0|3:3,0:0:0:0:
461,261,12050,2,0,P|444:221|407:197,1,75,4|0,1:3|3:3,0:0:0:0:
342,171,12450,2,0,P|306:164|272:179,1,75,4|0,1:3|3:3,0:0:0:0:
283,260,12849,2,0,P|319:265|355:254,1,75,4|0,1:3|3:3,0:0:0:0:
419,202,13250,2,0,P|442:173|448:136,1,75,4|0,1:3|3:3,0:0:0:0:
372,106,13650,2,0,P|348:134|341:171,1,75,4|0,1:3|3:3,0:0:0:0:
355,254,14050,5,4,0:3:0:0:
293,308,14250,2,0,L|294:396,2,75,6|6|6,1:3|1:3|1:3,0:0:0:0:
212,286,14850,6,0,P|174:267|152:217,1,75,4|0,1:3|3:3,0:0:0:0:
212,181,15250,2,0,P|250:200|272:239,1,75,4|0,1:3|3:3,0:0:0:0:
292,305,15650,2,0,P|295:342|281:376,1,75,4|0,1:3|3:3,0:0:0:0:
199,356,16050,2,0,P|197:319|212:286,1,75,4|0,1:3|3:3,0:0:0:0:
268,227,16450,2,0,P|298:205|334:201,1,75,4|0,1:3|3:3,0:0:0:0:
360,280,16850,2,0,P|329:301|292:305,1,75,4|0,1:3|3:3,0:0:0:0:
212,286,17250,5,4,0:3:0:0:
151,230,17450,2,0,L|76:230,2,75,6|6|6,1:3|1:3|1:3,0:0:0:0:
214,176,18050,6,0,P|238:141|234:87,1,75,4|0,1:3|3:3,0:0:0:0:
163,82,18450,2,0,P|138:117|137:161,1,75,4|0,1:3|3:3,0:0:0:0:
149,230,18850,2,0,P|164:264|193:288,1,75,4|0,1:3|3:3,0:0:0:0:
257,233,19249,2,0,P|242:199|214:176,1,75,4|0,1:3|3:3,0:0:0:0:
136,148,19650,2,0,P|99:142|65:157,1,75,4|0,1:3|3:3,0:0:0:0:
79,240,20050,2,0,P|115:244|150:231,1,75,4|0,1:3|3:3,0:0:0:0:
214,176,20450,5,4,0:3:0:0:
271,117,20650,2,0,L|271:14,2,75,6|6|6,1:3|1:3|1:3,0:0:0:0:
214,176,21250,6,0,B|161:193|115:169|115:169|129:146|166:134,1,150,6|6,1:3|1:3,0:0:0:0:
214,176,21850,2,0,P|220:262|161:309,1,150,2|2,1:3|1:3,0:0:0:0:
152,139,22650,6,0,B|139:130|144:91|144:91|195:83|246:108,1,150,6|2,1:3|1:3,0:0:0:0:
297,165,23250,2,0,B|287:215|263:230|263:230|236:227|213:175,1,150,6|6,1:3|1:3,0:0:0:0:
193,291,24450,6,0,P|138:302|175:345,1,134.999995880127,4|0,0:0|0:0,0:0:0:0:
252,341,25250,2,0,P|295:340|353:311,1,89.9999972534181,4|0,0:0|0:0,0:0:0:0:
414,193,26050,6,0,P|329:158|275:170,1,134.999995880127,4|0,0:0|0:0,0:0:0:0:
253,232,26850,1,4,0:0:0:0:
253,232,27050,2,0,P|208:231|190:225,2,44.999998626709,0|0|0,0:0|0:0|0:0,0:0:0:0:
288,164,27650,6,0,P|226:129|147:143,1,134.999995880127,4|0,0:0|0:0,0:0:0:0:
97,171,28450,2,0,P|76:131|73:86,1,89.9999972534181,4|0,0:0|0:0,0:0:0:0:
230,94,29250,6,0,P|251:122|257:156,1,60,4|0,0:0|0:0,0:0:0:0:
251,224,29650,1,0,0:0:0:0:
180,169,29850,1,2,0:0:0:0:
258,146,30050,5,4,0:0:0:0:
321,206,30250,1,8,0:0:0:0:
321,206,30350,1,0,0:0:0:0:
321,206,30450,2,0,P|275:226|237:221,1,75,0|10,0:0|0:0,0:0:0:0:
112,190,30850,6,0,B|98:152|121:113|121:113|168:131|180:169,1,165.000005035401,4|4,1:0|0:0,0:0:0:0:
171,259,31450,1,0,0:0:0:0:
162,348,31650,2,0,P|199:346|230:326,1,75,6|0,0:0|0:0,0:0:0:0:
171,259,32050,2,0,L|83:287,1,75,4|0,0:0|0:0,0:0:0:0:
113,192,32450,6,0,P|178:169|209:183,1,75,6|0,0:0|0:0,0:0:0:0:
171,259,32850,2,0,L|99:281,1,75,4|0,0:0|0:0,0:0:0:0:
258,230,33250,1,6,0:0:0:0:
341,199,33450,2,0,L|405:131,2,75,0|4|0,0:0|0:0|0:0,0:0:0:0:
306,281,34050,6,0,P|274:262|258:230,1,75,6|0,0:0|0:0,0:0:0:0:
341,199,34450,1,4,0:0:0:0:
395,270,34650,1,0,0:0:0:0:
352,348,34850,2,0,P|260:365|183:342,1,150,6|0,0:0|0:3,0:0:0:0:
147,280,35450,1,0,0:0:0:0:
147,280,35550,1,0,0:0:0:0:
147,280,35650,6,0,P|104:331|108:407,2,112.5,4|4|6,0:0|0:0|0:0,0:0:0:0:
234,284,36450,2,0,P|270:290|306:280,1,75,4|0,0:0|0:0,0:0:0:0:
354,213,36850,2,8,L|358:158,3,37.5,8|8|8|8,2:3|2:3|2:3|2:3,2:3:0:0:
390,151,37250,6,0,B|418:222|401:277|371:323,2,150,4|0|2,0:0|0:0|0:0,0:0:0:0:
330,94,38250,1,0,0:0:0:0:
319,88,38350,1,0,0:0:0:0:
309,83,38450,2,0,P|265:84|230:104,1,75,8|0,0:0|0:0,0:0:0:0:
189,205,38850,6,0,B|161:276|178:331|208:377,2,150,0|0|2,0:0|0:0|0:0,0:0:0:0:
249,148,39850,1,0,0:0:0:0:
260,142,39950,1,0,0:0:0:0:
270,137,40050,2,0,P|313:138|348:158,1,75,8|0,0:0|0:0,0:0:0:0:
274,234,40450,6,0,B|203:262|148:245|102:215,2,150,0|0|2,0:0|0:0|0:0,0:0:0:0:
330,173,41450,1,0,0:0:0:0:
336,162,41550,1,0,0:0:0:0:
341,152,41650,2,0,P|339:108|319:73,1,75,8|0,0:0|0:0,0:0:0:0:
203,55,42050,6,0,B|132:27|77:44|31:74,2,150,0|0|2,0:0|0:0|0:0,0:0:0:0:
259,116,43050,1,0,0:0:0:0:
265,127,43150,1,0,0:0:0:0:
270,137,43250,2,0,P|268:180|248:215,1,75,8|0,0:0|0:0,0:0:0:0:
166,134,43650,6,0,P|55:130|27:148,1,123.75000377655,2|0,0:0|0:0,0:0:0:0:
29,152,44050,1,2,0:0:0:0:
63,252,44250,2,0,P|131:206|165:132,1,165.000005035401,2|0,0:0|0:0,0:0:0:0:
153,43,44850,1,2,0:0:0:0:
346,134,45250,6,0,P|457:130|485:148,1,123.75000377655,2|0,0:0|0:0,0:0:0:0:
483,152,45650,1,2,0:0:0:0:
449,251,45850,2,0,P|379:206|345:132,1,165.000005035401,2|0,0:0|0:0,0:0:0:0:
344,43,46450,1,2,0:0:0:0:
483,152,46850,6,0,P|505:215|505:283,1,123.75000377655,2|0,0:0|0:0,0:0:0:0:
494,294,47250,1,10,0:0:0:0:
408,278,47450,2,0,L|342:255,1,41.2500012588501,2|0,0:0|0:0,0:0:0:0:
346,253,47650,6,0,P|304:207|291:147,1,123.75000377655,2|0,0:0|0:0,0:0:0:0:
286,124,48049,2,0,P|271:173|243:212,1,82.5000025177003,10|0,0:0|0:0,0:0:0:0:
256,192,48450,12,8,50050,0:0:0:0:
308,246,50450,5,8,0:0:0:0:
308,246,50850,2,0,P|381:251|404:277,1,82.5000025177003,8|8,0:0|0:0,0:0:0:0:
413,290,51150,1,8,0:0:0:0:
413,290,51250,2,0,P|373:331|315:326,1,82.5000025177003,8|0,0:0|0:0,0:0:0:0:
244,345,51650,5,4,0:2:0:0:
162,317,51850,1,2,0:0:0:0:
106,251,52050,2,0,P|94:209|101:167,1,86.2500016450882,0|2,0:0|0:0,0:0:0:0:
165,110,52450,1,0,0:0:0:0:
231,165,52650,1,2,0:0:0:0:
301,115,52850,1,0,0:0:0:0:
275,33,53050,2,0,P|175:52|168:120,1,172.500003290176,2|2,0:0|0:0,0:0:0:0:
145,192,53650,6,0,P|102:185|70:157,1,86.2500016450882,0|2,0:0|0:0,0:0:0:0:
231,165,54050,2,0,L|243:266,1,86.2500016450882,10|0,0:0|0:0,0:0:0:0:
149,361,54450,2,0,L|167:241,1,86.2500016450882,10|0,0:0|0:0,0:0:0:0:
231,165,54850,5,8,0:0:0:0:
296,109,55050,1,2,0:0:0:0:
382,105,55250,2,0,P|434:124|458:156,1,86.2500016450882,0|2,0:0|0:0,0:0:0:0:
484,227,55650,1,0,0:0:0:0:
400,246,55850,2,0,P|363:269|346:312,1,86.2500016450882,2|0,0:0|0:0,0:0:0:0:
382,384,56250,2,0,P|433:320|399:245,1,172.500003290176,2|2,0:0|0:0,0:0:0:0:
326,201,56850,6,0,P|283:197|243:212,1,86.2500016450882,0|2,0:0|0:0,0:0:0:0:
130,266,57250,2,0,P|171:291|215:294,1,86.2500016450882,2|0,0:0|0:0,0:0:0:0:
243,211,57650,2,0,P|202:186|158:183,1,86.2500016450882,2|0,0:0|0:0,0:0:0:0:
78,190,58050,5,8,0:0:0:0:
42,268,58250,1,2,0:0:0:0:
81,344,58450,2,0,P|119:372|162:379,1,86.2500016450882,0|2,0:0|0:0,0:0:0:0:
242,371,58850,1,0,0:0:0:0:
302,307,59050,1,2,0:0:0:0:
328,384,59250,1,0,0:0:0:0:
242,371,59450,2,0,P|214:294|283:222,1,172.500003290176,2|2,0:0|0:0,0:0:0:0:
350,235,60050,6,0,P|386:285|380:331,1,86.2500016450882,0|2,0:0|0:0,0:0:0:0:
264,227,60450,2,0,L|254:140,1,86.2500016450882,10|0,0:0|0:0,0:0:0:0:
213,67,60850,2,0,P|171:58|131:71,1,86.2500016450882,10|4,0:0|0:0,0:0:0:0:
254,141,61250,6,0,P|352:132|401:79,1,172.500003290176,2|6,0:0|0:0,0:0:0:0:
376,0,61850,1,2,0:0:0:0:
435,164,62250,1,2,0:0:0:0:
204,218,62650,6,0,P|106:209|57:156,1,172.500003290176,2|2,0:0|0:0,0:0:0:0:
27,77,63250,1,2,0:0:0:0:
31,249,63650,1,2,0:0:0:0:
58,157,63850,1,10,0:0:0:0:
66,150,63950,1,10,0:0:0:0:
73,145,64050,2,0,B|105:113|168:129,1,86.2500016450882,10|4,0:0|0:0,0:0:0:0:
260,159,64450,5,4,0:2:0:0:
306,231,64650,1,2,0:0:0:0:
278,312,64850,2,0,P|230:327|173:304,1,86.2500016450882,0|2,0:0|0:0,0:0:0:0:
136,256,65250,1,0,0:0:0:0:
81,189,65450,2,0,P|33:186|-15:213,1,86.2500016450882,2|0,0:0|0:0,0:0:0:0:
0,327,65850,2,0,P|46:333|138:242,1,172.500003290176,2|2,0:0|0:0,0:0:0:0:
81,189,66450,6,0,P|72:147|78:104,1,86.2500016450882,0|2,0:0|0:0,0:0:0:0:
150,57,66850,2,0,P|195:69|233:108,1,86.2500016450882,10|0,0:0|0:0,0:0:0:0:
227,181,67250,2,0,P|181:168|143:129,1,86.2500016450882,10|0,0:0|0:0,0:0:0:0:
229,90,67650,5,8,0:0:0:0:
314,78,67850,1,2,0:0:0:0:
384,127,68050,2,0,P|386:171|365:209,1,86.2500016450882,0|2,0:0|0:0,0:0:0:0:
287,241,68450,1,0,0:0:0:0:
221,297,68650,2,0,P|221:339|242:377,1,86.2500016450882,2|0,0:0|0:0,0:0:0:0:
307,320,69050,2,0,P|307:277|286:240,1,86.2500016450882,2|0,0:0|0:0,0:0:0:0:
204,212,69450,1,2,0:0:0:0:
273,161,69650,6,0,P|314:150|346:122,1,86.2500016450882,0|2,0:0|0:0,0:0:0:0:
309,35,70050,2,0,P|266:24|225:35,1,86.2500016450882,10|0,0:0|0:0,0:0:0:0:
346,121,70450,2,0,P|387:131|428:121,1,86.2500016450882,2|0,0:0|0:0,0:0:0:0:
496,39,70850,5,2,0:0:0:0:
411,21,71050,1,2,0:0:0:0:
327,0,71250,1,2,0:0:0:0:
200,208,71650,5,2,3:0:0:0:
284,193,71850,1,2,0:0:0:0:
368,177,72050,1,2,0:0:0:0:
452,158,72250,2,0,P|453:234|430:264,1,86.2500016450882,10|0,3:0|0:0,3:3:0:0:
390,303,72650,6,0,P|297:319|227:275,2,172.500003290176,2|2|2,0:0|0:0|0:0,0:0:0:0:
421,273,73550,1,10,0:0:0:0:
449,240,73650,2,0,P|459:206|449:147,1,86.2500016450882,10|2,0:0|0:0,0:0:0:0:
398,89,74050,6,0,P|315:58|254:111,1,172.500003290176,2|2,0:0|0:0,0:0:0:0:
333,144,74650,2,0,P|322:54|248:21,1,172.500003290176,2|2,0:0|0:0,0:0:0:0:
97,91,75450,6,0,P|102:173|174:214,1,172.500003290176,2|2,0:0|0:0,0:0:0:0:
258,191,76050,2,0,P|242:272|161:302,1,172.500003290176,2|2,0:0|0:0,0:0:0:0:
94,254,76650,5,10,0:0:0:0:
94,254,76750,1,10,0:0:0:0:
94,254,76850,2,0,P|78:319|105:360,1,86.2500016450882,10|0,0:0|0:0,0:0:0:0:
177,266,77250,6,0,P|194:227|180:174,1,75,6|0,1:3|0:0,0:0:0:0:
108,183,77650,2,0,P|91:221|98:265,1,75,4|0,1:3|0:0,0:0:0:0:
124,330,78050,2,0,P|144:360|177:378,1,75,4|0,1:3|0:0,0:0:0:0:
230,313,78449,2,0,P|210:281|176:265,1,75,4|0,1:3|0:0,0:0:0:0:
94,255,78850,2,0,P|58:257|26:278,1,75,4|0,1:3|0:0,0:0:0:0:
55,354,79250,2,0,P|91:352|123:331,1,75,4|0,1:3|0:0,0:0:0:0:
177,266,79650,5,4,0:0:0:0:
248,224,79850,2,0,L|336:239,2,75,6|6|6,1:3|1:3|1:3,0:0:0:0:
204,153,80450,6,0,P|191:118|197:81,1,75,4|0,1:3|0:0,0:0:0:0:
280,78,80849,2,0,P|292:112|285:149,1,75,4|0,1:3|0:0,0:0:0:0:
248,222,81250,2,0,P|224:250|189:263,1,75,4|0,1:3|0:0,0:0:0:0:
145,193,81650,2,0,P|168:164|203:152,1,75,4|0,1:3|0:0,0:0:0:0:
285,149,82050,6,8,L|331:163,3,37.5,8|8|8|8,2:1|2:1|2:1|2:1,2:2:0:0:
352,164,82450,2,8,L|410:144,3,37.5,8|8|8|8,2:1|2:1|2:1|2:1,2:2:0:0:
422,146,82850,2,0,L|479:164,3,37.5,8|8|8|8,2:1|2:1|2:1|2:1,0:0:0:0:
480,191,83250,2,0,P|452:220|411:224,1,75,4|0,0:0|0:0,0:0:0:0:
348,182,83650,6,0,P|305:172|257:196,1,75,4|0,1:0|0:0,0:0:0:0:
280,263,84050,2,0,P|321:272|362:257,1,75,4|0,1:3|0:0,0:0:0:0:
419,218,84450,2,0,P|446:192|457:157,1,75,4|0,1:3|0:0,0:0:0:0:
383,120,84850,2,0,P|357:146|348:182,1,75,4|0,1:3|0:0,0:0:0:0:
352,263,85250,2,0,P|361:297|388:325,1,75,4|0,1:3|0:0,0:0:0:0:
457,283,85650,2,0,P|447:247|420:220,1,75,4|0,1:3|0:0,0:0:0:0:
348,181,86050,5,4,0:0:0:0:
267,162,86250,2,0,L|181:161,2,75,6|6|6,1:3|1:3|1:3,0:0:0:0:
348,181,86850,6,0,P|358:122|343:84,1,82.5000025177003,6|0,1:3|0:0,0:0:0:0:
295,29,87250,1,6,1:3:0:0:
229,91,87450,2,4,P|169:97|121:75,1,82.5000025177003,6|0,1:3|0:0,0:0:0:0:
75,9,87850,2,0,P|135:3|183:25,1,82.5000025177003,6|0,1:3|0:0,0:0:0:0:
229,91,88250,6,0,P|276:175|363:182,1,165.000005035401,6|6,1:3|1:3,0:0:0:0:
420,149,88850,2,0,P|428:193|408:255,1,82.5000025177003,2|0,1:3|0:0,0:0:0:0:
372,306,89250,2,0,P|328:314|266:294,1,82.5000025177003,2|0,1:3|0:0,0:0:0:0:
250,286,89550,1,0,0:3:0:0:
205,276,89650,2,0,P|164:269|124:277,1,82.5000025177003,2|0,1:3|0:0,0:0:0:0:
