osu file format v14

[General]
AudioFilename: audio.mp3
AudioLeadIn: 0
PreviewTime: 49216
Countdown: 0
SampleSet: Soft
StackLeniency: 0.7
Mode: 3
LetterboxInBreaks: 0
SpecialStyle: 0
WidescreenStoryboard: 0

[Editor]
Bookmarks: 36816,38416,40016,41616,42616,43616,44216,45216,50016,74816
DistanceSpacing: 1.4
BeatDivisor: 4
GridSize: 4
TimelineZoom: 2.799999

[Metadata]
Title:Kirai na WaKe Lychee
TitleUnicode:嫌いなワケLychee
Artist:RAMM ni Haiyoru Tamao-san
ArtistUnicode:RAMMに這いよる珠緒さん
Creator:Shinora-
Version:Cutie [Lv.11]
Source:Hayiore! Nyaruko-san W
Tags:ending 這いよれ!ニャル子さんW roko100789
BeatmapID:1033839
BeatmapSetID:484663

[Difficulty]
HPDrainRate:8
CircleSize:4
OverallDifficulty:7.8
ApproachRate:5
SliderMultiplier:1.4
SliderTickRate:1

[Events]
//Background and Video events
0,0,"1233-67601-2.png",0,0
//Break Periods
//Storyboard Layer 0 (Background)
//Storyboard Layer 1 (Fail)
//Storyboard Layer 2 (Pass)
//Storyboard Layer 3 (Foreground)
//Storyboard Sound Samples

[TimingPoints]
416,400,4,2,1,30,1,0
6816,-133.333333333333,4,2,1,30,0,0
7016,-80,4,2,1,30,0,0
7216,-133.333333333333,4,2,1,30,0,0
7316,-80,4,2,1,30,0,0
7416,-133.333333333333,4,2,1,30,0,0
7616,-80,4,2,1,30,0,0
7816,-133.333333333333,4,2,1,30,0,0
8016,-80,4,2,1,30,0,0
8216,-133.333333333333,4,2,1,30,0,0
8416,-80,4,2,1,30,0,0
8616,-133.333333333333,4,2,1,30,0,0
8716,-80,4,2,1,30,0,0
8816,-100,4,2,1,30,0,0
48416,-200,4,2,1,30,0,0
48627,-66.6666666666667,4,2,1,30,0,0
48816,-200,4,2,1,30,0,0
49016,-66.6666666666667,4,2,1,30,0,0
49216,-100,4,2,1,30,0,0
49616,-200,4,2,1,30,0,0
49816,-66.6666666666667,4,2,1,30,0,0
50016,-100,4,2,1,30,0,1
52416,-71.4285714285714,4,2,1,30,0,1
52616,-166.666666666667,4,2,1,30,0,1
52816,-71.4285714285714,4,2,1,30,0,1
53016,-166.666666666667,4,2,1,30,0,1
53116,-100,4,2,1,30,0,1
55616,-71.4285714285714,4,2,1,30,0,1
55916,-166.666666666667,4,2,1,30,0,1
56016,-71.4285714285714,4,2,1,30,0,1
56316,-166.666666666667,4,2,1,30,0,1
56416,-100,4,2,1,30,0,1
58816,-71.4285714285714,4,2,1,30,0,1
59116,-166.666666666667,4,2,1,30,0,1
59216,-71.4285714285714,4,2,1,30,0,1
59416,-166.666666666667,4,2,1,30,0,1
59616,-80,4,2,1,30,0,1
59716,-133.333333333333,4,2,1,30,0,1
59816,-100,4,2,1,30,0,1
60216,-80,4,2,1,30,0,1
60316,-133.333333333333,4,2,1,30,0,1
60416,-100,4,2,1,30,0,1
60616,-80,4,2,1,30,0,1
60716,-133.333333333333,4,2,1,30,0,1
60816,-100,4,2,1,30,0,1
61016,-80,4,2,1,30,0,1
61116,-133.333333333333,4,2,1,30,0,1
61216,-100,4,2,1,30,0,1
61416,-80,4,2,1,30,0,1
61516,-133.333333333333,4,2,1,30,0,1
61616,-80,4,2,1,30,0,1
61716,-133.333333333333,4,2,1,30,0,1
61816,-100,4,2,1,30,0,1
65216,-71.4285714285714,4,2,1,30,0,1
65516,-166.666666666667,4,2,1,30,0,1
65616,-71.4285714285714,4,2,1,30,0,1
65816,-166.666666666667,4,2,1,30,0,1
65916,-100,4,2,1,30,0,1
68416,-71.4285714285714,4,2,1,30,0,1
68716,-166.666666666667,4,2,1,30,0,1
68816,-71.4285714285714,4,2,1,30,0,1
68916,-166.666666666667,4,2,1,30,0,1
69016,-100,4,2,1,30,0,1
72416,-133.333333333333,4,2,1,30,0,1
72616,-80,4,2,1,30,0,1
72816,-133.333333333333,4,2,1,30,0,1
72916,-80,4,2,1,30,0,1
73016,-133.333333333333,4,2,1,30,0,1
73216,-80,4,2,1,30,0,1
73416,-133.333333333333,4,2,1,30,0,1
73616,-80,4,2,1,30,0,1
73816,-133.333333333333,4,2,1,30,0,1
74016,-80,4,2,1,30,0,1
74216,-133.333333333333,4,2,1,30,0,1
74316,-80,4,2,1,30,0,1
74416,-133.333333333333,4,2,1,30,0,1
74616,-100,4,2,1,30,0,1
74816,-100,4,2,1,30,0,0

[HitObjects]
448,192,16,5,0,0:0:0:0:
448,192,116,1,0,0:0:0:0:
192,192,216,1,0,0:0:0:0:
192,192,316,1,0,0:0:0:0:
448,192,416,1,0,0:0:0:0:
320,192,416,1,0,0:0:0:0:
64,192,416,1,0,0:0:0:0:
192,192,516,1,0,0:0:0:0:
448,192,616,1,0,0:0:0:0:
320,192,716,1,0,0:0:0:0:
448,192,816,1,0,0:0:0:0:
64,192,816,1,0,0:0:0:0:
192,192,916,1,0,0:0:0:0:
64,192,1016,1,0,0:0:0:0:
192,192,1116,1,0,0:0:0:0:
448,192,1216,1,0,0:0:0:0:
320,192,1216,1,0,0:0:0:0:
192,192,1316,1,0,0:0:0:0:
320,192,1416,1,0,0:0:0:0:
448,192,1516,1,0,0:0:0:0:
320,192,1616,1,0,0:0:0:0:
64,192,1616,1,0,0:0:0:0:
448,192,1716,1,0,0:0:0:0:
192,192,1816,1,0,0:0:0:0:
320,192,1916,1,0,0:0:0:0:
448,192,2016,1,0,0:0:0:0:
192,192,2016,1,0,0:0:0:0:
64,192,2116,1,0,0:0:0:0:
448,192,2216,1,0,0:0:0:0:
320,192,2316,1,0,0:0:0:0:
192,192,2416,1,0,0:0:0:0:
64,192,2416,1,0,0:0:0:0:
320,192,2516,1,0,0:0:0:0:
448,192,2616,1,0,0:0:0:0:
320,192,2716,1,0,0:0:0:0:
64,192,2816,1,0,0:0:0:0:
192,192,2816,1,0,0:0:0:0:
448,192,2916,1,0,0:0:0:0:
320,192,3016,1,0,0:0:0:0:
64,192,3116,1,0,0:0:0:0:
192,192,3216,1,0,0:0:0:0:
320,192,3216,1,0,0:0:0:0:
448,192,3316,1,0,0:0:0:0:
64,192,3416,1,0,0:0:0:0:
320,192,3416,1,0,0:0:0:0:
448,192,3516,1,0,0:0:0:0:
320,192,3616,1,0,0:0:0:0:
192,192,3616,1,0,0:0:0:0:
64,192,3616,1,0,0:0:0:0:
192,192,3816,1,0,0:0:0:0:
448,192,4016,1,0,0:0:0:0:
320,192,4016,1,0,0:0:0:0:
192,192,4016,1,0,0:0:0:0:
64,192,4216,1,0,0:0:0:0:
192,192,4416,1,0,0:0:0:0:
64,192,4416,1,0,0:0:0:0:
320,192,4416,1,0,0:0:0:0:
448,192,4616,1,0,0:0:0:0:
448,192,4816,1,0,0:0:0:0:
320,192,4816,1,0,0:0:0:0:
192,192,4816,1,0,0:0:0:0:
64,192,5016,1,0,0:0:0:0:
192,192,5216,1,0,0:0:0:0:
448,192,5216,1,0,0:0:0:0:
320,192,5316,1,0,0:0:0:0:
64,192,5416,1,0,0:0:0:0:
448,192,5416,1,0,0:0:0:0:
192,192,5516,1,0,0:0:0:0:
320,192,5616,1,0,0:0:0:0:
448,192,5616,1,0,0:0:0:0:
64,192,5716,1,0,0:0:0:0:
192,192,5816,1,0,0:0:0:0:
320,192,5816,1,0,0:0:0:0:
64,192,5916,1,0,0:0:0:0:
448,192,6016,1,0,0:0:0:0:
320,192,6016,1,0,0:0:0:0:
64,192,6116,1,0,0:0:0:0:
192,192,6116,1,0,0:0:0:0:
320,192,6216,1,0,0:0:0:0:
448,192,6216,1,0,0:0:0:0:
192,192,6316,1,0,0:0:0:0:
448,192,6416,1,0,0:0:0:0:
64,192,6416,1,0,0:0:0:0:
192,192,6516,1,0,0:0:0:0:
320,192,6516,1,0,0:0:0:0:
448,192,6616,1,0,0:0:0:0:
64,192,6616,1,0,0:0:0:0:
192,192,6716,1,0,0:0:0:0:
64,192,6816,1,0,0:0:0:0:
448,192,6816,1,0,0:0:0:0:
320,192,6816,1,0,0:0:0:0:
448,192,7216,1,0,0:0:0:0:
320,192,7216,1,0,0:0:0:0:
192,192,7216,1,0,0:0:0:0:
64,192,7416,1,0,0:0:0:0:
192,192,7416,1,0,0:0:0:0:
320,192,7416,1,0,0:0:0:0:
192,192,7816,1,0,0:0:0:0:
320,192,7816,1,0,0:0:0:0:
448,192,7816,1,0,0:0:0:0:
448,192,8216,1,0,0:0:0:0:
64,192,8216,1,0,0:0:0:0:
192,192,8216,1,0,0:0:0:0:
448,192,8616,1,0,0:0:0:0:
320,192,8616,1,0,0:0:0:0:
64,192,8616,1,0,0:0:0:0:
192,192,8816,1,0,0:0:0:0:
320,192,8816,1,0,0:0:0:0:
448,192,8816,1,0,0:0:0:0:
64,192,9016,1,0,0:0:0:0:
192,192,9216,128,0,9316:0:0:0:0:
320,192,9216,128,0,9516:0:0:0:0:
448,192,9216,128,0,9716:0:0:0:0:
64,192,9216,1,0,0:0:0:0:
192,192,9416,1,0,0:0:0:0:
64,192,9516,1,0,0:0:0:0:
320,192,9616,1,0,0:0:0:0:
192,192,9716,1,0,0:0:0:0:
64,192,9816,1,0,0:0:0:0:
192,192,9916,1,0,0:0:0:0:
320,192,10016,1,0,0:0:0:0:
448,192,10016,1,0,0:0:0:0:
64,192,10216,1,0,0:0:0:0:
192,192,10216,1,0,0:0:0:0:
448,192,10216,128,0,10416:0:0:0:0:
320,192,10416,1,0,0:0:0:0:
64,192,10616,1,0,0:0:0:0:
192,192,10616,1,0,0:0:0:0:
448,192,10616,128,0,10816:0:0:0:0:
192,192,10816,1,0,0:0:0:0:
320,192,11016,1,0,0:0:0:0:
192,192,11016,1,0,0:0:0:0:
448,192,11016,128,0,11216:0:0:0:0:
64,192,11216,1,0,0:0:0:0:
64,192,11416,1,0,0:0:0:0:
320,192,11416,1,0,0:0:0:0:
448,192,11416,128,0,11616:0:0:0:0:
192,192,11616,1,0,0:0:0:0:
64,192,11816,1,0,0:0:0:0:
192,192,11816,1,0,0:0:0:0:
448,192,11816,128,0,12016:0:0:0:0:
320,192,12016,1,0,0:0:0:0:
64,192,12216,1,0,0:0:0:0:
320,192,12216,1,0,0:0:0:0:
448,192,12216,128,0,12416:0:0:0:0:
192,192,12416,1,0,0:0:0:0:
448,192,12616,128,0,12716:0:0:0:0:
320,192,12616,1,0,0:0:0:0:
64,192,12616,1,0,0:0:0:0:
192,192,12716,1,0,0:0:0:0:
448,192,12816,128,0,12916:0:0:0:0:
64,192,12816,1,0,0:0:0:0:
320,192,13016,1,0,0:0:0:0:
448,192,13016,128,0,13116:0:0:0:0:
64,192,13016,1,0,0:0:0:0:
192,192,13116,1,0,0:0:0:0:
320,192,13216,1,0,0:0:0:0:
64,192,13416,128,0,13616:0:0:0:0:
448,192,13416,1,0,0:0:0:0:
320,192,13416,1,0,0:0:0:0:
192,192,13616,1,0,0:0:0:0:
64,192,13816,128,0,14016:0:0:0:0:
192,192,13816,1,0,0:0:0:0:
320,192,13816,1,0,0:0:0:0:
448,192,14016,1,0,0:0:0:0:
64,192,14216,128,0,14416:0:0:0:0:
320,192,14216,1,0,0:0:0:0:
192,192,14216,1,0,0:0:0:0:
192,192,14416,1,0,0:0:0:0:
64,192,14616,128,0,14816:0:0:0:0:
448,192,14616,1,0,0:0:0:0:
320,192,14616,1,0,0:0:0:0:
192,192,14816,1,0,0:0:0:0:
64,192,15016,128,0,15216:0:0:0:0:
448,192,15016,1,0,0:0:0:0:
320,192,15016,1,0,0:0:0:0:
320,192,15216,1,0,0:0:0:0:
64,192,15416,128,0,15616:0:0:0:0:
192,192,15416,1,0,0:0:0:0:
448,192,15416,1,0,0:0:0:0:
192,192,15616,1,0,0:0:0:0:
448,192,15616,1,0,0:0:0:0:
320,192,15716,1,0,0:0:0:0:
64,192,15816,128,0,15916:0:0:0:0:
192,192,15816,1,0,0:0:0:0:
320,192,15916,1,0,0:0:0:0:
64,192,16016,128,0,16116:0:0:0:0:
448,192,16016,1,0,0:0:0:0:
192,192,16016,1,0,0:0:0:0:
64,192,16216,128,0,16316:0:0:0:0:
192,192,16216,1,0,0:0:0:0:
448,192,16216,1,0,0:0:0:0:
320,192,16416,1,0,0:0:0:0:
320,192,16616,128,0,16816:0:0:0:0:
64,192,16616,1,0,0:0:0:0:
192,192,16616,1,0,0:0:0:0:
448,192,16816,1,0,0:0:0:0:
320,192,17016,128,0,17216:0:0:0:0:
448,192,17016,1,0,0:0:0:0:
64,192,17016,1,0,0:0:0:0:
192,192,17216,1,0,0:0:0:0:
320,192,17416,128,0,17616:0:0:0:0:
448,192,17416,1,0,0:0:0:0:
64,192,17416,1,0,0:0:0:0:
192,192,17616,1,0,0:0:0:0:
192,192,17816,128,0,18016:0:0:0:0:
320,192,17816,1,0,0:0:0:0:
64,192,17816,1,0,0:0:0:0:
448,192,18016,1,0,0:0:0:0:
192,192,18216,128,0,18416:0:0:0:0:
64,192,18216,1,0,0:0:0:0:
320,192,18216,1,0,0:0:0:0:
448,192,18416,1,0,0:0:0:0:
192,192,18616,128,0,18816:0:0:0:0:
448,192,18616,1,0,0:0:0:0:
320,192,18616,1,0,0:0:0:0:
64,192,18816,1,0,0:0:0:0:
320,192,19016,128,0,19116:0:0:0:0:
64,192,19016,1,0,0:0:0:0:
192,192,19016,1,0,0:0:0:0:
320,192,19216,128,0,19316:0:0:0:0:
192,192,19216,1,0,0:0:0:0:
448,192,19216,1,0,0:0:0:0:
320,192,19416,128,0,19516:0:0:0:0:
64,192,19416,1,0,0:0:0:0:
448,192,19416,1,0,0:0:0:0:
192,192,19516,1,0,0:0:0:0:
64,192,19616,1,0,0:0:0:0:
320,192,19616,1,4,0:0:0:0:
448,192,19616,1,0,0:0:0:0:
320,192,19816,1,0,0:0:0:0:
192,192,20016,1,8,0:0:0:0:
448,192,20016,1,0,0:0:0:0:
64,192,20016,1,0,0:0:0:0:
448,192,20216,1,0,0:0:0:0:
320,192,20216,1,8,0:0:0:0:
64,192,20216,1,0,0:0:0:0:
320,192,20616,1,0,0:0:0:0:
192,192,20616,1,4,0:0:0:0:
64,192,20616,1,0,0:0:0:0:
448,192,21016,1,0,0:0:0:0:
320,192,21016,1,4,0:0:0:0:
192,192,21016,1,0,0:0:0:0:
64,192,21416,1,0,0:0:0:0:
192,192,21416,1,4,0:0:0:0:
320,192,21416,1,0,0:0:0:0:
448,192,21616,1,0,0:0:0:0:
192,192,21616,1,4,0:0:0:0:
64,192,21616,1,0,0:0:0:0:
64,192,22016,128,0,22116:0:0:0:0:
192,192,22016,128,0,22216:0:0:0:0:
320,192,22016,128,0,22316:0:0:0:0:
448,192,22016,128,0,22716:0:0:0:0:
64,192,22216,128,0,22716:0:0:0:0:
192,192,22316,128,0,22716:0:0:0:0:
320,192,22416,128,0,22716:0:0:0:0:
448,192,22816,128,0,23016:0:0:0:0:
192,192,22816,1,0,0:0:0:0:
64,192,23016,128,0,23216:0:0:0:0:
192,192,23216,128,0,23416:0:0:0:0:
448,192,23416,1,0,0:0:0:0:
320,192,23416,1,0,0:0:0:0:
64,192,23616,128,0,23816:0:0:0:0:
448,192,23616,1,0,0:0:0:0:
448,192,24016,128,0,24616:0:0:0:0:
192,192,24416,1,0,0:0:0:0:
64,192,24416,1,0,0:0:0:0:
320,192,24616,128,0,25016:0:0:0:0:
64,192,25016,128,0,25416:0:0:0:0:
192,192,25016,1,0,0:0:0:0:
320,192,25216,1,0,0:0:0:0:
448,192,25416,128,0,25516:0:0:0:0:
320,192,25616,128,0,25716:0:0:0:0:
192,192,25816,128,0,25916:0:0:0:0:
448,192,26016,1,0,0:0:0:0:
64,192,26016,128,0,26216:0:0:0:0:
320,192,26016,128,0,26116:0:0:0:0:
320,192,26416,128,0,26616:0:0:0:0:
64,192,26616,1,0,0:0:0:0:
448,192,26616,128,0,26816:0:0:0:0:
64,192,26816,1,0,0:0:0:0:
192,192,27016,128,0,27216:0:0:0:0:
64,192,27416,128,0,27616:0:0:0:0:
320,192,27616,1,0,0:0:0:0:
448,192,27816,128,0,28016:0:0:0:0:
64,192,28016,1,0,0:0:0:0:
320,192,28016,1,0,0:0:0:0:
448,192,28216,128,0,28416:0:0:0:0:
192,192,28216,1,0,0:0:0:0:
192,192,28416,1,0,0:0:0:0:
448,192,28616,1,0,0:0:0:0:
320,192,28616,1,0,0:0:0:0:
64,192,28716,1,0,0:0:0:0:
192,192,28716,1,0,0:0:0:0:
448,192,28816,1,0,0:0:0:0:
320,192,28816,1,0,0:0:0:0:
192,192,29016,1,0,0:0:0:0:
64,192,29016,1,0,0:0:0:0:
320,192,29116,1,0,0:0:0:0:
64,192,29216,1,0,0:0:0:0:
448,192,29216,1,0,0:0:0:0:
192,192,29216,128,0,29416:0:0:0:0:
448,192,29416,128,0,29616:0:0:0:0:
192,192,29616,1,0,0:0:0:0:
64,192,29616,128,0,29816:0:0:0:0:
320,192,29616,1,0,0:0:0:0:
320,192,29816,1,0,0:0:0:0:
448,192,29816,128,0,30016:0:0:0:0:
192,192,30016,1,0,0:0:0:0:
64,192,30216,128,0,30416:0:0:0:0:
448,192,30416,1,0,0:0:0:0:
320,192,30416,1,0,0:0:0:0:
448,192,30616,128,0,31016:0:0:0:0:
320,192,30816,1,0,0:0:0:0:
192,192,31016,128,0,31416:0:0:0:0:
448,192,31216,1,0,0:0:0:0:
64,192,31216,1,0,0:0:0:0:
320,192,31416,1,0,0:0:0:0:
448,192,31416,128,0,32016:0:0:0:0:
64,192,31616,1,0,0:0:0:0:
320,192,31816,128,0,31916:0:0:0:0:
192,192,32016,128,0,32116:0:0:0:0:
64,192,32016,1,0,0:0:0:0:
448,192,32216,128,0,33616:0:0:0:0:
64,192,32216,128,0,32316:0:0:0:0:
320,192,32416,1,0,0:0:0:0:
320,192,32816,1,0,0:0:0:0:
64,192,32816,1,0,0:0:0:0:
192,192,33016,1,0,0:0:0:0:
192,192,33216,1,0,0:0:0:0:
64,192,33416,128,0,33616:0:0:0:0:
320,192,33616,1,0,0:0:0:0:
192,192,33616,1,0,0:0:0:0:
192,192,33816,128,0,34116:0:0:0:0:
448,192,33816,1,0,0:0:0:0:
320,192,33916,1,0,0:0:0:0:
448,192,34016,1,0,0:0:0:0:
64,192,34016,1,0,0:0:0:0:
320,192,34216,128,0,34516:0:0:0:0:
448,192,34316,1,0,0:0:0:0:
192,192,34616,128,0,34916:0:0:0:0:
448,192,34616,1,0,0:0:0:0:
448,192,34816,1,0,0:0:0:0:
64,192,34816,1,0,0:0:0:0:
64,192,35016,1,0,0:0:0:0:
64,192,35216,1,0,0:0:0:0:
448,192,35216,1,0,0:0:0:0:
320,192,35316,1,0,0:0:0:0:
64,192,35416,1,0,0:0:0:0:
192,192,35416,1,0,0:0:0:0:
64,192,35616,1,0,0:0:0:0:
448,192,35616,1,0,0:0:0:0:
320,192,35616,1,0,0:0:0:0:
192,192,35716,1,0,0:0:0:0:
448,192,35816,1,0,0:0:0:0:
320,192,35916,1,0,0:0:0:0:
448,192,36016,1,0,0:0:0:0:
64,192,36016,1,0,0:0:0:0:
320,192,36116,1,0,0:0:0:0:
64,192,36216,1,0,0:0:0:0:
192,192,36216,1,0,0:0:0:0:
320,192,36316,1,0,0:0:0:0:
448,192,36416,1,0,0:0:0:0:
64,192,36416,1,0,0:0:0:0:
192,192,36516,1,0,0:0:0:0:
320,192,36616,1,0,0:0:0:0:
448,192,36616,1,0,0:0:0:0:
192,192,36716,1,0,0:0:0:0:
64,192,36816,1,0,0:0:0:0:
320,192,36816,1,0,0:0:0:0:
448,192,36816,1,0,0:0:0:0:
448,192,37016,1,0,0:0:0:0:
192,192,37116,1,0,0:0:0:0:
320,192,37216,1,0,0:0:0:0:
64,192,37216,1,0,0:0:0:0:
448,192,37316,1,0,0:0:0:0:
64,192,37416,1,0,0:0:0:0:
192,192,37516,1,0,0:0:0:0:
320,192,37616,1,0,0:0:0:0:
448,192,37616,1,0,0:0:0:0:
192,192,37716,1,0,0:0:0:0:
320,192,37816,1,0,0:0:0:0:
448,192,37916,1,0,0:0:0:0:
64,192,38016,1,0,0:0:0:0:
192,192,38016,1,0,0:0:0:0:
320,192,38116,1,0,0:0:0:0:
192,192,38216,1,0,0:0:0:0:
448,192,38316,1,0,0:0:0:0:
64,192,38416,1,0,0:0:0:0:
192,192,38416,1,0,0:0:0:0:
320,192,38416,1,0,0:0:0:0:
64,192,38616,1,0,0:0:0:0:
320,192,38616,1,0,0:0:0:0:
192,192,38716,1,0,0:0:0:0:
320,192,38816,1,0,0:0:0:0:
448,192,38816,1,0,0:0:0:0:
192,192,38916,1,0,0:0:0:0:
64,192,39016,1,0,0:0:0:0:
320,192,39016,1,0,0:0:0:0:
448,192,39116,1,0,0:0:0:0:
320,192,39216,1,0,0:0:0:0:
192,192,39216,1,0,0:0:0:0:
448,192,39316,1,0,0:0:0:0:
64,192,39416,1,0,0:0:0:0:
192,192,39416,1,0,0:0:0:0:
320,192,39516,1,0,0:0:0:0:
448,192,39616,1,0,0:0:0:0:
192,192,39616,1,0,0:0:0:0:
64,192,39716,1,0,0:0:0:0:
192,192,39816,1,0,0:0:0:0:
320,192,39816,1,0,0:0:0:0:
448,192,39916,1,0,0:0:0:0:
320,192,40016,1,0,0:0:0:0:
64,192,40016,1,0,0:0:0:0:
192,192,40016,1,0,0:0:0:0:
192,192,40216,1,0,0:0:0:0:
448,192,40216,1,0,0:0:0:0:
64,192,40316,1,0,0:0:0:0:
320,192,40416,1,0,0:0:0:0:
448,192,40416,1,0,0:0:0:0:
192,192,40516,1,0,0:0:0:0:
64,192,40616,1,0,0:0:0:0:
320,192,40616,1,0,0:0:0:0:
448,192,40716,1,0,0:0:0:0:
320,192,40816,1,0,0:0:0:0:
64,192,40816,1,0,0:0:0:0:
192,192,40916,1,0,0:0:0:0:
448,192,41016,1,0,0:0:0:0:
320,192,41016,1,0,0:0:0:0:
64,192,41116,1,0,0:0:0:0:
192,192,41216,1,0,0:0:0:0:
448,192,41216,1,0,0:0:0:0:
320,192,41316,1,0,0:0:0:0:
64,192,41416,1,0,0:0:0:0:
192,192,41416,1,0,0:0:0:0:
320,192,41516,1,0,0:0:0:0:
192,192,41616,1,0,0:0:0:0:
64,192,41616,1,0,0:0:0:0:
448,192,41616,1,0,0:0:0:0:
192,192,41816,1,0,0:0:0:0:
320,192,41916,1,0,0:0:0:0:
448,192,41916,1,0,0:0:0:0:
192,192,42016,1,8,0:0:0:0:
64,192,42016,128,0,42216:0:0:0:0:
448,192,42316,1,8,0:0:0:0:
192,192,42316,1,0,0:0:0:0:
64,192,42416,1,0,0:0:0:0:
320,192,42416,1,8,0:0:0:0:
448,192,42616,128,0,42816:0:0:0:0:
192,192,42616,1,0,0:0:0:0:
320,192,42616,1,8,0:0:0:0:
192,192,42816,128,0,43016:0:0:0:0:
64,192,42816,1,8,0:0:0:0:
320,192,43016,128,0,43216:0:0:0:0:
64,192,43016,1,8,0:0:0:0:
448,192,43216,128,0,43416:0:0:0:0:
192,192,43216,1,8,0:0:0:0:
320,192,43416,1,8,0:0:0:0:
64,192,43616,128,0,43816:0:0:0:0:
448,192,43616,1,8,0:0:0:0:
192,192,43616,1,0,0:0:0:0:
192,192,43916,1,0,0:0:0:0:
448,192,43916,1,8,0:0:0:0:
320,192,44016,1,8,0:0:0:0:
64,192,44016,1,0,0:0:0:0:
320,192,44216,128,0,44416:0:0:0:0:
192,192,44216,1,8,0:0:0:0:
64,192,44216,1,0,0:0:0:0:
192,192,44416,1,8,0:0:0:0:
64,192,44616,128,0,44816:0:0:0:0:
448,192,44616,1,0,0:0:0:0:
320,192,44616,1,8,0:0:0:0:
448,192,44816,128,0,45016:0:0:0:0:
192,192,44816,1,0,0:0:0:0:
320,192,44816,1,8,0:0:0:0:
192,192,45016,1,8,0:0:0:0:
64,192,45216,128,0,45416:0:0:0:0:
448,192,45216,1,0,0:0:0:0:
320,192,45216,1,8,0:0:0:0:
192,192,45516,1,8,0:0:0:0:
64,192,45516,1,0,0:0:0:0:
448,192,45616,128,0,45816:0:0:0:0:
320,192,45616,1,8,0:0:0:0:
320,192,45816,128,0,46016:0:0:0:0:
64,192,45816,1,8,0:0:0:0:
64,192,46016,128,0,46216:0:0:0:0:
192,192,46016,1,8,0:0:0:0:
192,192,46216,128,8,46416:0:0:0:0:
448,192,46316,1,8,0:0:0:0:
320,192,46416,128,8,46616:0:0:0:0:
64,192,46416,1,0,0:0:0:0:
448,192,46616,128,0,46816:0:0:0:0:
64,192,46616,1,8,0:0:0:0:
320,192,46816,1,0,0:0:0:0:
448,192,46916,1,0,0:0:0:0:
64,192,47016,1,0,0:0:0:0:
192,192,47016,1,8,0:0:0:0:
64,192,47116,1,0,0:0:0:0:
192,192,47116,1,8,0:0:0:0:
448,192,47216,1,0,0:0:0:0:
320,192,47216,1,8,0:0:0:0:
320,192,47316,1,8,0:0:0:0:
448,192,47316,1,0,0:0:0:0:
64,192,47416,1,0,0:0:0:0:
192,192,47416,1,8,0:0:0:0:
320,192,47516,1,8,0:0:0:0:
448,192,47616,1,0,0:0:0:0:
192,192,47616,1,8,0:0:0:0:
64,192,47716,1,8,0:0:0:0:
320,192,47816,1,8,0:0:0:0:
448,192,47916,1,8,0:0:0:0:
64,192,48016,1,8,0:0:0:0:
192,192,48116,1,8,0:0:0:0:
448,192,48216,1,8,0:0:0:0:
320,192,48316,1,8,0:0:0:0:
192,192,48416,1,0,0:0:0:0:
64,192,48416,1,0,0:0:0:0:
448,192,48416,1,0,0:0:0:0:
448,192,48816,1,0,0:0:0:0:
320,192,48816,1,0,0:0:0:0:
64,192,48816,1,0,0:0:0:0:
64,192,49216,1,0,0:0:0:0:
320,192,49216,1,0,0:0:0:0:
192,192,49316,1,0,0:0:0:0:
448,192,49316,1,0,0:0:0:0:
320,192,49416,1,0,0:0:0:0:
192,192,49516,1,0,0:0:0:0:
320,192,49616,128,0,50016:0:0:0:0:
448,192,49616,128,0,50016:0:0:0:0:
64,192,49616,1,0,0:0:0:0:
64,192,50016,1,0,0:0:0:0:
192,192,50016,1,0,0:0:0:0:
448,192,50116,1,0,0:0:0:0:
320,192,50216,1,0,0:0:0:0:
64,192,50316,1,0,0:0:0:0:
192,192,50416,1,0,0:0:0:0:
320,192,50416,1,0,0:0:0:0:
448,192,50516,1,0,0:0:0:0:
320,192,50616,1,0,0:0:0:0:
192,192,50716,1,0,0:0:0:0:
448,192,50816,1,0,0:0:0:0:
320,192,50816,1,0,0:0:0:0:
192,192,50916,1,0,0:0:0:0:
64,192,51016,1,0,0:0:0:0:
448,192,51116,1,0,0:0:0:0:
320,192,51216,1,0,0:0:0:0:
192,192,51216,1,0,0:0:0:0:
64,192,51316,1,0,0:0:0:0:
448,192,51416,1,0,0:0:0:0:
192,192,51516,1,0,0:0:0:0:
448,192,51616,1,0,0:0:0:0:
320,192,51616,1,0,0:0:0:0:
64,192,51716,1,0,0:0:0:0:
320,192,51816,1,0,0:0:0:0:
192,192,51916,1,0,0:0:0:0:
64,192,52016,1,0,0:0:0:0:
448,192,52016,1,0,0:0:0:0:
192,192,52116,1,0,0:0:0:0:
320,192,52216,1,0,0:0:0:0:
448,192,52316,1,0,0:0:0:0:
64,192,52416,128,0,53116:0:0:0:0:
320,192,52416,128,0,53116:0:0:0:0:
192,192,52816,128,0,53116:0:0:0:0:
448,192,52816,128,0,53116:0:0:0:0:
64,192,53216,1,0,0:0:0:0:
192,192,53216,1,0,0:0:0:0:
320,192,53316,1,0,0:0:0:0:
448,192,53416,1,0,0:0:0:0:
320,192,53516,1,0,0:0:0:0:
192,192,53616,1,0,0:0:0:0:
64,192,53616,1,0,0:0:0:0:
448,192,53716,1,0,0:0:0:0:
64,192,53816,1,0,0:0:0:0:
192,192,53916,1,0,0:0:0:0:
320,192,54016,1,0,0:0:0:0:
448,192,54016,1,0,0:0:0:0:
192,192,54116,1,0,0:0:0:0:
320,192,54216,1,0,0:0:0:0:
64,192,54316,1,0,0:0:0:0:
192,192,54416,1,0,0:0:0:0:
320,192,54416,1,0,0:0:0:0:
448,192,54516,1,0,0:0:0:0:
320,192,54616,1,0,0:0:0:0:
192,192,54716,1,0,0:0:0:0:
320,192,54816,1,0,0:0:0:0:
448,192,54816,1,0,0:0:0:0:
64,192,54916,1,0,0:0:0:0:
192,192,55016,1,0,0:0:0:0:
448,192,55116,1,0,0:0:0:0:
320,192,55216,1,0,0:0:0:0:
64,192,55216,1,0,0:0:0:0:
192,192,55316,1,0,0:0:0:0:
448,192,55416,1,0,0:0:0:0:
320,192,55516,1,0,0:0:0:0:
192,192,55616,128,0,56016:0:0:0:0:
64,192,55616,128,0,56016:0:0:0:0:
448,192,55616,1,0,0:0:0:0:
320,192,56016,128,0,56416:0:0:0:0:
448,192,56016,128,0,56416:0:0:0:0:
64,192,56416,1,0,0:0:0:0:
192,192,56416,1,0,0:0:0:0:
448,192,56516,1,0,0:0:0:0:
192,192,56616,1,0,0:0:0:0:
320,192,56716,1,0,0:0:0:0:
192,192,56816,1,0,0:0:0:0:
64,192,56816,1,0,0:0:0:0:
448,192,56916,1,0,0:0:0:0:
320,192,57016,1,0,0:0:0:0:
448,192,57116,1,0,0:0:0:0:
192,192,57216,1,0,0:0:0:0:
64,192,57216,1,0,0:0:0:0:
320,192,57316,1,0,0:0:0:0:
192,192,57416,1,0,0:0:0:0:
320,192,57516,1,0,0:0:0:0:
448,192,57616,1,0,0:0:0:0:
192,192,57616,1,0,0:0:0:0:
64,192,57716,1,0,0:0:0:0:
320,192,57816,1,0,0:0:0:0:
192,192,57916,1,0,0:0:0:0:
320,192,58016,1,0,0:0:0:0:
448,192,58016,1,0,0:0:0:0:
64,192,58116,1,0,0:0:0:0:
192,192,58216,1,0,0:0:0:0:
320,192,58316,1,0,0:0:0:0:
448,192,58416,1,0,0:0:0:0:
64,192,58416,1,0,0:0:0:0:
192,192,58516,1,0,0:0:0:0:
448,192,58616,1,0,0:0:0:0:
320,192,58716,1,0,0:0:0:0:
192,192,58816,128,0,59516:0:0:0:0:
64,192,58816,128,0,59516:0:0:0:0:
320,192,59216,128,0,59516:0:0:0:0:
448,192,59216,128,0,59516:0:0:0:0:
64,192,59616,1,0,0:0:0:0:
320,192,59616,1,0,0:0:0:0:
448,192,59616,1,0,0:0:0:0:
320,192,59816,1,0,0:0:0:0:
64,192,60016,1,0,0:0:0:0:
192,192,60016,1,0,0:0:0:0:
448,192,60016,1,0,0:0:0:0:
320,192,60116,1,0,0:0:0:0:
192,192,60216,1,0,0:0:0:0:
64,192,60216,1,0,0:0:0:0:
448,192,60216,1,0,0:0:0:0:
320,192,60416,1,0,0:0:0:0:
448,192,60616,1,0,0:0:0:0:
192,192,60616,1,0,0:0:0:0:
64,192,60616,1,0,0:0:0:0:
320,192,60816,1,0,0:0:0:0:
320,192,61016,1,0,0:0:0:0:
192,192,61016,1,0,0:0:0:0:
64,192,61016,1,0,0:0:0:0:
64,192,61216,1,0,0:0:0:0:
320,192,61416,1,0,0:0:0:0:
448,192,61416,1,0,0:0:0:0:
192,192,61416,1,0,0:0:0:0:
64,192,61616,1,0,0:0:0:0:
192,192,61616,1,0,0:0:0:0:
320,192,61616,1,0,0:0:0:0:
320,192,61816,1,0,0:0:0:0:
192,192,62016,128,0,62216:0:0:0:0:
64,192,62016,128,0,62216:0:0:0:0:
320,192,62216,1,0,0:0:0:0:
448,192,62216,1,0,0:0:0:0:
192,192,62316,1,0,0:0:0:0:
64,192,62316,1,0,0:0:0:0:
320,192,62416,1,0,0:0:0:0:
448,192,62416,1,0,0:0:0:0:
64,192,62816,1,0,0:0:0:0:
320,192,62816,1,0,0:0:0:0:
448,192,62816,1,0,0:0:0:0:
192,192,62916,1,0,0:0:0:0:
320,192,63016,1,0,0:0:0:0:
64,192,63116,1,0,0:0:0:0:
192,192,63216,1,0,0:0:0:0:
320,192,63216,1,0,0:0:0:0:
448,192,63316,1,0,0:0:0:0:
64,192,63416,1,0,0:0:0:0:
192,192,63516,1,0,0:0:0:0:
320,192,63616,1,0,0:0:0:0:
448,192,63616,1,0,0:0:0:0:
192,192,63716,1,0,0:0:0:0:
64,192,63816,1,0,0:0:0:0:
320,192,63916,1,0,0:0:0:0:
192,192,64016,1,0,0:0:0:0:
64,192,64016,1,0,0:0:0:0:
448,192,64116,1,0,0:0:0:0:
320,192,64216,1,0,0:0:0:0:
192,192,64316,1,0,0:0:0:0:
320,192,64416,1,0,0:0:0:0:
448,192,64416,1,0,0:0:0:0:
64,192,64516,1,0,0:0:0:0:
192,192,64616,1,0,0:0:0:0:
320,192,64716,1,0,0:0:0:0:
448,192,64816,1,0,0:0:0:0:
64,192,64816,1,0,0:0:0:0:
320,192,64916,1,0,0:0:0:0:
192,192,65016,1,0,0:0:0:0:
64,192,65116,1,0,0:0:0:0:
320,192,65216,128,0,65916:0:0:0:0:
448,192,65216,128,0,65916:0:0:0:0:
192,192,65616,128,0,65916:0:0:0:0:
64,192,65616,128,0,65916:0:0:0:0:
64,192,66016,1,0,0:0:0:0:
192,192,66016,1,0,0:0:0:0:
448,192,66016,1,0,0:0:0:0:
320,192,66116,1,0,0:0:0:0:
192,192,66216,1,0,0:0:0:0:
448,192,66316,1,0,0:0:0:0:
320,192,66416,1,0,0:0:0:0:
192,192,66416,1,0,0:0:0:0:
448,192,66516,1,0,0:0:0:0:
64,192,66616,1,0,0:0:0:0:
192,192,66716,1,0,0:0:0:0:
320,192,66816,1,0,0:0:0:0:
448,192,66816,1,0,0:0:0:0:
64,192,66916,1,0,0:0:0:0:
320,192,67016,1,0,0:0:0:0:
192,192,67116,1,0,0:0:0:0:
448,192,67216,1,0,0:0:0:0:
320,192,67216,1,0,0:0:0:0:
64,192,67316,1,0,0:0:0:0:
320,192,67416,1,0,0:0:0:0:
192,192,67516,1,0,0:0:0:0:
64,192,67616,1,0,0:0:0:0:
320,192,67616,1,0,0:0:0:0:
448,192,67716,1,0,0:0:0:0:
192,192,67816,1,0,0:0:0:0:
320,192,67916,1,0,0:0:0:0:
192,192,68016,1,0,0:0:0:0:
64,192,68016,1,0,0:0:0:0:
448,192,68116,1,0,0:0:0:0:
320,192,68216,1,0,0:0:0:0:
64,192,68316,1,0,0:0:0:0:
448,192,68416,128,0,69016:0:0:0:0:
192,192,68416,128,0,69016:0:0:0:0:
64,192,68816,128,0,69016:0:0:0:0:
320,192,68816,128,0,69016:0:0:0:0:
64,192,69216,1,0,0:0:0:0:
192,192,69216,1,0,0:0:0:0:
320,192,69216,1,0,0:0:0:0:
320,192,69416,1,0,0:0:0:0:
192,192,69416,1,0,0:0:0:0:
64,192,69416,1,0,0:0:0:0:
64,192,69616,1,0,0:0:0:0:
192,192,69616,1,0,0:0:0:0:
320,192,69616,1,0,0:0:0:0:
448,192,70016,1,0,0:0:0:0:
192,192,70016,1,0,0:0:0:0:
64,192,70016,1,0,0:0:0:0:
64,192,70216,1,0,0:0:0:0:
192,192,70216,1,0,0:0:0:0:
448,192,70216,1,0,0:0:0:0:
320,192,70416,1,0,0:0:0:0:
448,192,70416,1,0,0:0:0:0:
64,192,70416,1,0,0:0:0:0:
448,192,70616,1,4,0:0:0:0:
64,192,70616,1,0,0:0:0:0:
320,192,70616,1,0,0:0:0:0:
192,192,70816,1,0,0:0:0:0:
64,192,70816,1,0,0:0:0:0:
192,192,71016,128,0,71216:0:0:0:0:
320,192,71016,1,0,0:0:0:0:
448,192,71016,1,0,0:0:0:0:
448,192,71216,128,0,71416:0:0:0:0:
64,192,71416,128,0,71616:0:0:0:0:
320,192,71416,1,0,0:0:0:0:
192,192,71416,1,0,0:0:0:0:
64,192,71816,1,0,0:0:0:0:
448,192,71816,1,0,0:0:0:0:
320,192,71916,1,0,0:0:0:0:
64,192,72016,1,0,0:0:0:0:
192,192,72016,1,0,0:0:0:0:
448,192,72016,1,0,0:0:0:0:
64,192,72216,1,0,0:0:0:0:
448,192,72216,1,0,0:0:0:0:
320,192,72266,1,0,0:0:0:0:
192,192,72316,1,0,0:0:0:0:
64,192,72366,1,0,0:0:0:0:
448,192,72416,1,0,0:0:0:0:
320,192,72416,1,0,0:0:0:0:
64,192,72816,1,0,0:0:0:0:
192,192,72816,1,0,0:0:0:0:
320,192,72816,1,0,0:0:0:0:
192,192,73016,1,0,0:0:0:0:
320,192,73016,1,0,0:0:0:0:
448,192,73016,1,0,0:0:0:0:
64,192,73416,1,0,0:0:0:0:
320,192,73416,1,0,0:0:0:0:
448,192,73416,1,0,0:0:0:0:
320,192,73816,1,0,0:0:0:0:
192,192,73816,1,0,0:0:0:0:
64,192,73816,1,0,0:0:0:0:
448,192,74216,1,0,0:0:0:0:
320,192,74216,1,0,0:0:0:0:
192,192,74216,1,0,0:0:0:0:
320,192,74416,1,0,0:0:0:0:
192,192,74416,1,0,0:0:0:0:
64,192,74416,1,0,0:0:0:0:
64,192,74816,128,0,75616:0:0:0:0:
192,192,74816,1,0,0:0:0:0:
448,192,74816,1,0,0:0:0:0:
320,192,75016,1,0,0:0:0:0:
192,192,75016,1,0,0:0:0:0:
320,192,75116,1,0,0:0:0:0:
192,192,75116,1,0,0:0:0:0:
448,192,75216,1,0,0:0:0:0:
448,192,75616,1,0,0:0:0:0:
192,192,75616,1,0,0:0:0:0:
320,192,75716,1,0,0:0:0:0:
448,192,75816,128,0,76016:0:0:0:0:
64,192,75816,1,0,0:0:0:0:
192,192,75916,1,0,0:0:0:0:
320,192,76016,1,0,0:0:0:0:
192,192,76116,1,0,0:0:0:0:
64,192,76216,128,0,76416:0:0:0:0:
448,192,76216,1,0,0:0:0:0:
320,192,76316,1,0,0:0:0:0:
448,192,76416,1,0,0:0:0:0:
192,192,76516,1,0,0:0:0:0:
448,192,76616,128,0,76816:0:0:0:0:
320,192,76616,1,0,0:0:0:0:
192,192,76716,1,0,0:0:0:0:
64,192,76816,1,0,0:0:0:0:
320,192,76916,1,0,0:0:0:0:
64,192,77016,128,0,77216:0:0:0:0:
192,192,77016,1,0,0:0:0:0:
320,192,77116,1,0,0:0:0:0:
448,192,77216,1,0,0:0:0:0:
192,192,77316,1,0,0:0:0:0:
448,192,77416,128,0,77616:0:0:0:0:
320,192,77416,1,0,0:0:0:0:
192,192,77516,1,0,0:0:0:0:
64,192,77616,1,0,0:0:0:0:
192,192,77716,1,0,0:0:0:0:
448,192,77816,128,0,78016:0:0:0:0:
320,192,77816,1,0,0:0:0:0:
192,192,77916,1,0,0:0:0:0:
64,192,78016,1,0,0:0:0:0:
320,192,78116,1,0,0:0:0:0:
64,192,78216,128,0,78316:0:0:0:0:
448,192,78216,1,0,0:0:0:0:
192,192,78216,128,0,78316:0:0:0:0:
320,192,78316,1,0,0:0:0:0:
64,192,78416,128,0,78516:0:0:0:0:
448,192,78416,1,0,0:0:0:0:
192,192,78416,128,0,78516:0:0:0:0:
64,192,78616,128,0,78716:0:0:0:0:
192,192,78616,128,0,78716:0:0:0:0:
320,192,78616,1,0,0:0:0:0:
448,192,78716,1,0,0:0:0:0:
192,192,78816,1,0,0:0:0:0:
320,192,78816,1,0,0:0:0:0:
64,192,78916,1,0,0:0:0:0:
320,192,79016,128,0,79216:0:0:0:0:
448,192,79016,1,0,0:0:0:0:
192,192,79116,1,0,0:0:0:0:
64,192,79216,1,0,0:0:0:0:
448,192,79316,1,0,0:0:0:0:
192,192,79416,128,0,79616:0:0:0:0:
320,192,79416,1,0,0:0:0:0:
64,192,79516,1,0,0:0:0:0:
320,192,79616,1,0,0:0:0:0:
448,192,79716,1,0,0:0:0:0:
320,192,79816,128,0,80016:0:0:0:0:
192,192,79816,1,0,0:0:0:0:
64,192,79916,1,0,0:0:0:0:
448,192,80016,1,0,0:0:0:0:
192,192,80116,1,0,0:0:0:0:
320,192,80216,128,0,80416:0:0:0:0:
64,192,80216,1,0,0:0:0:0:
448,192,80316,1,0,0:0:0:0:
64,192,80416,1,0,0:0:0:0:
448,192,80416,1,0,0:0:0:0:
192,192,80516,1,0,0:0:0:0:
448,192,80616,1,0,0:0:0:0:
64,192,80616,1,0,0:0:0:0:
320,192,80716,1,0,0:0:0:0:
192,192,80816,1,0,0:0:0:0:
64,192,80916,1,0,0:0:0:0:
320,192,81016,1,0,0:0:0:0:
448,192,81016,1,0,0:0:0:0:
192,192,81116,1,0,0:0:0:0:
320,192,81216,1,0,0:0:0:0:
448,192,81216,1,0,0:0:0:0:
64,192,81216,1,0,0:0:0:0:
192,192,81316,1,0,0:0:0:0:
448,192,81416,1,0,0:0:0:0:
64,192,81416,1,0,0:0:0:0:
320,192,81516,1,0,0:0:0:0:
64,192,81616,128,0,82016:0:0:0:0:
448,192,81616,128,4,82016:0:0:0:0:
192,192,81616,1,0,0:0:0:0:
192,192,82016,1,0,0:0:0:0:
320,192,82116,1,0,0:0:0:0:
192,192,82216,128,0,82416:0:0:0:0:
64,192,82216,1,0,0:0:0:0:
448,192,82216,1,0,0:0:0:0:
320,192,82316,1,0,0:0:0:0:
448,192,82416,1,0,0:0:0:0:
64,192,82516,1,0,0:0:0:0:
448,192,82616,1,0,0:0:0:0:
320,192,82616,128,0,82816:0:0:0:0:
64,192,82716,1,0,0:0:0:0:
192,192,82816,1,0,0:0:0:0:
64,192,82916,1,0,0:0:0:0:
192,192,83016,128,0,83216:0:0:0:0:
448,192,83016,1,0,0:0:0:0:
64,192,83116,1,0,0:0:0:0:
320,192,83216,1,0,0:0:0:0:
448,192,83316,1,0,0:0:0:0:
320,192,83416,128,0,83616:0:0:0:0:
64,192,83416,1,0,0:0:0:0:
192,192,83516,1,0,0:0:0:0:
64,192,83616,1,0,0:0:0:0:
448,192,83716,1,0,0:0:0:0:
192,192,83816,128,0,84016:0:0:0:0:
64,192,83816,1,0,0:0:0:0:
320,192,83916,1,0,0:0:0:0:
448,192,84016,1,0,0:0:0:0:
64,192,84116,1,0,0:0:0:0:
448,192,84216,1,0,0:0:0:0:
320,192,84216,128,0,84416:0:0:0:0:
192,192,84316,1,0,0:0:0:0:
64,192,84416,1,0,0:0:0:0:
448,192,84516,1,0,0:0:0:0:
320,192,84616,128,0,84716:0:0:0:0:
64,192,84616,1,0,0:0:0:0:
192,192,84616,128,0,84716:0:0:0:0:
320,192,84816,128,0,84916:0:0:0:0:
192,192,84816,128,0,84916:0:0:0:0:
448,192,84816,1,0,0:0:0:0:
320,192,85016,128,0,85116:0:0:0:0:
64,192,85016,1,0,0:0:0:0:
192,192,85016,128,0,85116:0:0:0:0:
448,192,85116,1,0,0:0:0:0:
64,192,85216,1,0,0:0:0:0:
192,192,85216,1,0,0:0:0:0:
320,192,85216,1,0,0:0:0:0:
448,192,85416,1,0,0:0:0:0:
64,192,85416,1,0,0:0:0:0:
64,192,85616,1,0,0:0:0:0:
192,192,85616,1,0,0:0:0:0:
320,192,85616,1,0,0:0:0:0:
192,192,85816,1,0,0:0:0:0:
448,192,85816,1,0,0:0:0:0:
320,192,85816,1,0,0:0:0:0:
64,192,86016,1,0,0:0:0:0:
320,192,86216,1,0,0:0:0:0:
448,192,86216,1,0,0:0:0:0:
192,192,86216,1,0,0:0:0:0:
448,192,86416,1,0,0:0:0:0:
320,192,86616,1,0,0:0:0:0:
192,192,86616,1,0,0:0:0:0:
64,192,86616,1,0,0:0:0:0:
448,192,86816,1,0,0:0:0:0:
448,192,86916,1,0,0:0:0:0:
320,192,87016,1,0,0:0:0:0:
192,192,87016,1,0,0:0:0:0:
64,192,87016,1,0,0:0:0:0:
448,192,87216,1,0,0:0:0:0:
192,192,87216,1,0,0:0:0:0:
64,192,87216,1,0,0:0:0:0:
320,192,87416,1,0,0:0:0:0:
448,192,87616,128,0,87816:0:0:0:0:
192,192,87616,1,0,0:0:0:0:
64,192,87616,1,0,0:0:0:0:
320,192,87716,128,0,87916:0:0:0:0:
192,192,87816,128,0,88016:0:0:0:0:
64,192,87916,128,0,88116:0:0:0:0:
448,192,87916,128,0,88616:0:0:0:0:
320,192,88016,128,0,88616:0:0:0:0:
192,192,88116,128,0,88616:0:0:0:0:
64,192,88216,128,0,88616:0:0:0:0:
