osu file format v14

[General]
AudioFilename: audio.mp3
AudioLeadIn: 0
PreviewTime: 49216
Countdown: 0
SampleSet: Soft
StackLeniency: 0.7
Mode: 3
LetterboxInBreaks: 0
SpecialStyle: 0
WidescreenStoryboard: 0

[Editor]
Bookmarks: 50016,74816
DistanceSpacing: 1.4
BeatDivisor: 4
GridSize: 4
TimelineZoom: 1.5

[Metadata]
Title:Kirai na WaKe Lychee
TitleUnicode:嫌いなワケLychee
Artist:RAMM ni Haiyoru Tamao-san
ArtistUnicode:RAMMに這いよる珠緒さん
Creator:Shinora-
Version:Beauty [Lv.9]
Source:Hayiore! Nyaruko-san W
Tags:ending 這いよれ!ニャル子さんW roko100789
BeatmapID:1033894
BeatmapSetID:484663

[Difficulty]
HPDrainRate:7.5
CircleSize:4
OverallDifficulty:7.5
ApproachRate:5
SliderMultiplier:1.4
SliderTickRate:1

[Events]
//Background and Video events
0,0,"1233-67601-2.png",0,0
//Break Periods
//Storyboard Layer 0 (Background)
//Storyboard Layer 1 (Fail)
//Storyboard Layer 2 (Pass)
//Storyboard Layer 3 (Foreground)
//Storyboard Sound Samples

[TimingPoints]
416,400,4,2,0,30,1,0
48416,-71.4285714285714,4,2,0,30,0,0
48616,-166.666666666667,4,2,0,30,0,0
48816,-71.4285714285714,4,2,0,30,0,0
49016,-166.666666666667,4,2,0,30,0,0
49216,-100,4,2,0,30,0,1
52816,-83.3333333333333,4,2,0,30,0,1
52916,-125,4,2,0,30,0,1
53016,-100,4,2,0,35,0,1
56016,-83.3333333333333,4,2,0,30,0,1
56116,-125,4,2,0,30,0,1
56216,-100,4,2,0,30,0,1
59216,-83.3333333333333,4,2,0,30,0,1
59316,-125,4,2,0,30,0,1
59416,-100,4,2,0,30,0,1
65616,-83.3333333333333,4,2,0,30,0,1
65716,-125,4,2,0,30,0,1
65816,-100,4,2,0,30,0,1
68816,-83.3333333333333,4,2,0,30,0,1
68916,-125,4,2,0,30,0,1
69016,-100,4,2,0,30,0,1
74916,-100,4,2,0,30,0,0

[HitObjects]
64,192,16,5,0,0:0:0:0:
192,192,116,1,0,0:0:0:0:
320,192,216,1,0,0:0:0:0:
448,192,316,1,0,0:0:0:0:
64,192,416,5,0,0:0:0:0:
192,192,416,1,0,0:0:0:0:
448,192,816,1,0,0:0:0:0:
64,192,1216,1,0,0:0:0:0:
320,192,1616,1,0,0:0:0:0:
192,192,2016,1,0,0:0:0:0:
448,192,2016,1,0,0:0:0:0:
64,192,2216,1,0,0:0:0:0:
448,192,2416,1,0,0:0:0:0:
320,192,2416,1,0,0:0:0:0:
192,192,2616,1,0,0:0:0:0:
64,192,2816,1,0,0:0:0:0:
448,192,2816,1,0,0:0:0:0:
320,192,3016,1,0,0:0:0:0:
192,192,3216,1,0,0:0:0:0:
64,192,3216,1,0,0:0:0:0:
448,192,3416,1,0,0:0:0:0:
192,192,3616,1,0,0:0:0:0:
64,192,3616,1,0,0:0:0:0:
320,192,3616,1,0,0:0:0:0:
448,192,3816,1,0,0:0:0:0:
192,192,4016,1,0,0:0:0:0:
448,192,4016,1,0,0:0:0:0:
64,192,4016,1,0,0:0:0:0:
320,192,4216,1,0,0:0:0:0:
192,192,4416,1,0,0:0:0:0:
64,192,4416,1,0,0:0:0:0:
320,192,4416,1,0,0:0:0:0:
64,192,4616,1,0,0:0:0:0:
320,192,4816,1,0,0:0:0:0:
192,192,4816,1,0,0:0:0:0:
448,192,4816,1,0,0:0:0:0:
192,192,5016,1,0,0:0:0:0:
64,192,5216,128,0,5616:0:0:0:0:
448,192,5216,1,0,0:0:0:0:
320,192,5216,1,0,0:0:0:0:
448,192,5416,1,0,0:0:0:0:
448,192,5616,128,0,6016:0:0:0:0:
320,192,5616,1,0,0:0:0:0:
192,192,5616,1,0,0:0:0:0:
192,192,5816,1,0,0:0:0:0:
64,192,6016,1,0,0:0:0:0:
320,192,6016,1,0,0:0:0:0:
192,192,6116,1,0,0:0:0:0:
64,192,6216,1,0,0:0:0:0:
192,192,6316,1,0,0:0:0:0:
320,192,6416,1,0,0:0:0:0:
448,192,6516,1,0,0:0:0:0:
320,192,6616,1,0,0:0:0:0:
192,192,6716,1,0,0:0:0:0:
448,192,6816,1,0,0:0:0:0:
64,192,6816,1,0,0:0:0:0:
320,192,6816,1,0,0:0:0:0:
64,192,7216,1,0,0:0:0:0:
192,192,7216,1,0,0:0:0:0:
320,192,7416,1,0,0:0:0:0:
448,192,7416,1,0,0:0:0:0:
320,192,7816,1,0,0:0:0:0:
192,192,7816,1,0,0:0:0:0:
64,192,8216,1,0,0:0:0:0:
192,192,8216,1,0,0:0:0:0:
320,192,8616,1,0,0:0:0:0:
448,192,8616,1,0,0:0:0:0:
192,192,8816,1,0,0:0:0:0:
64,192,8816,1,0,0:0:0:0:
448,192,9016,1,0,0:0:0:0:
64,192,9216,128,0,10016:0:0:0:0:
192,192,9216,1,0,0:0:0:0:
320,192,9216,128,0,10016:0:0:0:0:
448,192,10016,128,0,12216:0:0:0:0:
192,192,10216,1,0,0:0:0:0:
64,192,10216,1,0,0:0:0:0:
320,192,10416,1,0,0:0:0:0:
64,192,10616,1,0,0:0:0:0:
192,192,10616,1,0,0:0:0:0:
64,192,10816,1,0,0:0:0:0:
320,192,11016,1,0,0:0:0:0:
192,192,11016,1,0,0:0:0:0:
192,192,11216,1,0,0:0:0:0:
64,192,11416,1,0,0:0:0:0:
320,192,11416,1,0,0:0:0:0:
64,192,11616,1,0,0:0:0:0:
320,192,11816,1,0,0:0:0:0:
192,192,11816,1,0,0:0:0:0:
320,192,12016,1,0,0:0:0:0:
64,192,12216,1,0,0:0:0:0:
192,192,12216,1,0,0:0:0:0:
64,192,12416,1,0,0:0:0:0:
192,192,12516,1,0,0:0:0:0:
448,192,12616,1,0,0:0:0:0:
320,192,12716,1,0,0:0:0:0:
64,192,12816,1,0,0:0:0:0:
192,192,12916,1,0,0:0:0:0:
320,192,13016,1,0,0:0:0:0:
448,192,13116,1,0,0:0:0:0:
64,192,13216,128,0,15416:0:0:0:0:
192,192,13216,1,0,0:0:0:0:
192,192,13416,1,0,0:0:0:0:
320,192,13416,1,0,0:0:0:0:
448,192,13616,1,0,0:0:0:0:
192,192,13816,1,0,0:0:0:0:
320,192,13816,1,0,0:0:0:0:
192,192,14016,1,0,0:0:0:0:
320,192,14216,1,0,0:0:0:0:
448,192,14216,1,0,0:0:0:0:
320,192,14416,1,0,0:0:0:0:
192,192,14616,1,0,0:0:0:0:
448,192,14616,1,0,0:0:0:0:
320,192,14816,1,0,0:0:0:0:
320,192,15016,1,0,0:0:0:0:
448,192,15016,1,0,0:0:0:0:
192,192,15216,1,0,0:0:0:0:
320,192,15416,1,0,0:0:0:0:
448,192,15416,1,0,0:0:0:0:
192,192,15716,1,0,0:0:0:0:
320,192,15816,1,0,0:0:0:0:
64,192,15816,1,0,0:0:0:0:
64,192,16016,1,0,0:0:0:0:
320,192,16016,1,0,0:0:0:0:
64,192,16216,128,0,16416:0:0:0:0:
320,192,16216,128,0,16416:0:0:0:0:
448,192,16416,1,0,0:0:0:0:
192,192,16416,128,0,18616:0:0:0:0:
448,192,16616,1,0,0:0:0:0:
320,192,16616,1,0,0:0:0:0:
64,192,16816,1,0,0:0:0:0:
320,192,17016,1,0,0:0:0:0:
448,192,17016,1,0,0:0:0:0:
448,192,17216,1,0,0:0:0:0:
320,192,17416,1,0,0:0:0:0:
64,192,17416,1,0,0:0:0:0:
320,192,17616,1,0,0:0:0:0:
64,192,17816,1,0,0:0:0:0:
448,192,17816,1,0,0:0:0:0:
320,192,18016,1,0,0:0:0:0:
448,192,18216,1,0,0:0:0:0:
64,192,18216,1,0,0:0:0:0:
448,192,18416,1,0,0:0:0:0:
64,192,18616,1,0,0:0:0:0:
320,192,18616,1,0,0:0:0:0:
320,192,18816,1,0,0:0:0:0:
192,192,19016,1,0,0:0:0:0:
448,192,19016,1,0,0:0:0:0:
448,192,19216,1,0,0:0:0:0:
192,192,19216,1,0,0:0:0:0:
448,192,19416,128,0,19616:0:0:0:0:
192,192,19416,128,0,19616:0:0:0:0:
64,192,19616,1,0,0:0:0:0:
320,192,19616,1,0,0:0:0:0:
448,192,20016,1,0,0:0:0:0:
192,192,20016,1,0,0:0:0:0:
64,192,20216,1,0,0:0:0:0:
320,192,20216,1,0,0:0:0:0:
64,192,20616,1,0,0:0:0:0:
192,192,20616,1,0,0:0:0:0:
320,192,21016,1,0,0:0:0:0:
192,192,21016,1,0,0:0:0:0:
64,192,21416,1,0,0:0:0:0:
448,192,21416,1,0,0:0:0:0:
320,192,21616,1,0,0:0:0:0:
192,192,21616,1,0,0:0:0:0:
64,192,22016,128,0,22616:0:0:0:0:
448,192,22016,128,0,22616:0:0:0:0:
320,192,22816,1,0,0:0:0:0:
64,192,22816,1,0,0:0:0:0:
192,192,22816,128,0,24216:0:0:0:0:
448,192,23416,1,0,0:0:0:0:
448,192,23616,1,0,0:0:0:0:
448,192,24216,128,0,25416:0:0:0:0:
64,192,24416,1,0,0:0:0:0:
320,192,24416,1,0,0:0:0:0:
320,192,25016,1,0,0:0:0:0:
320,192,25216,1,0,0:0:0:0:
64,192,25416,128,0,25616:0:0:0:0:
192,192,25616,128,0,25816:0:0:0:0:
320,192,25816,128,0,26016:0:0:0:0:
192,192,26016,1,0,0:0:0:0:
64,192,26016,1,0,0:0:0:0:
448,192,26016,128,0,27416:0:0:0:0:
192,192,26616,1,0,0:0:0:0:
192,192,26816,1,0,0:0:0:0:
64,192,27416,128,0,28816:0:0:0:0:
448,192,27616,1,0,0:0:0:0:
320,192,28016,1,0,0:0:0:0:
192,192,28016,1,0,0:0:0:0:
448,192,28216,1,0,0:0:0:0:
192,192,28416,1,0,0:0:0:0:
448,192,28616,1,0,0:0:0:0:
320,192,28716,1,0,0:0:0:0:
192,192,28816,1,0,0:0:0:0:
448,192,28816,1,0,0:0:0:0:
320,192,29016,1,0,0:0:0:0:
192,192,29116,1,0,0:0:0:0:
64,192,29216,1,0,0:0:0:0:
448,192,29216,128,0,30616:0:0:0:0:
320,192,29216,1,0,0:0:0:0:
64,192,29616,1,0,0:0:0:0:
320,192,29616,1,0,0:0:0:0:
192,192,29816,1,0,0:0:0:0:
320,192,30016,1,0,0:0:0:0:
64,192,30416,1,0,0:0:0:0:
192,192,30416,1,0,0:0:0:0:
320,192,30616,128,0,31816:0:0:0:0:
192,192,30816,1,0,0:0:0:0:
448,192,31216,1,0,0:0:0:0:
64,192,31416,1,0,0:0:0:0:
192,192,31616,1,0,0:0:0:0:
448,192,31616,1,0,0:0:0:0:
64,192,31816,128,0,32016:0:0:0:0:
192,192,32016,128,0,32216:0:0:0:0:
448,192,32216,128,0,32416:0:0:0:0:
192,192,32416,1,0,0:0:0:0:
320,192,32416,128,0,33616:0:0:0:0:
64,192,32416,1,0,0:0:0:0:
448,192,32816,1,0,0:0:0:0:
64,192,33016,1,0,0:0:0:0:
192,192,33216,1,0,0:0:0:0:
448,192,33216,1,0,0:0:0:0:
448,192,33616,1,0,0:0:0:0:
64,192,33616,128,0,33816:0:0:0:0:
192,192,33816,128,0,33916:0:0:0:0:
320,192,33816,128,0,33916:0:0:0:0:
320,192,34016,128,0,34216:0:0:0:0:
192,192,34016,128,0,34216:0:0:0:0:
448,192,34016,1,0,0:0:0:0:
192,192,34316,128,0,34516:0:0:0:0:
320,192,34316,128,0,34516:0:0:0:0:
320,192,34616,128,0,34816:0:0:0:0:
192,192,34616,128,0,34816:0:0:0:0:
448,192,34816,128,0,35616:0:0:0:0:
64,192,34816,1,0,0:0:0:0:
320,192,35616,1,0,0:0:0:0:
64,192,35616,1,0,0:0:0:0:
192,192,35816,1,0,0:0:0:0:
448,192,36016,1,0,0:0:0:0:
64,192,36016,1,0,0:0:0:0:
320,192,36216,1,0,0:0:0:0:
192,192,36416,1,0,0:0:0:0:
64,192,36416,1,0,0:0:0:0:
448,192,36616,1,0,0:0:0:0:
320,192,36616,1,0,0:0:0:0:
192,192,36716,1,0,0:0:0:0:
64,192,36716,1,0,0:0:0:0:
320,192,36816,1,0,0:0:0:0:
448,192,36816,1,0,0:0:0:0:
192,192,37016,1,0,0:0:0:0:
448,192,37216,1,0,0:0:0:0:
320,192,37216,1,0,0:0:0:0:
64,192,37416,1,0,0:0:0:0:
192,192,37616,1,0,0:0:0:0:
320,192,37616,1,0,0:0:0:0:
448,192,37816,1,0,0:0:0:0:
192,192,38016,1,0,0:0:0:0:
64,192,38016,1,0,0:0:0:0:
448,192,38216,1,0,0:0:0:0:
320,192,38216,1,0,0:0:0:0:
192,192,38316,1,0,0:0:0:0:
64,192,38316,1,0,0:0:0:0:
320,192,38416,1,0,0:0:0:0:
448,192,38416,1,0,0:0:0:0:
192,192,38616,1,0,0:0:0:0:
320,192,38816,1,0,0:0:0:0:
64,192,38816,1,0,0:0:0:0:
320,192,39216,1,0,0:0:0:0:
192,192,39216,1,0,0:0:0:0:
64,192,39416,1,0,0:0:0:0:
448,192,39616,1,0,0:0:0:0:
320,192,39616,1,0,0:0:0:0:
192,192,39816,1,0,0:0:0:0:
64,192,39816,1,0,0:0:0:0:
320,192,39916,1,0,0:0:0:0:
448,192,39916,1,0,0:0:0:0:
192,192,40016,1,0,0:0:0:0:
64,192,40016,1,0,0:0:0:0:
448,192,40216,1,0,0:0:0:0:
320,192,40416,1,0,0:0:0:0:
64,192,40416,1,0,0:0:0:0:
192,192,40616,1,0,0:0:0:0:
64,192,40816,1,0,0:0:0:0:
448,192,40816,1,0,0:0:0:0:
192,192,41016,1,0,0:0:0:0:
448,192,41216,1,0,0:0:0:0:
320,192,41216,1,0,0:0:0:0:
64,192,41416,1,0,0:0:0:0:
192,192,41416,1,0,0:0:0:0:
320,192,41516,1,0,0:0:0:0:
448,192,41516,1,0,0:0:0:0:
192,192,41616,1,0,0:0:0:0:
64,192,41616,1,0,0:0:0:0:
320,192,41816,1,0,0:0:0:0:
192,192,42016,128,0,42216:0:0:0:0:
448,192,42016,1,0,0:0:0:0:
320,192,42216,128,0,42416:0:0:0:0:
448,192,42416,128,0,42616:0:0:0:0:
64,192,42416,1,0,0:0:0:0:
64,192,42616,128,0,42816:0:0:0:0:
320,192,42616,1,0,0:0:0:0:
192,192,42816,128,0,43016:0:0:0:0:
448,192,42816,1,0,0:0:0:0:
320,192,43016,128,0,43216:0:0:0:0:
64,192,43016,1,0,0:0:0:0:
448,192,43216,128,0,43416:0:0:0:0:
320,192,43416,1,0,0:0:0:0:
448,192,43616,128,0,43816:0:0:0:0:
64,192,43616,1,0,0:0:0:0:
320,192,43616,1,0,0:0:0:0:
320,192,43816,128,0,44016:0:0:0:0:
192,192,44016,128,0,44216:0:0:0:0:
64,192,44216,128,0,44416:0:0:0:0:
320,192,44216,1,0,0:0:0:0:
448,192,44416,128,0,44616:0:0:0:0:
320,192,44616,128,0,44816:0:0:0:0:
192,192,44616,1,0,0:0:0:0:
64,192,44816,128,0,45216:0:0:0:0:
192,192,44816,128,0,45216:0:0:0:0:
448,192,45216,128,0,45416:0:0:0:0:
320,192,45216,1,0,0:0:0:0:
64,192,45416,128,0,45616:0:0:0:0:
192,192,45416,1,0,0:0:0:0:
320,192,45616,128,0,45816:0:0:0:0:
448,192,45616,1,0,0:0:0:0:
192,192,45816,128,0,46016:0:0:0:0:
64,192,46016,128,0,46216:0:0:0:0:
448,192,46016,1,0,0:0:0:0:
448,192,46216,128,0,46416:0:0:0:0:
320,192,46216,1,0,0:0:0:0:
64,192,46416,1,0,0:0:0:0:
320,192,46616,1,0,0:0:0:0:
448,192,46616,1,0,0:0:0:0:
64,192,46816,1,0,0:0:0:0:
448,192,46916,1,0,0:0:0:0:
320,192,47016,1,0,0:0:0:0:
192,192,47116,1,0,0:0:0:0:
64,192,47216,1,0,0:0:0:0:
448,192,47316,1,0,0:0:0:0:
320,192,47416,1,0,0:0:0:0:
64,192,47516,1,0,0:0:0:0:
192,192,47616,1,0,0:0:0:0:
320,192,47716,1,0,0:0:0:0:
448,192,47816,1,0,0:0:0:0:
64,192,47916,1,0,0:0:0:0:
192,192,48016,1,0,0:0:0:0:
320,192,48116,1,0,0:0:0:0:
192,192,48216,1,0,0:0:0:0:
64,192,48216,1,0,0:0:0:0:
448,192,48316,1,0,0:0:0:0:
320,192,48416,1,0,0:0:0:0:
64,192,48816,1,0,0:0:0:0:
192,192,49216,1,0,0:0:0:0:
320,192,49316,1,0,0:0:0:0:
448,192,49416,1,0,0:0:0:0:
64,192,49516,1,0,0:0:0:0:
192,192,49616,1,0,0:0:0:0:
320,192,49716,1,0,0:0:0:0:
448,192,49816,1,0,0:0:0:0:
64,192,50016,1,0,0:0:0:0:
192,192,50016,1,0,0:0:0:0:
448,192,50216,1,0,0:0:0:0:
320,192,50416,1,0,0:0:0:0:
192,192,50416,1,0,0:0:0:0:
64,192,50616,1,0,0:0:0:0:
448,192,50816,1,0,0:0:0:0:
320,192,50816,1,0,0:0:0:0:
192,192,51016,1,0,0:0:0:0:
320,192,51216,1,0,0:0:0:0:
64,192,51216,1,0,0:0:0:0:
192,192,51416,1,0,0:0:0:0:
448,192,51616,1,0,0:0:0:0:
320,192,51616,1,0,0:0:0:0:
64,192,51816,1,0,0:0:0:0:
320,192,52016,1,0,0:0:0:0:
192,192,52016,1,0,0:0:0:0:
448,192,52216,1,0,0:0:0:0:
448,192,52416,1,0,0:0:0:0:
192,192,52416,1,0,0:0:0:0:
64,192,52416,1,0,0:0:0:0:
320,192,52616,1,0,0:0:0:0:
448,192,52816,1,0,0:0:0:0:
320,192,52816,1,0,0:0:0:0:
64,192,52816,1,0,0:0:0:0:
192,192,53016,1,0,0:0:0:0:
192,192,53216,1,0,0:0:0:0:
64,192,53216,1,0,0:0:0:0:
448,192,53216,1,0,0:0:0:0:
320,192,53416,1,0,0:0:0:0:
192,192,53616,1,0,0:0:0:0:
448,192,53616,1,0,0:0:0:0:
320,192,53816,1,0,0:0:0:0:
192,192,54016,1,0,0:0:0:0:
64,192,54016,1,0,0:0:0:0:
448,192,54216,1,0,0:0:0:0:
320,192,54416,1,0,0:0:0:0:
64,192,54416,1,0,0:0:0:0:
192,192,54616,1,0,0:0:0:0:
320,192,54816,1,0,0:0:0:0:
64,192,54816,1,0,0:0:0:0:
448,192,55016,1,0,0:0:0:0:
64,192,55216,1,0,0:0:0:0:
192,192,55216,1,0,0:0:0:0:
320,192,55416,1,0,0:0:0:0:
448,192,55616,1,0,0:0:0:0:
320,192,55616,1,0,0:0:0:0:
64,192,55616,1,0,0:0:0:0:
192,192,55816,1,0,0:0:0:0:
192,192,56016,1,0,0:0:0:0:
64,192,56016,1,0,0:0:0:0:
448,192,56016,1,0,0:0:0:0:
320,192,56216,1,0,0:0:0:0:
64,192,56416,1,0,0:0:0:0:
448,192,56416,1,0,0:0:0:0:
192,192,56416,1,0,0:0:0:0:
320,192,56616,1,0,0:0:0:0:
448,192,56816,1,0,0:0:0:0:
192,192,56816,1,0,0:0:0:0:
64,192,57016,1,0,0:0:0:0:
320,192,57216,1,0,0:0:0:0:
192,192,57216,1,0,0:0:0:0:
448,192,57416,1,0,0:0:0:0:
64,192,57616,1,0,0:0:0:0:
320,192,57616,1,0,0:0:0:0:
192,192,57816,1,0,0:0:0:0:
320,192,58016,1,0,0:0:0:0:
448,192,58016,1,0,0:0:0:0:
192,192,58216,1,0,0:0:0:0:
448,192,58416,1,0,0:0:0:0:
64,192,58416,1,0,0:0:0:0:
64,192,58616,1,0,0:0:0:0:
448,192,58816,1,0,0:0:0:0:
320,192,58816,1,0,0:0:0:0:
192,192,58816,1,0,0:0:0:0:
448,192,59016,1,0,0:0:0:0:
320,192,59216,1,0,0:0:0:0:
192,192,59216,1,0,0:0:0:0:
64,192,59216,1,0,0:0:0:0:
448,192,59416,1,0,0:0:0:0:
64,192,59616,1,0,0:0:0:0:
192,192,59616,1,0,0:0:0:0:
448,192,60016,1,0,0:0:0:0:
320,192,60016,1,0,0:0:0:0:
192,192,60216,1,0,0:0:0:0:
320,192,60216,1,0,0:0:0:0:
64,192,60616,1,0,0:0:0:0:
448,192,60616,1,0,0:0:0:0:
320,192,61016,1,0,0:0:0:0:
192,192,61016,1,0,0:0:0:0:
64,192,61416,1,0,0:0:0:0:
192,192,61416,1,0,0:0:0:0:
448,192,61616,1,0,0:0:0:0:
320,192,61616,1,0,0:0:0:0:
448,192,62016,128,0,62416:0:0:0:0:
64,192,62016,128,0,62416:0:0:0:0:
192,192,62216,1,0,0:0:0:0:
320,192,62316,1,0,0:0:0:0:
192,192,62416,1,0,0:0:0:0:
64,192,62816,1,0,0:0:0:0:
192,192,62816,1,0,0:0:0:0:
448,192,63016,1,0,0:0:0:0:
320,192,63216,1,0,0:0:0:0:
192,192,63216,1,0,0:0:0:0:
64,192,63416,1,0,0:0:0:0:
448,192,63616,1,0,0:0:0:0:
320,192,63616,1,0,0:0:0:0:
192,192,63816,1,0,0:0:0:0:
320,192,64016,1,0,0:0:0:0:
64,192,64016,1,0,0:0:0:0:
448,192,64216,1,0,0:0:0:0:
320,192,64416,1,0,0:0:0:0:
192,192,64416,1,0,0:0:0:0:
64,192,64616,1,0,0:0:0:0:
448,192,64816,1,0,0:0:0:0:
320,192,64816,1,0,0:0:0:0:
192,192,65016,1,0,0:0:0:0:
448,192,65216,1,0,0:0:0:0:
64,192,65216,1,0,0:0:0:0:
320,192,65216,1,0,0:0:0:0:
192,192,65416,1,0,0:0:0:0:
64,192,65616,1,0,0:0:0:0:
192,192,65616,1,0,0:0:0:0:
448,192,65616,1,0,0:0:0:0:
320,192,65816,1,0,0:0:0:0:
64,192,66016,1,0,0:0:0:0:
448,192,66016,1,0,0:0:0:0:
320,192,66216,1,0,0:0:0:0:
192,192,66416,1,0,0:0:0:0:
64,192,66416,1,0,0:0:0:0:
320,192,66616,1,0,0:0:0:0:
448,192,66816,1,0,0:0:0:0:
64,192,66816,1,0,0:0:0:0:
320,192,67016,1,0,0:0:0:0:
448,192,67216,1,0,0:0:0:0:
192,192,67216,1,0,0:0:0:0:
64,192,67416,1,0,0:0:0:0:
192,192,67616,1,0,0:0:0:0:
320,192,67616,1,0,0:0:0:0:
448,192,67816,1,0,0:0:0:0:
64,192,68016,1,0,0:0:0:0:
192,192,68016,1,0,0:0:0:0:
320,192,68216,1,0,0:0:0:0:
448,192,68216,1,0,0:0:0:0:
192,192,68416,1,0,0:0:0:0:
320,192,68416,1,0,0:0:0:0:
448,192,68416,1,0,0:0:0:0:
64,192,68616,1,0,0:0:0:0:
448,192,68716,1,0,0:0:0:0:
64,192,68816,1,0,0:0:0:0:
192,192,68816,1,0,0:0:0:0:
320,192,68816,1,0,0:0:0:0:
448,192,69016,1,0,0:0:0:0:
64,192,69216,1,0,0:0:0:0:
192,192,69216,1,0,0:0:0:0:
448,192,69416,1,0,0:0:0:0:
320,192,69416,1,0,0:0:0:0:
192,192,69616,1,0,0:0:0:0:
64,192,69616,1,0,0:0:0:0:
448,192,70016,1,0,0:0:0:0:
320,192,70016,1,0,0:0:0:0:
320,192,70216,1,0,0:0:0:0:
192,192,70216,1,0,0:0:0:0:
64,192,70416,1,0,0:0:0:0:
192,192,70416,1,0,0:0:0:0:
192,192,70616,1,0,0:0:0:0:
320,192,70616,1,0,0:0:0:0:
448,192,70816,1,0,0:0:0:0:
192,192,71016,1,0,0:0:0:0:
320,192,71216,1,0,0:0:0:0:
64,192,71216,1,0,0:0:0:0:
448,192,71216,128,0,71416:0:0:0:0:
192,192,71416,1,0,0:0:0:0:
64,192,71616,1,0,0:0:0:0:
448,192,71616,1,0,0:0:0:0:
320,192,71616,1,0,0:0:0:0:
192,192,71816,1,0,0:0:0:0:
320,192,71916,1,0,0:0:0:0:
448,192,72016,1,0,0:0:0:0:
64,192,72016,1,0,0:0:0:0:
448,192,72216,1,0,0:0:0:0:
320,192,72266,1,0,0:0:0:0:
192,192,72316,1,0,0:0:0:0:
64,192,72366,1,0,0:0:0:0:
448,192,72416,1,0,0:0:0:0:
320,192,72416,1,0,0:0:0:0:
64,192,72816,1,0,0:0:0:0:
192,192,72816,1,0,0:0:0:0:
320,192,73016,1,0,0:0:0:0:
448,192,73016,1,0,0:0:0:0:
192,192,73416,1,0,0:0:0:0:
320,192,73416,1,0,0:0:0:0:
448,192,73816,1,0,0:0:0:0:
64,192,73816,1,0,0:0:0:0:
448,192,74216,1,0,0:0:0:0:
192,192,74216,1,0,0:0:0:0:
320,192,74416,1,0,0:0:0:0:
64,192,74416,1,0,0:0:0:0:
192,192,74616,1,0,0:0:0:0:
448,192,74816,128,0,75616:0:0:0:0:
320,192,74816,128,0,75216:0:0:0:0:
64,192,75016,1,0,0:0:0:0:
192,192,75116,1,0,0:0:0:0:
64,192,75216,1,0,0:0:0:0:
64,192,75616,1,0,0:0:0:0:
192,192,75716,1,0,0:0:0:0:
320,192,75816,1,0,0:0:0:0:
192,192,75916,1,0,0:0:0:0:
64,192,76016,1,0,0:0:0:0:
448,192,76016,1,0,0:0:0:0:
320,192,76116,1,0,0:0:0:0:
192,192,76216,1,0,0:0:0:0:
64,192,76316,1,0,0:0:0:0:
448,192,76416,1,0,0:0:0:0:
320,192,76516,1,0,0:0:0:0:
64,192,76616,1,0,0:0:0:0:
192,192,76716,1,0,0:0:0:0:
320,192,76816,1,0,0:0:0:0:
64,192,76916,1,0,0:0:0:0:
192,192,77016,1,0,0:0:0:0:
448,192,77116,1,0,0:0:0:0:
320,192,77216,1,0,0:0:0:0:
192,192,77316,1,0,0:0:0:0:
64,192,77416,1,0,0:0:0:0:
448,192,77516,1,0,0:0:0:0:
320,192,77616,1,0,0:0:0:0:
64,192,77716,1,0,0:0:0:0:
192,192,77816,1,0,0:0:0:0:
192,192,78016,1,0,0:0:0:0:
320,192,78016,1,0,0:0:0:0:
448,192,78016,1,0,0:0:0:0:
192,192,78216,1,0,0:0:0:0:
64,192,78216,1,0,0:0:0:0:
448,192,78416,1,0,0:0:0:0:
320,192,78416,1,0,0:0:0:0:
192,192,78616,128,0,78816:0:0:0:0:
64,192,78616,128,0,78816:0:0:0:0:
448,192,78816,1,0,0:0:0:0:
320,192,78916,1,0,0:0:0:0:
192,192,79016,1,0,0:0:0:0:
64,192,79116,1,0,0:0:0:0:
320,192,79216,1,0,0:0:0:0:
448,192,79316,1,0,0:0:0:0:
192,192,79416,1,0,0:0:0:0:
64,192,79516,1,0,0:0:0:0:
448,192,79616,1,0,0:0:0:0:
320,192,79716,1,0,0:0:0:0:
192,192,79816,1,0,0:0:0:0:
64,192,79916,1,0,0:0:0:0:
192,192,80016,1,0,0:0:0:0:
320,192,80116,1,0,0:0:0:0:
448,192,80216,1,0,0:0:0:0:
320,192,80316,1,0,0:0:0:0:
64,192,80416,128,0,80816:0:0:0:0:
192,192,80416,1,0,0:0:0:0:
448,192,80516,1,0,0:0:0:0:
320,192,80616,1,0,0:0:0:0:
192,192,80716,1,0,0:0:0:0:
448,192,80816,128,0,81216:0:0:0:0:
320,192,80816,1,0,0:0:0:0:
64,192,80916,1,0,0:0:0:0:
192,192,81016,1,0,0:0:0:0:
320,192,81116,1,0,0:0:0:0:
192,192,81216,1,0,0:0:0:0:
64,192,81216,1,0,0:0:0:0:
64,192,81416,1,0,0:0:0:0:
192,192,81416,1,0,0:0:0:0:
320,192,81616,1,0,0:0:0:0:
448,192,81616,1,0,0:0:0:0:
64,192,82016,1,0,0:0:0:0:
448,192,82016,1,0,0:0:0:0:
192,192,82116,1,0,0:0:0:0:
320,192,82216,1,0,0:0:0:0:
448,192,82316,1,0,0:0:0:0:
64,192,82416,1,0,0:0:0:0:
192,192,82516,1,0,0:0:0:0:
448,192,82616,1,0,0:0:0:0:
320,192,82716,1,0,0:0:0:0:
192,192,82816,1,0,0:0:0:0:
64,192,82916,1,0,0:0:0:0:
448,192,83016,1,0,0:0:0:0:
320,192,83116,1,0,0:0:0:0:
64,192,83216,1,0,0:0:0:0:
192,192,83316,1,0,0:0:0:0:
320,192,83416,1,0,0:0:0:0:
448,192,83516,1,0,0:0:0:0:
64,192,83616,1,0,0:0:0:0:
192,192,83716,1,0,0:0:0:0:
448,192,83816,1,0,0:0:0:0:
320,192,83916,1,0,0:0:0:0:
64,192,84016,1,0,0:0:0:0:
448,192,84116,1,0,0:0:0:0:
320,192,84216,1,0,0:0:0:0:
192,192,84416,1,0,0:0:0:0:
64,192,84416,1,0,0:0:0:0:
448,192,84416,1,0,0:0:0:0:
448,192,84616,1,0,0:0:0:0:
320,192,84616,1,0,0:0:0:0:
192,192,84816,1,0,0:0:0:0:
64,192,84816,1,0,0:0:0:0:
320,192,85016,128,0,85216:0:0:0:0:
448,192,85016,128,0,85216:0:0:0:0:
64,192,85216,1,0,0:0:0:0:
192,192,85216,1,0,0:0:0:0:
64,192,85616,1,0,0:0:0:0:
192,192,85616,1,0,0:0:0:0:
320,192,85816,1,0,0:0:0:0:
448,192,85816,1,0,0:0:0:0:
448,192,86216,1,0,0:0:0:0:
64,192,86216,1,0,0:0:0:0:
192,192,86616,1,0,0:0:0:0:
320,192,86616,1,0,0:0:0:0:
448,192,87016,1,0,0:0:0:0:
320,192,87016,1,0,0:0:0:0:
64,192,87216,1,0,0:0:0:0:
192,192,87216,1,0,0:0:0:0:
64,192,87616,128,0,88416:0:0:0:0:
192,192,87616,128,0,88416:0:0:0:0:
320,192,87616,128,0,88416:0:0:0:0:
448,192,87616,128,0,88416:0:0:0:0:
