osu file format v14

[General]
AudioFilename: audio.mp3
AudioLeadIn: 0
PreviewTime: 59832
Countdown: 0
SampleSet: Soft
StackLeniency: 0.7
Mode: 0
LetterboxInBreaks: 0
WidescreenStoryboard: 0

[Editor]
DistanceSpacing: 1.6
BeatDivisor: 4
GridSize: 8
TimelineZoom: 1

[Metadata]
Title:Sister, Friend, Lover (TV Size)
TitleUnicode:Sister, Friend, Lover (TV Size)
Artist:RAMM ni Haiyoru Kuuko-san to Kuune-san
ArtistUnicode:RAMMに這いよるクー子さんとクー音さん
Creator:Zer0-G
Version:Insane
Source:這いよれ!ニャル子さんW
Tags:ending Matsuki Miyu 松来未祐 Yuzuki Ryouka 柚木涼香 end5 japanese anime Haiyore! Nyaruko-san W pop j-pop jpop
BeatmapID:2512569
BeatmapSetID:1206515

[Difficulty]
HPDrainRate:6
CircleSize:3.8
OverallDifficulty:7
ApproachRate:8.7
SliderMultiplier:2
SliderTickRate:1

[Events]
//Background and Video events
0,0,"31947_haibane_renmei_kuuko.jpg",0,0
Video,210,"vid.mp4"
//Break Periods
//Storyboard Layer 0 (Background)
//Storyboard Layer 1 (Fail)
//Storyboard Layer 2 (Pass)
//Storyboard Layer 3 (Foreground)
//Storyboard Layer 4 (Overlay)
//Storyboard Sound Samples

[TimingPoints]
1652,441.176470588235,4,1,0,100,1,0
3416,-142.857142857143,4,2,1,55,0,0
17534,-111.111111111111,4,2,1,70,0,0
28122,-250,4,2,1,55,0,0
31651,-142.857142857143,4,2,1,60,0,0
45769,-125,4,2,1,65,0,0
56357,-142.857142857143,4,2,1,55,0,0
58122,-142.857142857143,4,2,1,65,0,0
59887,-100,4,2,1,75,0,1
72240,-100,4,2,1,75,0,0
74004,-100,4,2,1,75,0,1
88122,-333.333333333333,4,2,1,50,0,0

[Colours]
Combo1 : 164,164,255
Combo2 : 255,62,62
Combo3 : 255,128,64
Combo4 : 255,170,170

[HitObjects]
186,230,3416,5,6,3:2:0:0:
186,230,3857,2,0,L|280:227,2,69.9999978637696,2|0|2,0:2|0:2|0:2,0:0:0:0:
186,230,4960,1,2,0:2:0:0:
89,288,5181,1,2,0:2:0:0:
89,288,5843,1,2,0:2:0:0:
89,288,6063,2,0,P|91:245|95:212,1,69.9999978637696,2|2,0:2|0:2,0:0:0:0:
8,152,6504,2,0,P|11:186|13:221,1,69.9999978637696,2|2,0:2|0:2,0:0:0:0:
90,135,6946,6,0,P|131:126|209:197,1,139.999995727539,2|2,0:2|0:2,0:0:0:0:
242,269,7607,1,2,0:2:0:0:
242,269,7828,2,0,P|300:253|387:244,1,139.999995727539,2|2,0:2|0:2,0:0:0:0:
483,286,8490,1,2,0:2:0:0:
382,215,8710,1,2,0:2:0:0:
462,38,9593,6,0,P|456:88|456:122,1,69.9999978637696,2|2,0:2|0:2,0:0:0:0:
374,104,10034,2,0,P|380:154|380:188,1,69.9999978637696,2|2,0:2|0:2,0:0:0:0:
474,223,10475,1,6,3:2:0:0:
474,223,10916,2,0,L|465:309,1,69.9999978637696,0|0,3:2|0:2,0:0:0:0:
368,353,11357,5,2,3:2:0:0:
300,292,11578,1,2,0:2:0:0:
285,381,11799,1,2,3:2:0:0:
380,270,12019,1,2,0:2:0:0:
222,320,12240,6,0,L|142:309,1,69.9999978637696,2|0,3:2|0:2,0:0:0:0:
49,244,12681,2,0,L|118:234,1,69.9999978637696,2|0,3:2|0:2,0:0:0:0:
237,179,13122,2,0,L|167:169,1,69.9999978637696,2|0,3:2|0:2,0:0:0:0:
30,107,13563,2,0,L|139:94,1,104.999996795654,2|0,3:2|0:0,0:0:0:0:
159,84,14004,5,2,3:2:0:0:
163,88,14225,1,2,3:2:0:0:
236,181,14446,1,2,3:2:0:0:
240,185,14666,1,2,3:2:0:0:
292,70,14887,5,2,3:2:0:0:
347,182,15107,1,2,3:2:0:0:
415,77,15328,1,2,3:2:0:0:
236,176,15549,1,2,3:2:0:0:
438,164,15769,5,2,3:2:0:0:
404,265,15990,1,2,3:2:0:0:
463,351,16210,1,2,3:2:0:0:
502,253,16431,1,2,3:2:0:0:
362,351,16651,5,2,3:2:0:0:
502,253,16872,1,2,3:2:0:0:
340,187,17093,1,8,0:2:0:0:
56,120,17534,6,0,B|141:104|112:153|192:137,1,134.999995880127,6|0,3:2|0:0,0:0:0:0:
218,134,17975,1,8,3:2:0:0:
120,296,18196,1,0,0:2:0:0:
86,197,18416,1,2,3:2:0:0:
203,226,18637,1,0,0:2:0:0:
105,109,18857,2,0,P|46:93|11:93,1,89.9999972534181,8|0,3:2|0:2,0:0:0:0:
192,32,19299,6,0,P|242:57|364:33,1,179.999994506836,2|8,3:2|3:2,0:0:0:0:
483,101,19960,1,2,0:2:0:0:
483,101,20071,1,2,0:0:0:0:
483,101,20181,1,2,3:2:0:0:
330,149,20401,1,0,0:2:0:0:
459,260,20622,1,8,3:2:0:0:
421,171,20843,1,0,0:2:0:0:
326,276,21063,6,0,P|261:296|185:260,1,134.999995880127,2|0,3:2|0:0,0:0:0:0:
173,269,21504,2,0,P|165:337|167:363,1,89.9999972534181,10|0,3:2|0:2,0:0:0:0:
62,269,21946,2,0,P|62:224|55:179,1,89.9999972534181,2|0,3:2|0:2,0:0:0:0:
127,27,22387,1,10,3:2:0:0:
15,73,22607,1,0,0:2:0:0:
175,139,22828,6,0,P|224:144|274:137,1,89.9999972534181,2|2,3:2|0:2,0:0:0:0:
293,128,23159,1,2,0:0:0:0:
293,128,23269,1,10,3:2:0:0:
465,93,23490,1,0,0:2:0:0:
386,263,23710,5,2,3:2:0:0:
393,162,23931,1,0,0:2:0:0:
456,327,24151,1,8,3:2:0:0:
470,224,24372,1,0,3:2:0:0:
307,316,24593,6,0,P|246:327|165:283,1,134.999995880127,2|0,3:2|0:0,0:0:0:0:
153,289,25034,1,8,3:2:0:0:
349,204,25254,1,0,0:2:0:0:
242,161,25475,2,0,P|249:218|249:257,1,89.9999972534181,2|0,3:2|0:2,0:0:0:0:
144,173,25916,2,0,P|145:128|151:83,1,89.9999972534181,8|0,3:2|0:2,0:0:0:0:
262,17,26357,6,0,P|211:42|82:3,1,179.999994506836,2|10,3:2|3:2,0:0:0:0:
20,141,27019,1,2,0:2:0:0:
20,141,27129,1,2,0:0:0:0:
20,141,27240,1,2,3:2:0:0:
165,171,27460,1,0,0:2:0:0:
86,323,27681,1,8,3:2:0:0:
63,221,27901,1,2,3:2:0:0:
251,313,28122,6,0,B|352:301|304:353|411:336,1,160,6|0,3:2|0:2,0:0:0:0:
404,336,29887,1,2,0:2:0:0:
256,192,29997,12,0,31431,0:2:0:0:
408,177,31651,6,0,P|412:126|416:95,2,69.9999978637696,6|2|10,3:2|0:2|3:2,0:0:0:0:
470,227,32313,2,0,P|421:211|329:237,1,139.999995727539,2|2,0:2|0:2,0:0:0:0:
230,265,32975,2,0,P|236:215|233:175,1,69.9999978637696,10|0,3:2|0:2,0:0:0:0:
299,88,33416,6,0,P|299:122|304:157,1,69.9999978637696,2|2,3:2|0:2,0:0:0:0:
364,28,33857,1,10,3:2:0:0:
364,28,34078,2,0,P|293:9|211:47,1,139.999995727539,2|2,0:2|0:2,0:0:0:0:
145,113,34740,2,0,L|228:107,1,69.9999978637696,10|0,3:2|0:2,0:0:0:0:
89,40,35181,6,0,L|19:34,2,69.9999978637696,2|2|10,3:2|0:2|3:2,0:0:0:0:
54,125,35843,2,0,P|34:179|63:265,1,139.999995727539,2|2,0:2|0:2,0:0:0:0:
145,253,36504,2,0,L|214:249,1,69.9999978637696,10|0,3:2|0:2,0:0:0:0:
329,189,36946,5,2,3:2:0:0:
317,318,37166,1,2,0:2:0:0:
385,255,37387,1,10,3:2:0:0:
246,179,37607,2,0,P|241:112|285:40,1,139.999995727539,2|2,0:2|0:2,0:0:0:0:
351,21,38269,2,0,L|429:27,1,69.9999978637696,10|0,3:2|0:2,0:0:0:0:
419,117,38710,6,0,L|272:105,1,139.999995727539,2|10,3:2|3:2,0:0:0:0:
154,81,39372,2,0,P|150:32|152:5,1,69.9999978637696,2|0,0:2|3:2,0:0:0:0:
207,151,39813,1,2,0:2:0:0:
89,132,40034,2,0,P|38:126|4:127,1,69.9999978637696,10|0,3:2|0:2,0:0:0:0:
138,229,40475,6,0,P|193:240|291:226,1,139.999995727539,2|10,3:2|3:2,0:0:0:0:
393,267,41137,2,0,P|395:308|391:343,1,69.9999978637696,2|0,0:2|3:2,0:0:0:0:
346,192,41578,1,2,0:2:0:0:
459,225,41799,2,0,P|461:190|458:155,1,69.9999978637696,10|0,3:2|0:2,0:0:0:0:
357,71,42240,6,0,P|404:75|445:65,2,69.9999978637696,2|2|10,3:2|0:2|3:2,0:0:0:0:
264,47,42901,2,0,P|208:31|123:58,1,139.999995727539,2|2,0:2|0:2,0:0:0:0:
105,137,43563,2,0,L|108:217,1,69.9999978637696,10|0,3:2|0:2,0:0:0:0:
116,328,44004,5,2,3:2:0:0:
202,292,44225,1,2,3:2:0:0:
47,263,44446,1,10,3:2:0:0:
197,206,44666,2,0,P|239:191|327:231,1,139.999995727539,2|2,3:2|3:2,0:0:0:0:
446,277,45328,1,10,3:2:0:0:
345,326,45549,1,0,3:2:0:0:
406,180,45769,6,0,L|411:91,1,80,6|2,3:2|0:2,0:0:0:0:
413,70,46100,1,2,0:0:0:0:
413,70,46210,1,10,3:2:0:0:
500,135,46431,1,2,0:2:0:0:
498,16,46651,1,2,3:2:0:0:
376,63,46872,2,0,P|318:65|285:58,1,80,2|8,0:2|3:2,0:0:0:0:
122,82,47313,5,2,0:2:0:0:
202,15,47534,1,2,3:2:0:0:
219,159,47754,2,0,P|218:214|218:251,1,80,2|8,0:2|3:2,0:0:0:0:
120,179,48196,1,2,0:2:0:0:
120,179,48306,1,2,0:0:0:0:
120,179,48416,2,0,P|61:172|27:181,1,80,2|2,3:2|0:2,0:0:0:0:
210,260,48857,2,0,P|269:267|303:258,1,80,8|0,3:2|0:2,0:0:0:0:
439,214,49299,6,0,P|434:286|435:315,1,80,2|2,3:2|0:2,0:0:0:0:
435,328,49629,1,2,0:0:0:0:
435,328,49740,1,10,3:2:0:0:
320,271,49960,1,2,0:2:0:0:
208,333,50181,1,2,3:2:0:0:
232,236,50401,2,0,P|234:174|232:141,1,80,2|8,0:2|3:2,0:0:0:0:
182,27,50843,5,2,0:2:0:0:
283,54,51063,1,2,3:2:0:0:
155,113,51284,2,0,P|110:107|61:109,1,80,2|8,0:2|3:2,0:0:0:0:
3,216,51725,1,2,0:2:0:0:
3,216,51835,1,2,0:0:0:0:
3,216,51946,2,0,P|42:211|82:216,1,80,2|2,3:2|0:2,0:0:0:0:
165,279,52387,2,0,P|204:284|244:279,1,80,8|0,3:2|0:2,0:0:0:0:
405,323,52828,5,2,3:2:0:0:
328,258,53049,1,2,0:2:0:0:
415,219,53269,2,0,P|419:165|419:125,1,80,10|2,3:2|0:2,0:2:0:0:
313,79,53710,1,2,3:2:0:0:
327,170,53931,1,2,0:2:0:0:
403,52,54151,2,0,P|451:48|493:56,1,80,10|0,3:2|0:2,0:2:0:0:
247,30,54593,6,0,P|197:27|141:32,1,80,2|0,3:2|0:2,0:0:0:0:
132,35,54924,1,2,0:0:0:0:
132,35,55034,2,0,P|135:104|135:137,1,80,10|0,3:2|0:2,0:0:0:0:
59,202,55475,2,0,P|103:171|212:211,1,160,2|8,3:2|3:2,0:0:0:0:
124,293,56137,1,0,0:2:0:0:
39,177,56357,6,0,P|37:142|43:78,1,69.9999978637696,6|0,0:2|0:2,0:0:0:0:
139,40,56799,2,0,P|141:74|139:109,1,69.9999978637696,2|0,0:2|0:2,0:0:0:0:
135,219,57240,1,2,0:2:0:0:
208,179,57460,1,2,0:2:0:0:
269,236,57681,2,0,L|340:233,1,69.9999978637696,2|0,0:2|0:2,0:0:0:0:
482,225,58122,5,2,3:2:0:0:
399,158,58343,1,2,3:2:0:0:
408,300,58563,1,2,3:2:0:0:
485,146,58784,1,2,3:2:0:0:
318,114,59004,5,2,3:2:0:0:
429,38,59225,1,2,3:2:0:0:
311,234,59446,1,10,0:2:0:0:
1,109,59887,6,0,P|98:134|156:108,1,150,6|0,3:2|0:0,0:0:0:0:
186,105,60328,2,0,P|185:162|187:212,1,100,10|0,3:2|0:2,0:0:0:0:
176,351,60769,1,2,3:2:0:0:
70,268,60990,1,0,0:2:0:0:
280,292,61210,1,8,3:2:0:0:
257,159,61431,5,2,0:2:0:0:
257,159,61541,1,2,0:0:0:0:
257,159,61651,2,0,P|318:142|404:197,1,150,2|0,3:2|0:0,0:0:0:0:
431,190,62093,2,0,P|432:121|430:85,1,100,8|2,3:2|0:2,0:0:0:0:
322,231,62534,5,2,3:2:0:0:
512,273,62754,1,2,0:2:0:0:
390,380,62975,1,10,3:2:0:0:
322,231,63196,1,2,0:2:0:0:
322,231,63306,1,2,0:0:0:0:
322,231,63416,6,0,B|221:208|244:294|106:239,1,200,2|10,3:2|3:2,0:0:0:0:
289,307,64078,1,2,0:2:0:0:
183,178,64299,2,0,P|185:112|262:80,1,150,2|0,3:2|0:0,0:0:0:0:
303,82,64740,1,10,3:2:0:0:
321,230,64960,1,2,0:2:0:0:
139,99,65181,6,0,P|72:96|34:97,1,100,2|0,3:2|0:2,0:0:0:0:
222,234,65622,2,0,P|271:234|321:231,1,100,8|0,3:2|0:2,0:0:0:0:
501,181,66063,5,2,3:2:0:0:
433,302,66284,1,2,0:2:0:0:
327,70,66504,5,10,3:2:0:0:
391,192,66725,1,2,3:2:0:0:
456,60,66946,2,0,P|395:29|302:68,1,150,2|0,3:2|0:0,0:0:0:0:
289,74,67387,2,0,P|232:79|186:60,1,100,8|0,3:2|0:2,0:0:0:0:
0,125,67828,5,2,3:2:0:0:
78,12,68049,1,2,0:2:0:0:
214,193,68269,5,10,3:2:0:0:
107,131,68490,1,2,0:2:0:0:
107,131,68600,1,2,0:0:0:0:
107,131,68710,2,0,P|63:172|113:286,1,200,2|10,3:2|3:2,0:0:0:0:
231,209,69372,1,2,0:2:0:0:
231,209,69482,1,2,0:0:0:0:
231,209,69593,2,0,P|177:213|125:209,1,100,2|0,3:2|0:2,0:0:0:0:
317,134,70034,2,0,P|370:129|422:133,1,100,10|0,3:2|0:2,0:0:0:0:
230,66,70475,6,0,P|157:62|76:67,1,150,2|0,3:2|0:0,0:0:0:0:
28,72,70916,1,10,3:2:0:0:
160,188,71137,1,0,0:2:0:0:
24,258,71357,2,0,P|25:186|27:139,1,100,2|0,3:2|0:2,0:0:0:0:
120,285,71799,2,0,P|121:334|122:384,1,100,10|0,3:2|0:2,0:0:0:0:
18,350,72240,5,2,3:2:0:0:
232,322,72460,1,2,3:2:0:0:
106,142,72681,1,10,3:2:0:0:
120,285,72901,1,2,3:2:0:0:
216,151,73122,5,2,0:2:0:0:
0,179,73343,1,2,3:2:0:0:
91,26,73563,1,10,0:2:0:0:
461,237,74004,6,0,P|388:251|302:233,1,150,6|0,3:2|0:0,0:0:0:0:
274,239,74446,2,0,P|272:302|273:350,1,100,10|0,3:2|0:2,0:0:0:0:
381,164,74887,5,2,3:2:0:0:
167,132,75107,1,0,0:2:0:0:
292,86,75328,1,8,3:2:0:0:
183,248,75549,1,2,0:2:0:0:
183,248,75659,1,2,0:0:0:0:
183,248,75769,2,0,P|126:215|22:251,1,150,2|0,3:2|0:0,0:0:0:0:
11,255,76210,2,0,P|13:161|12:135,1,100,8|2,3:2|0:2,0:0:0:0:
186,39,76651,5,2,3:2:0:0:
109,138,76872,1,2,0:2:0:0:
299,122,77093,1,10,3:2:0:0:
303,303,77313,5,2,0:2:0:0:
303,303,77424,1,2,0:0:0:0:
303,303,77534,2,0,P|338:220|287:112,1,200,2|10,3:2|3:2,0:0:0:0:
431,239,78196,1,2,0:2:0:0:
467,98,78416,2,0,P|398:117|298:75,1,150,2|0,3:2|0:0,0:0:0:0:
280,83,78857,1,10,3:2:0:0:
395,7,79078,1,2,0:2:0:0:
402,199,79299,6,0,P|401:249|404:315,1,100,2|0,3:2|0:2,0:0:0:0:
282,384,79740,2,0,P|283:334|282:284,1,100,8|0,3:2|0:2,0:0:0:0:
149,208,80181,5,2,3:2:0:0:
211,137,80401,1,2,0:2:0:0:
203,317,80622,1,10,3:2:0:0:
67,277,80843,1,2,0:2:0:0:
285,197,81063,6,0,P|313:125|266:57,1,150,2|0,3:2|0:0,0:0:0:0:
252,28,81504,2,0,P|189:31|138:21,1,100,8|0,3:2|0:2,0:0:0:0:
1,23,81946,5,2,3:2:0:0:
99,183,82166,1,2,0:2:0:0:
78,71,82387,1,10,3:2:0:0:
25,266,82607,1,2,0:2:0:0:
25,266,82718,1,2,0:0:0:0:
25,266,82828,6,0,B|140:297|97:214|262:263,1,200,2|10,3:2|3:2,0:0:0:0:
71,189,83490,1,2,0:2:0:0:
71,189,83600,1,2,0:0:0:0:
71,189,83710,2,0,P|71:139|66:89,1,100,2|0,3:2|0:2,0:0:0:0:
219,252,84151,2,0,P|215:301|215:351,1,100,10|0,3:2|0:2,0:0:0:0:
181,126,84593,5,6,3:2:0:0:
397,179,84813,1,2,3:2:0:0:
275,170,85034,1,2,3:2:0:0:
340,58,85254,1,2,3:2:0:0:
329,299,85475,5,2,3:2:0:0:
275,170,85696,1,2,3:2:0:0:
449,250,85916,1,2,3:2:0:0:
211,323,86137,1,2,3:2:0:0:
373,156,86357,5,2,3:2:0:0:
91,135,86578,1,2,3:2:0:0:
329,299,86799,1,2,3:2:0:0:
241,9,87019,1,2,3:2:0:0:
107,257,87240,5,2,0:2:0:0:
373,156,87460,1,2,3:2:0:0:
147,34,87681,1,10,0:2:0:0:
380,316,88122,5,2,0:2:0:0:
380,316,88563,2,0,L|379:356,2,29.9999990844727,2|2|2,0:2|0:2|0:2,0:0:0:0:
455,249,89666,1,2,0:2:0:0:
455,249,89887,1,2,0:2:0:0:
