osu file format v14

[General]
AudioFilename: audio.mp3
AudioLeadIn: 0
PreviewTime: 68266
Countdown: 0
SampleSet: Normal
StackLeniency: 0.3
Mode: 0
LetterboxInBreaks: 0
WidescreenStoryboard: 1

[Editor]
Bookmarks: 22649,33943,45237,56531,67825,79119,89002,101708,114413,135590,146884,158178,168060
DistanceSpacing: 0.7
BeatDivisor: 4
GridSize: 16
TimelineZoom: 1.900001

[Metadata]
Title:Mertvetsy
TitleUnicode:Мертвецы
Artist:RAM
ArtistUnicode:RAM
Creator:Mazzerin
Version:Requiem
Source:
Tags:owc2021fnm4 traumatix rap hiphop russian
BeatmapID:3322526
BeatmapSetID:1627456

[Difficulty]
HPDrainRate:5
CircleSize:4.2
OverallDifficulty:9
ApproachRate:9.7
SliderMultiplier:3
SliderTickRate:1

[Events]
//Background and Video events
0,0,"bgme2.jpg",0,0
//Break Periods
//Storyboard Layer 0 (Background)
//Storyboard Layer 1 (Fail)
//Storyboard Layer 2 (Pass)
//Storyboard Layer 3 (Foreground)
//Storyboard Layer 4 (Overlay)
//Storyboard Sound Samples

[TimingPoints]
61,352.941176470588,4,1,5,60,1,0
21590,-400,4,1,5,20,0,0
21943,-333.333333333333,4,1,5,60,0,0
22031,-333.333333333333,4,1,5,5,0,0
22650,-33.3333333333333,4,1,5,60,0,0
23002,-62.5,4,1,5,60,0,0
23355,-55.5555555555556,4,1,5,60,0,0
23531,-66.6666666666667,4,1,5,60,0,0
23708,-50,4,1,5,60,0,0
24237,-66.6666666666667,4,1,5,60,0,0
25119,-50,4,1,5,60,0,0
25472,-66.6666666666667,4,1,5,60,0,0
25649,-66.6666666666667,4,1,5,60,0,0
26531,-50,4,1,5,60,0,0
26884,-66.6666666666667,4,1,5,60,0,0
27943,-50,4,1,5,60,0,0
28472,-66.6666666666667,4,1,5,60,0,0
28737,-62.5,4,1,5,60,0,0
29002,-66.6666666666667,4,1,5,60,0,0
29355,-50,4,1,5,60,0,0
29884,-66.6666666666667,4,1,5,60,0,0
30766,-44.4444444444445,4,1,5,60,0,0
31296,-66.6666666666667,4,1,5,60,0,0
32178,-50,4,1,5,60,0,0
33943,-33.3333333333333,4,1,5,60,0,0
34296,-66.6666666666667,4,1,5,60,0,0
34649,-50,4,1,5,60,0,0
35002,-66.6666666666667,4,1,5,60,0,0
35355,-50,4,1,5,60,0,0
35884,-66.6666666666667,4,1,5,60,0,0
36060,-50,4,1,5,60,0,0
36325,-66.6666666666667,4,1,5,60,0,0
36766,-50,4,1,5,60,0,0
37119,-66.6666666666667,4,1,5,60,0,0
38002,-50,4,1,5,60,0,0
38884,-66.6666666666667,4,1,5,60,0,0
39413,-50,4,1,5,60,0,0
40119,-66.6666666666667,4,1,5,60,0,0
40825,-50,4,1,5,60,0,0
41531,-66.6666666666667,4,1,5,60,0,0
42237,-50,4,1,5,60,0,0
43119,-55.5555555555556,4,1,5,60,0,0
43472,-68.9655172413793,4,1,5,60,0,0
43649,-66.6666666666667,4,1,5,60,0,0
43825,-30.3030303030303,4,1,5,60,0,0
43913,-30.3030303030303,4,1,5,5,0,0
44178,-15.748031496063,4,1,5,60,0,0
44266,-30.3030303030303,4,1,5,5,0,0
44531,-83.3333333333333,4,1,5,60,0,0
44619,-30.3030303030303,4,1,5,5,0,0
44884,-30.3030303030303,4,1,5,60,0,0
44972,-30.3030303030303,4,1,5,5,0,0
45237,-33.3333333333333,4,1,5,60,0,0
45590,-66.6666666666667,4,1,5,60,0,0
46649,-50,4,1,5,60,0,0
47002,-66.6666666666667,4,1,5,60,0,0
47708,-50,4,1,5,60,0,0
48060,-66.6666666666667,4,1,5,60,0,0
49472,-50,4,1,5,60,0,0
49649,-66.6666666666667,4,1,5,60,0,0
50531,-50,4,1,5,60,0,0
50884,-66.6666666666667,4,1,5,60,0,0
52384,-50,4,1,5,60,0,0
52649,-66.6666666666667,4,1,5,60,0,0
53355,-50,4,1,5,60,0,0
53708,-66.6666666666667,4,1,5,60,0,0
55119,-19.4174757281553,4,1,5,60,0,0
55208,-30.3030303030303,4,1,5,5,0,0
55472,-10,4,1,5,60,0,0
55560,-30.3030303030303,4,1,5,5,0,0
55825,-83.3333333333333,4,1,5,60,0,0
55913,-30.3030303030303,4,1,5,5,0,0
56178,-142.857142857143,4,1,5,60,0,0
56266,-30.3030303030303,4,1,5,5,0,0
56531,-142.857142857143,4,1,5,60,0,0
56708,-50,4,1,5,60,0,0
57237,-66.6666666666667,4,1,5,60,0,0
57590,-50,4,1,5,60,0,0
57943,-66.6666666666667,4,1,5,60,0,0
59002,-50,4,1,5,60,0,0
59531,-66.6666666666667,4,1,5,60,0,0
60413,-50,4,1,5,60,0,0
60766,-66.6666666666667,4,1,5,60,0,0
61825,-50,4,1,5,60,0,0
62178,-66.6666666666667,4,1,5,60,0,0
63237,-50,4,1,5,60,0,0
63590,-66.6666666666667,4,1,5,60,0,0
64649,-50,4,1,5,60,0,0
65002,-66.6666666666667,4,1,5,60,0,0
67472,-50,4,1,5,60,0,0
67825,-33.3333333333333,4,1,5,75,0,1
68178,-66.6666666666667,4,1,5,75,0,1
69237,-50,4,1,5,75,0,1
69590,-66.6666666666667,4,1,5,75,0,1
70296,-50,4,1,5,75,0,1
70649,-34.4827586206897,4,1,5,75,0,1
71002,-66.6666666666667,4,1,5,75,0,1
72060,-50,4,1,5,75,0,1
72413,-66.6666666666667,4,1,5,75,0,1
73119,-50,4,1,5,75,0,1
73472,-33.3333333333333,4,1,5,75,0,1
73825,-66.6666666666667,4,1,5,75,0,1
74531,-50,4,1,5,75,0,1
74884,-66.6666666666667,4,1,5,75,0,1
75943,-50,4,1,5,75,0,1
76296,-66.6666666666667,4,1,5,75,0,1
77355,-50,4,1,5,75,0,1
77708,-66.6666666666667,4,1,5,75,0,1
78766,-50,4,1,5,75,0,1
79119,-33.3333333333333,4,1,5,75,0,1
79472,-66.6666666666667,4,1,5,75,0,1
80531,-50,4,1,5,75,0,1
80884,-66.6666666666667,4,1,5,75,0,1
81237,-76.9230769230769,4,1,5,75,0,1
81413,-66.6666666666667,4,1,5,75,0,1
81590,-47.6190476190476,4,1,5,75,0,1
81943,-33.3333333333333,4,1,5,75,0,1
82296,-66.6666666666667,4,1,5,75,0,1
83355,-50,4,1,5,75,0,1
83708,-66.6666666666667,4,1,5,75,0,1
84413,-50,4,1,5,75,0,1
84766,-33.3333333333333,4,1,5,75,0,1
85119,-66.6666666666667,4,1,5,75,0,1
85825,-50,4,1,5,75,0,1
86178,-66.6666666666667,4,1,5,75,0,1
87237,-50,4,1,5,75,0,1
87590,-66.6666666666667,4,1,5,75,0,1
88649,-50,4,1,5,75,0,1
89002,-66.6666666666667,4,1,5,60,0,0
89046,-66.6666666666667,4,1,5,15,0,0
89531,-66.6666666666667,4,1,5,60,0,0
89575,-66.6666666666667,4,1,5,15,0,0
89884,-66.6666666666667,4,1,5,60,0,0
90413,-33.3333333333333,4,1,5,60,0,0
90766,-66.6666666666667,4,1,5,60,0,0
91296,-133.333333333333,4,1,5,60,0,0
91472,-66.6666666666667,4,1,5,60,0,0
92708,-133.333333333333,4,1,5,60,0,0
92884,-66.6666666666667,4,1,5,60,0,0
94119,-133.333333333333,4,1,5,60,0,0
94296,-66.6666666666667,4,1,5,60,0,0
95531,-133.333333333333,4,1,5,60,0,0
95708,-66.6666666666667,4,1,5,60,0,0
96943,-133.333333333333,4,1,5,60,0,0
97119,-66.6666666666667,4,1,5,60,0,0
98355,-133.333333333333,4,1,5,60,0,0
98531,-66.6666666666667,4,1,5,60,0,0
99766,-133.333333333333,4,1,5,60,0,0
99943,-66.6666666666667,4,1,5,60,0,0
101178,-133.333333333333,4,1,5,60,0,0
101355,-58.8235294117647,4,1,5,60,0,0
101531,-66.6666666666667,4,1,5,60,0,0
102590,-133.333333333333,4,1,5,60,0,0
102766,-66.6666666666667,4,1,5,60,0,0
104002,-133.333333333333,4,1,5,60,0,0
104178,-66.6666666666667,4,1,5,60,0,0
105413,-133.333333333333,4,1,5,60,0,0
105590,-66.6666666666667,4,1,5,60,0,0
106825,-133.333333333333,4,1,5,60,0,0
107002,-66.6666666666667,4,1,5,60,0,0
108237,-133.333333333333,4,1,5,60,0,0
108413,-66.6666666666667,4,1,5,60,0,0
109649,-133.333333333333,4,1,5,60,0,0
109825,-66.6666666666667,4,1,5,60,0,0
111060,-133.333333333333,4,1,5,60,0,0
111237,-66.6666666666667,4,1,5,60,0,0
111943,-100,4,1,5,60,0,0
114060,-50,4,1,5,60,0,0
114237,-100,4,1,5,60,0,0
114413,-33.3333333333333,4,1,5,60,0,0
115119,-66.6666666666667,4,1,5,60,0,0
115296,-43.4782608695652,4,1,5,60,0,0
115472,-66.6666666666667,4,1,5,60,0,0
115825,-50,4,1,5,60,0,0
116178,-66.6666666666667,4,1,5,60,0,0
116355,-50,4,1,5,60,0,0
116884,-66.6666666666667,4,1,5,60,0,0
117766,-66.6666666666667,4,1,5,60,0,0
118119,-133.333333333333,4,1,5,60,0,0
118296,-50,4,1,5,60,0,0
118649,-66.6666666666667,4,1,5,60,0,0
119531,-133.333333333333,4,1,5,60,0,0
119708,-50,4,1,5,60,0,0
119884,-66.6666666666667,4,1,5,60,0,0
120590,-50,4,1,5,60,0,0
120943,-66.6666666666667,4,1,5,60,0,0
121825,-50,4,1,5,60,0,0
122266,-333.333333333333,4,1,5,60,0,0
122531,-66.6666666666667,4,1,5,60,0,0
122708,-50,4,1,5,60,0,0
122972,-66.6666666666667,4,1,5,60,0,0
123413,-50,4,1,5,60,0,0
123943,-33.3333333333333,4,1,5,60,0,0
123987,-33.3333333333333,4,1,5,40,0,0
124296,-66.6666666666667,4,1,5,60,0,0
125708,-50,4,1,5,60,0,0
125972,-80,4,1,5,60,0,0
126237,-66.6666666666667,4,1,5,60,0,0
126766,-100,4,1,5,60,0,0
127119,-66.6666666666667,4,1,5,60,0,0
128090,-62.5,4,1,5,60,0,0
128531,-50,4,1,5,60,0,0
128708,-66.6666666666667,4,1,5,60,0,0
129590,-50,4,1,5,60,0,0
129766,-66.6666666666667,4,1,5,60,0,0
130825,-50,4,1,5,60,0,0
131002,-66.6666666666667,4,1,5,60,0,0
131355,-50,4,1,5,60,0,0
131619,-66.6666666666667,4,1,5,60,0,0
132766,-50,4,1,5,60,0,0
132943,-66.6666666666667,4,1,5,60,0,0
133296,-50,4,1,5,60,0,0
133472,-66.6666666666667,4,1,5,60,0,0
134708,-50,4,1,5,60,0,0
135590,-32.4675324675325,4,1,5,60,0,0
135943,-62.5,4,1,5,60,0,0
136296,-66.6666666666667,4,1,5,60,0,0
136649,-50,4,1,5,60,0,0
137002,-66.6666666666667,4,1,5,60,0,0
138060,-50,4,1,5,60,0,0
138413,-66.6666666666667,4,1,5,60,0,0
139472,-50,4,1,5,60,0,0
139825,-66.6666666666667,4,1,5,60,0,0
140884,-50,4,1,5,60,0,0
141237,-66.6666666666667,4,1,5,60,0,0
142296,-50,4,1,5,60,0,0
142649,-66.6666666666667,4,1,5,60,0,0
143708,-47.6190476190476,4,1,5,60,0,0
144060,-66.6666666666667,4,1,5,60,0,0
145119,-50,4,1,5,60,0,0
146884,-33.3333333333335,4,1,5,60,0,1
147237,-66.6666666666667,4,1,5,75,0,1
147943,-50,4,1,5,75,0,1
148296,-66.6666666666667,4,1,5,75,0,1
149355,-50,4,1,5,75,0,1
149708,-33.3333333333333,4,1,5,75,0,1
150060,-66.6666666666667,4,1,5,75,0,1
151119,-50,4,1,5,75,0,1
151296,-66.6666666666667,4,1,5,75,0,1
152178,-50,4,1,5,75,0,1
152531,-33.3333333333333,4,1,5,75,0,1
152884,-66.6666666666667,4,1,5,75,0,1
153590,-50,4,1,5,75,0,1
153943,-66.6666666666667,4,1,5,75,0,1
155002,-50,4,1,5,75,0,1
155355,-66.6666666666667,4,1,5,75,0,1
156413,-50,4,1,5,75,0,1
156766,-181.818181818181,4,1,5,60,0,0
156943,-100,4,1,5,60,0,0
157737,-66.6666666666667,4,1,5,60,0,0
158178,-33.3333333333333,4,1,5,75,0,1
158531,-66.6666666666667,4,1,5,75,0,1
159590,-50,4,1,5,75,0,1
159766,-66.6666666666667,4,1,5,75,0,1
160649,-50,4,1,5,75,0,1
161002,-33.3333333333333,4,1,5,75,0,1
161355,-66.6666666666667,4,1,5,75,0,1
162413,-50,4,1,5,75,0,1
162766,-66.6666666666667,4,1,5,75,0,1
163472,-50,4,1,5,75,0,1
163825,-33.3333333333333,4,1,5,75,0,1
164178,-100,4,1,5,75,0,1
164531,-66.6666666666667,4,1,5,75,0,1
164884,-50,4,1,5,75,0,1
165237,-66.6666666666667,4,1,5,75,0,1
166296,-50,4,1,5,75,0,1
166649,-66.6666666666667,4,1,5,75,0,1
167708,-50,4,1,5,75,0,1
168060,-133.333333333333,4,1,5,60,0,0
168766,-666.666666666667,4,1,5,60,0,0
168855,-666.666666666667,4,1,5,5,0,0

[Colours]
Combo1 : 204,45,49
Combo2 : 211,121,123
Combo3 : 148,59,247
Combo4 : 95,144,251
Combo5 : 97,155,48
Combo6 : 195,178,51

[HitObjects]
200,117,21590,54,0,L|203:134,6,9.375
142,68,21943,6,0,P|206:80|288:102,1,134.999995880127
351,218,22650,38,0,B|403:232|420:298|420:298|434:186|404:163|309:181|273:99|311:29|311:29|471:60|471:60|426:83|425:127,1,675.000025749207,6|0,0:0|0:0,0:0:0:0:
499,132,23002,6,0,P|391:154|180:203,1,240,8|0,0:0|0:0,0:0:0:0:
256,181,23267,1,0,0:0:0:0:
207,243,23355,70,0,P|270:267|330:299,1,134.999995880127
484,341,23531,2,0,P|428:350|359:367,1,112.500004291535,2|0,0:0|0:0,0:0:0:0:
187,146,23708,6,0,B|130:167|119:224|119:224|69:121|108:17|196:7|196:7|160:32|165:83,1,450,8|0,0:0|0:0,0:0:0:0:
241,69,24060,70,0,B|289:88|267:141|267:141|268:104|230:74,1,150,2|0,0:0|0:0,0:0:0:0:
51,265,24237,5,0,0:0:0:0:
63,342,24325,2,0,P|113:349|118:298,1,112.500004291535,0|8,0:0|0:0,0:0:0:0:
265,311,24502,69,0,0:0:0:0:
200,270,24590,2,0,P|218:219|265:254,1,112.500004291535
448,77,24766,6,0,P|429:130|415:184,1,112.500004291535
372,346,24943,2,0,P|321:315|347:255,1,112.500004291535,2|0,0:0|0:0,0:0:0:0:
369,58,25119,70,0,B|334:0|257:3|257:3|364:120|441:342,1,450,8|0,0:0|0:0,0:0:0:0:
495,277,25472,6,0,B|497:242|532:241|532:241|509:260|490:313,1,112.500004291535,2|0,0:0|0:0,0:0:0:0:
455,384,25649,1,0,0:0:0:0:
264,138,25825,69,8,0:0:0:0:
255,141,25913,1,0,0:0:0:0:
188,175,26002,6,0,P|249:187|331:206,1,112.500004291535
344,136,26178,2,0,P|348:80|303:63,1,112.500004291535
152,101,26355,70,0,P|100:124|125:184,1,112.500004291535,2|0,0:0|0:0,0:0:0:0:
218,313,26531,6,0,B|207:361|164:369|100:281|229:216|322:270|299:304|299:304|294:345|453:317|408:159|333:217|371:253,1,450,8|0,0:0|0:0,0:0:0:0:
298,197,26884,70,0,B|317:147|276:127|254:169|297:195,1,112.500004291535,2|0,0:0|0:0,0:0:0:0:
511,365,27060,5,0,0:0:0:0:
434,384,27149,2,0,P|440:330|507:286,1,112.500004291535,0|8,0:0|0:0,0:0:0:0:
432,143,27325,69,0,0:0:0:0:
509,124,27414,2,0,P|502:177|436:222,1,112.500004291535
298,197,27590,6,0,P|243:184|187:173,1,112.500004291535
38,144,27766,1,2,0:0:0:0:
33,87,27855,1,0,0:0:0:0:
84,55,27943,70,0,B|72:7|20:-9|20:-9|78:-20|170:24|195:92|195:92|130:99|103:149|112:213,1,450,8|0,0:0|0:0,0:0:0:0:
46,238,28296,6,0,B|21:283|68:308|68:308|45:281|57:234,1,150,2|0,0:0|0:0,0:0:0:0:
316,279,28472,69,0,0:0:0:0:
374,226,28560,2,0,P|415:263|353:291,1,112.500004291535,0|8,0:0|0:0,0:0:0:0:
159,332,28737,5,0,0:0:0:0:
128,261,28825,2,0,P|110:314|94:378,1,120
227,381,29002,70,0,P|280:364|336:354,1,112.500004291535
270,94,29178,2,0,P|288:156|299:206,1,112.500004291535,2|0,0:0|0:0,0:0:0:0:
470,339,29355,6,0,B|465:269|589:271|593:454|336:446|230:326|235:218,1,450,8|0,0:0|0:0,0:0:0:0:
233,248,29708,70,0,B|254:315|198:337|173:279|231:249,1,150,2|0,0:0|0:0,0:0:0:0:
445,239,29884,5,0,0:0:0:0:
401,305,29972,2,0,P|358:278|396:216,1,112.500004291535,0|8,0:0|0:0,0:0:0:0:
477,93,30149,70,0,P|473:145|421:157,1,112.500004291535
291,197,30325,5,0,0:0:0:0:
269,122,30413,2,0,P|316:105|340:173,1,112.500004291535
113,185,30590,2,0,P|167:188|188:134,1,112.500004291535,2|0,0:0|0:0,0:0:0:0:
385,54,30766,70,0,B|403:-3|490:1|490:1|362:126|289:344,1,506.250019311906,8|0,0:0|0:0,0:0:0:0:
230,251,31119,6,0,B|186:282|217:340|217:340|212:304|235:264,1,168.750006437302,2|0,0:0|0:0,0:0:0:0:
397,307,31296,69,0,0:0:0:0:
466,341,31384,2,0,P|410:356|351:380,1,112.500004291535,0|8,0:0|0:0,0:0:0:0:
152,294,31560,5,0,0:0:0:0:
138,371,31649,2,0,P|85:339|79:272,1,112.500004291535
37,74,31825,70,0,P|88:95|139:120,1,112.500004291535
344,205,32002,2,0,B|395:190|411:234|366:251|344:205,1,112.500004291535,2|0,0:0|0:0,0:0:0:0:
98,188,32178,6,0,B|37:221|12:291|12:291|159:177|360:126,1,450,8|0,0:0|0:0,0:0:0:0:
365,117,32531,69,0,0:0:0:0:
215,56,32672,1,0,0:0:0:0:
465,161,32813,5,0,0:0:0:0:
265,244,32954,1,0,0:0:0:0:
443,86,33096,69,0,0:0:0:0:
489,340,33237,5,0,0:0:0:0:
257,249,33413,1,0,0:0:0:0:
25,159,33590,1,0,0:0:0:0:
181,68,33943,70,0,B|127:13|179:-77|337:-37|344:132|252:213|202:144|202:144|185:136|78:138|72:332|173:310|235:231|130:212,1,675.000025749207,6|0,0:0|0:0,0:0:0:0:
253,239,34296,5,8,0:0:0:0:
257,249,34384,1,0,0:0:0:0:
305,310,34472,70,0,P|278:352|237:323,1,112.500004291535
64,335,34649,6,0,P|206:287|349:243,1,300,0|2,0:0|0:0,0:0:0:0:
421,222,34913,1,0,0:0:0:0:
429,217,35002,70,0,P|422:164|361:187,1,112.500004291535,8|0,0:0|0:0,0:0:0:0:
69,247,35178,2,0,P|130:258|179:271,1,112.500004291535
400,299,35355,6,0,B|338:363|439:451|539:336|486:239|424:222,1,300,2|0,0:0|0:0,0:0:0:0:
454,139,35619,69,0,0:0:0:0:
432,65,35708,1,8,0:0:0:0:
479,35,35796,1,0,0:0:0:0:
471,27,35884,6,0,P|457:81|443:136,1,112.500004291535
176,0,36060,70,0,B|67:-39|-38:49|1:150|123:119|75:65,1,300,0|2,0:0|0:0,0:0:0:0:
157,77,36325,1,0,0:0:0:0:
228,107,36413,6,0,P|222:157|171:154,1,112.500004291535,8|0,0:0|0:0,0:0:0:0:
62,252,36590,69,0,0:0:0:0:
85,181,36678,1,0,0:0:0:0:
3,170,36766,6,0,P|124:115|292:47,1,300,2|0,0:0|0:0,0:0:0:0:
331,111,37031,1,0,0:0:0:0:
351,34,37119,70,0,B|331:-15|373:-35|395:8|351:34,1,112.500004291535,8|0,0:0|0:0,0:0:0:0:
345,234,37296,5,0,0:0:0:0:
396,291,37384,1,0,0:0:0:0:
463,246,37472,1,0,0:0:0:0:
508,308,37560,2,0,P|446:294|351:274,1,112.500004291535,0|2,0:0|0:0,0:0:0:0:
230,247,37737,69,0,0:0:0:0:
225,325,37825,2,0,P|273:341|285:283,1,112.500004291535,8|0,0:0|0:0,0:0:0:0:
413,90,38002,6,0,P|381:236|353:384,2,300,0|2|0,0:0|0:0|0:0,0:0:0:0:
216,39,38531,69,8,0:0:0:0:
146,0,38619,1,0,0:0:0:0:
112,71,38708,1,0,0:0:0:0:
100,60,38796,1,0,0:0:0:0:
101,71,38884,2,0,P|158:54|217:40,1,112.500004291535
337,41,39060,5,2,0:0:0:0:
405,81,39149,2,0,P|350:94|296:110,1,112.500004291535,0|8,0:0|0:0,0:0:0:0:
83,154,39325,69,0,0:0:0:0:
159,135,39413,2,0,P|313:163|537:209,2,300,0|2|0,0:0|0:0|0:0,0:0:0:0:
0,0,39943,5,8,0:0:0:0:
90,163,40119,69,0,0:0:0:0:
76,238,40208,1,0,0:0:0:0:
0,232,40296,6,0,P|-19:283|24:297,1,112.500004291535
148,310,40472,69,2,0:0:0:0:
225,298,40560,1,0,0:0:0:0:
303,287,40649,2,0,P|247:266|190:249,1,112.500004291535,8|0,0:0|0:0,0:0:0:0:
160,93,40825,6,0,P|122:233|84:398,2,300,0|2|0,0:0|0:0|0:0,0:0:0:0:
363,0,41355,69,8,0:0:0:0:
339,208,41531,6,0,P|400:189|447:177,1,112.500004291535
408,107,41708,2,0,B|393:56|437:40|454:85|408:107,1,112.500004291535
364,292,41884,69,2,0:0:0:0:
287,274,41972,2,0,P|264:319|308:344,1,112.500004291535,0|8,0:0|0:0,0:0:0:0:
512,219,42149,5,0,0:0:0:0:
477,291,42237,2,0,P|331:258|184:227,2,300,0|2|0,0:0|0:0|0:0,0:0:0:0:
260,162,42766,69,8,0:0:0:0:
196,103,42855,1,0,0:0:0:0:
201,52,42943,1,0,0:0:0:0:
220,32,43031,1,0,0:0:0:0:
231,28,43119,6,0,P|251:96|268:166,1,134.999995880127
150,168,43296,69,2,0:0:0:0:
75,191,43384,1,0,0:0:0:0:
0,214,43473,2,0,P|54:222|118:235,1,108.750003318787,8|0,0:0|0:0,0:0:0:0:
157,362,43649,2,0,P|208:352|204:301,1,112.500004291535
123,7,43825,6,0,B|147:7|147:7|127:21|127:21|150:21|150:21|131:36|131:36|154:35|154:35|135:50|135:50|158:50|158:50|139:65|139:65|162:64|162:64|143:79|143:79|166:79|166:79|147:94|147:94|170:93|170:93|150:108|150:108|174:108|174:108|154:123|154:123|178:122|178:122|158:137|158:137|182:137|182:137|162:152|162:152|186:151|186:151|166:166|166:166|190:166|190:166|170:181|170:181|194:180|194:180|174:195|174:195|197:195|197:195|178:210|178:210|201:209|201:209|182:224|182:224|207:224,1,742.500007081032,6|0,0:0|0:0,0:0:0:0:
280,246,44178,70,0,B|280:267|280:267|291:257|291:257|291:278|291:278|303:266|303:266|305:288|305:288|316:273|316:273|320:296|320:296|330:278|330:278|336:302|336:302|345:281|345:281|353:306|353:306|360:282|360:282|371:307|371:307|374:280|374:280|388:306|388:306|389:277|389:277|405:301|405:301|403:271|403:271|420:295|420:295|416:264|416:264|435:286|435:286|428:254|428:254|449:276|449:276|438:243|438:243|461:263|461:263|446:231|446:231|471:248|471:248|453:217|453:217|478:233|478:233|458:203|458:203|484:217|484:217|460:188|460:188|486:200|486:200|460:173|460:173|487:182|487:182|458:159|458:159|485:165|485:165|454:144|454:144|480:149|480:149|448:130|448:130|473:133|473:133|440:118|440:118|464:118|464:118|430:106|430:106|452:105|452:105|419:97|419:97|440:94|440:94|406:89|406:89|425:84|425:84|393:83|393:83|422:67,1,1428.7499890995,4|0,0:0|0:0,0:0:0:0:
373,166,44531,6,0,B|377:158|377:158|364:161|364:161|364:153|364:153|353:162|353:162|349:154|349:154|345:167|345:167|338:162|338:162|340:176|340:176|332:174|332:174|341:186|341:186|333:188|333:188|346:194|346:194|340:199|340:199|355:200|355:200|352:205|352:205|365:200|365:200|364:206|364:206|373:194|373:194|377:198|377:198|378:184|378:184|382:191|382:191|381:177|381:177|385:178|385:178|376:171|376:171|380:170|380:170|373:166,1,269.999991760254,4|0,0:0|0:0,0:0:0:0:
261,142,44884,70,0,B|261:166|261:166|247:146|247:146|247:169|247:169|232:150|232:150|233:173|233:173|218:154|218:154|218:177|218:177|203:158|203:158|204:181|204:181|189:162|189:162|189:185|189:185|174:166|174:166|175:189|175:189|160:169|160:169|160:193|160:193|145:173|145:173|146:197|146:197|131:177|131:177|131:201|131:201|116:181|116:181|117:205|117:205|102:185|102:185|102:209|102:209|87:189|87:189|88:213|88:213|73:193|73:193|73:216|73:216|58:197|58:197|59:220|59:220|44:201|44:201|44:226,1,742.500007081032,6|0,0:0|0:0,0:0:0:0:
96,141,45237,6,0,B|53:101|-21:113|-21:113|28:43|122:39|122:39|108:107|165:181|165:181|181:42|313:17,1,675.000025749207,6|0,0:0|0:0,0:0:0:0:
208,36,45590,69,8,0:0:0:0:
221,70,45678,1,0,0:0:0:0:
256,145,45766,6,0,B|241:195|285:211|302:166|256:145,1,112.500004291535
394,59,45943,69,0,0:0:0:0:
420,132,46031,2,0,P|348:121|319:76,1,112.500004291535,0|2,0:0|0:0,0:0:0:0:
370,287,46208,5,0,0:0:0:0:
434,241,46296,2,0,P|418:304|407:385,1,112.500004291535,8|0,0:0|0:0,0:0:0:0:
268,282,46472,69,0,0:0:0:0:
190,271,46560,1,0,0:0:0:0:
112,258,46649,6,0,B|61:286|47:341|47:341|212:212|455:199,1,450,2|0,0:0|0:0,0:0:0:0:
438,233,47002,69,8,0:0:0:0:
424,155,47090,2,0,P|469:131|494:176,1,112.500004291535
346,17,47266,5,0,0:0:0:0:
324,92,47355,2,0,B|309:142|353:158|370:113|324:92,1,112.500004291535
500,0,47531,70,0,P|449:33|389:88,1,112.500004291535,2|0,0:0|0:0,0:0:0:0:
434,241,47708,6,0,P|312:203|95:152,1,300,8|0,0:0|0:0,0:0:0:0:
79,202,47972,1,0,0:0:0:0:
73,126,48060,70,0,B|88:102|110:89|110:89|64:93|56:144,1,112.500004291535,2|0,0:0|0:0,0:0:0:0:
197,303,48237,5,0,0:0:0:0:
149,239,48325,2,0,P|206:251|285:273,1,112.500004291535,0|8,0:0|0:0,0:0:0:0:
427,234,48502,69,0,0:0:0:0:
361,273,48590,2,0,P|325:236|360:198,1,112.500004291535
485,52,48766,6,0,P|466:105|451:159,1,112.500004291535
432,236,48943,1,2,0:0:0:0:
468,306,49031,2,0,P|517:293|508:242,1,112.500004291535,0|8,0:0|0:0,0:0:0:0:
383,124,49208,69,0,0:0:0:0:
378,110,49296,2,0,B|393:60|349:44|332:89|378:110,1,112.500004291535
399,343,49472,6,0,P|273:301|80:243,1,300,2|0,0:0|0:0,0:0:0:0:
40,229,49737,1,0,0:0:0:0:
60,308,49825,70,0,P|111:309|115:258,1,112.500004291535,8|0,0:0|0:0,0:0:0:0:
61,101,50002,5,0,0:0:0:0:
55,90,50060,69,0,0:0:0:0:
57,78,50119,5,0,0:0:0:0:
66,72,50178,70,0,P|90:132|107:191,1,112.500004291535
262,255,50355,5,2,0:0:0:0:
276,250,50443,1,0,0:0:0:0:
257,173,50531,70,0,B|268:162|206:173|187:228|187:228|155:81|308:18|308:18|270:42|250:103,1,450,8|0,0:0|0:0,0:0:0:0:
357,77,50884,6,0,B|372:127|328:143|311:98|357:77,1,112.500004291535,2|0,0:0|0:0,0:0:0:0:
334,196,51060,69,0,0:0:0:0:
348,201,51148,1,0,0:0:0:0:
418,169,51237,6,0,P|387:230|366:305,1,112.500004291535,8|0,0:0|0:0,0:0:0:0:
390,345,51413,2,0,P|441:340|447:288,1,112.500004291535
503,157,51590,69,0,0:0:0:0:
498,143,51678,1,0,0:0:0:0:
436,93,51766,5,2,0:0:0:0:
441,79,51854,1,0,0:0:0:0:
512,27,51943,70,0,B|497:77|541:93|558:48|512:27,1,112.500004291535,8|0,0:0|0:0,0:0:0:0:
286,126,52119,5,0,0:0:0:0:
208,113,52208,1,0,0:0:0:0:
182,193,52296,69,2,0:0:0:0:
181,202,52384,2,0,B|91:200|101:66|253:77|284:183|252:239,1,300
275,380,52649,5,8,0:0:0:0:
252,343,52738,1,0,0:0:0:0:
269,303,52825,70,0,P|222:322|196:277,1,112.500004291535
11,285,53002,6,0,P|76:272|144:263,1,112.500004291535
452,310,53178,2,0,P|397:318|342:330,1,112.500004291535,2|0,0:0|0:0,0:0:0:0:
285,123,53355,70,0,B|364:104|370:5|370:5|341:50|300:88|290:21|182:127|255:231,1,450,8|0,0:0|0:0,0:0:0:0:
339,191,53708,6,0,B|358:229|327:251|327:251|339:224|320:171,1,112.500004291535,2|0,0:0|0:0,0:0:0:0:
213,76,53884,69,0,0:0:0:0:
238,3,53972,2,0,B|223:53|267:69|284:24|238:3,1,112.500004291535,0|8,0:0|0:0,0:0:0:0:
159,178,54149,5,0,0:0:0:0:
85,158,54237,1,0,0:0:0:0:
69,84,54325,1,0,0:0:0:0:
123,26,54413,70,0,P|165:56|133:104,1,112.500004291535
69,339,54590,2,0,P|82:285|100:232,1,112.500004291535,2|0,0:0|0:0,0:0:0:0:
294,112,54766,6,0,P|288:163|229:159,1,112.500004291535,8|0,0:0|0:0,0:0:0:0:
152,316,54943,69,0,0:0:0:0:
165,312,55031,1,0,0:0:0:0:
205,379,55119,6,0,B|185:367|185:367|212:362|212:362|191:351|191:351|220:347|220:347|198:334|198:334|230:332|230:332|207:318|207:318|243:318|243:318|218:304|218:304|256:307|256:307|230:291|230:291|271:296|271:296|244:279|244:279|287:287|287:287|258:268|258:268|304:281|304:281|275:259|275:259|320:276|320:276|291:252|291:252|339:273|339:273|308:247|308:247|356:273|356:273|325:243|325:243|375:273|375:273|343:241|343:241|392:277|392:277|361:241|361:241|409:282|409:282|396:254|380:244|380:244|426:289|426:289|411:236,1,1158.7499447465,4|0,0:0|0:0,0:0:0:0:
477,237,55472,70,0,B|483:244|483:244|484:233|484:233|489:241|489:241|490:227|490:227|496:236|496:236|495:222|495:222|501:231|501:231|499:216|499:216|506:225|506:225|502:209|502:209|510:217|510:217|504:202|504:202|513:211|513:211|505:194|505:194|515:203|515:203|505:187|505:187|516:196|516:196|503:179|503:179|516:188|516:188|501:171|501:171|514:180|514:180|497:164|497:164|513:173|513:173|492:159|492:159|510:166|510:166|487:154|487:154|506:158|506:158|480:149|480:149|502:153|502:153|473:146|473:146|496:149|496:149|465:145|465:145|490:143|490:143|458:144|458:144|483:140|483:140|451:144|451:144|476:137|476:137|443:145|443:145|469:135|469:135|436:147|436:147|460:134|460:134|428:150|428:150|453:135|453:135|421:152|421:152|446:135|446:135|414:156|414:156|438:137|438:137|407:159|407:159|431:140|431:140|400:161|400:161|423:142|423:142|392:164|392:164|416:144|416:144|385:164|385:164|409:147|409:147|377:164|377:164|402:151|402:151|369:163|369:163|395:152|395:152|362:161|362:161|387:153|387:153|355:157|355:157|380:154|380:154|349:154|349:154|372:152|372:152|342:149|342:149|365:149|365:149|337:143|337:143|358:146|358:146|334:137|334:137|352:141|352:141|330:130|330:130|347:136|347:136|328:123|328:123|343:129|343:129|327:115|327:115|341:121|341:121|326:107|326:107|340:113|340:113|328:99|328:99|340:106|340:106|330:92|330:92|341:98|341:98|333:85|333:85|344:91|344:91|337:79|337:79|349:85|349:85|342:72|342:72|354:79|354:79|347:67|347:67|360:75|360:75|354:63|354:63|367:72|367:72|361:59|361:59|375:71|375:71|368:57|368:57|381:68|381:68|376:56|376:56|389:70|389:70|383:56|383:56|396:71|396:71|390:55,1,2250,4|0,0:0|0:0,0:0:0:0:
471,46,55825,6,0,B|465:52|465:52|478:53|478:53|476:61|476:61|490:55|490:55|491:64|491:64|499:52|499:52|504:59|504:59|507:45|507:45|513:50|513:50|508:35|508:35|516:36|516:36|506:26|506:26|513:23|513:23|499:18|499:18|504:14|504:14|488:15|488:15|492:10|492:10|480:18|480:18|476:13|476:13|472:26|472:26|469:18|469:18|467:32|467:32|463:30|463:30|470:39|470:39|466:39|466:39|471:46,1,269.999991760254,4|0,0:0|0:0,0:0:0:0:
312,44,56178,70,0,B|315:47|315:47|307:48|307:48|308:53|308:53|300:49|300:49|299:55|299:55|295:48|295:48|292:52|292:52|290:43|290:43|286:46|286:46|289:38|289:38|285:38|285:38|291:32|291:32|286:30|286:30|295:27|295:27|292:25|292:25|301:25|301:25|299:22|299:22|306:27|306:27|308:24|308:24|311:32|311:32|312:28|312:28|314:36|314:36|316:34|316:34|312:40|312:40|314:40|314:40|312:44,1,157.499995193482,4|0,0:0|0:0,0:0:0:0:
392,56,56531,5,2,0:0:0:0:
160,284,56708,70,0,P|122:133|258:15,2,300,0|8|0,0:0|0:0|0:0,0:0:0:0:
277,128,57237,6,0,P|230:158|194:218,1,112.500004291535
141,363,57413,2,0,P|90:366|86:316,1,112.500004291535,2|0,0:0|0:0,0:0:0:0:
489,303,57590,70,0,B|422:281|347:333|429:369|347:404|282:407|189:323|268:244|268:244|262:318|350:363,1,450,8|0,0:0|0:0,0:0:0:0:
347,262,57943,6,0,B|332:212|376:196|393:241|347:262,1,112.500004291535,2|0,0:0|0:0,0:0:0:0:
451,129,58119,69,0,0:0:0:0:
512,175,58208,2,0,P|491:222|445:204,1,112.500004291535,0|8,0:0|0:0,0:0:0:0:
228,124,58384,5,0,0:0:0:0:
293,166,58472,2,0,P|236:172|144:202,1,112.500004291535
0,196,58649,70,0,P|67:207|132:226,1,112.500004291535
150,357,58825,2,0,P|186:313|170:257,1,112.500004291535,2|0,0:0|0:0,0:0:0:0:
148,77,59002,6,0,B|174:23|264:18|264:18|159:112|89:345,1,450,8|0,0:0|0:0,0:0:0:0:
34,300,59355,70,0,B|12:272|-13:274|-13:274|20:300|47:343,1,150,2|0,0:0|0:0,0:0:0:0:
263,346,59531,2,0,P|207:353|152:364,1,112.500004291535
84,137,59708,5,8,0:0:0:0:
82,126,59796,1,0,0:0:0:0:
75,50,59884,70,0,P|24:41|15:91,1,112.500004291535
323,186,60060,6,0,P|254:181|255:141,1,112.500004291535
40,203,60237,2,0,P|93:187|149:176,1,112.500004291535,2|0,0:0|0:0,0:0:0:0:
379,127,60413,70,0,B|479:158|459:243|459:243|441:189|381:127|388:233|274:112|302:7,1,450,8|0,0:0|0:0,0:0:0:0:
409,9,60766,6,0,B|386:30|379:51|379:51|361:18|408:-7,1,112.500004291535,2|0,0:0|0:0,0:0:0:0:
402,217,60943,69,0,0:0:0:0:
387,293,61031,2,0,B|402:243|358:227|341:272|387:293,1,112.500004291535,0|8,0:0|0:0,0:0:0:0:
464,79,61208,5,0,0:0:0:0:
453,74,61296,2,0,P|463:137|498:182,1,112.500004291535
197,253,61472,70,0,P|256:223|328:216,1,112.500004291535
351,360,61649,2,0,P|293:344|296:284,1,112.500004291535,2|0,0:0|0:0,0:0:0:0:
138,21,61825,6,0,B|160:-32|223:-12|236:51|172:109|85:-27|2:192|122:212|122:212|94:169|111:119,1,450,8|0,0:0|0:0,0:0:0:0:
187,166,62178,70,0,B|231:138|209:97|166:119|187:166,1,112.500004291535,2|0,0:0|0:0,0:0:0:0:
67,54,62355,5,0,0:0:0:0:
0,16,62443,2,0,P|18:72|35:133,1,112.500004291535,0|8,0:0|0:0,0:0:0:0:
73,281,62619,69,0,0:0:0:0:
0,304,62708,2,0,P|-21:248|34:232,1,112.500004291535
272,336,62884,6,0,P|241:362|193:323,1,112.500004291535
7,384,63060,2,0,P|55:366|133:343,1,112.500004291535,2|0,0:0|0:0,0:0:0:0:
353,237,63237,70,0,B|293:166|402:81|499:205|443:300|371:318|371:318|346:252|242:240,1,450,8|0,0:0|0:0,0:0:0:0:
280,330,63590,6,0,B|324:358|302:399|259:377|280:330,1,112.500004291535,2|0,0:0|0:0,0:0:0:0:
268,165,63766,69,0,0:0:0:0:
202,204,63855,2,0,P|173:155|236:121,1,112.500004291535,0|8,0:0|0:0,0:0:0:0:
136,0,64032,6,0,P|191:-3|211:45,1,112.500004291535
286,6,64208,69,0,0:0:0:0:
356,41,64297,2,0,P|335:88|268:60,1,112.500004291535
20,107,64472,2,0,P|87:85|147:75,1,112.500004291535,2|0,0:0|0:0,0:0:0:0:
421,177,64649,6,0,P|217:84|0:26,1,450,8|0,0:0|0:0,0:0:0:0:
0,25,65002,70,0,B|-44:-3|-22:-44|21:-22|0:25,1,112.500004291535,2|0,0:0|0:0,0:0:0:0:
134,155,65178,5,0,0:0:0:0:
204,118,65266,2,0,P|177:169|168:235,1,112.500004291535,0|8,0:0|0:0,0:0:0:0:
6,229,65443,69,0,0:0:0:0:
45,298,65531,2,0,P|95:269|80:221,1,112.500004291535
128,77,65708,6,0,P|67:101|72:166,1,112.500004291535
165,315,65884,2,0,P|219:289|281:273,1,112.500004291535,2|0,0:0|0:0,0:0:0:0:
284,95,66060,70,0,P|296:156|330:225,1,112.500004291535,8|0,0:0|0:0,0:0:0:0:
355,282,66237,5,0,0:0:0:0:
431,298,66325,1,0,0:0:0:0:
507,316,66413,69,2,0:0:0:0:
296,363,66555,1,0,0:0:0:0:
455,374,66696,5,0,0:0:0:0:
503,162,66838,1,0,0:0:0:0:
430,290,66978,69,0,0:0:0:0:
450,87,67119,5,0,0:0:0:0:
185,23,67296,1,0,0:0:0:0:
480,0,67472,70,0,P|258:36|39:84,1,450
31,86,67825,54,0,B|98:-8|284:28|277:149|277:149|155:173|191:287|191:287|192:240|253:169|251:265|299:139,1,675.000025749207,6|0,0:0|0:0,0:0:0:0:
275,284,68178,6,0,P|226:189|111:143,1,225.000008583069,8|0,0:0|0:0,0:0:0:0:
52,171,68443,1,0,0:0:0:0:
14,242,68531,70,0,P|84:247|120:194,1,112.500004291535
380,195,68708,2,0,P|350:150|296:142,1,112.500004291535,2|0,0:0|0:0,0:0:0:0:
127,342,68884,6,0,P|172:312|180:258,1,112.500004291535,8|0,0:0|0:0,0:0:0:0:
368,45,69060,2,0,P|314:34|271:66,1,112.500004291535
368,284,69237,70,0,P|246:221|188:74,1,300,2|0,0:0|0:0,0:0:0:0:
215,5,69502,1,0,0:0:0:0:
136,13,69590,6,0,P|98:69|135:128,1,112.500004291535,8|0,0:0|0:0,0:0:0:0:
300,140,69766,2,0,P|342:192|409:174,1,112.500004291535
43,147,69943,70,0,P|91:194|156:167,1,112.500004291535
410,118,70119,1,2,0:0:0:0:
462,152,70208,1,0,0:0:0:0:
485,213,70296,6,0,B|408:239|482:134|507:185|578:227|585:55|435:29|269:140|416:319,1,450,8|0,0:0|0:0,0:0:0:0:
402,304,70649,70,0,B|491:324|442:445|346:402|288:352|303:308|303:308|327:292|269:164|40:217|74:373|199:433|260:320|201:254,1,652.50001991272,2|0,0:0|0:0,0:0:0:0:
214,384,71002,6,0,P|242:263|301:34,1,337.500012874604,8|0,0:0|0:0,0:0:0:0:
410,118,71355,70,0,P|385:168|365:221,1,112.500004291535
134,111,71531,2,0,P|157:161|179:213,1,112.500004291535,2|0,0:0|0:0,0:0:0:0:
477,217,71708,6,0,P|440:259|407:305,1,112.500004291535,8|0,0:0|0:0,0:0:0:0:
62,200,71884,2,0,P|97:242|132:287,1,112.500004291535
309,384,72060,70,0,P|277:229|255:69,1,300,2|0,0:0|0:0,0:0:0:0:
196,47,72325,1,0,0:0:0:0:
266,11,72413,6,0,P|323:38|332:90,1,112.500004291535,8|0,0:0|0:0,0:0:0:0:
212,301,72590,2,0,P|185:358|133:367,1,112.500004291535
437,80,72766,70,0,P|419:140|370:158,1,112.500004291535
132,287,72943,1,2,0:0:0:0:
120,283,73031,1,0,0:0:0:0:
36,279,73119,6,0,B|25:334|50:387|157:263|75:520|-160:436|-53:55|227:147|143:211,1,450,8|0,0:0|0:0,0:0:0:0:
79,131,73472,70,0,B|21:46|-90:162|5:294|225:321|238:176|238:176|222:134|251:89|324:95|324:95|277:115|270:154,1,675.000025749207,2|0,0:0|0:0,0:0:0:0:
373,154,73825,6,0,P|264:125|154:99,1,225.000008583069,8|0,0:0|0:0,0:0:0:0:
99,45,74090,1,0,0:0:0:0:
91,37,74178,70,0,P|147:24|214:11,1,112.500004291535
247,254,74355,2,0,P|301:241|356:230,1,112.500004291535,2|0,0:0|0:0,0:0:0:0:
402,76,74531,6,0,B|420:29|505:8|505:8|406:160|382:345,1,450,8|0,0:0|0:0,0:0:0:0:
461,328,74884,70,0,P|454:379|402:381,1,112.500004291535,2|0,0:0|0:0,0:0:0:0:
234,352,75060,5,0,0:0:0:0:
312,338,75149,2,0,B|288:322|270:330|270:330|301:341|332:366,1,112.500004291535,0|8,0:0|0:0,0:0:0:0:
74,310,75325,69,0,0:0:0:0:
1,328,75413,2,0,P|9:379|69:375,1,112.500004291535
161,384,75590,6,0,P|153:323|130:234,1,112.500004291535
7,93,75766,2,0,P|62:90|109:120,1,112.500004291535,2|0,0:0|0:0,0:0:0:0:
71,302,75943,70,0,B|50:243|-21:250|-21:250|41:141|176:127|176:127|122:162|126:223,1,450,8|0,0:0|0:0,0:0:0:0:
211,196,76296,6,0,B|187:242|228:266|252:224|211:196,1,112.500004291535,2|0,0:0|0:0,0:0:0:0:
176,47,76472,69,0,0:0:0:0:
250,69,76560,2,0,B|278:100|253:130|253:130|258:100|226:54,1,112.500004291535,0|8,0:0|0:0,0:0:0:0:
416,129,76737,5,0,0:0:0:0:
434,205,76825,1,0,0:0:0:0:
410,245,76913,1,0,0:0:0:0:
398,249,77002,2,0,P|354:210|301:192,1,112.500004291535
381,22,77178,2,0,P|353:82|332:132,1,112.500004291535,2|0,0:0|0:0,0:0:0:0:
297,274,77355,70,0,B|282:341|311:378|311:378|331:252|486:86,1,450,8|0,0:0|0:0,0:0:0:0:
466,13,77708,5,2,0:0:0:0:
512,178,77884,1,0,0:0:0:0:
297,192,78060,70,0,P|175:206|55:227,1,225.000008583069,8|0,0:0|0:0,0:0:0:0:
18,165,78325,1,0,0:0:0:0:
59,127,78413,1,0,0:0:0:0:
4,71,78502,1,0,0:0:0:0:
30,0,78590,1,2,0:0:0:0:
324,97,78766,6,0,B|241:84|246:-35|402:-18|435:76|397:140|397:140|376:258|473:187|408:131|289:166,1,450,8|0,0:0|0:0,0:0:0:0:
306,190,79119,70,0,B|362:199|411:95|101:25|47:208|151:302|203:240|203:240|206:197|269:178|409:218|287:387|271:287,1,675.000025749207,6|0,0:0|0:0,0:0:0:0:
276,285,79472,6,0,P|243:170|182:32,1,225.000008583069,8|0,0:0|0:0,0:0:0:0:
120,85,79737,1,0,0:0:0:0:
154,13,79825,70,0,P|216:23|283:39,1,112.500004291535
409,6,80002,2,0,P|461:42|503:98,1,112.500004291535,2|0,0:0|0:0,0:0:0:0:
22,153,80178,6,0,P|59:116|149:86,1,112.500004291535,8|0,0:0|0:0,0:0:0:0:
344,71,80355,2,0,P|328:124|314:179,1,112.500004291535
62,22,80531,70,0,P|129:155|181:296,1,300,2|0,0:0|0:0,0:0:0:0:
164,369,80796,1,0,0:0:0:0:
81,368,80884,6,0,P|70:311|118:330,1,112.500004291535,8|0,0:0|0:0,0:0:0:0:
346,379,81060,2,0,P|292:363|237:349,1,112.500004291535
14,160,81237,70,0,P|52:198|88:239,1,97.4999955368044
369,239,81413,2,0,P|315:251|262:270,1,112.500004291535,2|0,0:0|0:0,0:0:0:0:
313,59,81590,6,0,B|295:108|231:112|193:76|181:161|213:201|213:201|207:168|246:130|246:130|325:108|419:92,1,472.499985580445,8|0,0:0|0:0,0:0:0:0:
420,98,81943,70,0,B|358:73|370:-66|608:-5|520:227|453:179|453:179|426:158|322:174|352:412|518:367|502:201|302:243,1,675.000025749207,2|0,0:0|0:0,0:0:0:0:
512,250,82296,6,0,P|400:223|275:198,1,225.000008583069,8|0,0:0|0:0,0:0:0:0:
216,209,82560,1,0,0:0:0:0:
150,250,82649,70,0,P|207:258|280:275,1,112.500004291535
306,23,82825,2,0,P|322:78|339:151,1,112.500004291535,2|0,0:0|0:0,0:0:0:0:
220,337,83002,6,0,P|275:318|348:295,1,112.500004291535,8|0,0:0|0:0,0:0:0:0:
424,99,83178,2,0,P|407:164|390:243,1,112.500004291535
316,384,83355,70,0,P|281:238|242:93,1,300,2|0,0:0|0:0,0:0:0:0:
222,20,83619,1,0,0:0:0:0:
141,15,83708,6,0,P|120:61|166:82,1,112.500004291535,8|0,0:0|0:0,0:0:0:0:
412,7,83884,2,0,P|355:22|284:43,1,112.500004291535
72,151,84060,70,0,P|126:163|189:182,1,112.500004291535
457,165,84237,1,2,0:0:0:0:
459,153,84325,1,0,0:0:0:0:
461,75,84413,6,0,B|496:46|494:0|494:0|552:151|442:213|442:213|428:141|366:104,1,450,8|0,0:0|0:0,0:0:0:0:
281,251,84766,70,0,B|210:317|322:417|481:284|339:107|270:174|270:174|246:195|178:160|163:0|362:-82|354:71|297:30,1,675.000025749207,2|0,0:0|0:0,0:0:0:0:
304,37,85119,6,0,P|334:145|360:254,1,225.000008583069,8|0,0:0|0:0,0:0:0:0:
442,293,85384,1,0,0:0:0:0:
512,259,85472,70,0,P|490:313|468:381,1,112.500004291535
167,230,85649,2,0,P|223:244|275:258,1,112.500004291535,2|0,0:0|0:0,0:0:0:0:
441,201,85825,6,0,B|496:189|531:204|531:204|348:265|157:342,1,450,8|0,0:0|0:0,0:0:0:0:
119,303,86178,70,0,B|108:276|88:272|88:272|108:299|119:337,1,112.500004291535,2|0,0:0|0:0,0:0:0:0:
166,148,86355,5,0,0:0:0:0:
133,79,86443,2,0,P|118:133|100:186,1,112.500004291535,0|8,0:0|0:0,0:0:0:0:
0,247,86619,69,0,0:0:0:0:
22,321,86708,2,0,B|2:369|46:388|65:344|22:321,1,112.500004291535
167,230,86884,6,0,P|220:211|241:139,1,112.500004291535
5,77,87060,2,0,P|-8:129|24:172,1,112.500004291535,2|0,0:0|0:0,0:0:0:0:
300,108,87237,70,0,B|380:106|382:-72|143:-4|174:160|284:206|284:206|310:170|370:184,1,450,8|0,0:0|0:0,0:0:0:0:
342,258,87590,6,0,B|366:304|325:328|301:286|342:258,1,112.500004291535,2|0,0:0|0:0,0:0:0:0:
472,154,87766,69,0,0:0:0:0:
488,78,87855,2,0,P|425:75|411:136,1,112.500004291535,0|8,0:0|0:0,0:0:0:0:
391,372,88031,5,0,0:0:0:0:
466,350,88119,1,0,0:0:0:0:
450,301,88208,1,0,0:0:0:0:
444,310,88296,70,0,P|424:252|408:184,1,112.500004291535
228,145,88472,2,0,P|283:158|358:185,1,112.500004291535,2|0,0:0|0:0,0:0:0:0:
484,168,88649,6,0,L|25:308,1,450,8|0,0:0|0:0,0:0:0:0:
0,366,89002,38,0,P|32:375|77:386,10,56.2500021457673,2|0|0|0|0|0|0|0|0|0|0,0:0|0:0|0:0|0:0|0:0|0:0|0:0|0:0|0:0|0:0|0:0,0:0:0:0:
17,224,89531,6,0,P|9:196|2:169,6,56.2500021457673,2|0|0|0|0|0|0,0:0|0:0|0:0|0:0|0:0|0:0|0:0,0:0:0:0:
53,299,89884,69,2,0:0:0:0:
119,127,90060,6,0,P|124:203|93:255,1,112.500004291535,8|0,0:0|0:0,0:0:0:0:
134,308,90237,2,0,P|192:290|276:267,1,112.500004291535
418,185,90413,70,0,B|416:145|361:119|361:119|511:132|537:269|537:269|381:221|187:173,1,675.000025749207,6|0,0:0|0:0,0:0:0:0:
210,179,90766,5,8,0:0:0:0:
309,320,90943,69,0,0:0:0:0:
345,311,91031,1,0,0:0:0:0:
405,363,91119,1,0,0:0:0:0:
439,320,91208,1,0,0:0:0:0:
504,273,91296,6,0,L|512:299,2,28.1250010728836,2|0|0,0:0|0:0|0:0,0:0:0:0:
240,378,91472,70,0,L|-2:327,1,225.000008583069,8|0,0:0|0:0,0:0:0:0:
13,330,91737,1,0,0:0:0:0:
94,308,91825,5,2,0:0:0:0:
0,64,92002,70,0,L|27:195,1,112.500004291535
38,248,92178,1,8,0:0:0:0:
84,19,92355,5,0,0:0:0:0:
122,40,92443,1,0,0:0:0:0:
197,21,92531,1,0,0:0:0:0:
224,73,92619,1,0,0:0:0:0:
154,117,92708,70,0,L|131:162,2,28.1250010728836,2|0|0,0:0|0:0|0:0,0:0:0:0:
496,40,92884,6,0,P|370:40|284:139,1,225.000008583069,8|0,0:0|0:0,0:0:0:0:
297,109,93149,1,0,0:0:0:0:
371,148,93237,69,2,0:0:0:0:
148,220,93413,6,0,P|214:193|231:133,1,112.500004291535
224,80,93590,1,8,0:0:0:0:
451,122,93766,69,0,0:0:0:0:
478,139,93855,1,0,0:0:0:0:
470,218,93943,1,0,0:0:0:0:
496,264,94031,1,0,0:0:0:0:
420,280,94119,6,0,L|403:327,2,28.1250010728836,2|0|0,0:0|0:0|0:0,0:0:0:0:
135,73,94296,70,0,L|194:323,1,225.000008583069,8|0,0:0|0:0,0:0:0:0:
189,300,94560,1,0,0:0:0:0:
165,377,94649,5,2,0:0:0:0:
391,200,94825,70,0,L|276:172,1,112.500004291535
208,156,95002,1,8,0:0:0:0:
249,358,95178,5,0,0:0:0:0:
269,373,95266,1,0,0:0:0:0:
344,353,95355,1,0,0:0:0:0:
398,368,95443,1,0,0:0:0:0:
486,384,95531,70,0,L|468:332,2,28.1250010728836,2|0|0,0:0|0:0|0:0,0:0:0:0:
469,60,95708,6,0,L|427:286,1,225.000008583069,8|0,0:0|0:0,0:0:0:0:
426,288,95972,1,0,0:0:0:0:
490,240,96060,69,2,0:0:0:0:
215,19,96237,6,0,L|238:142,1,112.500004291535
253,204,96413,1,8,0:0:0:0:
407,123,96590,69,0,0:0:0:0:
388,118,96678,1,0,0:0:0:0:
348,48,96766,1,0,0:0:0:0:
310,87,96855,1,0,0:0:0:0:
326,167,96943,6,0,L|335:209,2,28.1250010728836,2|0|0,0:0|0:0|0:0,0:0:0:0:
31,167,97119,70,0,L|257:214,1,225.000008583069,8|0,0:0|0:0,0:0:0:0:
258,216,97384,1,0,0:0:0:0:
183,237,97472,5,2,0:0:0:0:
492,237,97649,70,0,L|363:266,1,112.500004291535
310,282,97825,1,8,0:0:0:0:
203,158,98002,5,0,0:0:0:0:
209,133,98090,1,0,0:0:0:0:
147,87,98178,1,0,0:0:0:0:
188,42,98266,1,0,0:0:0:0:
264,56,98355,70,0,L|271:83,2,28.1250010728836,2|0|0,0:0|0:0|0:0,0:0:0:0:
232,303,98531,6,0,P|121:330|42:208,1,225.000008583069,8|0,0:0|0:0,0:0:0:0:
45,253,98796,1,0,0:0:0:0:
119,231,98884,69,2,0:0:0:0:
288,370,99060,6,0,P|324:334|408:333,1,112.500004291535
449,362,99237,1,8,0:0:0:0:
299,259,99413,69,0,0:0:0:0:
288,234,99502,1,0,0:0:0:0:
345,181,99590,1,0,0:0:0:0:
357,127,99678,1,0,0:0:0:0:
288,85,99766,6,0,L|272:40,2,28.1250010728836,2|0|0,0:0|0:0|0:0,0:0:0:0:
454,231,99943,70,0,L|174:152,1,225.000008583069,8|0,0:0|0:0,0:0:0:0:
231,168,100208,1,0,0:0:0:0:
199,95,100296,5,2,0:0:0:0:
0,290,100472,70,0,L|118:256,1,112.500004291535
178,235,100649,1,8,0:0:0:0:
63,58,100825,5,0,0:0:0:0:
57,84,100913,1,0,0:0:0:0:
19,153,101002,1,0,0:0:0:0:
44,198,101090,1,0,0:0:0:0:
113,157,101178,70,0,L|127:107,2,28.1250010728836,2|0|0,0:0|0:0|0:0,0:0:0:0:
18,367,101355,6,0,L|145:328,1,127.50000243187,8|0,0:0|0:0,0:0:0:0:
205,111,101531,2,0,L|166:244,1,112.500004291535
198,384,101708,70,0,P|240:345|210:292,1,112.500004291535,2|0,0:0|0:0,0:0:0:0:
292,78,101884,6,0,L|221:323,1,225.000008583069,0|8,0:0|0:0,0:0:0:0:
220,293,102149,1,0,0:0:0:0:
295,271,102237,69,0,0:0:0:0:
205,111,102413,5,0,0:0:0:0:
177,63,102502,1,0,0:0:0:0:
238,13,102590,70,0,L|284:0,2,28.1250010728836,2|0|0,0:0|0:0|0:0,0:0:0:0:
337,198,102766,6,0,P|443:196|489:99,1,225.000008583069,8|0,0:0|0:0,0:0:0:0:
488,90,103031,1,0,0:0:0:0:
411,110,103119,69,2,0:0:0:0:
295,271,103296,6,0,L|153:247,1,112.500004291535
108,240,103472,1,8,0:0:0:0:
337,341,103649,69,0,0:0:0:0:
367,329,103737,1,0,0:0:0:0:
443,352,103825,1,0,0:0:0:0:
480,307,103913,1,0,0:0:0:0:
416,263,104002,6,0,L|406:216,2,28.1250010728836,2|0|0,0:0|0:0|0:0,0:0:0:0:
252,344,104178,70,0,L|30:306,1,225.000008583069,8|0,0:0|0:0,0:0:0:0:
24,305,104443,1,0,0:0:0:0:
78,366,104531,5,2,0:0:0:0:
295,271,104708,70,0,P|329:233|304:173,1,112.500004291535
271,114,104884,1,8,0:0:0:0:
51,229,105060,5,0,0:0:0:0:
83,236,105149,1,0,0:0:0:0:
134,297,105237,1,0,0:0:0:0:
180,266,105325,1,0,0:0:0:0:
241,214,105413,70,0,L|231:167,2,28.1250010728836,2|0|0,0:0|0:0|0:0,0:0:0:0:
128,51,105590,6,0,L|186:318,1,225.000008583069,8|0,0:0|0:0,0:0:0:0:
180,278,105855,1,0,0:0:0:0:
199,355,105943,69,2,0:0:0:0:
105,140,106119,6,0,P|51:126|19:82,1,112.500004291535
54,12,106296,1,8,0:0:0:0:
177,169,106472,69,0,0:0:0:0:
190,152,106560,1,0,0:0:0:0:
246,95,106649,1,0,0:0:0:0:
228,42,106737,1,0,0:0:0:0:
150,48,106825,6,0,L|155:75,2,28.1250010728836,2|0|0,0:0|0:0|0:0,0:0:0:0:
241,214,107002,70,0,P|314:243|395:131,1,225.000008583069,8|0,0:0|0:0,0:0:0:0:
396,135,107266,1,0,0:0:0:0:
319,148,107355,5,2,0:0:0:0:
189,284,107531,70,0,L|70:261,1,112.500004291535
0,251,107708,1,8,0:0:0:0:
261,325,107884,5,0,0:0:0:0:
279,318,107972,1,0,0:0:0:0:
347,360,108060,1,0,0:0:0:0:
371,312,108149,1,0,0:0:0:0:
443,266,108237,70,0,L|470:261,2,28.1250010728836,2|0|0,0:0|0:0|0:0,0:0:0:0:
192,384,108413,6,0,L|141:164,1,225.000008583069,8|0,0:0|0:0,0:0:0:0:
139,157,108678,1,0,0:0:0:0:
82,102,108766,69,2,0:0:0:0:
270,236,108943,6,0,L|294:126,1,112.500004291535
312,53,109119,1,8,0:0:0:0:
118,236,109296,69,0,0:0:0:0:
113,259,109384,1,0,0:0:0:0:
61,320,109472,1,0,0:0:0:0:
73,369,109560,1,0,0:0:0:0:
143,335,109649,6,0,L|149:363,2,28.1250010728836,2|0|0,0:0|0:0|0:0,0:0:0:0:
418,212,109825,70,0,L|201:272,1,225.000008583069,8|0,0:0|0:0,0:0:0:0:
196,275,110090,1,0,0:0:0:0:
266,312,110178,5,2,0:0:0:0:
339,189,110355,70,0,L|372:67,1,112.500004291535
386,5,110531,1,8,0:0:0:0:
418,212,110708,5,0,0:0:0:0:
421,234,110796,1,0,0:0:0:0:
379,303,110884,1,0,0:0:0:0:
416,342,110972,1,0,0:0:0:0:
485,293,111060,70,0,L|513:299,2,28.1250010728836,2|0|0,0:0|0:0|0:0,0:0:0:0:
335,375,111237,6,0,P|255:327|286:181,1,225.000008583069,8|0,0:0|0:0,0:0:0:0:
164,79,111590,5,2,0:0:0:0:
139,148,111678,1,0,0:0:0:0:
162,180,111766,1,0,0:0:0:0:
175,183,111855,1,0,0:0:0:0:
233,126,111943,6,0,L|259:43,1,75,8|0,0:0|0:0,0:0:0:0:
77,198,112119,69,2,0:0:0:0:
76,212,112207,1,0,0:0:0:0:
87,211,112295,1,0,0:0:0:0:
85,219,112383,1,0,0:0:0:0:
159,260,112472,5,2,0:0:0:0:
163,278,112560,1,0,0:0:0:0:
146,271,112648,1,0,0:0:0:0:
148,287,112736,1,0,0:0:0:0:
71,299,112825,70,0,L|-12:273,1,75,8|0,0:0|0:0,0:0:0:0:
211,339,113002,21,0,0:0:0:0:
401,250,113178,5,0,0:0:0:0:
463,187,113296,69,0,0:0:0:0:
403,99,113413,5,0,0:0:0:0:
466,36,113531,69,0,0:0:0:0:
398,260,113708,1,0,0:0:0:0:
55,156,114060,6,0,P|-13:109|23:35,1,150,8|0,0:0|0:0,0:0:0:0:
61,1,114237,2,0,L|83:72,1,75
153,276,114413,2,0,B|107:312|87:344|87:344|21:184|184:99|184:99|158:165|195:205|195:205|238:121|370:115,1,675.000025749207,6|0,0:0|0:0,0:0:0:0:
261,86,114766,69,8,0:0:0:0:
250,169,114855,1,0,0:0:0:0:
285,213,114943,1,0,0:0:0:0:
311,220,115031,1,0,0:0:0:0:
320,215,115119,6,0,P|273:244|253:298,1,112.500004291535
183,361,115296,2,0,P|268:323|348:295,1,172.500003290176,2|0,0:0|0:0,0:0:0:0:
440,121,115472,70,0,P|419:173|403:227,1,112.500004291535,8|0,0:0|0:0,0:0:0:0:
350,381,115649,2,0,P|401:361|425:312,1,112.500004291535
276,86,115825,6,0,B|255:48|197:42|197:42|276:116|311:212,1,300,2|0,0:0|0:0,0:0:0:0:
310,211,116090,1,0,0:0:0:0:
229,210,116178,70,0,P|179:168|175:120,1,112.500004291535,8|0,0:0|0:0,0:0:0:0:
396,24,116355,6,0,P|337:173|299:328,2,300,0|0|2,0:0|0:0|0:0,0:0:0:0:
159,122,116884,69,8,0:0:0:0:
80,134,116972,1,0,0:0:0:0:
68,45,117060,5,0,0:0:0:0:
63,59,117149,1,0,0:0:0:0:
5,111,117237,70,0,P|36:160|74:234,1,112.500004291535,2|0,0:0|0:0,0:0:0:0:
76,359,117413,5,0,0:0:0:0:
0,343,117502,2,0,P|1:289|63:305,1,112.500004291535,0|8,0:0|0:0,0:0:0:0:
268,188,117678,70,0,P|254:163|257:135,1,56.2500021457673
258,127,117766,2,0,P|215:191|191:248,1,112.500004291535
194,304,117943,2,0,P|125:280|146:234,1,112.500004291535
159,122,118119,6,0,L|142:73,2,28.1250010728836,2|0|0,0:0|0:0|0:0,0:0:0:0:
244,371,118296,70,0,P|355:335|326:161,1,300,8|0,0:0|0:0,0:0:0:0:
340,173,118560,1,0,0:0:0:0:
286,230,118649,6,0,B|265:277|306:299|329:256|286:230,1,112.500004291535,2|0,0:0|0:0,0:0:0:0:
434,152,118825,69,0,0:0:0:0:
421,105,118913,1,0,0:0:0:0:
331,94,119002,6,0,B|332:51|369:46|369:46|346:64|338:120,1,112.500004291535,8|0,0:0|0:0,0:0:0:0:
502,194,119178,70,0,P|469:241|406:205,1,112.500004291535
162,100,119355,2,0,P|216:122|268:148,1,112.500004291535
501,106,119531,6,0,L|526:63,2,28.1250010728836,2|0|0,0:0|0:0|0:0,0:0:0:0:
400,319,119708,70,0,P|378:237|350:157,1,150,8|0,0:0|0:0,0:0:0:0:
228,46,119884,5,0,0:0:0:0:
181,7,119972,1,0,0:0:0:0:
104,7,120060,69,2,0:0:0:0:
65,35,120149,2,0,P|119:21|175:10,1,112.500004291535
235,126,120325,5,0,0:0:0:0:
286,184,120413,2,0,P|329:155|309:106,1,112.500004291535,8|0,0:0|0:0,0:0:0:0:
289,0,120590,70,0,P|250:146|217:333,2,300,0|0|2,0:0|0:0|0:0,0:0:0:0:
186,94,121119,6,0,P|171:150|159:212,1,112.500004291535,8|0,0:0|0:0,0:0:0:0:
308,264,121296,69,0,0:0:0:0:
361,276,121384,1,0,0:0:0:0:
386,350,121472,5,2,0:0:0:0:
438,291,121560,1,0,0:0:0:0:
478,281,121649,1,0,0:0:0:0:
504,292,121737,1,0,0:0:0:0:
510,299,121825,70,0,P|390:326|215:378,2,300,8|0|0,0:0|0:0|0:0,0:0:0:0:
512,384,122266,6,0,L|473:373,1,22.4999993133545,0|2,0:0|0:0,0:0:0:0:
477,169,122443,69,0,0:0:0:0:
435,102,122531,2,0,P|423:162|409:241,1,112.500004291535,8|0,0:0|0:0,0:0:0:0:
81,287,122708,6,0,P|164:297|211:239,1,150
204,241,122884,2,0,P|122:232|75:290,1,150,2|0,0:0|0:0,0:0:0:0:
297,107,123060,69,0,0:0:0:0:
285,55,123149,1,0,0:0:0:0:
364,59,123237,6,0,P|351:115|337:192,1,112.500004291535,8|0,0:0|0:0,0:0:0:0:
305,276,123413,70,0,P|373:285|406:222,1,150
205,112,123590,2,0,P|205:182|272:205,1,150
507,234,123766,6,0,P|500:163|431:146,1,150
208,29,123943,2,0,B|223:-21|179:-37|162:8|208:29,6,112.500004291535,8|0|0|0|0|0|0,0:0|0:0|0:0|0:0|0:0|0:0|0:0,0:0:0:0:
30,25,124296,70,0,P|82:47|132:74,1,112.500004291535,2|0,0:0|0:0,0:0:0:0:
367,93,124472,5,0,0:0:0:0:
345,20,124560,2,0,P|286:43|307:98,1,112.500004291535,0|8,0:0|0:0,0:0:0:0:
138,151,124737,69,0,0:0:0:0:
210,116,124825,2,0,P|188:168|170:222,1,112.500004291535
116,307,125002,5,0,0:0:0:0:
115,295,125060,69,0,0:0:0:0:
122,289,125119,5,0,0:0:0:0:
130,292,125178,70,0,P|95:283|93:215,1,112.500004291535,2|0,0:0|0:0,0:0:0:0:
26,38,125355,6,0,P|50:97|64:160,1,112.500004291535,8|0,0:0|0:0,0:0:0:0:
55,149,125531,2,0,P|41:94|19:42,1,112.500004291535
350,14,125708,70,0,P|284:147|222:335,1,300,2|0,0:0|0:0,0:0:0:0:
231,297,125972,1,0,0:0:0:0:
211,376,126060,6,0,P|251:387|283:339,1,93.75,8|0,0:0|0:0,0:0:0:0:
215,110,126237,2,0,P|233:168|248:238,1,112.500004291535
427,250,126413,70,0,P|370:264|279:293,1,112.500004291535
45,351,126590,2,0,P|98:334|153:321,1,112.500004291535,2|0,0:0|0:0,0:0:0:0:
360,377,126766,6,0,P|324:363|289:350,1,75,8|0,0:0|0:0,0:0:0:0:
97,218,126943,2,0,P|132:231|167:244,1,75
452,333,127119,69,2,0:0:0:0:
441,337,127178,5,0,0:0:0:0:
438,347,127237,69,0,0:0:0:0:
442,357,127296,6,0,P|498:320|509:272,1,112.500004291535
400,176,127472,69,8,0:0:0:0:
389,127,127560,1,0,0:0:0:0:
471,140,127649,6,0,P|452:193|437:247,1,112.500004291535
171,191,127825,2,0,P|186:136|204:83,1,112.500004291535
346,31,128002,69,2,0:0:0:0:
429,43,128090,2,0,P|478:71|469:127,1,120,0|8,0:0|0:0,0:0:0:0:
285,97,128266,2,0,P|273:152|322:180,1,120
324,255,128443,5,0,0:0:0:0:
334,333,128531,2,0,P|377:179|423:39,1,300,2|0,0:0|0:0,0:0:0:0:
429,43,128796,1,0,0:0:0:0:
375,58,128884,69,8,0:0:0:0:
333,27,128972,1,0,0:0:0:0:
333,15,129060,6,0,P|351:68|367:122,1,112.500004291535
419,314,129237,2,0,P|390:357|340:340,1,112.500004291535
450,127,129413,2,0,P|431:184|413:247,1,112.500004291535,2|0,0:0|0:0,0:0:0:0:
191,372,129590,70,0,P|56:283|151:174,1,300,8|0,0:0|0:0,0:0:0:0:
32,207,129855,1,0,0:0:0:0:
115,188,129943,6,0,P|134:245|152:308,1,112.500004291535,2|0,0:0|0:0,0:0:0:0:
334,258,130119,2,0,P|341:230|350:204,2,56.2500021457673
143,102,130296,69,8,0:0:0:0:
126,106,130384,1,0,0:0:0:0:
47,113,130472,6,0,P|45:47|94:55,1,112.500004291535
367,122,130649,2,0,P|311:133|257:147,1,112.500004291535
38,200,130825,70,0,P|176:151|155:21,1,300,2|8,0:0|0:0,0:0:0:0:
154,15,131090,6,0,P|165:64|215:57,1,112.500004291535
207,242,131266,69,0,0:0:0:0:
226,317,131355,2,0,P|253:204|300:26,1,300,2|0,0:0|0:0,0:0:0:0:
305,19,131619,1,0,0:0:0:0:
390,16,131708,6,0,P|371:79|352:154,1,112.500004291535,8|0,0:0|0:0,0:0:0:0:
176,384,131884,70,0,P|132:336|159:284,1,112.500004291535
261,115,132060,2,0,P|282:178|304:252,1,112.500004291535
235,320,132237,2,0,P|220:265|204:211,1,112.500004291535
71,113,132413,6,0,P|128:125|180:138,1,112.500004291535,8|0,0:0|0:0,0:0:0:0:
425,313,132590,69,0,0:0:0:0:
392,243,132678,1,0,0:0:0:0:
444,183,132766,6,0,B|468:205|470:243|470:243|523:222|556:119|489:77|489:77|501:111|484:148,1,300,2|0,0:0|0:0,0:0:0:0:
420,107,133031,1,0,0:0:0:0:
339,91,133119,70,0,P|319:138|364:160,1,112.500004291535,8|0,0:0|0:0,0:0:0:0:
433,315,133296,6,0,P|409:183|367:-6,1,300
297,15,133560,1,0,0:0:0:0:
256,53,133649,1,2,0:0:0:0:
189,15,133737,1,0,0:0:0:0:
181,96,133825,70,0,B|206:167|160:207|160:207|122:158|31:147,1,225.000008583069,8|0,0:0|0:0,0:0:0:0:
42,38,134090,5,0,0:0:0:0:
0,104,134178,70,0,P|66:78|106:83,1,112.500004291535,2|0,0:0|0:0,0:0:0:0:
296,139,134355,5,0,0:0:0:0:
299,154,134443,1,0,0:0:0:0:
366,203,134531,70,0,P|318:231|262:233,1,112.500004291535,8|0,0:0|0:0,0:0:0:0:
40,264,134708,6,0,P|74:196|157:149,1,150
190,92,134884,70,0,B|247:55|218:1|162:30|190:92,1,150
223,319,135060,6,0,P|233:245|205:176,1,150,2|0,0:0|0:0,0:0:0:0:
187,100,135237,70,0,B|167:124|144:126|144:126|158:163|156:224|156:224|185:170|212:145|212:145|195:129|187:100,1,300,8|0,0:0|0:0,0:0:0:0:
464,171,135590,6,0,B|529:239|469:304|469:304|475:239|415:240|425:169|425:169|425:114|360:75|279:106|279:106|327:156|303:214|303:214|328:190|328:190|310:209|310:209|328:189|328:189|303:212|303:212|328:188|328:188|303:215|303:215|362:158,1,692.999986253357,6|0,0:0|0:0,0:0:0:0:
364,264,135943,70,0,B|357:308|377:345|377:345|392:239|532:29,1,360,8|0,0:0|0:0,0:0:0:0:
512,18,136296,6,0,P|461:1|430:43,1,112.500004291535
335,184,136472,2,0,P|280:174|206:167,1,112.500004291535
81,86,136649,70,0,B|67:49|25:30|25:30|155:-27|210:91|210:91|127:114|145:213,1,450,8|0,0:0|0:0,0:0:0:0:
218,168,137002,6,0,B|263:190|247:232|202:216|218:168,1,112.500004291535,2|0,0:0|0:0,0:0:0:0:
0,204,137178,69,0,0:0:0:0:
13,128,137266,2,0,P|34:185|79:155,1,112.500004291535,0|8,0:0|0:0,0:0:0:0:
305,264,137443,5,0,0:0:0:0:
294,344,137531,2,0,P|271:286|226:315,1,112.500004291535
49,267,137708,70,0,P|114:276|184:294,1,112.500004291535
374,307,137884,2,0,P|411:257|362:235,1,112.500004291535
183,384,138060,6,0,P|323:355|499:327,2,300,8|0|2,0:0|0:0|0:0,0:0:0:0:
0,376,138590,70,0,P|61:362|154:342,1,112.500004291535
205,218,138766,5,8,0:0:0:0:
208,203,138855,1,0,0:0:0:0:
134,184,138943,70,0,P|157:252|171:313,1,112.500004291535
271,20,139119,6,0,P|252:73|238:127,1,112.500004291535
247,315,139296,2,0,P|272:261|309:210,1,112.500004291535,2|0,0:0|0:0,0:0:0:0:
429,62,139472,70,0,B|439:25|471:-2|471:-2|332:38|320:137|320:137|415:189|360:269,1,450,8|0,0:0|0:0,0:0:0:0:
361,270,139825,6,0,B|333:291|349:325|349:325|349:303|372:270,1,112.500004291535,2|0,0:0|0:0,0:0:0:0:
437,143,140002,69,0,0:0:0:0:
512,124,140090,2,0,P|477:176|447:248,1,112.500004291535,0|8,0:0|0:0,0:0:0:0:
507,383,140266,5,0,0:0:0:0:
434,360,140355,2,0,P|444:302|492:319,1,112.500004291535
363,186,140531,70,0,P|317:144|268:127,1,112.500004291535
101,291,140708,2,0,P|150:299|175:232,1,112.500004291535
327,53,140884,6,0,P|141:126|125:290,2,300,8|0|2,0:0|0:0|0:0,0:0:0:0:
80,68,141413,69,0,0:0:0:0:
7,36,141502,2,0,P|35:85|53:139,1,112.500004291535,0|8,0:0|0:0,0:0:0:0:
225,103,141678,5,0,0:0:0:0:
202,174,141766,2,0,P|243:135|300:130,1,112.500004291535
73,384,141943,70,0,P|107:335|98:269,1,112.500004291535
162,54,142119,2,0,B|204:26|183:-14|140:7|162:54,1,112.500004291535,2|0,0:0|0:0,0:0:0:0:
180,262,142296,6,0,P|287:361|437:332,2,300,8|0|2,0:0|0:0|0:0,0:0:0:0:
505,179,142825,69,0,0:0:0:0:
473,108,142913,2,0,P|425:127|452:194,1,112.500004291535,0|8,0:0|0:0,0:0:0:0:
512,329,143090,6,0,P|517:277|467:256,1,112.500004291535
340,192,143266,69,0,0:0:0:0:
308,262,143354,2,0,P|351:286|386:224,1,112.500004291535
328,0,143531,2,0,L|362:140,1,112.500004291535,2|0,0:0|0:0,0:0:0:0:
429,337,143708,6,0,P|444:212|474:21,2,314.999990386963,8|0|2,0:0|0:0|0:0,0:0:0:0:
330,186,144237,69,0,0:0:0:0:
282,121,144325,2,0,P|238:155|256:205,1,112.500004291535,0|8,0:0|0:0,0:0:0:0:
140,279,144502,5,0,0:0:0:0:
107,349,144590,2,0,P|91:289|67:215,1,112.500004291535
50,154,144766,70,0,P|104:167|158:183,1,112.500004291535
404,247,144943,2,0,P|346:261|254:297,1,112.500004291535,2|0,0:0|0:0,0:0:0:0:
110,78,145119,6,0,P|154:221|193:366,1,300,8|0,0:0|0:0,0:0:0:0:
196,375,145384,1,0,0:0:0:0:
273,358,145472,69,2,0:0:0:0:
329,185,145613,1,0,0:0:0:0:
255,210,145755,5,0,0:0:0:0:
465,109,145896,1,0,0:0:0:0:
387,126,146037,69,0,0:0:0:0:
512,177,146178,5,0,0:0:0:0:
268,131,146355,1,2,0:0:0:0:
29,86,146531,2,0,B|-31:121|-131:-40|128:-78|153:85|86:155|86:155|38:156|8:200,1,450,8|0,0:0|0:0,0:0:0:0:
46,354,146884,38,1,B|10:316|47:252|83:230|83:230|63:264|59:324|97:283|103:334|81:366|81:366|200:346|197:240|153:205|153:205|179:107|286:124,1,674.999999999996,6|0,0:0|0:0,0:0:0:0:
244,202,147237,5,8,0:0:0:0:
433,177,147413,69,0,0:0:0:0:
430,187,147502,1,0,0:0:0:0:
420,189,147590,2,0,P|372:211|336:173,1,112.500004291535
289,30,147766,2,0,P|341:38|350:90,1,112.500004291535,2|0,0:0|0:0,0:0:0:0:
316,299,147943,6,0,P|369:159|431:21,1,300,8|0,0:0|0:0,0:0:0:0:
339,374,148296,70,0,P|272:370|246:332,1,112.500004291535,2|0,0:0|0:0,0:0:0:0:
154,91,148472,2,0,P|179:154|201:220,1,112.500004291535
173,365,148649,6,0,P|161:307|209:267,1,112.500004291535,8|0,0:0|0:0,0:0:0:0:
291,28,148825,2,0,P|264:97|244:157,1,112.500004291535
15,260,149002,70,0,P|78:238|127:224,1,112.500004291535
324,161,149178,1,2,0:0:0:0:
379,144,149266,1,0,0:0:0:0:
435,128,149355,6,0,B|479:170|488:213|488:213|303:132|108:79,1,450,8|0,0:0|0:0,0:0:0:0:
154,91,149708,70,0,B|166:42|166:42|206:29|206:29|218:-2|218:-2|40:48|76:146|76:146|470:27,1,675.000025749207,2|0,0:0|0:0,0:0:0:0:
296,23,150060,5,8,0:0:0:0:
470,40,150237,69,0,0:0:0:0:
466,51,150325,1,0,0:0:0:0:
456,46,150413,2,0,B|512:28|512:28|475:10|451:48,1,112.500004291535
341,327,150590,2,0,P|364:266|389:212,1,112.500004291535,2|0,0:0|0:0,0:0:0:0:
419,140,150766,6,0,P|353:142|317:191,1,112.500004291535,8|0,0:0|0:0,0:0:0:0:
84,250,150943,2,0,P|137:268|188:290,1,112.500004291535
468,218,151119,70,0,P|404:344|261:343,1,300,2|0,0:0|0:0,0:0:0:0:
257,337,151384,1,0,0:0:0:0:
187,371,151472,6,0,P|150:339|191:298,1,112.500004291535,8|0,0:0|0:0,0:0:0:0:
229,151,151649,2,0,P|249:203|264:258,1,112.500004291535
19,197,151825,70,0,P|66:169|128:180,1,112.500004291535
347,249,152002,1,2,0:0:0:0:
362,199,152090,1,0,0:0:0:0:
310,138,152178,6,0,B|305:36|86:37|254:131|121:-60|592:-46|503:187|394:173|388:98|388:98|396:80,1,450,8|0,0:0|0:0,0:0:0:0:
494,192,152531,70,0,B|84:46|84:46|-26:11|1:125|56:118|19:46|151:98,1,675.000025749207,2|0,0:0|0:0,0:0:0:0:
61,138,152884,5,8,0:0:0:0:
192,257,153060,70,0,P|210:204|229:151,1,112.500004291535
18,203,153237,2,0,P|77:188|152:173,1,112.500004291535
391,239,153413,6,0,P|335:250|281:264,1,112.500004291535,2|0,0:0|0:0,0:0:0:0:
74,270,153590,70,0,B|59:315|79:366|79:366|135:180|216:-22,1,450,8|0,0:0|0:0,0:0:0:0:
266,0,153943,6,0,P|284:65|242:72,1,112.500004291535,2|0,0:0|0:0,0:0:0:0:
75,30,154119,69,0,0:0:0:0:
6,71,154208,2,0,P|64:83|127:102,1,112.500004291535,0|8,0:0|0:0,0:0:0:0:
351,113,154384,5,0,0:0:0:0:
417,155,154472,2,0,P|361:164|307:177,1,112.500004291535
127,177,154649,70,0,P|191:159|256:148,1,112.500004291535
512,88,154825,2,0,P|461:72|359:49,1,112.500004291535,2|0,0:0|0:0,0:0:0:0:
191,84,155002,6,0,B|187:45|155:21|155:21|218:19|310:73|314:162|314:162|216:207|247:305,1,450,8|0,0:0|0:0,0:0:0:0:
324,253,155355,70,0,B|366:280|344:321|303:299|324:253,1,112.500004291535,2|0,0:0|0:0,0:0:0:0:
127,170,155531,5,0,0:0:0:0:
54,137,155619,2,0,P|64:85|118:90,1,112.500004291535,0|8,0:0|0:0,0:0:0:0:
264,348,155796,69,0,0:0:0:0:
332,381,155884,1,0,0:0:0:0:
371,373,155972,1,0,0:0:0:0:
381,361,156060,6,0,P|325:349|193:333,1,112.500004291535
12,204,156237,70,0,P|71:188|143:172,1,112.500004291535,2|0,0:0|0:0,0:0:0:0:
412,117,156413,2,0,B|404:72|468:25|468:25|388:26|297:84|308:173|308:173|358:167|389:207,1,450,8|0,0:0|0:0,0:0:0:0:
323,253,156766,54,0,L|333:290,2,20.6250006294251,2|0|0,0:0|0:0|0:0,0:0:0:0:
499,114,156943,6,0,P|486:150|476:185,1,75
456,264,157119,1,0,0:0:0:0:
239,221,157296,69,0,0:0:0:0:
229,183,157384,1,0,0:0:0:0:
151,184,157472,1,0,0:0:0:0:
165,128,157560,1,0,0:0:0:0:
241,103,157649,6,0,L|226:45,2,37.5,2|0|0,0:0|0:0|0:0,0:0:0:0:
73,88,157825,70,0,P|250:133|399:173,1,337.500012874604
405,175,158178,22,0,B|474:240|597:57|288:-28|278:197|331:247|331:247|374:220|386:288|371:358|298:381|253:373|211:353|243:231|297:343,1,675.000025749207,6|0,0:0|0:0,0:0:0:0:
279,310,158531,6,0,P|396:277|503:250,1,225.000008583069,8|0,0:0|0:0,0:0:0:0:
506,248,158796,1,0,0:0:0:0:
493,331,158884,70,0,P|437:344|383:359,1,112.500004291535
249,120,159060,2,0,P|233:173|221:229,1,112.500004291535,2|0,0:0|0:0,0:0:0:0:
177,382,159237,6,0,P|165:326|149:272,1,112.500004291535,8|0,0:0|0:0,0:0:0:0:
208,54,159413,2,0,P|155:103|167:128,1,112.500004291535
15,300,159590,70,0,P|155:259|335:207,1,300,2|0,0:0|0:0,0:0:0:0:
312,214,159855,1,0,0:0:0:0:
358,283,159943,6,0,P|403:256|389:205,1,112.500004291535,8|0,0:0|0:0,0:0:0:0:
446,24,160119,2,0,P|425:81|408:139,1,112.500004291535
512,286,160296,70,0,P|488:229|462:177,1,112.500004291535
262,112,160472,1,2,0:0:0:0:
258,123,160560,1,0,0:0:0:0:
232,195,160649,6,0,B|280:121|157:169|198:207|218:288|51:244|70:93|224:-25|355:161,1,450,8|0,0:0|0:0,0:0:0:0:
339,143,161002,70,0,B|46:222|46:222|-23:245|-7:349|81:353|106:294|106:294|115:267|221:291|218:361|130:367|135:300,1,675.000025749207,2|0,0:0|0:0,0:0:0:0:
245,276,161355,6,0,P|143:247|29:217,1,225.000008583069,8|0,0:0|0:0,0:0:0:0:
23,214,161619,1,0,0:0:0:0:
18,137,161708,70,0,P|81:158|93:221,1,112.500004291535
255,367,161884,2,0,P|316:346|362:335,1,112.500004291535,2|0,0:0|0:0,0:0:0:0:
182,57,162060,6,0,P|195:122|146:163,1,112.500004291535,8|0,0:0|0:0,0:0:0:0:
135,320,162237,2,0,P|187:300|242:285,1,112.500004291535
489,8,162413,70,0,P|363:128|414:227,1,300,2|0,0:0|0:0,0:0:0:0:
413,221,162678,1,0,0:0:0:0:
489,197,162766,6,0,P|492:144|439:145,1,112.500004291535,8|0,0:0|0:0,0:0:0:0:
176,47,162943,2,0,P|240:65|297:88,1,112.500004291535
315,267,163119,70,0,P|299:218|277:160,1,112.500004291535
101,109,163296,1,2,0:0:0:0:
96,139,163384,1,0,0:0:0:0:
66,210,163472,6,0,P|233:148|405:103,1,300,8|0,0:0|0:0,0:0:0:0:
350,40,163737,1,0,0:0:0:0:
419,72,163825,70,0,B|301:34|430:-129|539:10|588:110|538:257|450:241|425:214|425:214|377:172|320:259|326:358|426:319|380:286,1,675.000025749207,2|0,0:0|0:0,0:0:0:0:
390,299,164178,6,0,P|403:232|442:103,1,150,8|0,0:0|0:0,0:0:0:0:
424,153,164443,1,0,0:0:0:0:
352,125,164531,70,0,B|325:167|284:145|306:104|352:125,1,112.500004291535
464,324,164708,2,0,P|464:375|413:379,1,112.500004291535,2|0,0:0|0:0,0:0:0:0:
279,220,164884,6,0,P|189:218|203:19,1,300,8|0,0:0|0:0,0:0:0:0:
168,38,165149,1,0,0:0:0:0:
254,41,165237,70,0,P|237:101|225:162,1,112.500004291535,2|0,0:0|0:0,0:0:0:0:
97,250,165413,5,0,0:0:0:0:
57,180,165502,2,0,P|5:214|69:255,1,112.500004291535,0|8,0:0|0:0,0:0:0:0:
272,322,165678,69,0,0:0:0:0:
337,362,165766,2,0,P|283:372|209:388,1,112.500004291535
82,337,165943,6,0,P|137:325|192:315,1,112.500004291535
366,283,166119,2,0,P|394:238|335:205,1,112.500004291535,2|0,0:0|0:0,0:0:0:0:
131,136,166296,70,0,B|104:98|46:91|46:91|215:34|261:159|261:159|201:178|187:227,1,450,8|0,0:0|0:0,0:0:0:0:
279,237,166649,6,0,B|237:264|259:305|300:283|279:237,1,112.500004291535,2|0,0:0|0:0,0:0:0:0:
302,62,166825,69,0,0:0:0:0:
371,27,166913,2,0,P|344:84|324:158,1,112.500004291535,0|8,0:0|0:0,0:0:0:0:
124,271,167090,5,0,0:0:0:0:
55,242,167178,1,0,0:0:0:0:
47,191,167266,1,0,0:0:0:0:
51,177,167355,70,0,P|84:210|126:270,1,112.500004291535
313,347,167531,2,0,P|259:331|180:323,1,112.500004291535,2|0,0:0|0:0,0:0:0:0:
46,325,167708,6,0,B|0:354|-4:385|-4:385|158:288|335:228,1,450,8|0,0:0|0:0,0:0:0:0:
397,275,168060,38,0,L|386:317,14,28.1250010728836,6|0|0|0|0|0|0|0|0|0|0|0|0|0|0,0:0|0:0|0:0|0:0|0:0|0:0|0:0|0:0|0:0|0:0|0:0|0:0|0:0|0:0|0:0,0:0:0:0:
448,383,168766,6,0,L|490:208,1,179.999994506836
