osu file format v14

[General]
AudioFilename: audio.mp3
AudioLeadIn: 0
PreviewTime: 147955
Countdown: 0
SampleSet: Soft
StackLeniency: 0.2
Mode: 0
LetterboxInBreaks: 0
WidescreenStoryboard: 0

[Editor]
Bookmarks: 25661,36955,120249,124485,226132
DistanceSpacing: 1.2
BeatDivisor: 4
GridSize: 4
TimelineZoom: 4.099998

[Metadata]
Title:UNSTOPPABLE
TitleUnicode:UNSTOPPABLE
Artist:RAISE A SUILEN
ArtistUnicode:RAISE A SUILEN
Creator:-Aqua
Version:LULLABY
Source:バンドリ! ガールズバンドパーティ!
Tags:BanG Dream! Bandori! Girls Band Party! ガルパ Garupa original song 1st single R・I・O・T R.I.O.T album Bandori project Girl Party Garupa! THE THIRD RAS レイヤ LAYER ロック LOCK チュチュ CHU² CHU2 CHUCHU パレオ PAREO マスキング MASKING 若菜 玲 Wakana Rei 朝日 六花 Asahi Rokka 玉手 千遊 Tamade Chiyu 丹生原 レオナ Nyubara Reona 佐藤 真好 Sato Masuki レイチェル Raychell 小原 莉子 Kohara Riko 紡木 吏佐 Tsumugi Risa 倉知 玲鳳 Kurachi Reo 夏芽 Natsume Japanese Full Version Shizuku- scanter SuperJSpectrixV
BeatmapID:1945065
BeatmapSetID:931541

[Difficulty]
HPDrainRate:6
CircleSize:4.2
OverallDifficulty:9
ApproachRate:9.4
SliderMultiplier:1.7
SliderTickRate:1

[Events]
//Background and Video events
0,0,"Rokka.png",0,0
//Break Periods
2,120449,123945
//Storyboard Layer 0 (Background)
//Storyboard Layer 1 (Fail)
//Storyboard Layer 2 (Pass)
//Storyboard Layer 3 (Foreground)
//Storyboard Sound Samples

[TimingPoints]
250,352.941176470588,4,2,1,60,1,0
250,-100,4,2,1,60,0,0
1661,-100,4,2,1,60,0,0
1926,-100,4,2,1,5,0,0
2014,-100,4,2,1,60,0,0
2279,-100,4,2,1,5,0,0
2367,-100,4,2,1,60,0,0
2544,-100,4,2,1,5,0,0
2632,-100,4,2,1,60,0,0
2808,-100,4,2,1,5,0,0
2897,-100,4,2,1,60,0,0
3249,-100,4,2,1,5,0,0
3338,-100,4,2,1,60,0,0
3514,-100,4,2,1,5,0,0
3602,-100,4,2,1,60,0,0
3691,-100,4,2,1,5,0,0
3779,-63.6942675159236,4,2,1,60,0,0
4397,-63.6942675159236,4,2,1,5,0,0
4485,-100,4,2,1,60,0,0
4749,-100,4,2,1,5,0,0
4838,-100,4,2,1,60,0,0
5102,-100,4,2,1,5,0,0
5191,-100,4,2,1,60,0,0
6073,-100,4,2,1,5,0,0
6161,-100,4,2,1,60,0,0
6338,-100,4,2,1,5,0,0
6426,-100,4,2,1,60,0,0
7220,-100,4,2,1,5,0,0
7308,-100,4,2,1,60,0,0
7573,-100,4,2,1,5,0,0
7661,-100,4,2,1,60,0,0
7926,-100,4,2,1,5,0,0
8014,-100,4,2,1,60,0,0
11632,-100,4,2,1,5,0,0
11720,-100,4,2,1,60,0,0
11808,-100,4,2,1,5,0,0
11897,-100,4,2,1,60,0,0
11985,-100,4,2,1,5,0,0
12073,-100,4,2,1,60,0,0
12338,-100,4,2,1,5,0,0
12426,-100,4,2,1,60,0,0
12867,-100,4,2,1,5,0,0
12955,-90.9090909090909,4,2,1,60,0,0
14985,-90.9090909090909,4,2,1,5,0,0
15073,-90.9090909090909,4,2,1,60,0,0
16485,-136.986301369863,4,2,1,60,0,0
16749,-136.986301369863,4,2,1,5,0,0
16838,-90.9090909090909,4,2,1,60,0,0
20632,-90.9090909090909,4,2,1,5,0,0
20720,-90.9090909090909,4,2,1,60,0,0
21691,-90.9090909090909,4,2,1,5,0,0
21779,-90.9090909090909,4,2,1,60,0,0
24249,-52.6315789473684,4,2,1,60,0,0
24426,-52.6315789473684,4,2,1,5,0,0
24514,-66.6666666666667,4,2,1,60,0,0
24691,-66.6666666666667,4,2,1,5,0,0
24779,-90.9090909090909,4,2,1,60,0,0
24867,-90.9090909090909,4,2,1,5,0,0
24955,-43.4782608695652,4,2,1,60,0,0
25044,-43.4782608695652,4,2,1,5,0,0
25132,-37.037037037037,4,2,1,60,0,0
25220,-37.037037037037,4,2,1,5,0,0
25308,-90.9090909090909,4,2,1,60,0,0
25661,-76.9230769230769,4,2,1,60,0,1
25749,-76.9230769230769,4,2,1,60,0,0
28044,-76.9230769230769,4,2,1,5,0,0
28132,-76.9230769230769,4,2,1,60,0,0
31308,-76.9230769230769,4,2,1,60,0,1
31397,-76.9230769230769,4,2,1,60,0,0
32191,-133.333333333333,4,2,1,60,0,0
32367,-76.9230769230769,4,2,1,60,0,0
33602,-133.333333333333,4,2,1,60,0,0
33779,-76.9230769230769,4,2,1,60,0,0
35279,-76.9230769230769,4,2,1,5,0,0
35367,-76.9230769230769,4,2,1,60,0,0
35897,-83.3333333333333,4,2,1,60,0,0
36249,-90.9090909090909,4,2,1,60,0,0
36602,-100,4,2,1,60,0,0
36955,-125,4,2,1,60,0,0
40397,-125,4,2,1,5,0,0
40485,-125,4,2,1,60,0,0
40926,-125,4,2,1,5,0,0
41014,-125,4,2,1,60,0,0
46220,-125,4,2,1,5,0,0
46308,-125,4,2,1,60,0,0
47367,-50,4,2,1,60,0,0
47455,-50,4,2,1,5,0,0
47544,-125,4,2,1,60,0,0
48249,-100,4,2,1,60,0,0
48514,-100,4,2,1,5,0,0
48602,-100,4,2,1,60,0,0
48955,-166.666666666667,4,2,1,60,0,0
49397,-166.666666666667,4,2,1,5,0,0
49485,-100,4,2,1,60,0,0
49838,-50,4,2,1,60,0,0
50367,-100,4,2,1,60,0,0
51338,-100,4,2,1,5,0,0
51426,-100,4,2,1,60,0,0
51779,-166.666666666667,4,2,1,60,0,0
52220,-166.666666666667,4,2,1,5,0,0
52308,-100,4,2,1,60,0,0
53897,-86.9565217391304,4,2,1,60,0,0
56720,-76.9230769230769,4,2,1,60,0,0
57426,-66.6666666666667,4,2,1,60,0,0
58132,-58.8235294117647,4,2,1,60,0,0
58838,-52.6315789473684,4,2,1,60,0,0
59544,-90.9090909090909,4,2,1,60,0,0
59897,-76.9230769230769,4,2,1,60,0,0
60249,-66.6666666666667,4,2,1,60,0,0
60602,-58.8235294117647,4,2,1,60,0,0
60955,-142.857142857143,4,2,1,60,0,0
61838,-66.6666666666667,4,2,1,60,0,0
62014,-142.857142857143,4,2,1,60,0,0
62279,-142.857142857143,4,2,1,5,0,0
62367,-66.6666666666667,4,2,1,60,0,1
65014,-100,4,2,1,60,0,1
65279,-100,4,2,1,5,0,1
65367,-66.6666666666667,4,2,1,60,0,1
65455,-66.6666666666667,4,2,1,5,0,1
65544,-66.6666666666667,4,2,1,60,0,1
67661,-100,4,2,1,60,0,1
67926,-100,4,2,1,5,0,1
68014,-66.6666666666667,4,2,1,60,0,1
68102,-66.6666666666667,4,2,1,5,0,1
68191,-66.6666666666667,4,2,1,60,0,1
69073,-100,4,2,1,60,0,1
69338,-100,4,2,1,5,0,1
69426,-66.6666666666667,4,2,1,60,0,1
69514,-66.6666666666667,4,2,1,5,0,1
69602,-58.8235294117647,4,2,1,60,0,1
69779,-100,4,2,1,60,0,1
69955,-58.8235294117647,4,2,1,60,0,1
70132,-100,4,2,1,60,0,1
70308,-58.8235294117647,4,2,1,60,0,1
70485,-100,4,2,1,60,0,1
70661,-58.8235294117647,4,2,1,60,0,1
70838,-66.6666666666667,4,2,1,60,0,1
72338,-66.6666666666667,4,2,1,5,0,1
72426,-66.6666666666667,4,2,1,60,0,1
72514,-66.6666666666667,4,2,1,5,0,1
72602,-200,4,2,1,60,0,1
72867,-200,4,2,1,5,0,1
72955,-100,4,2,1,60,0,0
73308,-300.0300030003,4,2,1,60,0,0
73573,-300.0300030003,4,2,1,5,0,0
73661,-66.6666666666667,4,2,1,60,0,1
76308,-100,4,2,1,60,0,1
76573,-100,4,2,1,5,0,1
76661,-66.6666666666667,4,2,1,60,0,1
78955,-100,4,2,1,60,0,1
79220,-100,4,2,1,5,0,1
79308,-66.6666666666667,4,2,1,60,0,1
79397,-66.6666666666667,4,2,1,5,0,1
79485,-66.6666666666667,4,2,1,60,0,1
80367,-100,4,2,1,60,0,1
80632,-100,4,2,1,5,0,1
80720,-66.6666666666667,4,2,1,60,0,1
80808,-66.6666666666667,4,2,1,5,0,1
80897,-58.8235294117647,4,2,1,60,0,1
81073,-100,4,2,1,60,0,1
81249,-58.8235294117647,4,2,1,60,0,1
81426,-100,4,2,1,60,0,1
81602,-58.8235294117647,4,2,1,60,0,1
81779,-100,4,2,1,60,0,1
81955,-58.8235294117647,4,2,1,60,0,1
82132,-66.6666666666667,4,2,1,60,0,1
84867,-66.6666666666667,4,2,1,60,0,0
84955,-76.9230769230769,4,2,1,60,0,1
85044,-76.9230769230769,4,2,1,60,0,0
90602,-76.9230769230769,4,2,1,60,0,1
90691,-76.9230769230769,4,2,1,60,0,0
91485,-133.333333333333,4,2,1,60,0,0
91661,-76.9230769230769,4,2,1,60,0,0
92897,-133.333333333333,4,2,1,60,0,0
93073,-76.9230769230769,4,2,1,60,0,0
95544,-100,4,2,1,60,0,0
95632,-100,4,2,1,5,0,0
95720,-100,4,2,1,60,0,0
95808,-100,4,2,1,5,0,0
95897,-100,4,2,1,60,0,0
95985,-100,4,2,1,5,0,0
96073,-100,4,2,1,60,0,0
96161,-100,4,2,1,5,0,0
96249,-111.111111111111,4,2,1,60,0,0
104279,-111.111111111111,4,2,1,5,0,0
104367,-111.111111111111,4,2,1,60,0,0
105514,-111.111111111111,4,2,1,5,0,0
105602,-111.111111111111,4,2,1,60,0,0
106661,-50,4,2,1,60,0,0
106749,-50,4,2,1,5,0,0
106838,-111.111111111111,4,2,1,60,0,0
107544,-90.9090909090909,4,2,1,60,0,0
107808,-90.9090909090909,4,2,1,5,0,0
107897,-90.9090909090909,4,2,1,60,0,0
108249,-151.515151515152,4,2,1,60,0,0
108691,-151.515151515152,4,2,1,5,0,0
108779,-90.9090909090909,4,2,1,60,0,0
109132,-50,4,2,1,60,0,0
109308,-90.9090909090909,4,2,1,60,0,0
110632,-90.9090909090909,4,2,1,5,0,0
110720,-90.9090909090909,4,2,1,60,0,0
111073,-151.515151515152,4,2,1,60,0,0
111514,-151.515151515152,4,2,1,5,0,0
111602,-90.9090909090909,4,2,1,60,0,0
113191,-80,4,2,1,60,0,0
116014,-71.4285714285714,4,2,1,60,0,0
116720,-62.5,4,2,1,60,0,0
117426,-55.5555555555556,4,2,1,60,0,0
118132,-50,4,2,1,60,0,0
118838,-83.3333333333333,4,2,1,60,0,0
120249,-100,4,2,1,60,0,0
124485,-50,4,2,1,60,0,0
124544,-50,4,2,1,5,0,0
124602,-50,4,2,1,60,0,0
124661,-50,4,2,1,5,0,0
124720,-50,4,2,1,60,0,0
124779,-50,4,2,1,5,0,0
124838,-50,4,2,1,60,0,0
124897,-50,4,2,1,5,0,0
124955,-50,4,2,1,60,0,0
125014,-50,4,2,1,5,0,0
125073,-50,4,2,1,60,0,0
125132,-50,4,2,1,5,0,0
125191,-50,4,2,1,60,0,0
125485,-50,4,2,1,5,0,0
125544,-66.6666666666667,4,2,1,60,0,0
125838,-66.6666666666667,4,2,1,5,0,0
125897,-45.4545454545455,4,2,1,60,0,0
126191,-45.4545454545455,4,2,1,5,0,0
126249,-57.1428571428571,4,2,1,60,0,0
126544,-57.1428571428571,4,2,1,5,0,0
126602,-45.4545454545455,4,2,1,60,0,0
126713,-51.2820512820513,4,2,1,60,0,0
127308,-181.818181818182,4,2,1,60,0,0
127544,-181.818181818182,4,2,1,5,0,0
127573,-158.730158730159,4,2,1,60,0,0
127779,-158.730158730159,4,2,1,5,0,0
127838,-90.9090909090909,4,2,1,60,0,0
127955,-90.9090909090909,4,2,1,5,0,0
128014,-45.4545454545455,4,2,1,60,0,0
128308,-45.4545454545455,4,2,1,5,0,0
128367,-50,4,2,1,60,0,0
128485,-50,4,2,1,5,0,0
128544,-200,4,2,1,60,0,0
128661,-200,4,2,1,5,0,0
128720,-45.4545454545455,4,2,1,60,0,0
129014,-45.4545454545455,4,2,1,5,0,0
129073,-57.1428571428571,4,2,1,60,0,0
129367,-57.1428571428571,4,2,1,5,0,0
129426,-45.4545454545455,4,2,1,60,0,0
129889,-51.2820512820513,4,2,1,60,0,0
130132,-45.4545454545455,4,2,1,60,0,0
130249,-45.4545454545455,4,2,1,5,0,0
130308,-90.9090909090909,4,2,1,60,0,0
130426,-90.9090909090909,4,2,1,5,0,0
130485,-45.4545454545455,4,2,1,60,0,0
130602,-45.4545454545455,4,2,1,5,0,0
130661,-90.9090909090909,4,2,1,60,0,0
130779,-90.9090909090909,4,2,1,5,0,0
130838,-45.4545454545455,4,2,1,60,0,0
131014,-62.5,4,2,1,60,0,0
131455,-62.5,4,2,1,5,0,0
131544,-62.5,4,2,1,60,0,0
131632,-62.5,4,2,1,5,0,0
131720,-62.5,4,2,1,60,0,0
131808,-62.5,4,2,1,5,0,0
131897,-186.915887850467,4,2,1,60,0,0
132161,-186.915887850467,4,2,1,5,0,0
132249,-62.5,4,2,1,60,0,0
132338,-62.5,4,2,1,5,0,0
132426,-62.5,4,2,1,60,0,0
132514,-62.5,4,2,1,5,0,0
132602,-187.617260787992,4,2,1,60,0,0
132867,-187.617260787992,4,2,1,5,0,0
132955,-62.5,4,2,1,60,0,0
133044,-62.5,4,2,1,5,0,0
133132,-62.5,4,2,1,60,0,0
133220,-62.5,4,2,1,5,0,0
133308,-187.617260787992,4,2,1,60,0,0
133573,-187.617260787992,4,2,1,5,0,0
133661,-62.5,4,2,1,60,0,0
133749,-62.5,4,2,1,5,0,0
133838,-62.5,4,2,1,60,0,0
133926,-62.5,4,2,1,5,0,0
134014,-187.617260787992,4,2,1,60,0,0
134279,-187.617260787992,4,2,1,5,0,0
134367,-62.5,4,2,1,60,0,0
134720,-187.617260787992,4,2,1,60,0,0
134985,-187.617260787992,4,2,1,5,0,0
135073,-62.5,4,2,1,60,0,0
135691,-62.5,4,2,1,5,0,0
135779,-62.5,4,2,1,60,0,0
136132,-187.617260787992,4,2,1,60,0,0
136397,-187.617260787992,4,2,1,5,0,0
136485,-62.5,4,2,1,60,0,0
136838,-187.617260787992,4,2,1,60,0,0
137102,-187.617260787992,4,2,1,5,0,0
137191,-62.5,4,2,1,60,0,0
137455,-62.5,4,2,1,5,0,0
137544,-62.5,4,2,1,60,0,0
137632,-62.5,4,2,1,5,0,0
137720,-62.5,4,2,1,60,0,0
137985,-62.5,4,2,1,5,0,0
138073,-62.5,4,2,1,60,0,0
138161,-62.5,4,2,1,5,0,0
138249,-62.5,4,2,1,60,0,0
138514,-62.5,4,2,1,5,0,0
138602,-62.5,4,2,1,60,0,0
138691,-62.5,4,2,1,5,0,0
138779,-62.5,4,2,1,60,0,0
139044,-62.5,4,2,1,5,0,0
139132,-62.5,4,2,1,60,0,0
139220,-62.5,4,2,1,5,0,0
139308,-62.5,4,2,1,60,0,0
139397,-62.5,4,2,1,5,0,0
139485,-62.5,4,2,1,60,0,0
139661,-100,4,2,1,60,0,0
140014,-62.5,4,2,1,60,0,0
140279,-62.5,4,2,1,5,0,0
140367,-62.5,4,2,1,60,0,0
140455,-62.5,4,2,1,5,0,0
140544,-62.5,4,2,1,60,0,0
140808,-62.5,4,2,1,5,0,0
140897,-62.5,4,2,1,60,0,0
140985,-62.5,4,2,1,5,0,0
141073,-62.5,4,2,1,60,0,0
141338,-62.5,4,2,1,5,0,0
141426,-62.5,4,2,1,60,0,0
141514,-62.5,4,2,1,5,0,0
141602,-62.5,4,2,1,60,0,0
141867,-62.5,4,2,1,5,0,0
141955,-62.5,4,2,1,60,0,0
142132,-62.5,4,2,1,60,0,0
142220,-62.5,4,2,1,5,0,0
142308,-62.5,4,2,1,60,0,0
142485,-100,4,2,1,60,0,0
142838,-62.5,4,2,1,60,0,0
142926,-62.5,4,2,1,5,0,0
143014,-62.5,4,2,1,60,0,0
148485,-100,4,2,1,60,0,0
159779,-100,4,2,1,60,0,1
172485,-100,4,2,1,60,0,0
175308,-100,4,2,1,60,0,0
186602,-100,4,2,1,60,0,1
197897,-100,4,2,1,60,0,0
209191,-100,4,2,1,60,0,1
211926,-100,4,2,1,60,0,0
212014,-100,4,2,1,60,0,1
212102,-100,4,2,1,60,0,0
217661,-100,4,2,1,60,0,1
217749,-100,4,2,1,60,0,0
223308,-100,4,2,1,60,0,0

[Colours]
Combo1 : 124,165,209
Combo2 : 188,255,100
Combo3 : 7,171,173
Combo4 : 165,209,168

[HitObjects]
76,273,1132,5,0,0:0:0:0:
242,325,1308,1,0,0:0:0:0:
101,132,1485,1,0,0:0:0:0:
140,375,1661,6,0,P|193:338|275:355,1,127.5
323,233,2014,2,0,P|260:236|209:200,1,127.5
348,327,2367,6,0,B|390:327|390:327|426:305,1,85
422,190,2632,2,0,B|379:190|379:190|343:212,1,85
502,245,2897,1,0,0:0:0:0:
467,32,3073,6,0,L|482:116,1,85
373,15,3338,2,0,L|388:99,1,85
296,72,3602,2,0,L|304:114,1,42.5
211,27,3779,6,0,B|186:41|171:67|170:96|170:96|170:125|185:152|210:166|210:166|223:130|210:90|179:66|179:66|148:43|106:41|74:63|74:63|42:84|29:124|37:161,1,467.07500178175
99,311,4485,6,0,B|123:278|123:278|103:194,1,127.5
217,383,4838,2,0,B|193:350|193:350|213:266,1,127.5
306,203,5191,5,0,0:0:0:0:
318,215,5279,1,0,0:0:0:0:
426,258,5367,5,0,0:0:0:0:
414,270,5455,1,0,0:0:0:0:
318,327,5544,5,0,0:0:0:0:
399,166,5720,2,0,L|387:102,1,42.5
445,64,5897,6,0,P|395:98|340:100,1,85
266,47,6161,2,0,P|216:13|161:11,1,85
93,87,6426,1,0,0:0:0:0:
190,164,6602,1,0,0:0:0:0:
83,71,6779,1,0,0:0:0:0:
62,67,6867,1,0,0:0:0:0:
41,63,6955,2,0,L|-22:51,1,42.5
127,178,7132,2,0,L|168:170,1,42.5
44,254,7308,6,0,B|36:302|36:302|52:334|52:334|44:382,1,127.5
119,195,7661,2,0,B|111:147|111:147|127:115|127:115|119:67,1,127.5
187,264,8014,1,0,0:0:0:0:
195,272,8544,1,0,0:0:0:0:
291,214,8720,5,0,0:0:0:0:
303,202,8808,1,0,0:0:0:0:
380,249,8897,5,0,0:0:0:0:
392,261,8985,1,0,0:0:0:0:
472,240,9073,5,0,0:0:0:0:
484,228,9161,1,0,0:0:0:0:
512,310,9249,5,0,0:0:0:0:
448,156,9426,2,0,P|422:107|371:64,1,85
303,202,9779,2,0,P|275:234|257:272,1,85
380,345,10132,5,0,0:0:0:0:
346,318,10220,1,0,0:0:0:0:
306,305,10308,1,0,0:0:0:0:
264,310,10396,1,0,0:0:0:0:
227,331,10484,1,0,0:0:0:0:
194,357,10573,1,0,0:0:0:0:
157,378,10661,1,0,0:0:0:0:
115,384,10749,1,0,0:0:0:0:
69,369,10838,5,0,0:0:0:0:
32,337,10927,1,0,0:0:0:0:
14,292,11014,1,0,0:0:0:0:
15,244,11102,1,0,0:0:0:0:
35,200,11190,1,0,0:0:0:0:
73,170,11278,1,0,0:0:0:0:
120,157,11367,1,0,0:0:0:0:
167,168,11455,1,0,0:0:0:0:
207,196,11544,6,0,L|198:148,1,42.5
124,271,11720,2,0,L|116:229,1,42.5
212,317,11897,2,0,L|205:276,1,42.5
151,380,12073,6,0,B|235:360|235:360|268:384,1,127.5
347,329,12426,2,0,L|410:340,1,42.5
494,384,12602,2,0,B|486:336|486:336|502:304|502:304|494:256,1,127.5
475,110,12955,6,0,P|458:161|423:213,1,93.5000028533936
423,28,13308,1,0,0:0:0:0:
493,126,13485,1,0,0:0:0:0:
334,33,13661,2,0,P|282:16|230:8,1,93.5000028533936
351,114,14014,1,0,0:0:0:0:
431,36,14191,1,0,0:0:0:0:
273,98,14367,6,0,P|217:120|172:160,1,93.5000028533936
264,187,14632,2,0,P|320:209|365:249,1,93.5000028533936
218,253,14897,2,0,P|192:269|178:289,1,46.7500014266968
104,357,15073,5,0,0:0:0:0:
14,201,15249,1,0,0:0:0:0:
148,279,15426,1,0,0:0:0:0:
104,201,15603,1,0,0:0:0:0:
280,229,15779,6,0,P|237:220|192:199,1,93.5000028533936
327,163,16132,1,0,0:0:0:0:
225,300,16308,1,0,0:0:0:0:
146,133,16485,2,0,P|119:83|87:50,1,93.0750025563813
70,39,16838,1,0,0:0:0:0:
218,99,17014,1,0,0:0:0:0:
274,14,17191,5,0,0:0:0:0:
125,144,17367,2,0,P|106:197|96:239,1,93.5000028533936
23,109,17720,1,0,0:0:0:0:
110,257,17897,1,0,0:0:0:0:
241,93,18073,2,0,P|260:146|270:188,1,93.5000028533936
159,58,18426,1,0,0:0:0:0:
348,124,18602,6,0,P|402:141|445:147,1,93.5000028533936
311,52,18955,1,0,0:0:0:0:
452,166,19132,1,0,0:0:0:0:
370,226,19308,2,0,P|346:266|333:311,1,93.5000028533936
392,384,19661,1,0,0:0:0:0:
278,222,19838,1,0,0:0:0:0:
133,328,20014,6,0,B|91:350|91:350|31:339,1,93.5000028533936
100,236,20279,2,0,B|146:228|146:228|188:250,1,93.5000028533936
8,253,20544,2,0,L|-3:189,1,46.7500014266968
44,72,20720,6,0,P|50:119|69:162,1,93.5000028533936
179,92,21073,2,0,P|184:45|203:2,1,93.5000028533936
310,131,21426,6,0,L|322:194,1,46.7500014266968
398,32,21602,2,0,L|386:95,1,46.7500014266968
459,147,21779,1,0,0:0:0:0:
455,168,21867,1,0,0:0:0:0:
451,189,21955,6,0,L|463:252,1,46.7500014266968
368,347,22132,1,0,0:0:0:0:
364,326,22220,1,0,0:0:0:0:
360,305,22308,6,0,L|372:242,1,46.7500014266968
463,331,22485,2,0,L|508:322,1,46.7500014266968
358,163,22661,2,0,L|312:154,1,46.7500014266968
129,360,22838,5,0,0:0:0:0:
125,339,22926,1,0,0:0:0:0:
121,318,23014,2,0,L|184:306,1,46.7500014266968
271,241,23191,2,0,L|225:232,1,46.7500014266968
148,117,23367,2,0,L|157:164,1,46.7500014266968
235,0,23544,5,0,0:0:0:0:
238,20,23632,2,0,L|230:66,1,46.7500014266968
49,62,23809,5,0,0:0:0:0:
44,81,23897,2,0,L|53:127,1,46.7500014266968
156,162,24073,2,0,L|147:208,1,46.7500014266968
57,277,24249,6,0,P|70:212|129:260,1,161.499995687485
116,331,24514,6,0,P|167:304|195:355,1,127.500004863739
207,276,24779,6,0,P|219:257|240:249,1,46.7500014266968
375,309,24955,6,0,P|346:340|288:311,1,97.7500018644333
421,242,25132,6,0,P|376:272|334:238,1,114.750000437737
447,347,25308,5,0,0:0:0:0:
380,173,25485,1,0,0:0:0:0:
456,366,25661,5,0,0:0:0:0:
503,154,25838,2,0,P|476:202|460:255,1,110.499994941712
433,111,26191,1,0,0:0:0:0:
334,238,26367,1,0,0:0:0:0:
337,259,26455,1,0,0:0:0:0:
259,65,26544,2,0,P|286:113|302:166,1,110.499994941712
341,20,26897,1,0,0:0:0:0:
232,205,27073,5,0,0:0:0:0:
105,138,27249,2,0,P|38:114|-29:105,1,110.499994941712
163,61,27602,1,0,0:0:0:0:
57,217,27779,1,0,0:0:0:0:
194,210,27867,2,0,P|139:221|88:240,1,110.499994941712
0,342,28132,2,0,P|54:353|105:372,1,110.499994941712
208,224,28485,5,0,0:0:0:0:
136,371,28661,2,0,P|117:303|86:256,1,110.499994941712
26,197,29014,1,0,0:0:0:0:
203,305,29191,1,0,0:0:0:0:
207,324,29279,1,0,0:0:0:0:
233,149,29367,2,0,P|252:81|283:34,1,110.499994941712
132,198,29720,1,0,0:0:0:0:
27,62,29897,5,0,0:0:0:0:
131,214,30073,2,0,P|59:177|21:136,1,110.499994941712
213,162,30426,1,0,0:0:0:0:
68,285,30602,1,0,0:0:0:0:
139,353,30779,2,0,P|211:316|249:275,1,110.499994941712
291,219,31132,1,0,0:0:0:0:
387,364,31308,5,0,0:0:0:0:
273,222,31485,1,0,0:0:0:0:
416,169,31661,2,0,P|390:217|373:270,1,110.499994941712
324,103,32014,1,0,0:0:0:0:
336,110,32102,1,0,0:0:0:0:
344,122,32191,2,0,L|339:154,1,31.8750012159348
232,296,32367,2,0,P|161:270|83:262,1,110.499994941712
288,235,32720,5,0,0:0:0:0:
234,384,32897,1,0,0:0:0:0:
102,269,33073,2,0,P|126:318|145:370,1,110.499994941712
213,148,33426,1,0,0:0:0:0:
201,155,33514,1,0,0:0:0:0:
192,168,33602,2,0,L|198:200,1,31.8750012159348
27,297,33779,2,0,P|51:248|70:196,1,110.499994941712
2,28,34132,5,0,0:0:0:0:
82,207,34308,1,0,0:0:0:0:
227,65,34485,2,0,P|179:93|144:136,1,110.499994941712
202,221,34838,1,0,0:0:0:0:
149,56,35014,1,0,0:0:0:0:
313,109,35191,2,0,L|326:187,1,55.2499974708558
374,35,35367,1,0,0:0:0:0:
512,14,35544,5,0,0:0:0:0:
488,47,35632,1,0,0:0:0:0:
451,64,35720,2,0,P|413:70|379:55,1,55.2499974708558,0|0,0:0|0:0,0:0:0:0:
231,134,35897,5,0,0:0:0:0:
251,162,35985,1,0,0:0:0:0:
282,176,36073,2,0,P|313:185|349:174,1,50.9999984436036
409,281,36249,5,0,0:0:0:0:
425,259,36338,1,0,0:0:0:0:
449,247,36425,2,0,P|471:240|494:239,1,46.7500014266968
353,355,36602,5,0,0:0:0:0:
340,338,36691,1,0,0:0:0:0:
323,329,36778,2,0,P|301:322|279:321,1,42.5
103,384,36955,6,0,P|117:329|110:299,1,68
198,369,37308,1,0,0:0:0:0:
262,305,37485,2,0,P|248:250|255:220,1,68
192,356,37838,1,0,0:0:0:0:
70,250,38014,1,0,0:0:0:0:
13,315,38191,1,0,0:0:0:0:
21,159,38367,6,0,P|46:198|59:235,1,68
105,101,38720,1,0,0:0:0:0:
189,215,38897,2,0,P|164:254|151:291,1,68
109,125,39249,1,0,0:0:0:0:
173,287,39426,1,0,0:0:0:0:
270,195,39602,1,0,0:0:0:0:
415,264,39779,6,0,P|381:256|351:241,1,68
489,235,40132,2,0,P|460:301|474:350,1,102
476,346,40485,1,0,0:0:0:0:
278,273,40661,2,0,P|307:339|293:388,1,102
291,384,41014,1,0,0:0:0:0:
373,207,41191,5,0,0:0:0:0:
297,154,41367,1,0,0:0:0:0:
276,150,41455,1,0,0:0:0:0:
255,146,41544,1,0,0:0:0:0:
342,65,41720,2,0,P|376:61|418:50,1,68
230,139,42073,2,0,P|272:150|315:153,1,68
166,55,42426,1,0,0:0:0:0:
317,169,42602,5,0,0:0:0:0:
175,75,42779,1,0,0:0:0:0:
73,121,42955,1,0,0:0:0:0:
42,32,43132,2,0,P|61:65|72:109,1,68
133,230,43485,2,0,P|143:198|161:169,1,68
50,278,43838,1,0,0:0:0:0:
169,384,44014,6,0,P|211:369|256:373,1,68
294,312,44367,1,0,0:0:0:0:
445,377,44544,2,0,P|442:343|429:311,1,68
361,264,44897,1,0,0:0:0:0:
463,384,45073,1,0,0:0:0:0:
498,274,45249,1,0,0:0:0:0:
294,312,45426,6,0,P|251:278|228:271,1,68
160,287,45779,1,0,0:0:0:0:
337,243,45955,2,0,P|383:226|453:223,1,102
467,244,46308,1,0,0:0:0:0:
269,198,46485,1,0,0:0:0:0:
409,299,46661,1,0,0:0:0:0:
466,64,46838,5,0,0:0:0:0:
356,171,47014,1,0,0:0:0:0:
360,192,47102,1,0,0:0:0:0:
364,213,47191,1,0,0:0:0:0:
210,128,47367,6,0,B|217:86|217:86|245:50,1,85
262,226,47544,5,0,0:0:0:0:
107,87,47720,1,0,0:0:0:0:
32,219,47897,5,0,0:0:0:0:
116,70,48073,1,0,0:0:0:0:
278,241,48249,6,0,P|241:218|159:196,1,127.5
139,206,48602,1,0,0:0:0:0:
229,322,48779,1,0,0:0:0:0:
287,145,48955,2,0,P|305:105|368:35,1,127.499996109009
298,163,49485,1,0,0:0:0:0:
236,34,49661,5,0,0:0:0:0:
392,181,49838,6,0,B|385:223|385:223|359:257,1,85
483,115,50014,5,0,0:0:0:0:
279,180,50191,1,0,0:0:0:0:
420,350,50367,1,0,0:0:0:0:
254,289,50544,2,0,L|262:336,1,42.5
359,256,50720,2,0,L|367:303,1,42.5
173,213,50897,2,0,L|181:260,1,42.5
236,34,51073,6,0,P|269:88|281:156,1,127.5
279,180,51426,1,0,0:0:0:0:
351,31,51602,1,0,0:0:0:0:
168,190,51779,2,0,P|122:163|40:153,1,127.499996109009
173,213,52308,1,0,0:0:0:0:
228,56,52485,5,0,0:0:0:0:
163,235,52661,2,0,L|171:282,1,42.5
58,169,52838,1,0,0:0:0:0:
144,116,53014,1,0,0:0:0:0:
91,332,53191,5,0,0:0:0:0:
124,305,53279,1,0,0:0:0:0:
164,292,53367,2,0,P|196:289|208:292,1,42.5
283,344,53544,5,0,0:0:0:0:
316,371,53632,1,0,0:0:0:0:
356,384,53720,2,0,P|388:387|400:384,1,42.5
484,258,53897,6,0,B|449:244|449:244|485:347,1,146.62500279665
496,373,54249,1,0,0:0:0:0:
501,163,54426,1,0,0:0:0:0:
359,216,54602,6,0,P|428:149|499:161,1,146.62500279665
354,240,54955,1,0,0:0:0:0:
184,126,55132,1,0,0:0:0:0:
277,263,55308,6,0,P|253:193|204:119,1,146.62500279665
262,284,55661,1,0,0:0:0:0:
313,134,55838,2,0,P|334:70|360:23,1,97.7500018644333
376,184,56191,1,0,0:0:0:0:
251,60,56367,1,0,0:0:0:0:
167,204,56544,1,0,0:0:0:0:
0,159,56720,6,0,B|42:125|42:125|97:138,1,110.499994941712
236,73,56985,2,0,B|193:39|193:39|139:52,1,110.499994941712
146,219,57249,2,0,L|160:272,1,55.2499974708558
193,384,57426,6,0,P|133:350|70:336,1,127.500004863739
304,235,57691,2,0,P|244:269|181:283,1,127.500004863739
371,370,57955,2,0,P|343:354|314:343,1,63.7500024318696
512,333,58132,6,0,P|478:273|409:266,1,144.500002756119
280,216,58397,2,0,P|315:156|384:149,1,144.500002756119
512,98,58661,2,0,P|461:65|446:66,1,72.2500013780594
217,97,58838,6,0,B|249:133|249:133|381:112,1,161.499995687485
265,243,59102,2,0,B|153:225|153:225|121:261,1,161.499995687485
16,182,59367,2,0,L|0:103,1,80.7499978437424
70,38,59544,5,0,0:0:0:0:
107,18,59632,1,0,0:0:0:0:
147,30,59720,2,0,L|140:76,1,46.7500014266968
33,194,59897,6,0,L|44:257,1,55.2499974708558
173,372,60073,2,0,L|182:317,1,55.2499974708558
218,116,60249,5,0,0:0:0:0:
247,166,60338,1,0,0:0:0:0:
258,222,60426,1,0,0:0:0:0:
252,279,60514,1,0,0:0:0:0:
295,366,60602,5,0,0:0:0:0:
327,306,60690,1,0,0:0:0:0:
379,262,60778,1,0,0:0:0:0:
444,237,60867,1,0,0:0:0:0:
512,247,60955,6,0,L|496:332,2,59.4999981842042
448,157,61485,2,0,L|436:98,1,59.4999981842042
343,196,61838,6,0,L|331:258,1,63.7500024318696
194,91,62014,6,0,B|164:99|140:99|156:83|132:83|107:90,1,89.2499972763062
107,170,62367,6,0,P|80:112|0:74,1,127.500004863739
85,266,62720,1,0,0:0:0:0:
166,90,62897,1,0,0:0:0:0:
246,213,63073,1,0,0:0:0:0:
246,213,63161,1,0,0:0:0:0:
246,213,63249,2,0,L|257:149,1,63.7500024318696
334,34,63426,2,0,L|344:96,1,63.7500024318696
182,290,63602,1,0,0:0:0:0:
107,170,63779,5,0,0:0:0:0:
278,301,63955,1,0,0:0:0:0:
361,75,64132,1,0,0:0:0:0:
222,361,64308,2,0,P|165:330|96:313,1,127.500004863739
341,196,64661,2,0,P|398:165|467:148,1,127.500004863739
155,43,65014,6,0,P|186:100|203:169,1,127.500004863739
196,183,65367,6,0,P|234:146|241:118,1,63.7500024318696
59,38,65544,1,0,0:0:0:0:
202,199,65720,1,0,0:0:0:0:
341,52,65897,1,0,0:0:0:0:
335,79,65985,1,0,0:0:0:0:
330,106,66073,2,0,L|315:187,1,63.7500024318696
485,278,66250,1,0,0:0:0:0:
479,251,66338,1,0,0:0:0:0:
474,224,66426,2,0,L|459:142,1,63.7500024318696
370,346,66602,5,0,0:0:0:0:
196,183,66779,1,0,0:0:0:0:
464,371,66955,1,0,0:0:0:0:
512,78,67132,1,0,0:0:0:0:
378,376,67308,1,0,0:0:0:0:
440,295,67397,2,0,P|411:309|392:334,1,63.7500024318696
220,178,67661,6,0,P|280:217|311:274,1,127.5
320,280,68014,6,0,P|338:232|358:213,1,63.7500024318696
216,369,68191,6,0,P|213:339|199:274,1,63.7500024318696
165,238,68367,1,0,0:0:0:0:
19,267,68544,6,0,P|21:237|35:172,1,63.7500024318696
70,136,68720,1,0,0:0:0:0:
231,170,68897,6,0,P|228:140|214:75,1,63.7500024318696
180,39,69073,6,0,P|202:113|202:180,1,127.5
191,178,69426,6,0,P|183:235|189:262,1,63.7500024318696
301,81,69602,6,0,P|332:56|369:40,1,72.2500013780594
450,81,69779,2,0,L|438:144,1,42.5
263,201,69955,6,0,P|232:176|195:160,1,72.2500013780594
114,201,70132,2,0,L|125:264,1,42.5
317,328,70308,6,0,P|348:303|385:287,1,72.2500013780594
466,328,70485,2,0,L|454:391,1,42.5
222,384,70661,6,0,P|159:331|132:329,1,72.2500013780594
430,379,70838,5,0,0:0:0:0:
448,250,71014,1,0,0:0:0:0:
242,373,71191,1,0,0:0:0:0:
84,173,71367,1,0,0:0:0:0:
90,200,71455,1,0,0:0:0:0:
95,227,71544,2,0,L|106:289,1,63.7500024318696
160,88,71720,1,0,0:0:0:0:
248,288,71897,1,0,0:0:0:0:
348,167,72073,1,0,0:0:0:0:
354,140,72161,1,0,0:0:0:0:
359,113,72250,6,0,L|370:51,1,63.7500024318696
458,215,72426,2,0,L|447:153,1,63.7500024318696
394,355,72602,6,0,L|405:293,1,63.7500024318696
445,73,72955,5,0,0:0:0:0:
394,355,73132,1,0,0:0:0:0:
445,73,73308,6,0,L|456:9,1,42.5
478,163,73661,6,0,P|412:164|363:122,1,127.5
295,61,73926,1,0,0:0:0:0:
277,46,74014,2,0,P|211:45|162:87,1,127.5
343,243,74367,1,0,0:0:0:0:
349,216,74455,1,0,0:0:0:0:
354,189,74543,2,0,L|365:126,1,63.7500024318696
238,229,74720,2,0,L|249:291,1,63.7500024318696
157,179,74897,1,0,0:0:0:0:
333,340,75073,5,0,0:0:0:0:
435,103,75249,1,0,0:0:0:0:
180,358,75426,1,0,0:0:0:0:
75,155,75602,2,0,P|127:224|143:300,1,127.500004863739
329,88,75955,2,0,P|277:157|261:233,1,127.500004863739
470,200,76308,6,0,P|495:258|512:319,1,127.500004863739
481,339,76661,6,0,P|502:297|499:259,1,63.7500024318696
378,173,76838,1,0,0:0:0:0:
503,354,77014,1,0,0:0:0:0:
299,323,77191,1,0,0:0:0:0:
272,317,77279,1,0,0:0:0:0:
245,312,77367,2,0,L|164:297,1,63.7500024318696
351,179,77544,1,0,0:0:0:0:
378,173,77632,1,0,0:0:0:0:
405,168,77720,2,0,L|486:153,1,63.7500024318696
263,54,77897,5,0,0:0:0:0:
512,224,78073,1,0,0:0:0:0:
352,383,78249,1,0,0:0:0:0:
512,90,78426,1,0,0:0:0:0:
473,355,78602,2,0,P|468:303|512:229,1,127.500004863739
277,66,78955,6,0,P|308:120|305:183,1,127.500004863739
290,200,79308,6,0,P|273:250|274:269,1,63.7500024318696
378,367,79485,6,0,P|327:351|298:348,1,63.7500024318696
244,384,79661,1,0,0:0:0:0:
369,260,79838,6,0,P|420:244|449:241,1,63.7500024318696
503,277,80014,1,0,0:0:0:0:
378,153,80191,6,0,P|327:137|298:134,1,63.7500024318696
244,170,80367,6,0,P|321:136|369:125,1,127.5
378,153,80720,6,0,P|407:164|439:170,1,63.7500024318696
346,46,80897,6,0,B|314:28|314:28|272:27,1,72.2500013780594
202,83,81073,2,0,L|160:90,1,42.5
0,202,81249,6,0,B|32:184|32:184|74:183,1,72.2500013780594
144,239,81426,2,0,L|185:246,1,42.5
359,341,81602,6,0,B|327:323|327:323|285:322,1,72.2500013780594
215,378,81779,2,0,L|173:385,1,42.5
291,210,81955,6,0,B|323:192|323:192|365:191,1,72.2500013780594
478,346,82132,6,0,P|492:272|518:210,1,127.500004863739
336,87,82485,2,0,P|350:161|376:223,1,127.500004863739,0|0,0:0|0:0,0:0:0:0:
510,86,82838,1,0,0:0:0:0:
387,224,83014,1,0,0:0:0:0:
346,70,83191,1,0,0:0:0:0:
502,243,83367,1,0,0:0:0:0:
375,362,83544,5,0,0:0:0:0:
331,316,83632,1,0,0:0:0:0:
270,304,83720,2,0,P|233:332|204:339,1,63.7500024318696
52,244,83897,2,0,P|76:265|106:277,1,63.7500024318696
185,195,84073,1,0,0:0:0:0:
179,163,84161,1,0,0:0:0:0:
97,86,84249,5,0,0:0:0:0:
119,50,84337,1,0,0:0:0:0:
156,30,84425,1,0,0:0:0:0:
198,30,84513,1,0,0:0:0:0:
278,110,84603,5,0,0:0:0:0:
322,151,84691,1,0,0:0:0:0:
380,165,84779,1,0,0:0:0:0:
439,150,84867,1,0,0:0:0:0:
512,86,84955,5,0,0:0:0:0:
435,270,85132,2,0,P|435:215|461:162,1,110.499994941712
496,322,85485,1,0,0:0:0:0:
283,233,85661,1,0,0:0:0:0:
265,224,85749,1,0,0:0:0:0:
371,384,85838,2,0,P|371:329|347:279,1,110.499994941712
144,356,86191,1,0,0:0:0:0:
22,230,86367,5,0,0:0:0:0:
160,343,86544,2,0,P|211:323|266:313,1,110.499994941712
341,199,86897,1,0,0:0:0:0:
352,360,87073,1,0,0:0:0:0:
362,374,87161,1,0,0:0:0:0:
146,248,87249,2,0,P|94:228|40:217,1,110.499994941712
170,354,87602,1,0,0:0:0:0:
252,133,87779,5,0,0:0:0:0:
359,210,87955,2,0,P|413:198|464:179,1,110.499994941712
309,272,88308,1,0,0:0:0:0:
414,105,88485,1,0,0:0:0:0:
426,91,88573,1,0,0:0:0:0:
235,143,88661,2,0,P|180:131|129:112,1,110.499994941712
41,10,89014,1,0,0:0:0:0:
97,187,89191,5,0,0:0:0:0:
190,0,89367,2,0,P|151:60|133:119,1,110.499994941712
68,26,89720,1,0,0:0:0:0:
177,201,89897,1,0,0:0:0:0:
332,72,90073,2,0,P|371:132|389:191,1,110.499994941712
241,96,90426,1,0,0:0:0:0:
434,6,90602,5,0,0:0:0:0:
362,192,90779,1,0,0:0:0:0:
150,141,90955,2,0,P|221:120|281:110,1,110.499994941712
410,26,91308,1,0,0:0:0:0:
395,25,91397,1,0,0:0:0:0:
381,21,91485,2,0,P|352:17|322:9,1,31.8750012159348
296,229,91661,2,0,P|350:240|402:256,1,110.499994941712
512,384,92014,5,0,0:0:0:0:
419,237,92191,1,0,0:0:0:0:
228,323,92367,2,0,P|216:269|191:220,1,110.499994941712
339,384,92720,1,0,0:0:0:0:
335,367,92809,1,0,0:0:0:0:
338,349,92897,2,0,P|351:323|369:297,1,31.8750012159348
487,155,93073,2,0,P|475:208|450:257,1,110.499994941712
391,97,93426,5,0,0:0:0:0:
499,319,93602,1,0,0:0:0:0:
370,241,93779,2,0,P|320:219|266:208,1,110.499994941712
465,159,94132,1,0,0:0:0:0:
273,296,94308,1,0,0:0:0:0:
370,358,94485,2,0,P|420:335|475:326,1,110.499994941712
356,377,94749,1,0,0:0:0:0:
252,305,94838,5,0,0:0:0:0:
160,352,95014,1,0,0:0:0:0:
156,356,95191,1,0,0:0:0:0:
0,233,95367,1,0,0:0:0:0:
4,254,95455,1,0,0:0:0:0:
8,275,95544,6,0,L|19:338,1,42.5
173,218,95720,2,0,L|166:260,1,42.5
45,87,95897,2,0,L|66:147,1,42.5
173,1,96073,2,0,L|151:61,1,42.5
234,124,96249,6,0,P|284:93|310:85,1,76.4999976654053
391,122,96602,1,0,0:0:0:0:
295,61,96779,1,0,0:0:0:0:
403,13,96955,1,0,0:0:0:0:
386,0,97308,1,0,0:0:0:0:
483,151,97661,6,0,P|466:188|454:231,1,76.4999976654053
391,122,98014,1,0,0:0:0:0:
303,174,98191,1,0,0:0:0:0:
219,143,98367,1,0,0:0:0:0:
204,151,98720,1,0,0:0:0:0:
365,248,99073,6,0,P|382:285|394:328,1,76.4999976654053
322,384,99426,1,0,0:0:0:0:
472,303,99602,1,0,0:0:0:0:
347,233,99779,1,0,0:0:0:0:
329,225,100132,1,0,0:0:0:0:
251,276,100308,1,0,0:0:0:0:
231,280,100397,1,0,0:0:0:0:
212,285,100485,6,0,P|162:268|125:266,1,76.4999976654053
71,334,100838,1,0,0:0:0:0:
0,215,101014,2,0,P|35:201|73:195,1,76.4999976654053
189,215,101367,2,0,L|180:262,1,38.2499988327027
178,95,101544,2,0,P|147:72|112:56,1,76.4999976654053
284,210,101897,6,0,P|314:188|349:172,1,76.4999976654053
254,287,102249,1,0,0:0:0:0:
148,247,102426,2,0,P|113:231|75:224,1,76.4999976654053
181,154,102779,1,0,0:0:0:0:
67,246,102955,1,0,0:0:0:0:
18,166,103132,1,0,0:0:0:0:
196,326,103308,6,0,P|230:310|268:303,1,76.4999976654053
347,358,103661,1,0,0:0:0:0:
436,202,103838,1,0,0:0:0:0:
439,329,104014,2,0,P|459:290|449:206,1,114.749996498108
436,202,104367,1,0,0:0:0:0:
512,369,104544,1,0,0:0:0:0:
436,202,104720,6,0,P|416:163|419:101,1,76.4999976654053
453,44,105073,1,0,0:0:0:0:
342,195,105249,2,0,P|309:232|254:274,1,114.749996498108
236,281,105602,1,0,0:0:0:0:
335,114,105779,1,0,0:0:0:0:
385,263,105955,1,0,0:0:0:0:
175,106,106132,5,0,0:0:0:0:
53,182,106308,1,0,0:0:0:0:
32,178,106396,1,0,0:0:0:0:
11,174,106485,1,0,0:0:0:0:
159,281,106661,6,0,B|190:285|190:285|214:277|214:277|244:281,1,85
86,365,106838,5,0,0:0:0:0:
274,286,107014,1,0,0:0:0:0:
131,198,107191,5,0,0:0:0:0:
262,253,107367,1,0,0:0:0:0:
0,324,107544,6,0,P|43:292|144:284,1,140.25000428009
159,281,107897,1,0,0:0:0:0:
63,119,108073,1,0,0:0:0:0:
208,185,108249,2,0,P|138:179|80:141,1,140.25000428009
224,170,108779,1,0,0:0:0:0:
3,203,108955,5,0,0:0:0:0:
153,75,109132,6,0,B|146:33|146:33|120:-1,1,85
238,193,109308,5,0,0:0:0:0:
326,72,109485,1,0,0:0:0:0:
141,200,109661,1,0,0:0:0:0:
261,322,109838,2,0,L|324:310,1,46.7500014266968
122,302,110014,2,0,L|169:294,1,46.7500014266968
17,367,110191,2,0,L|80:355,1,46.7500014266968
202,147,110367,6,0,L|46:176,1,140.25000428009
52,191,110720,1,0,0:0:0:0:
121,54,110897,1,0,0:0:0:0:
256,229,111073,2,0,P|251:157|311:95,1,140.249999571991
158,234,111602,1,0,0:0:0:0:
305,124,111779,5,0,0:0:0:0:
424,221,111955,2,0,L|415:267,1,46.7500014266968
512,125,112132,1,0,0:0:0:0:
326,264,112308,1,0,0:0:0:0:
328,289,112396,1,0,0:0:0:0:
339,312,112485,1,0,0:0:0:0:
430,356,112661,1,0,0:0:0:0:
339,312,112838,1,0,0:0:0:0:
256,351,113014,1,0,0:0:0:0:
10,312,113191,6,0,B|74:320|74:320|106:304|106:304|170:312,1,159.375
185,314,113544,1,0,0:0:0:0:
16,332,113720,1,0,0:0:0:0:
177,216,113897,6,0,P|256:249|282:318,1,159.375
151,230,114249,1,0,0:0:0:0:
357,287,114426,1,0,0:0:0:0:
399,179,114602,6,0,P|425:110|498:31,1,159.375
411,201,114955,1,0,0:0:0:0:
344,85,115132,2,0,P|319:30|282:-1,1,106.25
279,158,115485,1,0,0:0:0:0:
404,0,115661,1,0,0:0:0:0:
425,229,115838,1,0,0:0:0:0:
512,119,116014,6,0,P|461:167|418:260,1,118.999996368408
382,384,116279,2,0,P|349:334|305:294,1,118.999996368408
164,369,116544,2,0,P|133:380|85:382,1,59.4999981842042
0,266,116720,6,0,P|42:217|108:218,1,136
240,345,116985,2,0,P|193:293|91:340,1,136
253,233,117249,2,0,P|282:214|322:215,1,68
457,351,117426,6,0,L|484:193,1,152.999995330811
367,10,117691,2,0,L|394:161,1,152.999995330811
340,284,117955,2,0,L|296:163,1,76.4999976654053
193,156,118132,6,0,B|124:164|124:164|92:148|92:148|23:156,1,170
174,284,118397,2,0,B|243:292|243:292|275:276|275:276|344:284,1,170
475,174,118661,2,0,B|441:163|441:163|424:169|424:169|391:159,1,85
287,26,118838,6,0,L|223:37,1,50.9999984436036
151,148,119014,1,0,0:0:0:0:
172,152,119102,1,0,0:0:0:0:
193,156,119191,6,0,L|256:167,1,50.9999984436036
62,40,119367,2,0,L|71:91,1,50.9999984436036
109,236,119544,5,0,0:0:0:0:
103,266,119632,1,0,0:0:0:0:
98,296,119720,1,0,0:0:0:0:
93,326,119808,1,0,0:0:0:0:
88,356,119897,5,0,0:0:0:0:
135,339,119985,1,0,0:0:0:0:
184,352,120073,1,0,0:0:0:0:
230,372,120161,1,0,0:0:0:0:
280,362,120249,5,0,0:0:0:0:
292,374,124485,6,0,L|370:360,1,56.6666666666667
195,287,124603,2,0,L|251:298,1,56.6666666666667
100,384,124720,2,0,L|174:356,1,56.6666666666667
39,276,124839,6,0,L|19:329,1,56.6666666666667
109,187,124955,2,0,L|120:243,1,56.6666666666667
49,83,125073,2,0,L|38:139,1,56.6666666666667
120,16,125191,6,0,B|181:-40|277:0|245:32|341:72|403:16,1,283.333333333333
475,33,125544,6,0,B|457:95|419:110|419:110|411:110|411:110|415:120|415:120|407:186|474:204,1,212.5
512,264,125897,6,0,B|472:207|425:212|425:212|445:277|445:277|433:278|433:278|446:277|446:277|485:389,1,311.666676177979
341,198,126249,6,0,B|299:148|299:148|287:236|287:236|292:250|292:250|281:329,1,247.916669030984
182,384,126602,5,0,0:0:0:0:
170,372,126713,6,0,P|173:339|180:310,1,62.3333352355958
86,322,126823,2,0,P|94:290|107:263,1,62.3333352355958
11,258,126933,2,0,P|25:228|41:203,1,62.3333352355958
278,306,127044,6,0,P|275:274|267:244,1,62.3333352355958
361,256,127154,2,0,P|352:225|340:197,1,62.3333352355958
429,207,127264,5,0,0:0:0:0:
436,191,127308,6,0,P|422:162|405:137,1,62.3333352355958
300,0,127573,6,0,P|286:29|269:54,1,62.3333352355958
197,148,127838,6,0,P|178:121|157:100,1,62.3333352355958
0,171,128014,6,0,P|88:148|41:304,1,311.666676177979
0,382,128367,6,0,P|37:322|94:302,1,113.333333333333
171,339,128544,6,0,P|182:329|191:318,1,28.3333333333333
273,181,128720,6,0,B|327:163|415:222|347:333|347:333|347:340|347:340|344:333|344:333|278:310,1,311.666676177979
294,96,129073,6,0,B|364:95|402:134|402:134|409:125|409:125|401:133|401:133|458:187|447:272,1,247.916669030984,0|0,0:0|0:0,3:0:0:0:
449,315,129426,5,0,0:0:0:0:
437,341,129514,6,0,P|470:344|499:351,1,62.3333352355958
356,244,129632,2,0,P|386:236|417:233,1,62.3333352355958
246,181,129749,2,0,P|271:163|299:149,1,62.3333352355958
341,341,129889,6,0,P|316:323|288:309,1,62.3333352355958
273,322,129977,6,0,P|300:335|326:354,1,62.3333352355958
196,264,130088,5,0,0:0:0:0:
188,282,130132,6,0,B|138:316|138:316|69:311,1,124.666670471192
72,181,130308,6,0,B|98:163|98:163|132:166,1,62.3333352355958
267,58,130485,6,0,L|245:180,1,124.666670471192
366,305,130661,6,0,L|351:220,1,62.3333352355958
477,88,130838,6,0,B|469:134|469:134|485:166|485:166|477:212,1,124.666670471192
398,173,131014,6,0,B|387:142|387:142|393:107,1,68
466,336,131191,2,0,B|412:296|348:320|380:352|316:376|262:336,1,204
248,317,131544,6,0,L|232:405,1,68
150,318,131720,2,0,L|139:251,1,68
337,208,131897,6,0,L|314:272,1,68
139,251,132249,6,0,L|116:187,1,68
283,81,132426,2,0,L|260:145,1,68
35,136,132602,6,0,L|23:68,1,68
283,81,132955,6,0,L|260:145,1,68
139,251,133132,2,0,L|116:187,1,68
337,208,133308,6,0,L|314:272,1,68
150,318,133661,6,0,L|139:251,1,68
248,317,133838,2,0,L|232:405,1,68
0,356,134014,6,0,L|66:368,1,68
219,242,134367,5,0,0:0:0:0:
240,196,134455,1,0,0:0:0:0:
236,146,134543,1,0,0:0:0:0:
207,104,134631,1,0,0:0:0:0:
162,82,134720,6,0,B|188:82|188:82|203:89|203:89|228:93,1,67.9574989112034
512,56,135073,5,0,0:0:0:0:
461,64,135161,1,0,0:0:0:0:
423,96,135249,1,0,0:0:0:0:
404,144,135337,1,0,0:0:0:0:
413,193,135426,5,0,0:0:0:0:
413,193,135602,2,0,B|388:173|373:136,1,68
497,318,135779,5,0,0:0:0:0:
450,309,135867,1,0,0:0:0:0:
403,301,135955,1,0,0:0:0:0:
356,293,136043,1,0,0:0:0:0:
309,284,136132,6,0,L|321:350,1,68
186,171,136485,5,0,0:0:0:0:
248,160,136573,1,0,0:0:0:0:
310,149,136661,1,0,0:0:0:0:
373,138,136749,1,0,0:0:0:0:
434,127,136838,6,0,L|418:214,1,67.9574989112034
403,301,137191,5,0,0:0:0:0:
317,64,137367,2,0,P|316:30|330:-1,1,68
325,75,137544,2,0,P|333:42|354:16,1,68
116,233,137720,5,0,0:0:0:0:
354,205,137897,2,0,L|448:188,1,68
362,216,138073,2,0,L|457:223,1,68
160,64,138249,5,0,0:0:0:0:
222,305,138426,2,0,B|219:340|219:340|199:365,1,68
233,313,138602,2,0,B|239:347|239:347|226:376,1,68
368,129,138779,5,0,0:0:0:0:
144,64,138955,2,0,B|119:60|119:60|104:53|104:53|78:53,1,67.9574989112034
152,75,139132,2,0,B|126:77|126:77|110:74|110:74|85:81,1,67.9574989112034
264,224,139308,6,0,B|289:220|289:220|304:213|304:213|330:213,1,67.9574989112034
222,321,139485,1,0,0:0:0:0:
416,274,139661,6,0,B|447:284|447:284|472:280|472:280|498:289,1,85
320,199,140014,5,0,0:0:0:0:
171,369,140191,2,0,B|174:334|174:334|194:309,1,68
160,361,140367,2,0,B|154:327|154:327|167:298,1,68
354,108,140544,5,0,0:0:0:0:
478,306,140720,2,0,P|479:272|465:241,1,68
470,317,140897,2,0,P|462:284|441:258,1,68
230,160,141073,5,0,0:0:0:0:
503,43,141249,2,0,B|478:47|478:47|463:54|463:54|437:54,1,67.9574989112034
511,32,141426,2,0,B|485:30|485:30|469:33|469:33|444:26,1,67.9574989112034
322,297,141602,5,0,0:0:0:0:
63,178,141779,2,0,L|157:161,1,68
71,189,141955,2,0,L|166:196,1,68
301,306,142132,6,0,L|318:212,1,68
221,362,142309,1,0,0:0:0:0:
375,163,142485,6,0,P|406:209|407:263,1,85
405,266,142749,1,0,0:0:0:0:
420,299,142838,6,0,P|431:267|453:241,1,68
