osu file format v14

[General]
AudioFilename: audio.mp3
AudioLeadIn: 0
PreviewTime: 99428
Countdown: 0
SampleSet: Soft
StackLeniency: 0.7
Mode: 3
LetterboxInBreaks: 0
SpecialStyle: 0
WidescreenStoryboard: 1

[Editor]
Bookmarks: 46285,46392,46500,46607,46714,46821,46928,47035,47142,47250,47357,47464,47571,47678,47785,47892,48000,92571,92678,92785,92892,93000,93107,93214,93321,93428,93535,93642,93750,93857,93964,94071,94178,94285,94392,94500,94607,94714,94821,94928,95035,95142,95250,95357,95464,95571,95678,95785,95892,96000,96107,96214,96321,96428,96535,96642,96750,96857,96964,97071,97178,97285,97392,97500,97607,97714,97821,97928,98035,98142,98250,98357,98464,98571,98678,98785,98892,99000,99107,99214,99321,99428,132000,132107,132214,132321,132428,132535,132642,132750,132857,132964,133071,133178,133285,133392,133500,133607,133714
DistanceSpacing: 2
BeatDivisor: 4
GridSize: 4
TimelineZoom: 1.7

[Metadata]
Title:R.I.O.T
TitleUnicode:R・I・O・T
Artist:RAISE A SUILEN
ArtistUnicode:RAISE A SUILEN
Creator:Ryu Sei
Version:Hard
Source:バンドリ!ガールズバンドパーティー!
Tags:BanG_Dream! Girls_Band_Party!
BeatmapID:1919487
BeatmapSetID:916808

[Difficulty]
HPDrainRate:7
CircleSize:4
OverallDifficulty:7
ApproachRate:5
SliderMultiplier:1.4
SliderTickRate:1

[Events]
//Background and Video events
0,0,"bg.jpg",0,0
//Break Periods
//Storyboard Layer 0 (Background)
//Storyboard Layer 1 (Fail)
//Storyboard Layer 2 (Pass)
//Storyboard Layer 3 (Foreground)
//Storyboard Sound Samples

[TimingPoints]
0,428.571428571429,4,2,1,5,1,0
4285,-100,4,2,1,70,0,0
8571,-200,4,2,2,70,0,0
15428,-100,4,2,2,70,0,0
22285,-100,4,2,1,70,0,0
26571,-100,4,2,2,70,0,0
30857,-100,4,2,2,70,0,1
46285,-55.5555555555556,4,2,2,70,0,0
46312,-500,4,2,2,70,0,0
46339,-55.5555555555556,4,2,2,70,0,0
46366,-500,4,2,2,70,0,0
46392,-55.5555555555556,4,2,2,70,0,0
46419,-500,4,2,2,70,0,0
46446,-55.5555555555556,4,2,2,70,0,0
46473,-500,4,2,2,70,0,0
46500,-55.5555555555556,4,2,2,70,0,0
46526,-500,4,2,2,70,0,0
46553,-55.5555555555556,4,2,2,70,0,0
46580,-500,4,2,2,70,0,0
46607,-55.5555555555556,4,2,2,70,0,0
46633,-500,4,2,2,70,0,0
46660,-55.5555555555556,4,2,2,70,0,0
46687,-500,4,2,2,70,0,0
46714,-52.6315789473684,4,2,2,70,0,0
46785,-1000,4,2,2,70,0,0
46857,-52.6315789473684,4,2,2,70,0,0
46928,-1000,4,2,2,70,0,0
47000,-52.6315789473684,4,2,2,70,0,0
47071,-1000,4,2,2,70,0,0
47142,-66.6666666666667,4,2,2,70,0,0
47196,-200,4,2,2,70,0,0
47250,-66.6666666666667,4,2,2,70,0,0
47303,-200,4,2,2,70,0,0
47357,-66.6666666666667,4,2,2,70,0,0
47410,-200,4,2,2,70,0,0
47464,-66.6666666666667,4,2,2,70,0,0
47517,-200,4,2,2,70,0,0
47571,-64.5161290322581,4,2,2,70,0,0
47598,-181.818181818182,4,2,2,70,0,0
47625,-62.5,4,2,2,70,0,0
47651,-250,4,2,2,70,0,0
47678,-60.6060606060606,4,2,2,70,0,0
47705,-285.714285714286,4,2,2,70,0,0
47732,-58.8235294117647,4,2,2,70,0,0
47758,-333.333333333333,4,2,2,70,0,0
47785,-57.1428571428571,4,2,2,70,0,0
47812,-400,4,2,2,70,0,0
47839,-55.5555555555556,4,2,2,70,0,0
47866,-500,4,2,2,70,0,0
47892,-54.054054054054,4,2,2,70,0,0
47919,-666.666666666667,4,2,2,70,0,0
47946,-52.6315789473684,4,2,2,70,0,0
47973,-1000,4,2,2,70,0,0
48000,-100,4,2,2,70,0,0
54000,-66.6666666666667,4,2,2,70,0,0
54035,-200,4,2,2,70,0,0
54071,-100,4,2,2,70,0,0
54142,-66.6666666666667,4,2,2,70,0,0
54178,-200,4,2,2,70,0,0
54214,-100,4,2,2,70,0,0
54285,-66.6666666666667,4,2,2,70,0,0
54321,-200,4,2,2,70,0,0
54357,-100,4,2,2,70,0,0
54428,-66.6666666666667,4,2,2,70,0,0
54464,-200,4,2,2,70,0,0
54500,-100,4,2,2,70,0,0
82285,-100,4,2,1,70,0,0
89142,-10,4,2,2,70,0,0
89169,-1000,4,2,2,70,0,0
90428,-200,4,2,2,70,0,0
92142,-100,4,2,2,70,0,0
93428,-100,4,2,1,70,0,0
96000,-100,4,2,2,70,0,0
96857,-100,4,2,1,70,0,0
99000,-52.6315789473684,4,2,1,70,0,0
99026,-1000,4,2,1,70,0,0
99053,-52.6315789473684,4,2,1,70,0,0
99080,-1000,4,2,1,70,0,0
99107,-52.6315789473684,4,2,1,70,0,0
99133,-1000,4,2,1,70,0,0
99160,-52.6315789473684,4,2,1,70,0,0
99187,-1000,4,2,1,70,0,0
99214,-52.6315789473684,4,2,1,70,0,0
99241,-1000,4,2,1,70,0,0
99267,-52.6315789473684,4,2,1,70,0,0
99294,-1000,4,2,1,70,0,0
99321,-52.6315789473684,4,2,1,70,0,0
99348,-1000,4,2,1,70,0,0
99375,-52.6315789473684,4,2,1,70,0,0
99401,-1000,4,2,1,70,0,0
99428,-100,4,2,2,70,0,1
114857,-100,4,2,1,70,0,1
117428,-14.6788990825688,4,2,2,70,0,0
117482,-400,4,2,2,70,0,0
117508,-363.636363636364,4,2,2,70,0,0
117535,-333.333333333333,4,2,2,70,0,0
117562,-307.692307692308,4,2,2,70,0,0
117589,-285.714285714286,4,2,2,70,0,0
117616,-266.666666666667,4,2,2,70,0,0
117642,-250,4,2,2,70,0,0
117669,-235.294117647059,4,2,2,70,0,0
117696,-222.222222222222,4,2,2,70,0,0
117723,-210.526315789474,4,2,2,70,0,0
117750,-200,4,2,2,70,0,0
117776,-190.47619047619,4,2,2,70,0,0
117803,-181.818181818182,4,2,2,70,0,0
117830,-173.913043478261,4,2,2,70,0,0
117857,-166.666666666667,4,2,2,70,0,0
117883,-160,4,2,2,70,0,0
117910,-153.846153846154,4,2,2,70,0,0
117937,-148.148148148148,4,2,2,70,0,0
117964,-142.857142857143,4,2,2,70,0,0
117991,-137.931034482759,4,2,2,70,0,0
118017,-133.333333333333,4,2,2,70,0,0
118044,-129.032258064516,4,2,2,70,0,0
118071,-125,4,2,2,70,0,0
118098,-121.212121212121,4,2,2,70,0,0
118125,-117.647058823529,4,2,2,70,0,0
118151,-114.285714285714,4,2,2,70,0,0
118178,-111.111111111111,4,2,2,70,0,0
118205,-108.108108108108,4,2,2,70,0,0
118232,-105.263157894737,4,2,2,70,0,0
118258,-102.564102564103,4,2,2,70,0,0
118285,-100,4,2,2,70,0,1
132000,-55.5555555555556,4,2,2,70,0,0
132026,-500,4,2,2,70,0,0
132053,-55.5555555555556,4,2,2,70,0,0
132080,-500,4,2,2,70,0,0
132107,-55.5555555555556,4,2,2,70,0,0
132133,-500,4,2,2,70,0,0
132160,-55.5555555555556,4,2,2,70,0,0
132187,-500,4,2,2,70,0,0
132214,-55.5555555555556,4,2,2,70,0,0
132241,-500,4,2,2,70,0,0
132267,-55.5555555555556,4,2,2,70,0,0
132294,-500,4,2,2,70,0,0
132321,-55.5555555555556,4,2,2,70,0,0
132348,-500,4,2,2,70,0,0
132375,-55.5555555555556,4,2,2,70,0,0
132401,-500,4,2,2,70,0,0
132428,-52.6315789473684,4,2,2,70,0,0
132500,-1000,4,2,2,70,0,0
132571,-52.6315789473684,4,2,2,70,0,0
132642,-1000,4,2,2,70,0,0
132714,-52.6315789473684,4,2,2,70,0,0
132785,-1000,4,2,2,70,0,0
132857,-66.6666666666667,4,2,2,70,0,0
132910,-200,4,2,2,70,0,0
132964,-66.6666666666667,4,2,2,70,0,0
133017,-200,4,2,2,70,0,0
133071,-66.6666666666667,4,2,2,70,0,0
133125,-200,4,2,2,70,0,0
133178,-66.6666666666667,4,2,2,70,0,0
133232,-200,4,2,2,70,0,0
133285,-64.5161290322581,4,2,2,70,0,0
133312,-222.222222222222,4,2,2,70,0,0
133339,-62.5,4,2,2,70,0,0
133366,-250,4,2,2,70,0,0
133392,-60.6060606060606,4,2,2,70,0,0
133419,-285.714285714286,4,2,2,70,0,0
133446,-58.8235294117647,4,2,2,70,0,0
133473,-333.333333333333,4,2,2,70,0,0
133500,-57.1428571428571,4,2,2,70,0,0
133526,-400,4,2,2,70,0,0
133553,-55.5555555555556,4,2,2,70,0,0
133580,-500,4,2,2,70,0,0
133607,-54.054054054054,4,2,2,70,0,0
133633,-666.666666666667,4,2,2,70,0,0
133660,-52.6315789473684,4,2,2,70,0,0
133687,-1000,4,2,2,70,0,0
133714,-100,4,2,1,70,0,0

[HitObjects]
64,192,1714,128,0,5142:0:0:0:0:
448,192,3428,128,0,5142:0:0:0:0:
192,192,4571,1,2,0:0:0:0:
320,192,4642,1,2,0:0:0:0:
192,192,4714,1,2,0:0:0:0:
192,192,5142,1,0,0:0:0:0:
320,192,5142,1,0,0:0:0:0:
448,192,5250,1,0,0:0:0:0:
64,192,5357,1,8,0:0:0:0:
192,192,5464,1,0,0:0:0:0:
448,192,5571,1,8,0:0:0:0:
192,192,5678,1,0,0:0:0:0:
64,192,5785,1,8,0:0:0:0:
448,192,5892,1,0,0:0:0:0:
192,192,6000,1,8,0:0:0:0:
320,192,6107,1,0,0:0:0:0:
64,192,6214,1,8,0:0:0:0:
320,192,6321,1,0,0:0:0:0:
448,192,6428,1,8,0:0:0:0:
320,192,6535,1,0,0:0:0:0:
192,192,6642,1,8,0:0:0:0:
64,192,6750,1,0,0:0:0:0:
320,192,6857,1,8,0:0:0:0:
192,192,6964,1,8,0:0:0:0:
320,192,7071,1,8,0:0:0:0:
192,192,7178,1,8,0:0:0:0:
448,192,7285,1,8,0:0:0:0:
64,192,7392,1,8,0:0:0:0:
448,192,7500,1,8,0:0:0:0:
64,192,7607,1,8,0:0:0:0:
448,192,7714,1,0,3:0:0:0:
320,192,7714,1,8,0:0:0:0:
64,192,7821,1,0,3:0:0:0:
192,192,7821,1,8,0:0:0:0:
320,192,7928,1,8,0:0:0:0:
448,192,7928,1,0,3:0:0:0:
192,192,8035,1,8,0:0:0:0:
64,192,8035,1,0,3:0:0:0:
320,192,8142,1,8,0:0:0:0:
448,192,8142,1,0,3:0:0:0:
192,192,8250,1,8,0:0:0:0:
64,192,8250,1,0,3:0:0:0:
448,192,8357,1,0,3:0:0:0:
320,192,8357,1,8,0:0:0:0:
64,192,8464,1,0,3:0:0:0:
192,192,8464,1,8,0:0:0:0:
448,192,8571,1,4,0:0:0:0:
320,192,8571,128,0,10285:0:0:0:0:
192,192,10285,128,0,12000:0:0:0:0:
448,192,12000,128,0,13714:0:0:0:0:
64,192,13714,128,0,14571:0:0:0:0:
320,192,14571,128,0,15428:0:0:0:0:
192,192,14785,1,0,3:0:0:0:
192,192,15000,1,0,3:0:0:0:
448,192,15000,1,4,0:0:0:0:
64,192,15428,1,4,0:0:0:0:
192,192,15428,1,2,0:0:0:0:
448,192,15428,1,0,3:0:0:0:
192,192,15857,1,2,0:0:0:0:
448,192,15857,1,0,3:0:0:0:
64,192,16285,1,0,3:0:0:0:
192,192,16285,1,2,0:0:0:0:
448,192,16285,1,4,0:0:0:0:
64,192,16928,1,2,0:0:0:0:
448,192,16928,1,0,3:0:0:0:
64,192,17142,1,2,0:0:0:0:
448,192,17142,1,0,3:0:0:0:
64,192,17464,1,2,0:0:0:0:
448,192,17464,1,0,3:0:0:0:
64,192,17785,1,2,0:0:0:0:
448,192,17785,1,0,3:0:0:0:
192,192,18000,1,4,0:0:0:0:
448,192,18000,1,0,3:0:0:0:
64,192,18000,1,2,0:0:0:0:
192,192,18321,1,0,3:0:0:0:
320,192,18321,1,0,0:0:0:0:
64,192,18428,1,0,3:0:0:0:
448,192,18428,1,0,0:0:0:0:
192,192,18535,1,0,0:0:0:0:
320,192,18535,1,0,3:0:0:0:
64,192,18642,1,0,0:0:0:0:
448,192,18642,1,0,3:0:0:0:
192,192,18857,128,0,19285:0:0:0:0:
448,192,18857,1,4,0:0:0:0:
320,192,18857,1,2,0:0:0:0:
448,192,19285,128,0,19714:0:0:0:0:
64,192,19285,1,4,0:0:0:0:
320,192,19285,1,2,0:0:0:0:
320,192,19714,128,0,20142:0:0:0:0:
64,192,19714,1,2,0:0:0:0:
192,192,19714,1,4,0:0:0:0:
64,192,20142,128,0,20571:0:0:0:0:
192,192,20142,1,4,0:0:0:0:
448,192,20142,1,2,0:0:0:0:
448,192,20571,128,0,21000:0:0:0:0:
192,192,20571,1,4,0:0:0:0:
320,192,20571,1,2,0:0:0:0:
192,192,21000,128,0,21428:0:0:0:0:
64,192,21000,1,2,0:0:0:0:
320,192,21000,1,4,0:0:0:0:
320,192,21428,128,0,21857:0:0:0:0:
64,192,21428,1,4,0:0:0:0:
448,192,21428,1,2,0:0:0:0:
448,192,21857,128,0,22285:0:0:0:0:
192,192,21857,1,4,0:0:0:0:
64,192,21857,1,2,0:0:0:0:
64,192,22285,1,8,0:0:0:0:
192,192,22392,1,8,0:0:0:0:
448,192,22500,1,8,0:0:0:0:
320,192,22607,1,8,0:0:0:0:
64,192,22714,1,8,0:0:0:0:
320,192,22821,1,8,0:0:0:0:
192,192,22928,1,8,0:0:0:0:
448,192,23035,1,8,0:0:0:0:
192,192,23142,1,8,0:0:0:0:
320,192,23250,1,8,0:0:0:0:
448,192,23357,1,8,0:0:0:0:
64,192,23464,1,8,0:0:0:0:
448,192,23571,1,8,0:0:0:0:
192,192,23678,1,8,0:0:0:0:
320,192,23785,1,8,0:0:0:0:
64,192,23892,1,8,0:0:0:0:
320,192,24000,1,8,0:0:0:0:
192,192,24107,1,8,0:0:0:0:
64,192,24214,1,8,0:0:0:0:
320,192,24321,1,8,0:0:0:0:
448,192,24428,1,8,0:0:0:0:
192,192,24535,1,8,0:0:0:0:
320,192,24642,1,8,0:0:0:0:
448,192,24750,1,8,0:0:0:0:
320,192,24857,1,8,0:0:0:0:
192,192,24964,1,8,0:0:0:0:
64,192,25071,1,8,0:0:0:0:
320,192,25178,1,8,0:0:0:0:
64,192,25285,1,8,0:0:0:0:
448,192,25392,1,8,0:0:0:0:
320,192,25500,1,8,0:0:0:0:
64,192,25607,1,8,0:0:0:0:
192,192,25714,1,8,0:0:0:0:
448,192,25821,1,8,0:0:0:0:
64,192,25928,1,8,0:0:0:0:
320,192,26035,1,8,0:0:0:0:
192,192,26142,1,8,0:0:0:0:
448,192,26250,1,8,0:0:0:0:
320,192,26357,1,8,0:0:0:0:
64,192,26464,1,8,0:0:0:0:
192,192,26571,1,2,0:0:0:0:
320,192,26571,1,2,0:0:0:0:
448,192,27428,1,4,3:0:0:0:
448,192,27857,1,4,3:0:0:0:
64,192,28285,1,4,3:0:0:0:
64,192,28714,1,4,3:0:0:0:
192,192,29142,1,0,3:0:0:0:
320,192,29250,1,0,3:0:0:0:
192,192,29357,1,0,3:0:0:0:
320,192,29571,1,0,3:0:0:0:
192,192,29678,1,0,3:0:0:0:
448,192,30000,1,0,3:0:0:0:
320,192,30107,1,0,3:0:0:0:
192,192,30214,1,0,3:0:0:0:
64,192,30321,1,0,3:0:0:0:
448,192,30428,1,0,3:0:0:0:
320,192,30535,1,0,3:0:0:0:
64,192,30642,1,0,3:0:0:0:
192,192,30750,1,0,3:0:0:0:
448,192,30857,1,0,0:0:0:0:
64,192,30857,1,2,0:0:0:0:
320,192,30857,1,4,0:0:0:0:
448,192,31071,1,0,0:0:0:0:
320,192,31285,1,0,0:0:0:0:
64,192,31285,1,2,0:0:0:0:
192,192,31500,1,0,0:0:0:0:
64,192,31714,1,0,0:0:0:0:
448,192,31714,1,2,0:0:0:0:
320,192,31928,1,0,0:0:0:0:
64,192,32142,1,0,0:0:0:0:
448,192,32142,1,2,0:0:0:0:
320,192,32357,1,0,0:0:0:0:
64,192,32571,1,0,0:0:0:0:
192,192,32571,1,2,0:0:0:0:
448,192,32785,1,0,0:0:0:0:
192,192,33000,1,0,0:0:0:0:
320,192,33000,1,2,0:0:0:0:
64,192,33214,1,0,0:0:0:0:
192,192,33214,1,0,0:0:0:0:
320,192,33321,1,0,0:0:0:0:
448,192,33428,1,2,0:0:0:0:
64,192,33642,1,0,0:0:0:0:
320,192,33857,1,2,0:0:0:0:
448,192,34071,1,0,0:0:0:0:
320,192,34071,1,0,0:0:0:0:
192,192,34178,1,0,0:0:0:0:
64,192,34285,1,0,0:0:0:0:
448,192,34285,1,2,0:0:0:0:
192,192,34500,1,0,0:0:0:0:
448,192,34714,1,0,0:0:0:0:
320,192,34714,1,2,0:0:0:0:
192,192,34928,1,0,0:0:0:0:
64,192,35142,1,0,0:0:0:0:
320,192,35142,1,2,0:0:0:0:
192,192,35357,1,0,0:0:0:0:
64,192,35571,1,0,0:0:0:0:
448,192,35571,1,2,0:0:0:0:
320,192,35785,1,0,0:0:0:0:
192,192,36000,1,2,0:0:0:0:
448,192,36000,1,0,0:0:0:0:
64,192,36214,1,0,0:0:0:0:
320,192,36428,1,2,0:0:0:0:
448,192,36428,1,0,0:0:0:0:
192,192,36642,1,0,0:0:0:0:
320,192,36642,1,0,0:0:0:0:
448,192,36750,1,0,0:0:0:0:
64,192,36857,1,2,0:0:0:0:
448,192,37071,1,0,0:0:0:0:
192,192,37285,1,0,3:0:0:0:
64,192,37392,1,0,3:0:0:0:
448,192,37500,1,0,3:0:0:0:
320,192,37607,1,0,3:0:0:0:
64,192,37714,1,0,0:0:0:0:
448,192,37714,1,2,0:0:0:0:
192,192,37714,1,4,0:0:0:0:
64,192,37928,1,0,0:0:0:0:
192,192,38142,1,0,0:0:0:0:
448,192,38142,1,2,0:0:0:0:
320,192,38357,1,0,0:0:0:0:
448,192,38571,1,0,0:0:0:0:
64,192,38571,1,2,0:0:0:0:
192,192,38785,1,0,0:0:0:0:
448,192,39000,1,0,0:0:0:0:
64,192,39000,1,2,0:0:0:0:
192,192,39214,1,0,0:0:0:0:
448,192,39428,1,0,0:0:0:0:
320,192,39428,1,2,0:0:0:0:
64,192,39642,1,0,0:0:0:0:
320,192,39857,1,0,0:0:0:0:
192,192,39857,1,2,0:0:0:0:
448,192,40071,1,0,0:0:0:0:
320,192,40071,1,0,0:0:0:0:
192,192,40178,1,0,0:0:0:0:
64,192,40285,1,2,0:0:0:0:
448,192,40500,1,0,0:0:0:0:
192,192,40714,1,2,0:0:0:0:
64,192,40928,1,0,0:0:0:0:
192,192,40928,1,0,0:0:0:0:
320,192,41035,1,0,0:0:0:0:
448,192,41142,1,0,0:0:0:0:
64,192,41142,1,2,0:0:0:0:
320,192,41357,1,0,0:0:0:0:
64,192,41571,1,0,0:0:0:0:
192,192,41571,1,2,0:0:0:0:
320,192,41785,1,0,0:0:0:0:
448,192,42000,1,0,0:0:0:0:
192,192,42000,1,2,0:0:0:0:
320,192,42214,1,0,0:0:0:0:
448,192,42428,1,0,0:0:0:0:
64,192,42428,1,2,0:0:0:0:
192,192,42642,1,0,0:0:0:0:
320,192,42857,1,2,0:0:0:0:
64,192,42857,1,0,0:0:0:0:
448,192,43071,1,0,0:0:0:0:
192,192,43285,1,2,0:0:0:0:
64,192,43285,1,0,0:0:0:0:
320,192,43500,1,0,0:0:0:0:
192,192,43500,1,0,0:0:0:0:
64,192,43607,1,0,0:0:0:0:
448,192,43714,1,2,0:0:0:0:
320,192,43821,1,0,0:0:0:0:
64,192,43928,1,0,0:0:0:0:
320,192,44142,1,0,3:0:0:0:
192,192,44357,1,0,3:0:0:0:
64,192,44571,1,0,3:0:0:0:
320,192,44678,1,0,3:0:0:0:
64,192,44785,1,0,3:0:0:0:
320,192,44892,1,0,3:0:0:0:
192,192,45000,1,0,3:0:0:0:
448,192,45107,5,0,3:0:0:0:
192,192,45214,1,8,3:0:0:0:
448,192,45321,1,8,3:0:0:0:
64,192,45428,1,8,3:0:0:0:
320,192,45535,1,8,3:0:0:0:
64,192,45642,1,8,3:0:0:0:
320,192,45750,1,8,3:0:0:0:
448,192,45857,1,8,3:0:0:0:
320,192,45964,1,8,3:0:0:0:
192,192,46071,1,8,3:0:0:0:
64,192,46178,1,8,3:0:0:0:
448,192,46285,128,0,46714:0:0:0:0:
64,192,46714,128,0,47142:0:0:0:0:
448,192,47142,128,0,47571:0:0:0:0:
64,192,47571,128,0,48000:0:0:0:0:
192,192,48000,1,4,0:0:0:0:
320,192,48000,1,0,0:0:0:0:
448,192,48000,1,2,0:0:0:0:
320,192,48428,1,0,0:0:0:0:
448,192,48428,1,2,0:0:0:0:
64,192,48857,1,4,0:0:0:0:
320,192,48857,1,0,0:0:0:0:
448,192,48857,1,2,0:0:0:0:
64,192,49446,1,2,0:0:0:0:
192,192,49446,1,0,0:0:0:0:
448,192,49526,1,0,0:0:0:0:
320,192,49526,1,2,0:0:0:0:
64,192,49714,1,2,0:0:0:0:
192,192,49714,1,0,0:0:0:0:
448,192,49714,1,0,0:0:0:0:
64,192,50035,1,2,0:0:0:0:
192,192,50035,1,0,0:0:0:0:
64,192,50357,1,2,0:0:0:0:
192,192,50357,1,0,0:0:0:0:
64,192,50571,1,2,0:0:0:0:
192,192,50571,1,0,0:0:0:0:
448,192,50571,1,4,0:0:0:0:
64,192,51428,1,0,0:0:0:0:
192,192,51428,1,2,0:0:0:0:
448,192,51428,1,4,0:0:0:0:
192,192,51750,1,2,0:0:0:0:
64,192,51750,1,0,0:0:0:0:
64,192,52071,1,0,0:0:0:0:
192,192,52071,1,2,0:0:0:0:
64,192,52285,1,0,0:0:0:0:
192,192,52285,1,2,0:0:0:0:
448,192,52285,1,4,0:0:0:0:
320,192,52928,1,2,0:0:0:0:
448,192,52928,1,0,0:0:0:0:
320,192,53142,1,2,0:0:0:0:
448,192,53142,1,0,0:0:0:0:
64,192,53142,1,4,0:0:0:0:
192,192,53357,1,0,3:0:0:0:
320,192,53357,1,2,0:0:0:0:
320,192,53785,1,2,0:0:0:0:
448,192,53785,1,0,0:0:0:0:
192,192,54000,128,0,54428:0:0:0:0:
64,192,54000,1,2,0:0:0:0:
448,192,54000,1,4,0:0:0:0:
64,192,54428,1,2,0:0:0:0:
448,192,54428,1,4,3:0:0:0:
448,192,54642,1,4,3:0:0:0:
64,192,54642,1,2,0:0:0:0:
64,192,54857,1,4,0:0:0:0:
192,192,54857,1,2,0:0:0:0:
320,192,54857,1,0,0:0:0:0:
192,192,55178,1,2,0:0:0:0:
320,192,55178,1,0,0:0:0:0:
192,192,55500,1,2,0:0:0:0:
320,192,55500,1,0,0:0:0:0:
192,192,55714,1,2,0:0:0:0:
320,192,55714,1,0,0:0:0:0:
448,192,55714,1,4,0:0:0:0:
64,192,56357,1,4,3:0:0:0:
448,192,56357,1,2,0:0:0:0:
192,192,56571,1,0,0:0:0:0:
320,192,56571,1,2,0:0:0:0:
448,192,56571,1,4,0:0:0:0:
320,192,56892,1,2,0:0:0:0:
192,192,56892,1,0,0:0:0:0:
320,192,57214,1,2,0:0:0:0:
192,192,57214,1,0,0:0:0:0:
192,192,57428,1,0,0:0:0:0:
320,192,57428,1,2,0:0:0:0:
64,192,57428,1,4,0:0:0:0:
192,192,58285,1,2,0:0:0:0:
448,192,58285,1,0,0:0:0:0:
320,192,58285,1,4,0:0:0:0:
192,192,58607,1,2,0:0:0:0:
448,192,58607,1,0,0:0:0:0:
192,192,58928,1,2,0:0:0:0:
448,192,58928,1,0,0:0:0:0:
192,192,59142,1,2,0:0:0:0:
448,192,59142,1,0,0:0:0:0:
64,192,59142,1,4,0:0:0:0:
448,192,59571,1,0,3:0:0:0:
192,192,60000,1,4,0:0:0:0:
64,192,60000,1,0,0:0:0:0:
320,192,60000,1,2,0:0:0:0:
448,192,60214,1,2,0:0:0:0:
64,192,60321,1,0,0:0:0:0:
320,192,60321,1,2,0:0:0:0:
64,192,60642,1,0,0:0:0:0:
320,192,60642,1,2,0:0:0:0:
448,192,60857,1,2,0:0:0:0:
64,192,60857,1,0,3:0:0:0:
192,192,60857,1,4,0:0:0:0:
320,192,60964,1,0,3:0:0:0:
192,192,61071,1,0,3:0:0:0:
64,192,61178,1,0,3:0:0:0:
320,192,61285,1,0,3:0:0:0:
448,192,61392,1,0,0:0:0:0:
64,192,61500,1,0,3:0:0:0:
192,192,61607,1,0,0:0:0:0:
448,192,61714,1,2,0:0:0:0:
64,192,61714,1,4,0:0:0:0:
320,192,61714,1,0,0:0:0:0:
192,192,61928,1,0,0:0:0:0:
64,192,62142,1,2,0:0:0:0:
448,192,62142,1,0,0:0:0:0:
320,192,62357,1,0,0:0:0:0:
192,192,62571,1,2,0:0:0:0:
448,192,62571,1,0,0:0:0:0:
320,192,62785,1,0,0:0:0:0:
448,192,63000,1,2,0:0:0:0:
64,192,63000,1,0,0:0:0:0:
192,192,63214,1,0,0:0:0:0:
64,192,63428,1,2,0:0:0:0:
320,192,63428,1,0,0:0:0:0:
448,192,63642,1,0,0:0:0:0:
320,192,63857,1,2,0:0:0:0:
192,192,63857,1,0,0:0:0:0:
64,192,64071,1,0,0:0:0:0:
192,192,64285,1,2,0:0:0:0:
448,192,64285,1,0,0:0:0:0:
320,192,64500,1,0,0:0:0:0:
64,192,64714,1,2,0:0:0:0:
192,192,64714,1,0,0:0:0:0:
448,192,64928,1,0,0:0:0:0:
64,192,65142,1,2,0:0:0:0:
192,192,65142,1,0,0:0:0:0:
320,192,65357,1,0,0:0:0:0:
448,192,65571,1,2,0:0:0:0:
64,192,65571,1,0,0:0:0:0:
192,192,65785,1,0,0:0:0:0:
320,192,66000,1,2,0:0:0:0:
64,192,66000,1,0,0:0:0:0:
192,192,66214,1,0,0:0:0:0:
64,192,66428,1,2,0:0:0:0:
448,192,66428,1,0,0:0:0:0:
320,192,66642,1,0,0:0:0:0:
448,192,66857,1,2,0:0:0:0:
192,192,66857,1,0,0:0:0:0:
64,192,67071,1,0,0:0:0:0:
192,192,67285,1,2,0:0:0:0:
320,192,67285,1,0,0:0:0:0:
448,192,67500,1,0,0:0:0:0:
320,192,67714,1,2,0:0:0:0:
64,192,67714,1,0,0:0:0:0:
192,192,67928,1,0,0:0:0:0:
448,192,68142,1,2,0:0:0:0:
320,192,68142,1,0,0:0:0:0:
64,192,68357,1,0,0:0:0:0:
192,192,68571,1,0,0:0:0:0:
448,192,68571,1,2,0:0:0:0:
320,192,68785,1,0,0:0:0:0:
448,192,69000,1,0,0:0:0:0:
64,192,69000,1,2,0:0:0:0:
192,192,69214,1,0,0:0:0:0:
448,192,69428,1,0,0:0:0:0:
320,192,69428,1,2,0:0:0:0:
192,192,69642,1,0,0:0:0:0:
64,192,69857,1,0,0:0:0:0:
448,192,69857,1,2,0:0:0:0:
320,192,70071,1,0,0:0:0:0:
192,192,70285,1,0,0:0:0:0:
64,192,70285,1,2,0:0:0:0:
448,192,70500,1,0,0:0:0:0:
320,192,70714,1,0,0:0:0:0:
192,192,70714,1,2,0:0:0:0:
64,192,70928,1,0,0:0:0:0:
448,192,71142,1,0,0:0:0:0:
320,192,71142,1,2,0:0:0:0:
192,192,71357,1,0,0:0:0:0:
320,192,71571,1,0,0:0:0:0:
64,192,71571,1,2,0:0:0:0:
448,192,71785,1,0,0:0:0:0:
320,192,72000,1,0,0:0:0:0:
64,192,72000,1,2,0:0:0:0:
192,192,72214,1,0,0:0:0:0:
64,192,72428,1,0,0:0:0:0:
448,192,72428,1,2,0:0:0:0:
320,192,72642,1,0,0:0:0:0:
64,192,72857,1,0,0:0:0:0:
192,192,72857,1,2,0:0:0:0:
320,192,73071,1,0,0:0:0:0:
448,192,73285,1,0,0:0:0:0:
64,192,73285,1,2,0:0:0:0:
192,192,73500,1,0,0:0:0:0:
320,192,73714,5,0,0:0:0:0:
448,192,73714,1,2,0:0:0:0:
64,192,73928,1,0,0:0:0:0:
192,192,74142,1,0,0:0:0:0:
320,192,74142,1,2,0:0:0:0:
448,192,74357,1,0,0:0:0:0:
64,192,74571,1,0,0:0:0:0:
192,192,74571,1,2,0:0:0:0:
448,192,74785,1,8,3:0:0:0:
320,192,74892,1,8,3:0:0:0:
192,192,75000,1,4,3:0:0:0:
64,192,75107,1,4,3:0:0:0:
192,192,75214,1,4,3:0:0:0:
448,192,75321,1,4,3:0:0:0:
320,192,75428,1,4,3:0:0:0:
64,192,75428,1,4,0:0:0:0:
320,192,75857,1,4,3:0:0:0:
320,192,76285,1,4,3:0:0:0:
320,192,76714,1,4,3:0:0:0:
320,192,77142,1,4,3:0:0:0:
192,192,77142,1,0,0:0:0:0:
320,192,77571,1,4,3:0:0:0:
64,192,77785,1,2,3:0:0:0:
320,192,78000,1,4,3:0:0:0:
64,192,78214,1,2,3:0:0:0:
320,192,78428,1,4,3:0:0:0:
64,192,78428,1,2,3:0:0:0:
320,192,78857,1,4,3:0:0:0:
448,192,78857,1,0,0:0:0:0:
192,192,78857,1,2,3:0:0:0:
320,192,79285,1,4,3:0:0:0:
320,192,79714,1,4,3:0:0:0:
320,192,80142,1,4,3:0:0:0:
192,192,80357,1,2,3:0:0:0:
448,192,80464,1,2,3:0:0:0:
320,192,80571,1,4,3:0:0:0:
64,192,80571,1,0,0:0:0:0:
192,192,80571,1,2,3:0:0:0:
320,192,81000,1,4,3:0:0:0:
448,192,81214,1,2,3:0:0:0:
320,192,81428,1,4,3:0:0:0:
64,192,81642,1,8,3:0:0:0:
320,192,81857,1,4,3:0:0:0:
64,192,81857,1,8,3:0:0:0:
64,192,82071,1,8,3:0:0:0:
448,192,82285,1,4,0:0:0:0:
192,192,82285,1,0,0:0:0:0:
320,192,82285,1,0,0:0:0:0:
192,192,82500,1,0,0:0:0:0:
64,192,82714,1,0,0:0:0:0:
448,192,82714,1,0,0:0:0:0:
448,192,82928,1,0,0:0:0:0:
192,192,83142,1,0,0:0:0:0:
64,192,83142,1,0,0:0:0:0:
448,192,83357,1,0,0:0:0:0:
320,192,83571,1,8,0:0:0:0:
192,192,83571,1,0,0:0:0:0:
64,192,83785,1,0,0:0:0:0:
192,192,84000,1,0,0:0:0:0:
448,192,84000,1,0,0:0:0:0:
320,192,84214,1,0,0:0:0:0:
448,192,84428,1,0,0:0:0:0:
192,192,84428,1,0,0:0:0:0:
64,192,84642,1,0,0:0:0:0:
192,192,84857,1,0,0:0:0:0:
448,192,84857,1,0,0:0:0:0:
320,192,84964,1,8,0:0:0:0:
64,192,85071,1,0,0:0:0:0:
448,192,85285,1,8,0:0:0:0:
192,192,85285,1,0,0:0:0:0:
320,192,85500,1,0,0:0:0:0:
192,192,85714,1,0,0:0:0:0:
64,192,85714,1,0,0:0:0:0:
448,192,85714,1,0,0:0:0:0:
320,192,85928,1,0,0:0:0:0:
448,192,86142,1,0,0:0:0:0:
192,192,86142,1,0,0:0:0:0:
64,192,86357,1,0,0:0:0:0:
192,192,86571,1,0,0:0:0:0:
320,192,86571,1,0,0:0:0:0:
448,192,86785,1,0,0:0:0:0:
320,192,87000,1,8,0:0:0:0:
64,192,87000,1,0,0:0:0:0:
448,192,87214,1,0,0:0:0:0:
64,192,87428,1,0,0:0:0:0:
192,192,87428,1,0,0:0:0:0:
320,192,87535,1,0,0:0:0:0:
448,192,87535,1,0,0:0:0:0:
192,192,87642,1,0,0:0:0:0:
64,192,87642,1,0,0:0:0:0:
320,192,87750,1,0,0:0:0:0:
448,192,87750,1,0,0:0:0:0:
64,192,87857,1,0,0:0:0:0:
192,192,87857,1,0,0:0:0:0:
448,192,87964,1,0,0:0:0:0:
320,192,87964,1,0,0:0:0:0:
192,192,88071,1,0,0:0:0:0:
64,192,88071,1,0,0:0:0:0:
320,192,88178,1,0,0:0:0:0:
448,192,88178,1,0,0:0:0:0:
64,192,88285,1,0,0:0:0:0:
192,192,88285,1,0,0:0:0:0:
448,192,88392,1,0,0:0:0:0:
320,192,88392,1,0,0:0:0:0:
192,192,88500,1,0,0:0:0:0:
64,192,88500,1,0,0:0:0:0:
320,192,88607,1,0,0:0:0:0:
448,192,88607,1,0,0:0:0:0:
64,192,88714,1,0,0:0:0:0:
192,192,88714,1,0,0:0:0:0:
448,192,88821,1,0,0:0:0:0:
320,192,88821,1,0,0:0:0:0:
192,192,88928,1,0,0:0:0:0:
64,192,88928,1,0,0:0:0:0:
320,192,89035,1,0,0:0:0:0:
448,192,89035,1,0,0:0:0:0:
64,192,89142,1,0,0:0:0:0:
192,192,89142,1,0,0:0:0:0:
448,192,90857,5,0,0:0:0:0:
64,192,91071,1,0,0:0:0:0:
192,192,91178,1,0,0:0:0:0:
448,192,91285,1,0,0:0:0:0:
64,192,91392,1,0,0:0:0:0:
192,192,91500,1,0,0:0:0:0:
448,192,91607,1,0,0:0:0:0:
192,192,91714,1,0,0:0:0:0:
448,192,91821,1,0,0:0:0:0:
64,192,91928,1,0,3:0:0:0:
320,192,92035,1,0,3:0:0:0:
192,192,92142,1,0,0:0:0:0:
448,192,92142,1,4,0:0:0:0:
64,192,92571,1,2,0:0:0:0:
192,192,92571,1,0,0:0:0:0:
320,192,92571,1,0,0:0:0:0:
448,192,92571,1,4,0:0:0:0:
64,192,92892,1,2,0:0:0:0:
192,192,92892,1,0,0:0:0:0:
320,192,92892,1,0,0:0:0:0:
64,192,93214,1,2,0:0:0:0:
320,192,93214,1,0,0:0:0:0:
192,192,93214,1,0,0:0:0:0:
192,192,93428,1,0,3:0:0:0:
320,192,93428,1,0,0:0:0:0:
448,192,93428,1,8,0:0:0:0:
192,192,93750,1,0,3:0:0:0:
320,192,93750,1,0,0:0:0:0:
448,192,93750,1,8,0:0:0:0:
192,192,94071,1,0,3:0:0:0:
320,192,94071,1,0,0:0:0:0:
448,192,94071,1,8,0:0:0:0:
64,192,94285,1,0,3:0:0:0:
192,192,94285,1,0,0:0:0:0:
448,192,94607,1,0,0:0:0:0:
320,192,94607,1,0,0:0:0:0:
192,192,94928,1,0,0:0:0:0:
64,192,94928,1,0,0:0:0:0:
320,192,95142,1,4,3:0:0:0:
448,192,95142,1,0,0:0:0:0:
192,192,95464,1,4,3:0:0:0:
64,192,95464,1,0,0:0:0:0:
448,192,95785,1,0,0:0:0:0:
320,192,95785,1,8,0:0:0:0:
64,192,96000,1,2,0:0:0:0:
192,192,96000,1,0,0:0:0:0:
320,192,96000,1,0,0:0:0:0:
448,192,96000,1,4,0:0:0:0:
64,192,96214,1,2,0:0:0:0:
192,192,96321,1,0,0:0:0:0:
320,192,96321,1,0,0:0:0:0:
64,192,96535,1,2,0:0:0:0:
320,192,96642,1,0,0:0:0:0:
192,192,96642,1,0,0:0:0:0:
192,192,96857,1,0,3:0:0:0:
320,192,96857,1,0,0:0:0:0:
448,192,96857,1,8,0:0:0:0:
192,192,97178,1,0,3:0:0:0:
320,192,97178,1,0,0:0:0:0:
448,192,97178,1,8,0:0:0:0:
448,192,97392,1,0,3:0:0:0:
192,192,97500,1,8,0:0:0:0:
320,192,97500,1,0,0:0:0:0:
64,192,97714,1,0,3:0:0:0:
192,192,97714,1,0,0:0:0:0:
448,192,98035,1,0,0:0:0:0:
320,192,98035,1,0,0:0:0:0:
192,192,98357,1,0,0:0:0:0:
64,192,98357,1,0,0:0:0:0:
320,192,98571,1,4,3:0:0:0:
448,192,98571,1,0,0:0:0:0:
192,192,98678,1,4,3:0:0:0:
64,192,98678,1,0,0:0:0:0:
320,192,98785,1,4,3:0:0:0:
448,192,98785,1,0,0:0:0:0:
192,192,98892,1,4,3:0:0:0:
64,192,98892,1,0,0:0:0:0:
448,192,99000,128,0,99428:0:0:0:0:
64,192,99428,1,4,0:0:0:0:
320,192,99428,1,0,0:0:0:0:
192,192,99428,1,0,0:0:0:0:
448,192,99642,1,0,0:0:0:0:
320,192,99857,1,0,0:0:0:0:
64,192,99857,1,0,0:0:0:0:
192,192,99857,1,0,0:0:0:0:
192,192,100071,1,0,0:0:0:0:
64,192,100285,1,0,0:0:0:0:
320,192,100285,1,0,0:0:0:0:
448,192,100500,1,0,0:0:0:0:
192,192,100714,1,0,0:0:0:0:
320,192,100714,1,0,0:0:0:0:
64,192,100714,1,0,0:0:0:0:
64,192,100928,1,0,0:0:0:0:
448,192,101142,1,0,0:0:0:0:
320,192,101142,1,0,0:0:0:0:
192,192,101357,1,0,0:0:0:0:
64,192,101571,1,0,0:0:0:0:
320,192,101571,1,0,0:0:0:0:
192,192,101571,1,0,0:0:0:0:
448,192,101785,1,0,0:0:0:0:
192,192,102000,1,0,0:0:0:0:
64,192,102000,1,0,0:0:0:0:
320,192,102214,1,0,0:0:0:0:
448,192,102428,1,0,0:0:0:0:
64,192,102428,1,0,0:0:0:0:
320,192,102428,1,0,0:0:0:0:
192,192,102642,1,0,0:0:0:0:
64,192,102857,1,0,0:0:0:0:
448,192,102857,1,0,0:0:0:0:
192,192,103071,1,0,0:0:0:0:
320,192,103285,1,0,0:0:0:0:
448,192,103285,1,0,0:0:0:0:
64,192,103285,1,0,0:0:0:0:
64,192,103500,1,0,0:0:0:0:
192,192,103714,1,0,0:0:0:0:
320,192,103714,1,0,0:0:0:0:
320,192,103928,1,0,0:0:0:0:
448,192,104142,1,0,0:0:0:0:
64,192,104142,1,0,0:0:0:0:
192,192,104142,1,0,0:0:0:0:
192,192,104357,1,0,0:0:0:0:
320,192,104571,1,0,0:0:0:0:
448,192,104571,1,0,0:0:0:0:
192,192,104785,1,0,0:0:0:0:
64,192,105000,1,0,0:0:0:0:
448,192,105000,1,0,0:0:0:0:
320,192,105000,1,0,0:0:0:0:
320,192,105214,1,0,0:0:0:0:
192,192,105428,1,0,0:0:0:0:
64,192,105428,1,0,0:0:0:0:
320,192,105535,1,0,0:0:0:0:
192,192,105642,1,0,0:0:0:0:
448,192,105857,1,0,0:0:0:0:
64,192,105857,1,0,0:0:0:0:
320,192,105857,1,0,0:0:0:0:
320,192,106071,1,0,0:0:0:0:
320,192,106285,1,0,0:0:0:0:
192,192,106285,1,0,0:0:0:0:
448,192,106285,1,4,0:0:0:0:
64,192,106500,1,0,0:0:0:0:
320,192,106714,1,0,0:0:0:0:
448,192,106714,1,0,0:0:0:0:
192,192,106714,1,0,0:0:0:0:
320,192,106928,1,0,0:0:0:0:
192,192,107142,1,0,0:0:0:0:
448,192,107142,1,0,0:0:0:0:
64,192,107357,1,0,0:0:0:0:
448,192,107571,1,0,0:0:0:0:
192,192,107571,1,0,0:0:0:0:
320,192,107571,1,0,0:0:0:0:
448,192,107785,1,0,0:0:0:0:
192,192,108000,1,0,0:0:0:0:
64,192,108000,1,0,0:0:0:0:
320,192,108214,1,0,0:0:0:0:
320,192,108428,1,0,0:0:0:0:
192,192,108428,1,0,0:0:0:0:
448,192,108428,1,0,0:0:0:0:
64,192,108642,1,0,0:0:0:0:
448,192,108857,1,0,0:0:0:0:
320,192,108857,1,0,0:0:0:0:
192,192,109071,1,0,0:0:0:0:
192,192,109285,1,0,0:0:0:0:
448,192,109285,1,0,0:0:0:0:
64,192,109285,1,0,0:0:0:0:
320,192,109500,1,0,0:0:0:0:
64,192,109714,1,0,0:0:0:0:
448,192,109714,1,0,0:0:0:0:
320,192,109928,1,0,0:0:0:0:
448,192,110142,1,0,0:0:0:0:
64,192,110142,1,0,0:0:0:0:
192,192,110142,1,0,0:0:0:0:
448,192,110357,1,0,0:0:0:0:
192,192,110571,1,0,0:0:0:0:
320,192,110571,1,0,0:0:0:0:
192,192,110785,1,0,0:0:0:0:
320,192,111000,1,0,0:0:0:0:
448,192,111000,1,0,0:0:0:0:
64,192,111000,1,0,0:0:0:0:
320,192,111214,1,0,0:0:0:0:
64,192,111428,1,0,0:0:0:0:
192,192,111428,1,0,0:0:0:0:
320,192,111642,1,0,0:0:0:0:
192,192,111857,1,0,0:0:0:0:
64,192,111857,1,0,0:0:0:0:
448,192,111857,1,0,0:0:0:0:
192,192,112071,1,0,0:0:0:0:
448,192,112285,1,0,0:0:0:0:
320,192,112285,1,0,0:0:0:0:
192,192,112392,1,0,0:0:0:0:
320,192,112500,1,0,0:0:0:0:
192,192,112714,1,0,0:0:0:0:
448,192,112714,1,0,0:0:0:0:
64,192,112714,1,0,0:0:0:0:
192,192,112928,1,0,0:0:0:0:
64,192,113142,1,0,0:0:0:0:
192,192,113142,1,4,0:0:0:0:
320,192,113571,1,4,0:0:0:0:
448,192,113571,1,0,0:0:0:0:
64,192,114000,1,0,0:0:0:0:
192,192,114000,1,4,0:0:0:0:
320,192,114428,1,4,0:0:0:0:
448,192,114428,1,0,0:0:0:0:
64,192,114857,1,8,0:0:0:0:
192,192,114964,1,8,0:0:0:0:
320,192,115071,1,8,0:0:0:0:
448,192,115178,1,8,0:0:0:0:
64,192,115285,1,8,0:0:0:0:
192,192,115392,1,8,0:0:0:0:
448,192,115500,1,8,0:0:0:0:
320,192,115607,1,8,0:0:0:0:
448,192,115714,1,8,0:0:0:0:
320,192,115821,1,8,0:0:0:0:
192,192,115928,1,8,0:0:0:0:
64,192,116035,1,8,0:0:0:0:
448,192,116142,1,8,0:0:0:0:
320,192,116250,5,8,0:0:0:0:
64,192,116357,1,8,0:0:0:0:
192,192,116464,1,8,0:0:0:0:
320,192,116571,1,8,0:0:0:0:
448,192,116571,1,0,0:0:0:0:
192,192,116678,1,8,0:0:0:0:
64,192,116678,1,0,0:0:0:0:
320,192,116785,1,8,0:0:0:0:
448,192,116785,1,0,0:0:0:0:
192,192,116892,1,8,0:0:0:0:
64,192,116892,1,0,0:0:0:0:
448,192,117000,1,0,0:0:0:0:
320,192,117000,1,8,0:0:0:0:
64,192,117107,1,0,0:0:0:0:
192,192,117107,1,8,0:0:0:0:
320,192,117214,1,8,0:0:0:0:
448,192,117214,1,0,0:0:0:0:
192,192,117321,1,8,0:0:0:0:
64,192,117321,1,0,0:0:0:0:
320,192,117428,5,0,3:0:0:0:
448,192,117428,1,0,3:0:0:0:
448,192,118285,1,0,0:0:0:0:
64,192,118285,1,2,0:0:0:0:
192,192,118285,1,4,0:0:0:0:
320,192,118500,1,0,0:0:0:0:
64,192,118714,1,2,0:0:0:0:
192,192,118928,1,0,0:0:0:0:
320,192,118928,1,0,0:0:0:0:
448,192,119142,1,2,0:0:0:0:
192,192,119357,1,0,0:0:0:0:
448,192,119571,1,2,0:0:0:0:
320,192,119785,1,0,0:0:0:0:
192,192,119785,1,0,0:0:0:0:
64,192,120000,1,2,0:0:0:0:
448,192,120214,1,0,0:0:0:0:
192,192,120428,1,2,0:0:0:0:
64,192,120642,1,0,0:0:0:0:
320,192,120642,1,0,0:0:0:0:
448,192,120857,1,2,0:0:0:0:
64,192,121071,1,0,0:0:0:0:
192,192,121285,1,2,0:0:0:0:
320,192,121500,1,0,0:0:0:0:
64,192,121714,1,0,0:0:0:0:
448,192,121714,1,2,0:0:0:0:
320,192,121928,1,0,0:0:0:0:
192,192,122142,1,2,0:0:0:0:
448,192,122357,1,0,0:0:0:0:
320,192,122357,1,0,0:0:0:0:
192,192,122571,1,2,0:0:0:0:
320,192,122785,1,0,0:0:0:0:
64,192,123000,1,0,0:0:0:0:
448,192,123000,1,2,0:0:0:0:
192,192,123214,1,0,0:0:0:0:
320,192,123214,1,0,0:0:0:0:
320,192,123428,1,2,0:0:0:0:
448,192,123428,1,0,0:0:0:0:
64,192,123642,1,0,0:0:0:0:
192,192,123642,1,0,0:0:0:0:
192,192,123857,1,2,0:0:0:0:
448,192,123857,1,0,0:0:0:0:
320,192,124071,1,0,0:0:0:0:
192,192,124071,1,0,0:0:0:0:
64,192,124285,1,2,0:0:0:0:
320,192,124285,1,0,0:0:0:0:
448,192,124500,1,0,0:0:0:0:
320,192,124714,1,0,3:0:0:0:
192,192,124714,1,0,0:0:0:0:
64,192,124821,1,0,3:0:0:0:
448,192,124928,1,0,3:0:0:0:
192,192,125035,1,0,3:0:0:0:
64,192,125142,1,0,0:0:0:0:
448,192,125142,1,2,0:0:0:0:
320,192,125142,1,4,0:0:0:0:
192,192,125357,1,0,0:0:0:0:
448,192,125571,1,2,0:0:0:0:
192,192,125785,1,0,0:0:0:0:
320,192,125785,1,0,0:0:0:0:
64,192,126000,1,2,0:0:0:0:
320,192,126214,1,0,0:0:0:0:
64,192,126428,1,2,0:0:0:0:
320,192,126642,1,0,0:0:0:0:
192,192,126642,1,0,0:0:0:0:
192,192,126857,1,2,0:0:0:0:
64,192,127071,1,0,0:0:0:0:
320,192,127285,1,2,0:0:0:0:
448,192,127500,1,0,0:0:0:0:
192,192,127500,1,0,0:0:0:0:
64,192,127714,1,2,0:0:0:0:
448,192,127928,1,0,0:0:0:0:
320,192,128142,1,2,0:0:0:0:
320,192,128357,1,0,0:0:0:0:
448,192,128571,1,0,0:0:0:0:
64,192,128571,1,2,0:0:0:0:
192,192,128785,1,0,0:0:0:0:
64,192,129000,1,0,0:0:0:0:
320,192,129000,1,2,0:0:0:0:
192,192,129214,1,0,0:0:0:0:
448,192,129428,1,0,0:0:0:0:
320,192,129428,1,2,0:0:0:0:
192,192,129642,1,0,0:0:0:0:
448,192,129857,1,0,0:0:0:0:
64,192,129857,1,2,0:0:0:0:
320,192,130071,1,0,0:0:0:0:
192,192,130285,1,2,0:0:0:0:
64,192,130285,1,0,0:0:0:0:
448,192,130500,1,0,0:0:0:0:
320,192,130714,1,2,0:0:0:0:
64,192,130714,1,0,0:0:0:0:
192,192,130928,1,0,0:0:0:0:
448,192,131142,1,0,3:0:0:0:
320,192,131142,1,0,0:0:0:0:
192,192,131250,1,0,3:0:0:0:
64,192,131357,1,0,3:0:0:0:
192,192,131464,1,0,3:0:0:0:
320,192,131571,1,0,3:0:0:0:
448,192,131678,1,0,3:0:0:0:
320,192,131785,1,0,3:0:0:0:
192,192,131892,1,0,3:0:0:0:
64,192,132000,128,0,132428:0:0:0:0:
448,192,132428,128,0,132857:0:0:0:0:
64,192,132857,128,0,133285:0:0:0:0:
448,192,133285,128,0,133714:0:0:0:0:
64,192,133714,1,0,0:0:0:0:
192,192,133714,1,8,0:0:0:0:
320,192,133714,1,0,0:0:0:0:
64,192,134035,1,0,0:0:0:0:
192,192,134035,1,8,0:0:0:0:
320,192,134035,1,0,0:0:0:0:
192,192,134357,1,4,0:0:0:0:
320,192,134357,1,8,0:0:0:0:
448,192,134357,1,0,0:0:0:0:
