osu file format v14

[General]
AudioFilename: audio.mp3
AudioLeadIn: 0
PreviewTime: 146057
Countdown: 0
SampleSet: Soft
StackLeniency: 0.7
Mode: 3
LetterboxInBreaks: 0
SpecialStyle: 0
WidescreenStoryboard: 0

[Editor]
Bookmarks: 24801,32872,54496,61349,117390,124243,136882,144192,178608,187136
DistanceSpacing: 1.6
BeatDivisor: 4
GridSize: 4
TimelineZoom: 3.300001

[Metadata]
Title:HELL! or HELL?
TitleUnicode:HELL! or HELL?
Artist:RAISE A SUILEN
ArtistUnicode:RAISE A SUILEN
Creator:RiP46
Version:Retribution
Source:BanG Dream!
Tags:FAMoss バンドリ! bandori project garupa ガルパ 4th single drive us crazy japanese rock j-rock jrock electronic anime Raychell レイチェル Layer レイヤ Wakana Rei 和奏 レイ Natsume 夏芽 MASKING マスキング Satou Masuki 佐藤 ますき Kohara Riko 小原 莉子 Lock Asahi Rokka 朝日 六花 Kurachi Reo 倉知 玲鳳 Pareo パレオ Nyubara Reona 鳰原 れおな Tsumugi Risa 紡木 吏佐 ChuChu チュチュ chu2 Tamade Chiyu 珠手 ちゆ ras the third 仮 1st album era Oda Asuka 織田あすか Kikuta Daisuke 菊田大介 Elements Garden
BeatmapID:3353892
BeatmapSetID:1643126

[Difficulty]
HPDrainRate:8
CircleSize:4
OverallDifficulty:8
ApproachRate:5
SliderMultiplier:1.4
SliderTickRate:1

[Events]
//Background and Video events
0,0,"BG.jpg",0,0
//Break Periods
//Storyboard Layer 0 (Background)
//Storyboard Layer 1 (Fail)
//Storyboard Layer 2 (Pass)
//Storyboard Layer 3 (Foreground)
//Storyboard Layer 4 (Overlay)
//Storyboard Sound Samples

[TimingPoints]
436,304.568527918782,4,2,1,60,1,0
85867,-100,4,2,2,60,0,0
94243,-100,4,2,1,60,0,0

[HitObjects]
320,192,588,5,2,0:0:0:0:
448,192,588,128,0,740:0:0:0:0:
64,192,740,128,0,892:0:0:0:0:
320,192,892,128,2,1045:0:0:0:0:
448,192,892,1,0,0:0:0:0:
192,192,1045,128,0,1197:0:0:0:0:
64,192,1197,1,2,0:0:0:0:
448,192,1197,128,0,1273:0:0:0:0:
320,192,1273,128,0,1349:0:0:0:0:
192,192,1349,128,0,1501:0:0:0:0:
320,192,1501,1,2,0:0:0:0:
448,192,1501,128,0,1654:0:0:0:0:
64,192,1654,128,0,1958:0:0:0:0:
192,192,1806,1,2,0:0:0:0:
448,192,1806,1,0,0:0:0:0:
320,192,1958,128,0,2111:0:0:0:0:
64,192,2111,1,2,0:0:0:0:
192,192,2111,128,0,2263:0:0:0:0:
448,192,2263,128,0,2415:0:0:0:0:
64,192,2415,128,2,2491:0:0:0:0:
320,192,2415,1,0,0:0:0:0:
192,192,2491,128,0,2567:0:0:0:0:
320,192,2567,128,0,2720:0:0:0:0:
64,192,2720,128,2,2872:0:0:0:0:
192,192,2720,1,0,0:0:0:0:
448,192,2872,128,0,3177:0:0:0:0:
64,192,3024,1,2,0:0:0:0:
320,192,3024,1,0,0:0:0:0:
192,192,3177,128,0,3329:0:0:0:0:
320,192,3329,128,2,3481:0:0:0:0:
448,192,3329,1,0,0:0:0:0:
64,192,3481,128,0,3633:0:0:0:0:
192,192,3633,1,2,0:0:0:0:
448,192,3633,128,0,3710:0:0:0:0:
320,192,3710,128,0,3786:0:0:0:0:
192,192,3786,128,0,4014:0:0:0:0:
64,192,3938,1,2,0:0:0:0:
448,192,3938,1,0,0:0:0:0:
192,192,4090,128,0,4395:0:0:0:0:
320,192,4243,1,2,0:0:0:0:
448,192,4243,1,0,0:0:0:0:
448,192,4395,128,0,4471:0:0:0:0:
320,192,4471,128,0,4547:0:0:0:0:
64,192,4547,1,2,0:0:0:0:
192,192,4547,128,0,4623:0:0:0:0:
448,192,4623,128,0,4699:0:0:0:0:
64,192,4699,128,0,4776:0:0:0:0:
192,192,4776,128,0,4852:0:0:0:0:
320,192,4852,128,2,4928:0:0:0:0:
448,192,4852,1,0,0:0:0:0:
64,192,4928,128,0,5004:0:0:0:0:
448,192,5004,128,0,5080:0:0:0:0:
192,192,5080,128,0,5156:0:0:0:0:
320,192,5156,128,2,5232:0:0:0:0:
448,192,5156,1,0,0:0:0:0:
64,192,5232,128,0,5309:0:0:0:0:
448,192,5309,128,0,5613:0:0:0:0:
192,192,5461,1,2,0:0:0:0:
320,192,5461,1,0,0:0:0:0:
64,192,5613,128,0,5765:0:0:0:0:
320,192,5765,128,2,5918:0:0:0:0:
448,192,5765,1,0,0:0:0:0:
192,192,5918,128,0,6070:0:0:0:0:
64,192,6070,1,2,0:0:0:0:
448,192,6070,128,0,6146:0:0:0:0:
320,192,6146,128,0,6222:0:0:0:0:
448,192,6222,128,0,6375:0:0:0:0:
64,192,6375,128,2,6527:0:0:0:0:
192,192,6375,1,0,0:0:0:0:
320,192,6527,128,0,6831:0:0:0:0:
192,192,6679,1,2,0:0:0:0:
448,192,6679,1,0,0:0:0:0:
64,192,6831,128,0,6908:0:0:0:0:
192,192,6908,128,0,6984:0:0:0:0:
64,192,6984,128,2,7136:0:0:0:0:
320,192,6984,1,0,0:0:0:0:
448,192,7136,128,0,7288:0:0:0:0:
64,192,7288,1,2,0:0:0:0:
192,192,7288,128,0,7364:0:0:0:0:
320,192,7364,128,0,7441:0:0:0:0:
192,192,7441,128,0,7593:0:0:0:0:
320,192,7593,1,2,0:0:0:0:
448,192,7593,128,0,7745:0:0:0:0:
64,192,7745,128,0,7974:0:0:0:0:
320,192,7897,1,2,0:0:0:0:
448,192,7897,1,0,0:0:0:0:
192,192,7974,1,0,0:0:0:0:
448,192,8050,128,0,8202:0:0:0:0:
320,192,8126,1,0,0:0:0:0:
64,192,8202,128,2,8354:0:0:0:0:
192,192,8202,1,0,0:0:0:0:
448,192,8278,1,0,0:0:0:0:
320,192,8354,128,0,8507:0:0:0:0:
448,192,8430,1,0,0:0:0:0:
64,192,8507,128,2,8583:0:0:0:0:
192,192,8507,1,0,0:0:0:0:
448,192,8583,128,2,8659:0:0:0:0:
192,192,8659,128,2,8735:0:0:0:0:
320,192,8735,128,2,8811:0:0:0:0:
64,192,8811,128,2,8887:0:0:0:0:
448,192,8887,128,2,8963:0:0:0:0:
64,192,8963,128,0,9192:0:0:0:0:
64,192,9268,128,0,9420:0:0:0:0:
448,192,9420,128,0,9725:0:0:0:0:
64,192,9725,128,0,9877:0:0:0:0:
320,192,9877,1,8,0:0:0:0:
448,192,9877,1,0,0:0:0:0:
192,192,9877,1,0,0:0:0:0:
320,192,10029,1,8,0:0:0:0:
448,192,10029,1,0,0:0:0:0:
192,192,10029,1,0,0:0:0:0:
64,192,10182,128,2,10410:0:0:0:0:
192,192,10182,128,4,10410:0:0:0:0:
448,192,10182,128,0,10410:0:0:0:0:
64,192,10486,1,2,0:0:0:0:
448,192,10486,1,0,0:0:0:0:
320,192,10562,1,0,0:0:0:0:
64,192,10639,128,8,10867:0:0:0:0:
192,192,10639,128,0,10867:0:0:0:0:
448,192,10639,128,0,10867:0:0:0:0:
64,192,10943,1,2,0:0:0:0:
192,192,10943,1,0,0:0:0:0:
320,192,11095,1,2,0:0:0:0:
448,192,11095,1,0,0:0:0:0:
64,192,11248,1,8,0:0:0:0:
192,192,11248,1,0,0:0:0:0:
448,192,11248,1,0,0:0:0:0:
192,192,11400,1,2,0:0:0:0:
320,192,11400,128,4,11628:0:0:0:0:
448,192,11400,128,0,11628:0:0:0:0:
64,192,11552,1,0,0:0:0:0:
192,192,11628,1,0,0:0:0:0:
64,192,11705,1,2,0:0:0:0:
448,192,11705,1,0,0:0:0:0:
320,192,11781,1,0,0:0:0:0:
64,192,11857,128,8,12009:0:0:0:0:
192,192,11857,1,0,0:0:0:0:
448,192,11857,1,0,0:0:0:0:
320,192,12009,128,0,12161:0:0:0:0:
64,192,12161,128,2,12314:0:0:0:0:
448,192,12161,1,0,0:0:0:0:
192,192,12238,128,0,12314:0:0:0:0:
320,192,12314,1,2,0:0:0:0:
448,192,12314,1,0,0:0:0:0:
64,192,12466,1,8,0:0:0:0:
192,192,12466,1,0,0:0:0:0:
448,192,12466,1,0,0:0:0:0:
320,192,12618,128,4,12847:0:0:0:0:
448,192,12618,128,0,12847:0:0:0:0:
64,192,12618,128,2,12847:0:0:0:0:
64,192,12923,1,2,0:0:0:0:
192,192,12923,1,0,0:0:0:0:
64,192,13075,1,8,0:0:0:0:
320,192,13075,1,0,0:0:0:0:
448,192,13075,1,0,0:0:0:0:
192,192,13151,1,0,0:0:0:0:
64,192,13227,1,0,0:0:0:0:
448,192,13227,1,0,0:0:0:0:
192,192,13380,1,2,0:0:0:0:
320,192,13380,1,0,0:0:0:0:
192,192,13532,1,2,0:0:0:0:
448,192,13532,1,0,0:0:0:0:
64,192,13684,1,8,0:0:0:0:
320,192,13684,1,0,0:0:0:0:
448,192,13684,1,0,0:0:0:0:
64,192,13837,128,2,14141:0:0:0:0:
192,192,13837,128,4,14141:0:0:0:0:
448,192,13837,1,0,0:0:0:0:
448,192,14141,1,2,0:0:0:0:
320,192,14217,1,0,0:0:0:0:
64,192,14293,1,8,0:0:0:0:
192,192,14293,1,0,0:0:0:0:
448,192,14293,1,0,0:0:0:0:
320,192,14370,1,0,0:0:0:0:
64,192,14446,1,0,0:0:0:0:
448,192,14446,1,0,0:0:0:0:
192,192,14598,1,2,0:0:0:0:
320,192,14598,1,0,0:0:0:0:
64,192,14750,1,2,0:0:0:0:
192,192,14750,1,0,0:0:0:0:
64,192,14903,1,8,0:0:0:0:
320,192,14903,1,0,0:0:0:0:
448,192,14903,1,0,0:0:0:0:
64,192,15055,128,2,15359:0:0:0:0:
192,192,15055,128,4,15359:0:0:0:0:
448,192,15055,1,0,0:0:0:0:
320,192,15359,1,2,0:0:0:0:
448,192,15359,1,0,0:0:0:0:
64,192,15512,1,8,0:0:0:0:
192,192,15512,128,0,15664:0:0:0:0:
448,192,15512,1,0,0:0:0:0:
320,192,15664,1,0,0:0:0:0:
64,192,15816,1,2,0:0:0:0:
448,192,15816,128,0,15968:0:0:0:0:
320,192,15892,128,0,15968:0:0:0:0:
64,192,15968,1,2,0:0:0:0:
192,192,15968,1,0,0:0:0:0:
320,192,16045,1,0,0:0:0:0:
64,192,16121,1,8,0:0:0:0:
192,192,16121,1,0,0:0:0:0:
448,192,16121,1,0,0:0:0:0:
64,192,16273,1,2,0:0:0:0:
320,192,16273,128,4,16578:0:0:0:0:
448,192,16273,128,0,16578:0:0:0:0:
64,192,16578,1,2,0:0:0:0:
192,192,16578,1,0,0:0:0:0:
320,192,16654,1,0,0:0:0:0:
64,192,16730,128,8,16882:0:0:0:0:
192,192,16730,1,0,0:0:0:0:
448,192,16730,1,0,0:0:0:0:
320,192,16882,128,8,17034:0:0:0:0:
64,192,17034,128,2,17187:0:0:0:0:
448,192,17034,1,0,0:0:0:0:
192,192,17111,128,0,17187:0:0:0:0:
320,192,17187,1,2,0:0:0:0:
448,192,17187,1,0,0:0:0:0:
64,192,17339,1,8,0:0:0:0:
192,192,17339,1,0,0:0:0:0:
448,192,17339,1,0,0:0:0:0:
64,192,17491,1,2,0:0:0:0:
320,192,17491,128,4,17796:0:0:0:0:
448,192,17491,128,0,17796:0:0:0:0:
64,192,17796,1,2,0:0:0:0:
192,192,17796,1,0,0:0:0:0:
320,192,17872,1,2,0:0:0:0:
64,192,17948,1,8,0:0:0:0:
192,192,17948,1,0,0:0:0:0:
448,192,17948,1,0,0:0:0:0:
192,192,18100,1,2,0:0:0:0:
320,192,18100,1,0,0:0:0:0:
64,192,18253,1,8,0:0:0:0:
320,192,18253,1,0,0:0:0:0:
448,192,18253,1,0,0:0:0:0:
192,192,18329,1,0,0:0:0:0:
64,192,18405,1,2,0:0:0:0:
448,192,18405,1,0,0:0:0:0:
64,192,18557,1,8,0:0:0:0:
192,192,18557,1,0,0:0:0:0:
448,192,18557,1,0,0:0:0:0:
192,192,18710,1,2,0:0:0:0:
320,192,18710,1,4,0:0:0:0:
64,192,18862,1,8,0:0:0:0:
320,192,18862,1,0,0:0:0:0:
448,192,18862,1,0,0:0:0:0:
64,192,19014,1,2,0:0:0:0:
448,192,19014,1,0,0:0:0:0:
320,192,19090,1,0,0:0:0:0:
64,192,19166,128,8,19395:0:0:0:0:
192,192,19166,128,0,19395:0:0:0:0:
448,192,19166,128,0,19395:0:0:0:0:
64,192,19471,1,8,0:0:0:0:
448,192,19471,1,0,0:0:0:0:
192,192,19522,1,0,0:0:0:0:
320,192,19573,1,0,0:0:0:0:
64,192,19623,1,2,0:0:0:0:
448,192,19623,1,0,0:0:0:0:
192,192,19674,1,0,0:0:0:0:
320,192,19725,1,0,0:0:0:0:
64,192,19776,1,8,0:0:0:0:
192,192,19776,1,0,0:0:0:0:
448,192,19776,1,0,0:0:0:0:
64,192,19928,1,2,0:0:0:0:
320,192,19928,128,4,20232:0:0:0:0:
448,192,19928,128,0,20232:0:0:0:0:
64,192,20232,1,2,0:0:0:0:
192,192,20232,1,0,0:0:0:0:
320,192,20385,1,2,0:0:0:0:
448,192,20385,128,0,20537:0:0:0:0:
192,192,20537,128,0,20689:0:0:0:0:
64,192,20689,1,8,0:0:0:0:
320,192,20689,128,4,20994:0:0:0:0:
448,192,20689,1,0,0:0:0:0:
64,192,20842,128,0,20994:0:0:0:0:
192,192,20994,128,0,21146:0:0:0:0:
64,192,21146,128,2,21451:0:0:0:0:
320,192,21146,1,4,0:0:0:0:
448,192,21146,1,0,0:0:0:0:
320,192,21298,128,0,21451:0:0:0:0:
192,192,21451,1,8,0:0:0:0:
448,192,21451,128,0,21603:0:0:0:0:
64,192,21603,1,2,0:0:0:0:
192,192,21603,128,0,21755:0:0:0:0:
320,192,21755,1,2,0:0:0:0:
448,192,21755,1,0,0:0:0:0:
64,192,21908,128,8,22212:0:0:0:0:
192,192,21908,1,4,0:0:0:0:
448,192,21908,128,0,22060:0:0:0:0:
320,192,22060,128,0,22212:0:0:0:0:
192,192,22212,128,0,22364:0:0:0:0:
64,192,22364,1,2,0:0:0:0:
320,192,22364,128,4,22669:0:0:0:0:
448,192,22364,128,0,22669:0:0:0:0:
64,192,22669,128,8,22821:0:0:0:0:
192,192,22669,1,0,0:0:0:0:
320,192,22821,128,2,22974:0:0:0:0:
448,192,22821,1,0,0:0:0:0:
192,192,22974,128,0,23126:0:0:0:0:
64,192,23126,1,8,0:0:0:0:
320,192,23126,1,4,0:0:0:0:
448,192,23126,128,0,23430:0:0:0:0:
64,192,23278,128,0,23430:0:0:0:0:
320,192,23430,128,0,23583:0:0:0:0:
64,192,23583,128,2,23887:0:0:0:0:
192,192,23583,1,4,0:0:0:0:
448,192,23583,1,0,0:0:0:0:
320,192,23735,128,0,23887:0:0:0:0:
192,192,23887,128,8,24040:0:0:0:0:
448,192,23887,1,0,0:0:0:0:
320,192,24040,1,2,0:0:0:0:
448,192,24040,128,0,24192:0:0:0:0:
64,192,24192,1,8,0:0:0:0:
192,192,24192,1,0,0:0:0:0:
320,192,24268,1,8,0:0:0:0:
64,192,24344,128,8,24649:0:0:0:0:
192,192,24344,1,0,0:0:0:0:
448,192,24344,1,0,0:0:0:0:
320,192,24496,1,0,0:0:0:70:LR_Tom Hit 2.wav
448,192,24496,1,0,0:0:0:0:
192,192,24649,1,0,0:0:0:70:LR_Tom Hit 3.wav
320,192,24649,1,0,0:0:0:0:
64,192,24801,1,2,0:0:0:0:
192,192,24801,1,4,0:0:0:0:
448,192,24801,1,0,0:0:0:0:
320,192,25106,128,0,25258:0:0:0:0:
64,192,25258,128,2,25410:0:0:0:0:
192,192,25258,1,0,0:0:0:0:
448,192,25410,128,0,25562:0:0:0:0:
64,192,25562,1,2,0:0:0:0:
192,192,25562,128,0,25715:0:0:0:0:
320,192,25715,128,0,25867:0:0:0:0:
64,192,25867,1,2,0:0:0:0:
448,192,25867,1,0,0:0:0:0:
192,192,26019,128,0,26172:0:0:0:0:
320,192,26172,1,2,0:0:0:0:
448,192,26172,128,0,26324:0:0:0:0:
64,192,26324,128,0,26476:0:0:0:0:
320,192,26476,128,2,26628:0:0:0:0:
448,192,26476,1,0,0:0:0:0:
192,192,26628,128,0,26781:0:0:0:0:
64,192,26781,128,2,26933:0:0:0:0:
448,192,26781,1,0,0:0:0:0:
320,192,26933,128,0,27085:0:0:0:0:
64,192,27085,1,2,0:0:0:0:
448,192,27085,1,0,0:0:0:0:
320,192,27238,1,0,0:0:0:0:
192,192,27314,1,0,0:0:0:0:
64,192,27390,1,2,0:0:0:0:
448,192,27390,1,0,0:0:0:0:
320,192,27542,128,0,27694:0:0:0:0:
64,192,27694,128,2,27847:0:0:0:0:
448,192,27694,1,0,0:0:0:0:
192,192,27847,128,0,27999:0:0:0:0:
64,192,27999,1,2,0:0:0:0:
320,192,27999,128,0,28151:0:0:0:0:
448,192,28151,128,0,28304:0:0:0:0:
64,192,28304,1,2,0:0:0:0:
192,192,28304,1,0,0:0:0:0:
320,192,28456,128,0,28608:0:0:0:0:
64,192,28608,128,2,28760:0:0:0:0:
448,192,28608,1,0,0:0:0:0:
320,192,28760,128,0,28913:0:0:0:0:
64,192,28913,1,2,0:0:0:0:
192,192,28913,128,0,29065:0:0:0:0:
448,192,29065,128,0,29217:0:0:0:0:
64,192,29217,1,2,0:0:0:0:
192,192,29217,128,0,29370:0:0:0:0:
320,192,29370,128,0,29522:0:0:0:0:
64,192,29522,1,2,0:0:0:0:
448,192,29522,1,0,0:0:0:0:
192,192,29674,128,0,29979:0:0:0:0:
64,192,29826,1,2,0:0:0:0:
448,192,29826,1,0,0:0:0:0:
320,192,29979,128,0,30131:0:0:0:0:
64,192,30131,1,2,0:0:0:0:
448,192,30131,128,0,30283:0:0:0:0:
192,192,30283,128,0,30436:0:0:0:0:
64,192,30436,128,2,30588:0:0:0:0:
448,192,30436,1,0,0:0:0:0:
320,192,30588,128,0,30740:0:0:0:0:
64,192,30740,1,2,0:0:0:0:
448,192,30740,1,0,0:0:0:0:
192,192,30892,128,0,31197:0:0:0:0:
320,192,31045,1,2,0:0:0:0:
448,192,31045,1,0,0:0:0:0:
64,192,31197,128,0,31349:0:0:0:0:
320,192,31349,128,2,31501:0:0:0:0:
448,192,31349,1,0,0:0:0:0:
192,192,31501,128,0,31654:0:0:0:0:
64,192,31654,1,2,0:0:0:0:
448,192,31654,128,0,31958:0:0:0:0:
320,192,31806,128,0,31958:0:0:0:0:
64,192,31958,1,2,0:0:0:0:
192,192,31958,1,0,0:0:0:0:
320,192,32111,128,0,32415:0:0:0:0:
64,192,32263,1,2,0:0:0:0:
448,192,32263,1,0,0:0:0:0:
192,192,32415,128,0,32567:0:0:0:0:
320,192,32567,1,2,0:0:0:0:
448,192,32567,128,0,32720:0:0:0:0:
64,192,32720,128,0,32872:0:0:0:0:
192,192,32872,1,2,0:0:0:0:
448,192,32872,1,0,0:0:0:0:
64,192,32948,1,0,0:0:0:0:
320,192,33024,1,0,0:0:0:0:
448,192,33024,1,0,0:0:0:0:
64,192,33100,1,0,0:0:0:0:
192,192,33177,1,2,0:0:0:0:
320,192,33177,1,0,0:0:0:0:
448,192,33253,1,0,0:0:0:0:
64,192,33329,1,0,0:0:0:0:
192,192,33329,1,0,0:0:0:0:
320,192,33405,1,0,0:0:0:0:
64,192,33481,128,0,33786:0:0:0:0:
320,192,33786,128,0,34090:0:0:0:0:
448,192,33786,128,0,34090:0:0:0:0:
64,192,34090,128,0,34243:0:0:0:0:
320,192,34243,1,2,0:0:0:0:
448,192,34243,1,0,0:0:0:0:
192,192,34319,1,0,0:0:0:0:
64,192,34395,1,8,0:0:0:0:
320,192,34395,1,0,0:0:0:0:
448,192,34395,1,0,0:0:0:0:
64,192,34547,128,2,34852:0:0:0:0:
192,192,34547,128,4,34852:0:0:0:0:
448,192,34547,1,0,0:0:0:0:
320,192,34852,1,2,0:0:0:0:
448,192,34852,1,0,0:0:0:0:
64,192,35004,1,8,0:0:0:0:
192,192,35004,1,0,0:0:0:0:
448,192,35004,1,0,0:0:0:0:
320,192,35156,1,0,0:0:0:0:
192,192,35309,1,2,0:0:0:0:
448,192,35309,1,0,0:0:0:0:
64,192,35461,1,2,0:0:0:0:
320,192,35461,1,0,0:0:0:0:
64,192,35613,1,8,0:0:0:0:
192,192,35613,1,0,0:0:0:0:
448,192,35613,1,0,0:0:0:0:
192,192,35765,1,8,0:0:0:0:
320,192,35765,1,0,0:0:0:0:
64,192,35918,128,2,36070:0:0:0:0:
320,192,35918,1,0,0:0:0:0:
192,192,36070,1,2,0:0:0:0:
448,192,36070,1,0,0:0:0:0:
64,192,36222,1,8,0:0:0:0:
320,192,36222,128,0,36375:0:0:0:0:
448,192,36222,1,0,0:0:0:0:
192,192,36375,1,0,0:0:0:0:
64,192,36527,128,2,36679:0:0:0:0:
448,192,36527,1,0,0:0:0:0:
192,192,36679,1,2,0:0:0:0:
320,192,36679,1,0,0:0:0:0:
64,192,36831,1,8,0:0:0:0:
192,192,36831,1,0,0:0:0:0:
448,192,36831,1,0,0:0:0:0:
64,192,36984,1,2,0:0:0:0:
320,192,36984,128,4,37288:0:0:0:0:
448,192,36984,128,0,37288:0:0:0:0:
64,192,37288,1,2,0:0:0:0:
192,192,37288,1,0,0:0:0:0:
64,192,37441,1,8,0:0:0:0:
320,192,37441,1,0,0:0:0:0:
448,192,37441,1,0,0:0:0:0:
192,192,37593,1,0,0:0:0:0:
64,192,37745,1,2,0:0:0:0:
448,192,37745,1,0,0:0:0:0:
192,192,37897,1,2,0:0:0:0:
320,192,37897,1,0,0:0:0:0:
64,192,38050,1,8,0:0:0:0:
192,192,38050,1,0,0:0:0:0:
448,192,38050,1,0,0:0:0:0:
64,192,38202,1,8,0:0:0:0:
320,192,38202,1,0,0:0:0:0:
192,192,38354,1,2,0:0:0:0:
448,192,38354,128,0,38507:0:0:0:0:
64,192,38507,1,2,0:0:0:0:
320,192,38507,1,0,0:0:0:0:
64,192,38659,1,8,0:0:0:0:
192,192,38659,1,0,0:0:0:0:
448,192,38659,1,0,0:0:0:0:
192,192,38811,1,0,0:0:0:0:
320,192,38811,128,0,38963:0:0:0:0:
64,192,38963,1,2,0:0:0:0:
448,192,38963,1,0,0:0:0:0:
192,192,39116,128,2,39268:0:0:0:0:
320,192,39116,1,0,0:0:0:0:
64,192,39268,1,8,0:0:0:0:
320,192,39268,1,0,0:0:0:0:
448,192,39268,1,0,0:0:0:0:
64,192,39420,128,4,39725:0:0:0:0:
192,192,39420,128,2,39725:0:0:0:0:
448,192,39420,1,0,0:0:0:0:
320,192,39725,1,2,0:0:0:0:
448,192,39725,1,0,0:0:0:0:
64,192,39877,1,8,0:0:0:0:
192,192,39877,1,0,0:0:0:0:
448,192,39877,1,0,0:0:0:0:
320,192,40029,1,0,0:0:0:0:
64,192,40182,1,2,0:0:0:0:
192,192,40182,1,0,0:0:0:0:
192,192,40334,1,2,0:0:0:0:
320,192,40334,1,0,0:0:0:0:
64,192,40486,1,8,0:0:0:0:
320,192,40486,1,0,0:0:0:0:
448,192,40486,1,0,0:0:0:0:
192,192,40639,1,8,0:0:0:0:
448,192,40639,1,0,0:0:0:0:
64,192,40791,1,2,0:0:0:0:
192,192,40791,1,0,0:0:0:0:
320,192,40943,1,2,0:0:0:0:
448,192,40943,1,0,0:0:0:0:
64,192,41095,1,8,0:0:0:0:
192,192,41095,1,0,0:0:0:0:
448,192,41095,1,0,0:0:0:0:
192,192,41248,1,2,0:0:0:0:
320,192,41248,1,0,0:0:0:0:
64,192,41400,1,0,0:0:0:0:
448,192,41400,1,0,0:0:0:0:
320,192,41476,1,0,0:0:0:0:
64,192,41552,1,2,0:0:0:0:
192,192,41552,1,0,0:0:0:0:
320,192,41628,1,2,0:0:0:0:
64,192,41705,1,8,0:0:0:0:
192,192,41705,1,0,0:0:0:0:
448,192,41705,1,0,0:0:0:0:
64,192,41857,128,2,42161:0:0:0:0:
320,192,41857,128,4,42161:0:0:0:0:
448,192,41857,128,0,42161:0:0:0:0:
64,192,43075,128,2,43304:0:0:0:0:
192,192,43075,128,4,43304:0:0:0:0:
448,192,43075,128,0,43304:0:0:0:0:
64,192,43380,1,8,0:0:0:0:
320,192,43380,1,0,0:0:0:0:
448,192,43380,1,0,0:0:0:0:
64,192,43532,1,8,0:0:0:0:
320,192,43532,1,0,0:0:0:0:
448,192,43532,1,0,0:0:0:0:
192,192,43684,1,2,0:0:0:0:
320,192,43684,1,0,0:0:0:0:
64,192,43760,1,2,0:0:0:0:
320,192,43837,1,8,0:0:0:0:
448,192,43837,1,2,0:0:0:0:
192,192,43875,1,2,0:0:0:0:
64,192,43913,1,2,0:0:0:0:
320,192,43951,1,2,0:0:0:0:
448,192,43989,1,2,0:0:0:0:
192,192,44027,1,2,0:0:0:0:
64,192,44065,1,2,0:0:0:0:
320,192,44103,1,2,0:0:0:0:
448,192,44141,1,10,0:0:0:0:
192,192,44179,1,2,0:0:0:0:
64,192,44217,1,2,0:0:0:0:
320,192,44255,1,2,0:0:0:0:
64,192,44293,128,4,44522:0:0:0:0:
192,192,44293,128,2,44522:0:0:0:0:
448,192,44293,128,0,44522:0:0:0:0:
320,192,44598,128,2,44712:0:0:0:0:
448,192,44636,128,0,44712:0:0:0:0:
192,192,44750,128,2,44864:0:0:0:0:
64,192,44788,128,0,44864:0:0:0:0:
448,192,44903,128,0,44979:0:0:0:0:
320,192,44928,128,0,44979:0:0:0:0:
64,192,45004,128,0,45080:0:0:0:0:
192,192,45029,128,0,45080:0:0:0:0:
448,192,45106,128,0,45182:0:0:0:0:
320,192,45131,128,0,45182:0:0:0:0:
64,192,45207,128,0,45283:0:0:0:0:
192,192,45232,128,0,45283:0:0:0:0:
448,192,45309,128,0,45385:0:0:0:0:
320,192,45334,128,0,45385:0:0:0:0:
64,192,45410,128,0,45486:0:0:0:0:
192,192,45436,128,0,45486:0:0:0:0:
448,192,45512,128,2,45588:0:0:0:0:
320,192,45537,128,0,45588:0:0:0:0:
64,192,45626,128,0,45740:0:0:0:0:
192,192,45626,128,0,45740:0:0:0:0:
448,192,45626,128,0,45740:0:0:0:0:
192,192,45816,128,8,45892:0:0:0:0:
320,192,45816,128,0,45930:0:0:0:0:
448,192,45816,128,0,45968:0:0:0:0:
64,192,45930,128,0,46045:0:0:0:0:
192,192,45968,128,2,46045:0:0:0:0:
320,192,46007,128,0,46045:0:0:0:0:
448,192,46045,128,0,46121:0:0:0:0:
192,192,46121,128,0,46197:0:0:0:0:
320,192,46197,128,0,46273:0:0:0:0:
64,192,46273,128,8,46425:0:0:0:0:
192,192,46273,128,4,46425:0:0:0:0:
448,192,46273,128,0,46425:0:0:0:0:
64,192,46501,128,0,46654:0:0:0:0:
192,192,46501,128,0,46654:0:0:0:0:
448,192,46501,128,0,46654:0:0:0:0:
64,192,46730,128,2,46806:0:0:0:0:
320,192,46730,128,4,46806:0:0:0:0:
448,192,46730,128,0,46806:0:0:0:0:
64,192,46882,128,2,47034:0:0:0:0:
320,192,46882,128,0,47034:0:0:0:0:
448,192,46882,128,0,47034:0:0:0:0:
192,192,47085,128,0,47187:0:0:0:0:
64,192,47111,128,0,47187:0:0:0:0:
320,192,47238,128,0,47339:0:0:0:0:
448,192,47263,128,0,47339:0:0:0:0:
64,192,47364,128,0,47415:0:0:0:0:
192,192,47364,128,0,47415:0:0:0:0:
320,192,47441,128,0,47491:0:0:0:0:
448,192,47441,128,0,47491:0:0:0:0:
64,192,47517,128,0,47567:0:0:0:0:
192,192,47517,128,0,47567:0:0:0:0:
320,192,47593,128,0,47644:0:0:0:0:
448,192,47593,128,0,47644:0:0:0:0:
64,192,47669,128,0,47720:0:0:0:0:
192,192,47669,128,0,47720:0:0:0:0:
320,192,47745,128,0,47796:0:0:0:0:
448,192,47745,128,0,47796:0:0:0:0:
64,192,47821,128,0,47872:0:0:0:0:
192,192,47821,128,0,47872:0:0:0:0:
320,192,47897,128,0,47948:0:0:0:0:
64,192,47948,128,2,48024:0:0:0:0:
192,192,47948,128,8,48024:0:0:0:0:
448,192,47948,128,0,48024:0:0:0:0:
64,192,48100,128,2,48253:0:0:0:0:
192,192,48100,128,0,48253:0:0:0:0:
448,192,48100,128,0,48177:0:0:0:0:
320,192,48253,1,2,0:0:0:0:
448,192,48253,1,0,0:0:0:0:
64,192,48405,1,8,0:0:0:0:
192,192,48405,1,0,0:0:0:0:
448,192,48405,1,0,0:0:0:0:
192,192,48557,128,2,48786:0:0:0:0:
320,192,48557,128,4,48786:0:0:0:0:
448,192,48557,128,0,48786:0:0:0:0:
64,192,48862,128,4,49090:0:0:0:0:
192,192,48862,128,2,49090:0:0:0:0:
320,192,48862,128,0,49090:0:0:0:0:
64,192,49166,128,2,49395:0:0:0:0:
320,192,49166,128,4,49395:0:0:0:0:
448,192,49166,128,0,49395:0:0:0:0:
192,192,49471,128,2,49585:0:0:0:0:
64,192,49509,128,0,49585:0:0:0:0:
320,192,49623,128,2,49738:0:0:0:0:
448,192,49661,128,0,49738:0:0:0:0:
64,192,49776,128,0,49852:0:0:0:0:
192,192,49801,128,0,49852:0:0:0:0:
448,192,49877,128,0,49953:0:0:0:0:
320,192,49903,128,0,49953:0:0:0:0:
64,192,49979,128,0,50055:0:0:0:0:
192,192,50004,128,0,50055:0:0:0:0:
448,192,50080,128,0,50156:0:0:0:0:
320,192,50106,128,0,50156:0:0:0:0:
64,192,50182,128,0,50258:0:0:0:0:
192,192,50207,128,0,50258:0:0:0:0:
448,192,50283,128,0,50359:0:0:0:0:
320,192,50309,128,0,50359:0:0:0:0:
64,192,50385,128,2,50461:0:0:0:0:
192,192,50410,128,0,50461:0:0:0:0:
64,192,50499,128,0,50613:0:0:0:0:
320,192,50499,128,0,50613:0:0:0:0:
448,192,50499,128,0,50613:0:0:0:0:
64,192,50689,128,8,50842:0:0:0:0:
192,192,50689,128,0,50804:0:0:0:0:
320,192,50689,128,0,50765:0:0:0:0:
448,192,50804,128,0,50956:0:0:0:0:
320,192,50842,128,2,50956:0:0:0:0:
192,192,50880,128,0,50956:0:0:0:0:
64,192,50994,128,2,51070:0:0:0:0:
192,192,51070,128,0,51146:0:0:0:0:
64,192,51146,128,8,51298:0:0:0:0:
320,192,51146,128,4,51298:0:0:0:0:
448,192,51146,128,0,51298:0:0:0:0:
64,192,51375,128,0,51527:0:0:0:0:
320,192,51375,128,0,51527:0:0:0:0:
448,192,51375,128,0,51527:0:0:0:0:
64,192,51603,128,2,51679:0:0:0:0:
192,192,51603,128,4,51679:0:0:0:0:
448,192,51603,128,0,51679:0:0:0:0:
64,192,51755,128,2,51908:0:0:0:0:
192,192,51755,128,0,51908:0:0:0:0:
448,192,51755,128,0,51908:0:0:0:0:
320,192,51958,128,0,52060:0:0:0:0:
448,192,51984,128,0,52060:0:0:0:0:
192,192,52111,128,0,52212:0:0:0:0:
64,192,52136,128,0,52212:0:0:0:0:
320,192,52238,128,0,52288:0:0:0:0:
448,192,52238,128,0,52288:0:0:0:0:
64,192,52314,128,0,52364:0:0:0:0:
192,192,52314,128,0,52364:0:0:0:0:
320,192,52390,128,0,52441:0:0:0:0:
448,192,52390,128,0,52441:0:0:0:0:
64,192,52466,128,0,52517:0:0:0:0:
192,192,52466,128,0,52517:0:0:0:0:
320,192,52542,128,0,52593:0:0:0:0:
448,192,52542,128,0,52593:0:0:0:0:
64,192,52618,128,0,52669:0:0:0:0:
192,192,52618,128,0,52669:0:0:0:0:
320,192,52694,128,0,52745:0:0:0:0:
448,192,52694,128,0,52745:0:0:0:0:
192,192,52771,128,0,52821:0:0:0:0:
64,192,52821,128,2,52897:0:0:0:0:
320,192,52821,128,8,52897:0:0:0:0:
448,192,52821,128,0,52897:0:0:0:0:
64,192,52974,128,2,53050:0:0:0:0:
320,192,52974,128,0,53126:0:0:0:0:
448,192,52974,128,0,53126:0:0:0:0:
64,192,53126,1,2,0:0:0:0:
192,192,53126,1,0,0:0:0:0:
64,192,53278,1,8,0:0:0:0:
320,192,53278,1,0,0:0:0:0:
448,192,53278,1,0,0:0:0:0:
192,192,53354,1,0,0:0:0:0:
64,192,53430,1,8,0:0:0:0:
448,192,53430,1,0,0:0:0:0:
320,192,53507,1,8,0:0:0:0:
64,192,53583,1,8,0:0:0:0:
192,192,53583,1,0,0:0:0:0:
448,192,53583,1,0,0:0:0:0:
192,192,53735,1,8,0:0:0:0:
320,192,53735,1,4,0:0:0:0:
64,192,53887,1,0,0:0:0:70:LR_Tom Hit 3.wav
320,192,53887,1,0,0:0:0:0:
64,192,54040,128,4,54344:0:0:0:0:
192,192,54040,1,2,0:0:0:0:
320,192,54040,1,0,0:0:0:0:
448,192,54040,1,0,0:0:0:0:
320,192,54344,1,2,0:0:0:0:
448,192,54344,1,0,0:0:0:0:
64,192,54496,128,8,54801:0:0:0:0:
192,192,54496,1,0,0:0:0:0:
448,192,54496,1,0,0:0:0:0:
320,192,54649,1,0,0:0:0:0:
192,192,54801,1,2,0:0:0:0:
448,192,54801,1,0,0:0:0:0:
320,192,54877,1,0,0:0:0:0:
64,192,54953,1,2,0:0:0:0:
448,192,54953,1,0,0:0:0:0:
64,192,55106,1,8,0:0:0:0:
192,192,55106,1,0,0:0:0:0:
320,192,55106,1,0,0:0:0:0:
192,192,55258,1,4,0:0:0:0:
320,192,55258,1,2,0:0:0:0:
448,192,55258,128,0,55562:0:0:0:0:
64,192,55562,1,2,0:0:0:0:
192,192,55562,1,0,0:0:0:0:
64,192,55715,1,8,0:0:0:0:
320,192,55715,1,0,0:0:0:0:
448,192,55715,1,0,0:0:0:0:
192,192,55791,1,0,0:0:0:0:
64,192,55867,1,0,0:0:0:0:
448,192,55867,1,0,0:0:0:0:
192,192,56019,1,2,0:0:0:0:
320,192,56019,1,0,0:0:0:0:
192,192,56172,1,2,0:0:0:0:
448,192,56172,1,0,0:0:0:0:
64,192,56324,1,8,0:0:0:0:
320,192,56324,1,0,0:0:0:0:
448,192,56324,1,0,0:0:0:0:
64,192,56476,128,2,56781:0:0:0:0:
192,192,56476,1,4,0:0:0:0:
320,192,56476,1,0,0:0:0:0:
192,192,56781,1,2,0:0:0:0:
448,192,56781,1,0,0:0:0:0:
320,192,56857,1,0,0:0:0:0:
64,192,56933,1,8,0:0:0:0:
192,192,56933,1,0,0:0:0:0:
448,192,56933,1,0,0:0:0:0:
320,192,57085,1,0,0:0:0:0:
64,192,57238,1,2,0:0:0:0:
192,192,57238,1,0,0:0:0:0:
320,192,57390,1,2,0:0:0:0:
448,192,57390,1,0,0:0:0:0:
64,192,57542,1,8,0:0:0:0:
192,192,57542,1,0,0:0:0:0:
448,192,57542,1,0,0:0:0:0:
64,192,57694,1,2,0:0:0:0:
320,192,57694,128,4,57999:0:0:0:0:
448,192,57694,128,0,57999:0:0:0:0:
64,192,57999,1,2,0:0:0:0:
192,192,57999,1,0,0:0:0:0:
64,192,58151,1,8,0:0:0:0:
320,192,58151,1,0,0:0:0:0:
448,192,58151,1,0,0:0:0:0:
64,192,58304,1,8,0:0:0:0:
448,192,58304,1,0,0:0:0:0:
192,192,58380,1,8,0:0:0:0:
64,192,58456,1,8,0:0:0:0:
320,192,58456,1,0,0:0:0:0:
448,192,58456,1,0,0:0:0:0:
192,192,58608,1,0,0:0:0:70:LR_Tom Hit 2.wav
320,192,58608,1,0,0:0:0:0:
64,192,58760,1,0,0:0:0:70:LR_Tom Hit 3.wav
192,192,58760,1,0,0:0:0:0:
320,192,58913,1,2,0:0:0:0:
448,192,58913,1,0,0:0:0:0:
64,192,59065,128,4,59522:0:0:0:0:
192,192,59065,1,2,0:0:0:0:
448,192,59065,1,0,0:0:0:0:
320,192,59217,128,0,59370:0:0:0:0:
192,192,59370,128,0,59522:0:0:0:0:
320,192,59522,128,2,59674:0:0:0:0:
448,192,59522,128,0,60131:0:0:0:0:
64,192,59674,128,8,60131:0:0:0:0:
192,192,59674,1,0,0:0:0:0:
192,192,59826,1,0,0:0:0:0:
320,192,59979,1,0,0:0:0:0:
192,192,60131,1,8,0:0:0:0:
320,192,60131,1,0,0:0:0:0:
192,192,60283,1,2,0:0:0:0:
448,192,60283,1,0,0:0:0:0:
64,192,60436,1,8,0:0:0:0:
320,192,60436,1,0,0:0:0:0:
448,192,60436,1,0,0:0:0:0:
320,192,60588,1,0,0:0:0:0:
64,192,60740,1,2,0:0:0:0:
192,192,60740,1,0,0:0:0:0:
64,192,60892,1,8,0:0:0:0:
320,192,60892,1,0,0:0:0:0:
448,192,60892,128,0,61045:0:0:0:0:
192,192,61045,128,0,61197:0:0:0:0:
320,192,61197,128,0,61349:0:0:0:0:
64,192,61349,128,2,61578:0:0:0:0:
192,192,61349,128,4,61578:0:0:0:0:
448,192,61349,128,0,61578:0:0:0:0:
64,192,61654,128,8,61730:0:0:0:0:
320,192,61654,128,4,61730:0:0:0:0:
448,192,61654,128,0,61730:0:0:0:0:
64,192,61806,128,8,61958:0:0:0:0:
320,192,61806,128,4,61958:0:0:0:0:
448,192,61806,128,0,61958:0:0:0:0:
64,192,62111,128,0,62415:0:0:0:0:
192,192,62111,128,0,62415:0:0:0:0:
448,192,62339,1,2,0:0:0:0:
320,192,62415,1,2,0:0:0:0:
192,192,62491,1,2,0:0:0:0:
64,192,62567,1,6,0:0:0:0:
448,192,62567,1,8,0:0:0:0:
320,192,62644,1,2,0:0:0:0:
192,192,62720,1,2,0:0:0:0:
64,192,62796,1,2,0:0:0:0:
320,192,62872,1,12,0:0:0:0:
448,192,62872,1,2,0:0:0:0:
192,192,62948,1,2,0:0:0:0:
64,192,63024,1,6,0:0:0:0:
448,192,63024,1,8,0:0:0:0:
320,192,63075,1,0,0:0:0:0:
192,192,63126,1,0,0:0:0:0:
64,192,63177,1,0,0:0:0:0:
448,192,63329,128,0,63633:0:0:0:0:
192,192,63633,128,0,63786:0:0:0:0:
64,192,63786,1,2,0:0:0:0:
320,192,63786,128,4,64090:0:0:0:0:
448,192,63786,128,0,64090:0:0:0:0:
64,192,64090,128,2,64243:0:0:0:0:
192,192,64090,1,0,0:0:0:0:
320,192,64243,128,8,64395:0:0:0:0:
448,192,64243,1,0,0:0:0:0:
192,192,64395,128,0,64547:0:0:0:0:
64,192,64547,1,2,0:0:0:0:
448,192,64547,128,0,64699:0:0:0:0:
320,192,64623,128,0,64699:0:0:0:0:
64,192,64699,128,2,64852:0:0:0:0:
192,192,64699,1,0,0:0:0:0:
320,192,64852,1,8,0:0:0:0:
448,192,64852,1,0,0:0:0:0:
192,192,65004,128,6,65156:0:0:0:0:
320,192,65156,1,2,0:0:0:0:
448,192,65156,1,0,0:0:0:0:
64,192,65309,1,2,0:0:0:0:
320,192,65309,128,0,65461:0:0:0:0:
64,192,65461,128,8,65613:0:0:0:0:
192,192,65461,1,0,0:0:0:0:
448,192,65461,128,0,65765:0:0:0:0:
320,192,65613,128,2,65765:0:0:0:0:
64,192,65765,128,0,65918:0:0:0:0:
192,192,65842,128,0,65918:0:0:0:0:
320,192,65918,1,2,0:0:0:0:
448,192,65918,128,0,66070:0:0:0:0:
64,192,66070,1,8,0:0:0:0:
192,192,66070,128,0,66222:0:0:0:0:
320,192,66222,128,2,66527:0:0:0:0:
448,192,66222,128,4,66527:0:0:0:0:
64,192,66527,1,2,0:0:0:0:
192,192,66527,1,0,0:0:0:0:
64,192,66679,1,8,0:0:0:0:
320,192,66679,1,0,0:0:0:0:
448,192,66679,1,0,0:0:0:0:
192,192,66831,1,0,0:0:0:0:
320,192,66831,1,0,0:0:0:0:
192,192,66984,1,2,0:0:0:0:
448,192,66984,1,0,0:0:0:0:
320,192,67060,1,2,0:0:0:0:
64,192,67136,1,2,0:0:0:0:
448,192,67136,1,0,0:0:0:0:
192,192,67212,1,0,0:0:0:0:
64,192,67288,1,8,0:0:0:0:
320,192,67288,1,0,0:0:0:0:
448,192,67288,1,0,0:0:0:0:
64,192,67441,128,2,67745:0:0:0:0:
192,192,67441,128,4,67745:0:0:0:0:
448,192,67441,1,0,0:0:0:0:
320,192,67745,1,2,0:0:0:0:
448,192,67745,1,0,0:0:0:0:
64,192,67897,1,8,0:0:0:0:
192,192,67897,1,0,0:0:0:0:
448,192,67897,1,0,0:0:0:0:
192,192,68050,1,0,0:0:0:0:
320,192,68050,1,0,0:0:0:0:
64,192,68202,1,2,0:0:0:0:
448,192,68202,1,0,0:0:0:0:
192,192,68253,1,0,0:0:0:0:
320,192,68304,1,0,0:0:0:0:
64,192,68354,1,2,0:0:0:0:
448,192,68354,1,0,0:0:0:0:
192,192,68405,1,0,0:0:0:0:
320,192,68456,1,0,0:0:0:0:
64,192,68507,1,8,0:0:0:0:
192,192,68507,1,0,0:0:0:0:
448,192,68507,1,0,0:0:0:0:
64,192,68659,1,2,0:0:0:0:
320,192,68659,128,4,68963:0:0:0:0:
448,192,68659,128,0,68963:0:0:0:0:
64,192,68963,1,2,0:0:0:0:
192,192,68963,1,0,0:0:0:0:
64,192,69116,1,8,0:0:0:0:
320,192,69116,1,0,0:0:0:0:
448,192,69116,1,0,0:0:0:0:
192,192,69268,1,2,0:0:0:0:
320,192,69268,1,0,0:0:0:0:
448,192,69344,1,0,0:0:0:0:
64,192,69420,1,2,0:0:0:0:
192,192,69420,1,0,0:0:0:0:
64,192,69573,1,2,0:0:0:0:
320,192,69573,1,0,0:0:0:0:
192,192,69725,1,8,0:0:0:0:
320,192,69725,1,0,0:0:0:0:
448,192,69725,1,0,0:0:0:0:
64,192,69877,1,2,0:0:0:0:
448,192,69877,1,4,0:0:0:0:
192,192,69953,1,0,0:0:0:0:
64,192,70029,1,0,0:0:0:0:
320,192,70029,1,0,0:0:0:0:
192,192,70182,1,2,0:0:0:0:
320,192,70182,1,0,0:0:0:0:
64,192,70334,1,8,0:0:0:0:
192,192,70334,1,0,0:0:0:0:
448,192,70334,1,0,0:0:0:0:
320,192,70486,1,2,0:0:0:0:
448,192,70486,1,0,0:0:0:0:
64,192,70562,1,0,0:0:0:0:
192,192,70639,1,2,0:0:0:0:
320,192,70639,1,0,0:0:0:0:
64,192,70715,1,0,0:0:0:0:
320,192,70791,1,2,0:0:0:0:
448,192,70791,1,0,0:0:0:0:
64,192,70943,1,8,0:0:0:0:
192,192,70943,1,0,0:0:0:0:
448,192,70943,1,0,0:0:0:0:
64,192,71095,1,2,0:0:0:0:
320,192,71095,128,4,71400:0:0:0:0:
448,192,71095,128,0,71400:0:0:0:0:
64,192,71400,1,2,0:0:0:0:
192,192,71400,1,0,0:0:0:0:
64,192,71552,1,8,0:0:0:0:
320,192,71552,1,0,0:0:0:0:
448,192,71552,1,0,0:0:0:0:
64,192,71705,128,2,72009:0:0:0:0:
192,192,71705,128,4,72009:0:0:0:0:
448,192,71705,1,0,0:0:0:0:
320,192,72009,1,2,0:0:0:0:
448,192,72009,1,0,0:0:0:0:
64,192,72161,1,8,0:0:0:0:
192,192,72161,1,0,0:0:0:0:
448,192,72161,1,0,0:0:0:0:
64,192,72314,128,2,72542:0:0:0:0:
320,192,72314,128,4,72542:0:0:0:0:
448,192,72314,128,0,72542:0:0:0:0:
64,192,72618,128,0,72694:0:0:0:0:
192,192,72618,128,0,72694:0:0:0:0:
320,192,72694,128,0,72771:0:0:0:0:
64,192,72771,128,0,72847:0:0:0:0:
448,192,72771,128,0,72847:0:0:0:0:
192,192,72847,128,0,72923:0:0:0:0:
320,192,72923,128,0,72999:0:0:0:0:
448,192,72923,128,0,72999:0:0:0:0:
64,192,72999,128,0,73075:0:0:0:0:
192,192,73075,1,8,0:0:0:0:
320,192,73075,1,0,0:0:0:0:
448,192,73075,1,0,0:0:0:0:
64,192,73227,1,8,0:0:0:0:
192,192,73227,1,0,0:0:0:0:
448,192,73227,1,0,0:0:0:0:
64,192,73380,1,8,0:0:0:0:
320,192,73380,1,0,0:0:0:0:
448,192,73380,1,0,0:0:0:0:
64,192,73532,128,4,73760:0:0:0:0:
192,192,73532,128,2,73760:0:0:0:0:
320,192,73532,128,0,73760:0:0:0:0:
448,192,73532,128,0,73760:0:0:0:0:
64,192,73837,1,2,0:0:0:0:
448,192,73837,1,0,0:0:0:0:
320,192,73913,1,0,0:0:0:0:
64,192,73989,1,8,0:0:0:0:
192,192,73989,1,0,0:0:0:0:
448,192,73989,1,0,0:0:0:0:
192,192,74141,1,2,0:0:0:0:
320,192,74141,1,0,0:0:0:0:
64,192,74293,1,8,0:0:0:0:
320,192,74293,1,0,0:0:0:0:
448,192,74293,1,0,0:0:0:0:
192,192,74446,1,2,0:0:0:0:
448,192,74446,1,0,0:0:0:0:
64,192,74598,1,8,0:0:0:0:
192,192,74598,1,0,0:0:0:0:
320,192,74598,1,0,0:0:0:0:
64,192,74750,1,4,0:0:0:0:
448,192,74750,1,2,0:0:0:0:
320,192,74826,1,0,0:0:0:0:
64,192,74903,1,8,0:0:0:0:
192,192,74903,1,0,0:0:0:0:
448,192,74903,1,0,0:0:0:0:
192,192,75055,1,2,0:0:0:0:
320,192,75055,1,0,0:0:0:0:
64,192,75207,1,8,0:0:0:0:
320,192,75207,1,0,0:0:0:0:
448,192,75207,1,0,0:0:0:0:
64,192,75359,1,2,0:0:0:0:
192,192,75359,1,0,0:0:0:0:
192,192,75512,1,8,0:0:0:0:
320,192,75512,1,0,0:0:0:0:
448,192,75512,1,0,0:0:0:0:
64,192,75664,1,2,0:0:0:0:
320,192,75664,1,0,0:0:0:0:
64,192,75816,1,8,0:0:0:0:
192,192,75816,1,0,0:0:0:0:
448,192,75816,1,0,0:0:0:0:
64,192,75968,128,2,76197:0:0:0:0:
192,192,75968,128,4,76197:0:0:0:0:
320,192,75968,128,0,76197:0:0:0:0:
448,192,75968,128,0,76197:0:0:0:0:
64,192,76273,1,2,0:0:0:0:
448,192,76273,1,0,0:0:0:0:
192,192,76349,1,0,0:0:0:0:
64,192,76425,1,8,0:0:0:0:
320,192,76425,1,0,0:0:0:0:
448,192,76425,1,0,0:0:0:0:
192,192,76578,1,2,0:0:0:0:
320,192,76578,1,0,0:0:0:0:
64,192,76730,1,8,0:0:0:0:
192,192,76730,1,0,0:0:0:0:
448,192,76730,1,0,0:0:0:0:
64,192,76882,1,2,0:0:0:0:
320,192,76882,1,0,0:0:0:0:
192,192,77034,1,8,0:0:0:0:
320,192,77034,1,0,0:0:0:0:
448,192,77034,1,0,0:0:0:0:
64,192,77187,1,2,0:0:0:0:
448,192,77187,1,4,0:0:0:0:
64,192,77339,1,8,0:0:0:0:
192,192,77339,1,0,0:0:0:0:
320,192,77339,1,0,0:0:0:0:
64,192,77491,1,2,0:0:0:0:
448,192,77491,1,0,0:0:0:0:
320,192,77567,1,0,0:0:0:0:
64,192,77644,1,8,0:0:0:0:
192,192,77644,1,0,0:0:0:0:
448,192,77644,1,0,0:0:0:0:
320,192,77720,1,0,0:0:0:0:
64,192,77796,1,2,0:0:0:0:
448,192,77796,1,0,0:0:0:0:
192,192,77872,1,0,0:0:0:0:
64,192,77948,1,8,0:0:0:0:
320,192,77948,1,0,0:0:0:0:
448,192,77948,1,0,0:0:0:0:
192,192,78024,1,0,0:0:0:0:
64,192,78100,1,2,0:0:0:0:
448,192,78100,1,0,0:0:0:0:
320,192,78177,1,0,0:0:0:0:
64,192,78253,1,8,0:0:0:0:
192,192,78253,1,0,0:0:0:0:
448,192,78253,1,0,0:0:0:0:
64,192,78405,128,2,78710:0:0:0:0:
192,192,78405,128,4,78710:0:0:0:0:
320,192,78405,1,0,0:0:0:0:
448,192,78405,1,0,0:0:0:0:
320,192,78710,1,2,0:0:0:0:
448,192,78710,1,0,0:0:0:0:
64,192,78862,1,8,0:0:0:0:
192,192,78862,1,0,0:0:0:0:
448,192,78862,1,0,0:0:0:0:
192,192,79014,1,0,0:0:0:0:
64,192,79166,128,2,79319:0:0:0:0:
320,192,79166,1,0,0:0:0:0:
192,192,79319,1,2,0:0:0:0:
320,192,79319,128,0,79471:0:0:0:0:
64,192,79471,1,8,0:0:0:0:
192,192,79471,1,0,0:0:0:0:
448,192,79471,1,0,0:0:0:0:
320,192,79623,128,4,79928:0:0:0:0:
448,192,79623,128,2,79928:0:0:0:0:
64,192,79776,1,2,0:0:0:0:
192,192,79928,1,2,0:0:0:0:
64,192,79928,1,0,0:0:0:0:
64,192,80080,1,8,0:0:0:0:
320,192,80080,1,0,0:0:0:0:
448,192,80080,1,0,0:0:0:0:
64,192,80232,1,8,0:0:0:0:
320,192,80232,1,0,0:0:0:0:
448,192,80232,1,0,0:0:0:0:
192,192,80385,1,2,0:0:0:0:
448,192,80385,1,0,0:0:0:0:
320,192,80461,1,0,0:0:0:0:
64,192,80537,1,2,0:0:0:0:
448,192,80537,1,0,0:0:0:0:
192,192,80613,1,0,0:0:0:0:
64,192,80689,1,8,0:0:0:0:
320,192,80689,1,0,0:0:0:0:
448,192,80689,1,0,0:0:0:0:
64,192,80842,1,4,0:0:0:0:
192,192,80842,1,2,0:0:0:0:
320,192,80842,128,0,81146:0:0:0:0:
448,192,80842,128,0,81146:0:0:0:0:
64,192,81146,1,2,0:0:0:0:
192,192,81146,1,0,0:0:0:0:
64,192,81298,1,8,0:0:0:0:
320,192,81298,1,0,0:0:0:0:
448,192,81298,1,0,0:0:0:0:
192,192,81451,1,2,0:0:0:0:
320,192,81451,1,0,0:0:0:0:
64,192,81603,1,4,0:0:0:0:
192,192,81603,1,8,0:0:0:0:
448,192,81603,1,0,0:0:0:0:
192,192,81755,1,2,0:0:0:0:
320,192,81755,1,0,0:0:0:0:
64,192,81908,1,8,0:0:0:0:
320,192,81908,1,0,0:0:0:0:
448,192,81908,1,0,0:0:0:0:
64,192,82060,128,4,82669:0:0:0:0:
192,192,82060,1,2,0:0:0:0:
320,192,82212,1,8,0:0:0:0:
448,192,82212,1,0,0:0:0:0:
192,192,82364,1,2,0:0:0:0:
448,192,82364,1,0,0:0:0:0:
192,192,82517,1,8,0:0:0:0:
320,192,82517,1,0,0:0:0:0:
320,192,82669,1,2,0:0:0:0:
448,192,82669,1,0,0:0:0:0:
64,192,82745,1,2,0:0:0:0:
192,192,82745,1,0,0:0:0:0:
320,192,82821,1,8,0:0:0:0:
448,192,82821,1,2,0:0:0:0:
64,192,82859,1,2,0:0:0:0:
192,192,82897,1,2,0:0:0:0:
320,192,82936,1,2,0:0:0:0:
448,192,82974,1,2,0:0:0:0:
64,192,83012,1,2,0:0:0:0:
192,192,83050,1,2,0:0:0:0:
320,192,83088,1,2,0:0:0:0:
448,192,83126,1,10,0:0:0:0:
64,192,83164,1,2,0:0:0:0:
192,192,83202,1,2,0:0:0:0:
320,192,83240,1,2,0:0:0:0:
64,192,83278,128,4,83507:0:0:0:0:
448,192,83278,1,2,0:0:0:0:
448,192,83430,128,0,83583:0:0:0:0:
320,192,83507,128,0,83583:0:0:0:0:
64,192,83583,128,0,83735:0:0:0:0:
192,192,83659,128,0,83735:0:0:0:0:
448,192,83735,128,0,84040:0:0:0:0:
320,192,83811,128,0,84040:0:0:0:0:
192,192,83887,128,0,84040:0:0:0:0:
64,192,84040,128,0,84344:0:0:0:0:
448,192,84192,128,0,84268:0:0:0:0:
192,192,84268,128,0,84344:0:0:0:0:
320,192,84344,128,0,84649:0:0:0:0:
448,192,84344,128,0,84649:0:0:0:0:
64,192,84649,128,0,84801:0:0:0:0:
192,192,84725,128,0,84877:0:0:0:0:
448,192,84801,128,0,84953:0:0:0:0:
320,192,84877,128,0,85029:0:0:0:0:
192,192,84953,128,0,85106:0:0:0:0:
64,192,85029,128,0,85182:0:0:0:0:
448,192,85106,128,0,85258:0:0:0:0:
320,192,85182,128,0,85258:0:0:0:0:
64,192,85258,128,0,85486:0:0:0:0:
192,192,85258,128,0,85486:0:0:0:0:
448,192,85486,128,0,85715:0:0:0:0:
320,192,85562,128,0,85715:0:0:0:0:
64,192,85715,128,2,88304:0:0:0:0:
192,192,85715,1,4,0:0:0:0:
448,192,86172,1,0,0:0:0:0:
320,192,86476,1,0,0:0:0:0:
448,192,86781,1,0,0:0:0:0:
192,192,87085,1,0,0:0:0:0:
320,192,87390,1,0,0:0:0:0:
448,192,87694,1,0,0:0:0:0:
192,192,87999,128,0,88304:0:0:0:0:
320,192,88304,1,0,0:0:0:0:
448,192,88304,128,0,90740:0:0:0:0:
64,192,89217,1,0,0:0:0:0:
320,192,89370,1,0,0:0:0:0:
192,192,89522,1,0,0:0:0:0:
320,192,89674,1,0,0:0:0:0:
192,192,89979,1,0,0:0:0:0:
64,192,90283,1,0,0:0:0:0:
320,192,90436,1,0,0:0:0:0:
64,192,90740,1,0,0:0:0:0:
192,192,90740,1,0,0:0:0:0:
448,192,90892,1,0,0:0:0:0:
64,192,91045,1,0,0:0:0:0:
320,192,91045,1,0,0:0:0:0:
448,192,91197,1,0,0:0:0:0:
64,192,91349,1,0,0:0:0:0:
192,192,91349,1,0,0:0:0:0:
320,192,91501,1,0,0:0:0:0:
64,192,91654,1,0,0:0:0:0:
448,192,91654,1,0,0:0:0:0:
192,192,91806,1,0,0:0:0:0:
320,192,91958,1,0,0:0:0:0:
448,192,91958,1,0,0:0:0:0:
64,192,92111,1,0,0:0:0:0:
192,192,92263,1,0,0:0:0:0:
448,192,92263,1,0,0:0:0:0:
64,192,92415,1,0,0:0:0:0:
320,192,92567,1,0,0:0:0:0:
448,192,92567,1,0,0:0:0:0:
192,192,92720,1,0,0:0:0:0:
64,192,92872,1,0,0:0:0:0:
448,192,92872,1,0,0:0:0:0:
320,192,93024,1,0,0:0:0:0:
64,192,93177,1,0,0:0:0:0:
192,192,93177,1,0,0:0:0:0:
64,192,93329,1,0,0:0:0:0:
448,192,93329,1,0,0:0:0:0:
192,192,93481,1,0,0:0:0:0:
448,192,93481,1,0,0:0:0:0:
192,192,93633,1,0,0:0:0:0:
320,192,93633,1,0,0:0:0:0:
64,192,93786,1,0,0:0:0:0:
320,192,93786,1,0,0:0:0:0:
64,192,93938,1,0,0:0:0:0:
448,192,93938,1,0,0:0:0:0:
192,192,94090,1,0,0:0:0:0:
448,192,94090,1,0,0:0:0:0:
64,192,94243,1,8,0:0:0:0:
192,192,94243,1,0,0:0:0:0:
320,192,94319,1,8,0:0:0:0:
448,192,94319,1,0,0:0:0:0:
64,192,94395,1,8,0:0:0:0:
192,192,94395,1,0,0:0:0:0:
448,192,94471,1,0,0:0:0:0:
64,192,94547,1,0,0:0:0:70:LR_Tom Hit 2.wav
320,192,94547,1,0,0:0:0:0:
192,192,94623,1,0,0:0:0:0:
320,192,94699,1,0,0:0:0:0:
448,192,94699,1,0,0:0:0:0:
64,192,94776,1,0,0:0:0:0:
192,192,94852,1,0,0:0:0:70:LR_Tom Hit 2.wav
448,192,94852,1,0,0:0:0:0:
320,192,94928,1,0,0:0:0:0:
64,192,95004,1,0,0:0:0:70:LR_Tom Hit 3.wav
192,192,95004,1,0,0:0:0:0:
320,192,95080,1,0,0:0:0:0:
64,192,95156,1,0,0:0:0:70:LR_Tom Hit 3.wav
448,192,95156,1,0,0:0:0:0:
192,192,95232,1,0,0:0:0:0:
320,192,95309,1,0,0:0:0:70:LR_Tom Hit 3.wav
448,192,95309,1,0,0:0:0:0:
192,192,95385,1,0,0:0:0:0:
64,192,95461,1,2,0:0:0:0:
320,192,95461,128,4,95765:0:0:0:0:
448,192,95461,128,0,95765:0:0:0:0:
192,192,95765,1,2,0:0:0:0:
64,192,95918,1,8,0:0:0:0:
320,192,95918,1,0,0:0:0:0:
448,192,95918,128,0,96070:0:0:0:0:
192,192,96070,1,0,0:0:0:0:
64,192,96222,128,2,96375:0:0:0:0:
320,192,96222,1,0,0:0:0:0:
192,192,96375,1,2,0:0:0:0:
320,192,96375,128,0,96527:0:0:0:0:
64,192,96527,1,8,0:0:0:0:
192,192,96527,128,0,96679:0:0:0:0:
448,192,96527,1,0,0:0:0:0:
320,192,96679,128,2,96984:0:0:0:0:
448,192,96679,128,0,96984:0:0:0:0:
64,192,96984,1,2,0:0:0:0:
192,192,96984,1,0,0:0:0:0:
64,192,97136,128,8,97288:0:0:0:0:
320,192,97136,1,0,0:0:0:0:
448,192,97136,1,0,0:0:0:0:
320,192,97288,1,0,0:0:0:0:
192,192,97441,1,2,0:0:0:0:
448,192,97441,128,0,97593:0:0:0:0:
192,192,97593,128,2,97745:0:0:0:0:
320,192,97593,1,0,0:0:0:0:
64,192,97745,1,8,0:0:0:0:
320,192,97745,128,0,97897:0:0:0:0:
448,192,97745,1,0,0:0:0:0:
64,192,97897,128,2,98202:0:0:0:0:
192,192,97897,128,4,98202:0:0:0:0:
448,192,97897,1,0,0:0:0:0:
320,192,98202,1,2,0:0:0:0:
448,192,98202,1,0,0:0:0:0:
64,192,98354,1,8,0:0:0:0:
192,192,98354,128,0,98507:0:0:0:0:
448,192,98354,1,0,0:0:0:0:
320,192,98507,1,0,0:0:0:0:
64,192,98659,1,2,0:0:0:0:
320,192,98659,128,0,98811:0:0:0:0:
64,192,98811,128,2,98963:0:0:0:0:
448,192,98811,1,0,0:0:0:0:
192,192,98963,1,8,0:0:0:0:
320,192,98963,1,0,0:0:0:0:
448,192,98963,128,0,99116:0:0:0:0:
64,192,99116,128,2,99420:0:0:0:0:
192,192,99116,128,0,99420:0:0:0:0:
320,192,99420,1,2,0:0:0:0:
448,192,99420,1,0,0:0:0:0:
64,192,99573,1,8,0:0:0:0:
192,192,99573,1,0,0:0:0:0:
448,192,99573,128,0,99725:0:0:0:0:
192,192,99725,1,0,0:0:0:0:
64,192,99877,128,2,100029:0:0:0:0:
320,192,99877,1,0,0:0:0:0:
192,192,100029,1,2,0:0:0:0:
320,192,100029,128,0,100182:0:0:0:0:
64,192,100182,1,8,0:0:0:0:
192,192,100182,128,0,100334:0:0:0:0:
448,192,100182,1,0,0:0:0:0:
64,192,100334,1,2,0:0:0:0:
320,192,100334,128,4,100639:0:0:0:0:
448,192,100334,128,0,100639:0:0:0:0:
64,192,100639,1,2,0:0:0:0:
192,192,100639,128,0,100791:0:0:0:0:
64,192,100791,1,8,0:0:0:0:
320,192,100791,1,0,0:0:0:0:
448,192,100791,128,0,100943:0:0:0:0:
192,192,100943,128,0,101095:0:0:0:0:
64,192,101095,1,2,0:0:0:0:
448,192,101095,128,0,101248:0:0:0:0:
64,192,101248,128,2,101400:0:0:0:0:
320,192,101248,1,0,0:0:0:0:
192,192,101400,1,8,0:0:0:0:
320,192,101400,128,0,101552:0:0:0:0:
448,192,101400,1,0,0:0:0:0:
64,192,101552,128,2,101857:0:0:0:0:
192,192,101552,128,0,101857:0:0:0:0:
320,192,101857,128,2,102009:0:0:0:0:
448,192,101857,1,0,0:0:0:0:
64,192,102009,1,8,0:0:0:0:
192,192,102009,128,0,102161:0:0:0:0:
448,192,102009,1,0,0:0:0:0:
64,192,102161,1,8,0:0:0:0:
320,192,102161,1,0,0:0:0:0:
448,192,102161,128,0,102314:0:0:0:0:
64,192,102314,128,2,102466:0:0:0:0:
192,192,102314,1,0,0:0:0:0:
192,192,102466,128,2,102618:0:0:0:0:
320,192,102466,1,0,0:0:0:0:
64,192,102618,1,8,0:0:0:0:
320,192,102618,128,0,102771:0:0:0:0:
448,192,102618,1,0,0:0:0:0:
64,192,102771,128,2,102999:0:0:0:0:
192,192,102771,128,4,102999:0:0:0:0:
448,192,102771,128,0,102999:0:0:0:0:
64,192,103075,1,2,0:0:0:0:
448,192,103075,1,0,0:0:0:0:
320,192,103151,1,2,0:0:0:0:
64,192,103227,1,8,0:0:0:0:
192,192,103227,1,0,0:0:0:0:
448,192,103227,1,0,0:0:0:0:
192,192,103380,1,2,0:0:0:0:
320,192,103380,1,0,0:0:0:0:
64,192,103532,1,8,0:0:0:0:
320,192,103532,1,0,0:0:0:0:
448,192,103532,1,0,0:0:0:0:
192,192,103684,1,2,0:0:0:0:
320,192,103684,1,0,0:0:0:0:
64,192,103837,1,8,0:0:0:0:
192,192,103837,1,0,0:0:0:0:
448,192,103837,1,0,0:0:0:0:
320,192,103989,128,2,104065:0:0:0:0:
448,192,103989,128,4,104141:0:0:0:0:
64,192,104065,128,0,104217:0:0:0:0:
192,192,104141,128,8,104217:0:0:0:0:
320,192,104141,128,0,104293:0:0:0:0:
448,192,104217,128,0,104370:0:0:0:0:
64,192,104293,128,2,104370:0:0:0:0:
192,192,104293,128,0,104446:0:0:0:0:
320,192,104370,128,0,104522:0:0:0:0:
64,192,104446,128,8,104598:0:0:0:0:
448,192,104446,128,0,104522:0:0:0:0:
192,192,104522,128,0,104674:0:0:0:0:
320,192,104598,128,2,104750:0:0:0:0:
448,192,104598,128,0,104674:0:0:0:0:
64,192,104674,128,0,104826:0:0:0:0:
192,192,104750,128,8,104826:0:0:0:0:
448,192,104750,128,0,104903:0:0:0:0:
320,192,104826,128,0,104903:0:0:0:0:
64,192,104903,128,2,104979:0:0:0:0:
192,192,104903,128,0,104979:0:0:0:0:
320,192,104979,128,0,105055:0:0:0:0:
448,192,104979,128,0,105055:0:0:0:0:
64,192,105055,128,8,105207:0:0:0:0:
192,192,105055,128,0,105207:0:0:0:0:
320,192,105207,128,2,105512:0:0:0:0:
448,192,105207,128,0,105512:0:0:0:0:
64,192,105512,128,0,105664:0:0:0:0:
192,192,105664,128,0,105816:0:0:0:0:
320,192,105664,128,0,105816:0:0:0:0:
64,192,105816,128,0,105968:0:0:0:0:
448,192,105968,128,0,106045:0:0:0:0:
192,192,106045,128,0,106121:0:0:0:0:
320,192,106121,128,0,106273:0:0:0:0:
448,192,106121,128,0,106273:0:0:0:0:
64,192,106273,128,0,106425:0:0:0:0:
320,192,106425,128,0,106578:0:0:0:0:
64,192,106578,128,8,106730:0:0:0:0:
192,192,106578,1,0,0:0:0:0:
448,192,106578,1,0,0:0:0:0:
320,192,106730,1,2,0:0:0:0:
448,192,106730,1,0,0:0:0:0:
64,192,106806,1,2,0:0:0:0:
192,192,106806,1,0,0:0:0:0:
320,192,106882,1,2,0:0:0:0:
448,192,106882,128,0,107034:0:0:0:0:
64,192,107034,128,2,107339:0:0:0:0:
192,192,107034,1,0,0:0:0:0:
192,192,107187,1,8,0:0:0:0:
320,192,107187,1,0,0:0:0:0:
320,192,107339,128,2,107491:0:0:0:0:
448,192,107339,1,0,0:0:0:0:
64,192,107491,1,8,0:0:0:0:
192,192,107491,128,0,107644:0:0:0:0:
448,192,107491,1,0,0:0:0:0:
64,192,107644,1,2,0:0:0:0:
320,192,107644,1,4,0:0:0:0:
448,192,107644,128,0,110080:0:0:0:0:
192,192,107948,1,0,0:0:0:0:
64,192,108100,1,0,0:0:0:0:
320,192,108253,1,0,0:0:0:0:
192,192,108557,1,0,0:0:0:0:
320,192,108710,1,0,0:0:0:0:
64,192,108862,1,0,0:0:0:0:
320,192,109166,1,0,0:0:0:0:
192,192,109319,1,0,0:0:0:0:
64,192,109471,1,0,0:0:0:0:
320,192,109623,1,0,0:0:0:0:
64,192,109776,1,0,0:0:0:0:
192,192,109928,1,0,0:0:0:0:
64,192,110080,128,0,112517:0:0:0:0:
320,192,110080,1,0,0:0:0:0:
448,192,110385,1,0,0:0:0:0:
192,192,110537,1,0,0:0:0:0:
320,192,110689,1,0,0:0:0:0:
192,192,110994,1,0,0:0:0:0:
448,192,111146,1,0,0:0:0:0:
320,192,111298,1,0,0:0:0:0:
448,192,111603,1,0,0:0:0:0:
320,192,111755,1,0,0:0:0:0:
192,192,111908,1,0,0:0:0:0:
448,192,112060,1,0,0:0:0:0:
192,192,112212,1,0,0:0:0:0:
320,192,112364,1,0,0:0:0:0:
192,192,112517,1,0,0:0:0:0:
448,192,112517,128,0,114953:0:0:0:0:
64,192,112821,1,0,0:0:0:0:
320,192,112974,1,0,0:0:0:0:
192,192,113126,1,0,0:0:0:0:
320,192,113430,1,0,0:0:0:0:
64,192,113583,1,0,0:0:0:0:
192,192,113735,1,0,0:0:0:0:
320,192,114040,1,0,0:0:0:0:
192,192,114192,1,0,0:0:0:0:
64,192,114344,1,0,0:0:0:0:
192,192,114649,1,0,0:0:0:0:
64,192,114953,128,0,115715:0:0:0:0:
320,192,114953,1,0,0:0:0:0:
320,192,115715,128,0,116324:0:0:0:0:
64,192,116324,1,8,0:0:0:0:
192,192,116324,1,0,0:0:0:0:
448,192,116324,1,0,0:0:0:0:
320,192,116400,1,0,0:0:0:0:
64,192,116476,1,8,0:0:0:0:
448,192,116476,1,0,0:0:0:0:
192,192,116552,1,8,0:0:0:0:
64,192,116628,1,8,0:0:0:0:
320,192,116628,1,0,0:0:0:0:
448,192,116628,1,0,0:0:0:0:
64,192,116781,128,0,116933:0:0:0:70:LR_Tom Hit 2.wav
192,192,116781,1,0,0:0:0:0:
320,192,116933,128,0,117009:0:0:0:70:LR_Tom Hit 3.wav
448,192,116933,128,0,117009:0:0:0:0:
192,192,117009,128,0,117085:0:0:0:0:
64,192,117085,128,2,117161:0:0:0:0:
448,192,117085,128,0,117161:0:0:0:0:
320,192,117161,128,0,117238:0:0:0:0:
64,192,117238,128,8,117314:0:0:0:0:
192,192,117238,128,0,117314:0:0:0:0:
448,192,117314,128,0,117390:0:0:0:0:
64,192,117390,128,4,117694:0:0:0:0:
192,192,117390,128,2,117694:0:0:0:0:
320,192,117390,1,0,0:0:0:0:
320,192,117694,1,2,0:0:0:0:
448,192,117694,1,0,0:0:0:0:
64,192,117847,1,8,0:0:0:0:
192,192,117847,128,0,117923:0:0:0:0:
448,192,117847,1,0,0:0:0:0:
192,192,117999,128,0,118075:0:0:0:0:
320,192,118151,1,2,0:0:0:0:
448,192,118151,128,0,118227:0:0:0:0:
192,192,118304,1,2,0:0:0:0:
448,192,118304,128,0,118380:0:0:0:0:
64,192,118456,128,8,118532:0:0:0:0:
320,192,118456,1,0,0:0:0:0:
448,192,118456,1,0,0:0:0:0:
192,192,118608,128,0,118684:0:0:0:0:
64,192,118760,128,2,118837:0:0:0:0:
448,192,118760,1,0,0:0:0:0:
192,192,118913,1,2,0:0:0:0:
320,192,118913,128,0,118989:0:0:0:0:
64,192,119065,1,8,0:0:0:0:
192,192,119065,128,0,119141:0:0:0:0:
448,192,119065,1,0,0:0:0:0:
320,192,119217,128,0,119293:0:0:0:0:
64,192,119370,128,2,119446:0:0:0:0:
448,192,119370,1,0,0:0:0:0:
192,192,119522,1,2,0:0:0:0:
320,192,119522,128,0,119598:0:0:0:0:
64,192,119674,1,8,0:0:0:0:
192,192,119674,1,0,0:0:0:0:
448,192,119674,1,0,0:0:0:0:
64,192,119826,1,4,0:0:0:0:
320,192,119826,128,2,120131:0:0:0:0:
448,192,119826,128,0,120131:0:0:0:0:
64,192,120131,1,2,0:0:0:0:
192,192,120131,1,0,0:0:0:0:
64,192,120283,1,8,0:0:0:0:
320,192,120283,128,0,120359:0:0:0:0:
448,192,120283,1,0,0:0:0:0:
320,192,120436,128,0,120512:0:0:0:0:
192,192,120588,128,2,120664:0:0:0:0:
448,192,120588,1,0,0:0:0:0:
192,192,120740,128,2,120816:0:0:0:0:
320,192,120740,1,0,0:0:0:0:
64,192,120892,1,8,0:0:0:0:
320,192,120892,1,0,0:0:0:0:
448,192,120892,128,0,120968:0:0:0:0:
64,192,121045,128,0,121121:0:0:0:0:
320,192,121197,128,2,121273:0:0:0:0:
448,192,121197,1,0,0:0:0:0:
64,192,121349,1,2,0:0:0:0:
192,192,121349,128,0,121425:0:0:0:0:
64,192,121501,1,8,0:0:0:0:
320,192,121501,128,0,121578:0:0:0:0:
448,192,121501,1,0,0:0:0:0:
192,192,121654,128,0,121730:0:0:0:0:
320,192,121654,1,0,0:0:0:0:
64,192,121806,1,2,0:0:0:0:
448,192,121806,128,0,121882:0:0:0:0:
192,192,121958,128,2,122034:0:0:0:0:
320,192,121958,1,0,0:0:0:0:
64,192,122111,1,8,0:0:0:0:
320,192,122111,1,0,0:0:0:0:
448,192,122111,1,0,0:0:0:0:
64,192,122263,128,4,122567:0:0:0:0:
192,192,122263,128,2,122567:0:0:0:0:
448,192,122263,1,0,0:0:0:0:
320,192,122567,1,2,0:0:0:0:
448,192,122567,1,0,0:0:0:0:
64,192,122720,1,8,0:0:0:0:
192,192,122720,128,0,122796:0:0:0:0:
448,192,122720,1,0,0:0:0:0:
192,192,122872,128,0,122948:0:0:0:0:
320,192,123024,128,2,123100:0:0:0:0:
448,192,123024,1,0,0:0:0:0:
64,192,123177,1,2,0:0:0:0:
320,192,123177,128,0,123253:0:0:0:0:
64,192,123329,1,8,0:0:0:0:
192,192,123329,128,0,123405:0:0:0:0:
448,192,123329,1,0,0:0:0:0:
320,192,123481,128,0,123557:0:0:0:0:
64,192,123633,128,2,123710:0:0:0:0:
192,192,123633,1,0,0:0:0:0:
320,192,123786,128,2,123862:0:0:0:0:
448,192,123786,1,0,0:0:0:0:
64,192,123938,1,8,0:0:0:0:
192,192,123938,128,0,124014:0:0:0:0:
448,192,123938,1,0,0:0:0:0:
192,192,124090,1,2,0:0:0:0:
320,192,124090,128,0,124166:0:0:0:0:
64,192,124243,1,8,0:0:0:0:
448,192,124243,1,0,0:0:0:0:
192,192,124319,1,0,0:0:0:0:
320,192,124395,1,2,0:0:0:0:
448,192,124395,1,0,0:0:0:0:
192,192,124471,1,0,0:0:0:0:
64,192,124547,1,8,0:0:0:0:
320,192,124547,1,0,0:0:0:0:
448,192,124547,1,0,0:0:0:0:
64,192,124699,128,4,125004:0:0:0:0:
192,192,124699,128,2,125004:0:0:0:0:
448,192,124699,128,0,125004:0:0:0:0:
64,192,125918,128,4,126146:0:0:0:0:
320,192,125918,128,2,126146:0:0:0:0:
448,192,125918,128,0,126146:0:0:0:0:
64,192,126222,1,8,0:0:0:0:
192,192,126222,1,0,0:0:0:0:
448,192,126222,1,0,0:0:0:0:
64,192,126375,1,8,0:0:0:0:
192,192,126375,1,0,0:0:0:0:
448,192,126375,1,0,0:0:0:0:
192,192,126527,1,2,0:0:0:0:
320,192,126527,1,0,0:0:0:0:
448,192,126603,1,2,0:0:0:0:
64,192,126679,1,2,0:0:0:0:
192,192,126679,1,8,0:0:0:0:
320,192,126717,1,2,0:0:0:0:
448,192,126755,1,2,0:0:0:0:
192,192,126793,1,2,0:0:0:0:
64,192,126831,1,2,0:0:0:0:
320,192,126870,1,2,0:0:0:0:
448,192,126908,1,2,0:0:0:0:
192,192,126946,1,2,0:0:0:0:
64,192,126984,1,10,0:0:0:0:
320,192,127022,1,2,0:0:0:0:
448,192,127060,1,2,0:0:0:0:
192,192,127098,1,2,0:0:0:0:
64,192,127136,128,2,127364:0:0:0:0:
320,192,127136,128,4,127364:0:0:0:0:
448,192,127136,128,0,127364:0:0:0:0:
192,192,127441,128,2,127555:0:0:0:0:
64,192,127479,128,0,127555:0:0:0:0:
320,192,127593,128,2,127707:0:0:0:0:
448,192,127631,128,0,127707:0:0:0:0:
64,192,127745,128,0,127821:0:0:0:0:
192,192,127771,128,0,127821:0:0:0:0:
448,192,127847,128,0,127923:0:0:0:0:
320,192,127872,128,0,127923:0:0:0:0:
64,192,127948,128,0,128024:0:0:0:0:
192,192,127974,128,0,128024:0:0:0:0:
448,192,128050,128,0,128126:0:0:0:0:
320,192,128075,128,0,128126:0:0:0:0:
64,192,128151,128,0,128227:0:0:0:0:
192,192,128177,128,0,128227:0:0:0:0:
448,192,128253,128,0,128329:0:0:0:0:
320,192,128278,128,0,128329:0:0:0:0:
64,192,128354,128,6,128430:0:0:0:0:
192,192,128380,128,0,128430:0:0:0:0:
64,192,128468,128,0,128583:0:0:0:0:
320,192,128468,128,0,128583:0:0:0:0:
448,192,128468,128,0,128583:0:0:0:0:
64,192,128659,128,8,128811:0:0:0:0:
192,192,128659,128,0,128773:0:0:0:0:
320,192,128659,128,0,128735:0:0:0:0:
448,192,128773,128,0,128887:0:0:0:0:
320,192,128811,128,2,128887:0:0:0:0:
192,192,128849,128,0,128887:0:0:0:0:
64,192,128887,128,0,128963:0:0:0:0:
320,192,128963,128,0,129040:0:0:0:0:
192,192,129040,128,0,129116:0:0:0:0:
64,192,129116,128,4,129268:0:0:0:0:
320,192,129116,128,8,129268:0:0:0:0:
448,192,129116,128,0,129268:0:0:0:0:
64,192,129344,128,0,129496:0:0:0:0:
320,192,129344,128,0,129496:0:0:0:0:
448,192,129344,128,0,129496:0:0:0:0:
64,192,129573,128,0,129649:0:0:0:0:
192,192,129573,128,0,129649:0:0:0:0:
448,192,129573,128,0,129649:0:0:0:0:
64,192,129725,128,4,129877:0:0:0:0:
192,192,129725,128,2,129877:0:0:0:0:
448,192,129725,128,0,129877:0:0:0:0:
320,192,129928,128,0,130029:0:0:0:0:
448,192,129953,128,0,130029:0:0:0:0:
192,192,130080,128,0,130182:0:0:0:0:
64,192,130106,128,0,130182:0:0:0:0:
320,192,130207,128,0,130258:0:0:0:0:
448,192,130207,128,0,130258:0:0:0:0:
64,192,130283,128,0,130334:0:0:0:0:
192,192,130283,128,0,130334:0:0:0:0:
320,192,130359,128,0,130410:0:0:0:0:
448,192,130359,128,0,130410:0:0:0:0:
64,192,130436,128,0,130486:0:0:0:0:
192,192,130436,128,0,130486:0:0:0:0:
320,192,130512,128,0,130562:0:0:0:0:
448,192,130512,128,0,130562:0:0:0:0:
64,192,130588,128,0,130639:0:0:0:0:
192,192,130588,128,0,130639:0:0:0:0:
320,192,130664,128,0,130715:0:0:0:0:
448,192,130664,128,0,130715:0:0:0:0:
192,192,130740,128,0,130791:0:0:0:0:
64,192,130791,128,4,130867:0:0:0:0:
320,192,130791,128,2,130867:0:0:0:0:
448,192,130791,128,0,130867:0:0:0:0:
64,192,130943,128,8,131019:0:0:0:0:
320,192,130943,128,0,131095:0:0:0:0:
448,192,130943,128,0,131095:0:0:0:0:
64,192,131095,1,8,0:0:0:0:
192,192,131095,1,0,0:0:0:0:
64,192,131248,1,8,0:0:0:0:
320,192,131248,1,0,0:0:0:0:
448,192,131248,1,0,0:0:0:0:
64,192,131400,128,4,131628:0:0:0:0:
192,192,131400,128,8,131628:0:0:0:0:
320,192,131400,128,0,131628:0:0:0:0:
192,192,131705,128,8,131933:0:0:0:0:
320,192,131705,128,0,131933:0:0:0:0:
448,192,131705,128,0,131933:0:0:0:0:
64,192,132009,128,4,132238:0:0:0:0:
192,192,132009,128,2,132238:0:0:0:0:
448,192,132009,128,0,132238:0:0:0:0:
320,192,132314,128,2,132428:0:0:0:0:
448,192,132352,128,0,132428:0:0:0:0:
192,192,132466,128,2,132580:0:0:0:0:
64,192,132504,128,0,132580:0:0:0:0:
448,192,132618,128,0,132694:0:0:0:0:
320,192,132644,128,0,132694:0:0:0:0:
64,192,132720,128,0,132796:0:0:0:0:
192,192,132745,128,0,132796:0:0:0:0:
448,192,132821,128,0,132897:0:0:0:0:
320,192,132847,128,0,132897:0:0:0:0:
64,192,132923,128,0,132999:0:0:0:0:
192,192,132948,128,0,132999:0:0:0:0:
448,192,133024,128,0,133100:0:0:0:0:
320,192,133050,128,0,133100:0:0:0:0:
64,192,133126,128,0,133202:0:0:0:0:
192,192,133151,128,0,133202:0:0:0:0:
448,192,133227,128,6,133304:0:0:0:0:
320,192,133253,128,0,133304:0:0:0:0:
64,192,133342,128,0,133456:0:0:0:0:
192,192,133342,128,0,133456:0:0:0:0:
448,192,133342,128,0,133456:0:0:0:0:
192,192,133532,128,8,133608:0:0:0:0:
320,192,133532,128,0,133646:0:0:0:0:
448,192,133532,128,0,133684:0:0:0:0:
64,192,133646,128,0,133798:0:0:0:0:
192,192,133684,128,0,133798:0:0:0:0:
320,192,133722,128,0,133798:0:0:0:0:
448,192,133837,128,2,133913:0:0:0:0:
320,192,133913,128,0,133989:0:0:0:0:
64,192,133989,128,8,134141:0:0:0:0:
192,192,133989,128,4,134141:0:0:0:0:
448,192,133989,128,0,134141:0:0:0:0:
64,192,134217,128,0,134370:0:0:0:0:
192,192,134217,128,0,134370:0:0:0:0:
448,192,134217,128,0,134370:0:0:0:0:
64,192,134446,128,2,134522:0:0:0:0:
320,192,134446,128,4,134522:0:0:0:0:
448,192,134446,128,0,134522:0:0:0:0:
64,192,134598,128,0,134750:0:0:0:0:
320,192,134598,128,0,134750:0:0:0:0:
448,192,134598,128,0,134750:0:0:0:0:
192,192,134801,128,0,134903:0:0:0:0:
64,192,134826,128,0,134903:0:0:0:0:
320,192,134953,128,0,135055:0:0:0:0:
448,192,134979,128,0,135055:0:0:0:0:
64,192,135080,128,0,135131:0:0:0:0:
192,192,135080,128,0,135131:0:0:0:0:
320,192,135156,128,0,135207:0:0:0:0:
448,192,135156,128,0,135207:0:0:0:0:
64,192,135232,128,0,135283:0:0:0:0:
192,192,135232,128,0,135283:0:0:0:0:
320,192,135309,128,0,135359:0:0:0:0:
448,192,135309,128,0,135359:0:0:0:0:
64,192,135385,128,0,135436:0:0:0:0:
192,192,135385,128,0,135436:0:0:0:0:
320,192,135461,128,0,135512:0:0:0:0:
448,192,135461,128,0,135512:0:0:0:0:
64,192,135537,128,0,135588:0:0:0:0:
192,192,135537,128,0,135588:0:0:0:0:
320,192,135613,128,0,135664:0:0:0:0:
64,192,135664,128,2,135740:0:0:0:0:
192,192,135664,128,0,135740:0:0:0:0:
448,192,135664,128,0,135740:0:0:0:0:
64,192,135816,128,2,135968:0:0:0:0:
192,192,135816,128,4,135968:0:0:0:0:
448,192,135816,128,0,135892:0:0:0:0:
320,192,135968,1,8,0:0:0:0:
448,192,135968,1,0,0:0:0:0:
64,192,136121,1,2,0:0:0:0:
320,192,136121,1,0,0:0:0:0:
192,192,136197,1,0,0:0:0:0:
64,192,136273,1,0,0:0:0:0:
448,192,136273,1,0,0:0:0:0:
320,192,136349,1,0,0:0:0:0:
64,192,136425,1,2,0:0:0:0:
192,192,136425,1,8,0:0:0:0:
192,192,136578,1,8,0:0:0:0:
320,192,136578,1,2,0:0:0:0:
64,192,136730,1,8,0:0:0:0:
320,192,136730,1,0,0:0:0:0:
448,192,136730,1,0,0:0:0:0:
64,192,136882,128,2,137187:0:0:0:0:
192,192,136882,1,4,0:0:0:0:
320,192,136882,1,0,0:0:0:0:
448,192,136882,1,0,0:0:0:0:
320,192,137187,1,2,0:0:0:0:
448,192,137187,1,0,0:0:0:0:
64,192,137339,128,8,137644:0:0:0:0:
192,192,137339,1,0,0:0:0:0:
448,192,137339,1,0,0:0:0:0:
320,192,137491,1,0,0:0:0:0:
192,192,137644,1,2,0:0:0:0:
448,192,137644,1,0,0:0:0:0:
320,192,137720,1,0,0:0:0:0:
64,192,137796,1,2,0:0:0:0:
448,192,137796,1,0,0:0:0:0:
64,192,137948,1,8,0:0:0:0:
192,192,137948,1,0,0:0:0:0:
320,192,137948,1,0,0:0:0:0:
192,192,138100,1,2,0:0:0:0:
320,192,138100,1,4,0:0:0:0:
448,192,138100,128,0,138405:0:0:0:0:
64,192,138405,1,2,0:0:0:0:
192,192,138405,1,0,0:0:0:0:
64,192,138557,1,8,0:0:0:0:
320,192,138557,1,0,0:0:0:0:
448,192,138557,1,0,0:0:0:0:
192,192,138633,1,0,0:0:0:0:
64,192,138710,1,0,0:0:0:0:
448,192,138710,1,0,0:0:0:0:
192,192,138862,1,2,0:0:0:0:
320,192,138862,1,0,0:0:0:0:
192,192,139014,1,2,0:0:0:0:
448,192,139014,1,0,0:0:0:0:
64,192,139166,1,8,0:0:0:0:
320,192,139166,1,0,0:0:0:0:
448,192,139166,1,0,0:0:0:0:
64,192,139319,128,2,139623:0:0:0:0:
192,192,139319,1,4,0:0:0:0:
320,192,139319,1,0,0:0:0:0:
192,192,139623,1,2,0:0:0:0:
448,192,139623,1,0,0:0:0:0:
320,192,139699,1,0,0:0:0:0:
64,192,139776,1,8,0:0:0:0:
192,192,139776,1,0,0:0:0:0:
448,192,139776,1,0,0:0:0:0:
320,192,139928,1,0,0:0:0:0:
64,192,140080,1,2,0:0:0:0:
192,192,140080,1,0,0:0:0:0:
320,192,140232,1,2,0:0:0:0:
448,192,140232,1,0,0:0:0:0:
64,192,140385,1,8,0:0:0:0:
192,192,140385,1,0,0:0:0:0:
448,192,140385,1,0,0:0:0:0:
64,192,140537,1,4,0:0:0:0:
320,192,140537,128,2,140842:0:0:0:0:
448,192,140537,128,0,140842:0:0:0:0:
64,192,140842,1,2,0:0:0:0:
192,192,140842,1,0,0:0:0:0:
64,192,140994,1,8,0:0:0:0:
320,192,140994,1,0,0:0:0:0:
448,192,140994,1,0,0:0:0:0:
192,192,141146,1,0,0:0:0:0:
320,192,141146,1,0,0:0:0:0:
64,192,141298,1,2,0:0:0:0:
192,192,141298,1,0,0:0:0:0:
320,192,141400,1,8,0:0:0:0:
448,192,141400,1,0,0:0:0:0:
64,192,141501,1,8,0:0:0:0:
192,192,141501,1,0,0:0:0:0:
320,192,141603,1,8,0:0:0:0:
448,192,141603,1,0,0:0:0:0:
64,192,141705,1,8,0:0:0:0:
192,192,141705,1,0,0:0:0:0:
320,192,141806,1,8,0:0:0:0:
448,192,141806,1,0,0:0:0:0:
64,192,141908,128,2,142364:0:0:0:0:
192,192,141908,1,4,0:0:0:0:
448,192,141908,1,0,0:0:0:0:
320,192,142060,128,0,142212:0:0:0:0:
192,192,142212,128,0,142364:0:0:0:0:
320,192,142364,128,2,142517:0:0:0:0:
448,192,142364,128,0,142974:0:0:0:0:
64,192,142517,128,8,142974:0:0:0:0:
192,192,142517,1,0,0:0:0:0:
192,192,142669,1,0,0:0:0:0:
320,192,142821,1,0,0:0:0:0:
192,192,142974,1,8,0:0:0:0:
320,192,142974,1,0,0:0:0:0:
192,192,143126,1,2,0:0:0:0:
448,192,143126,1,0,0:0:0:0:
64,192,143278,1,8,0:0:0:0:
320,192,143278,1,0,0:0:0:0:
448,192,143278,1,0,0:0:0:0:
320,192,143430,1,0,0:0:0:0:
64,192,143583,1,2,0:0:0:0:
192,192,143583,1,0,0:0:0:0:
64,192,143735,1,8,0:0:0:0:
320,192,143735,1,0,0:0:0:0:
448,192,143735,128,0,143887:0:0:0:0:
192,192,143887,128,0,144040:0:0:0:0:
320,192,144040,128,2,144192:0:0:0:0:
64,192,144192,128,8,144420:0:0:0:0:
192,192,144192,128,0,144420:0:0:0:0:
448,192,144192,128,0,144420:0:0:0:0:
64,192,144496,128,8,144573:0:0:0:0:
320,192,144496,128,0,144573:0:0:0:0:
448,192,144496,128,0,144573:0:0:0:0:
64,192,144649,128,8,144801:0:0:0:0:
192,192,144649,128,0,144801:0:0:0:0:
448,192,144649,128,0,144801:0:0:0:0:
320,192,144953,128,0,145258:0:0:0:0:
448,192,144953,128,0,145258:0:0:0:0:
64,192,145182,1,2,0:0:0:0:
192,192,145258,1,2,0:0:0:0:
320,192,145334,1,2,0:0:0:0:
64,192,145410,1,10,0:0:0:0:
448,192,145410,1,4,0:0:0:0:
192,192,145486,1,2,0:0:0:0:
320,192,145562,1,2,0:0:0:0:
448,192,145639,1,2,0:0:0:0:
64,192,145715,1,10,0:0:0:0:
192,192,145715,1,4,0:0:0:0:
320,192,145791,1,2,0:0:0:0:
64,192,145867,1,12,0:0:0:0:
448,192,145867,1,2,0:0:0:0:
192,192,145918,1,0,0:0:0:0:
320,192,145968,1,0,0:0:0:0:
448,192,146019,1,0,0:0:0:0:
64,192,146172,128,0,146476:0:0:0:0:
320,192,146476,128,0,146628:0:0:0:0:
64,192,146628,128,4,146933:0:0:0:0:
192,192,146628,128,2,146933:0:0:0:0:
448,192,146628,1,0,0:0:0:0:
320,192,146933,1,2,0:0:0:0:
448,192,146933,128,0,147085:0:0:0:0:
64,192,147085,1,8,0:0:0:0:
192,192,147085,128,0,147238:0:0:0:0:
320,192,147238,128,0,147390:0:0:0:0:
64,192,147390,128,2,147542:0:0:0:0:
448,192,147390,1,0,0:0:0:0:
192,192,147466,128,0,147542:0:0:0:0:
320,192,147542,1,2,0:0:0:0:
448,192,147542,128,0,147694:0:0:0:0:
64,192,147694,1,8,0:0:0:0:
192,192,147694,1,0,0:0:0:0:
320,192,147847,128,4,147999:0:0:0:0:
64,192,147999,1,2,0:0:0:0:
192,192,147999,1,0,0:0:0:0:
192,192,148151,128,2,148304:0:0:0:0:
448,192,148151,1,0,0:0:0:0:
64,192,148304,128,8,148608:0:0:0:0:
320,192,148304,1,0,0:0:0:0:
448,192,148304,128,0,148456:0:0:0:0:
192,192,148456,128,2,148608:0:0:0:0:
320,192,148608,128,0,148760:0:0:0:0:
192,192,148684,128,0,148760:0:0:0:0:
64,192,148760,1,2,0:0:0:0:
448,192,148760,128,0,148913:0:0:0:0:
64,192,148913,128,8,149065:0:0:0:0:
320,192,148913,1,0,0:0:0:0:
192,192,149065,1,4,0:0:0:0:
320,192,149065,128,2,149370:0:0:0:0:
448,192,149065,128,0,149370:0:0:0:0:
64,192,149370,1,2,0:0:0:0:
192,192,149370,1,0,0:0:0:0:
64,192,149522,1,8,0:0:0:0:
320,192,149522,1,0,0:0:0:0:
448,192,149522,1,0,0:0:0:0:
192,192,149674,1,0,0:0:0:0:
320,192,149674,1,0,0:0:0:0:
192,192,149826,1,2,0:0:0:0:
448,192,149826,1,0,0:0:0:0:
320,192,149903,1,0,0:0:0:0:
64,192,149979,1,2,0:0:0:0:
448,192,149979,1,0,0:0:0:0:
192,192,150055,1,0,0:0:0:0:
64,192,150131,1,8,0:0:0:0:
320,192,150131,1,0,0:0:0:0:
448,192,150131,1,0,0:0:0:0:
64,192,150283,128,2,150588:0:0:0:0:
192,192,150283,128,0,150588:0:0:0:0:
320,192,150588,1,2,0:0:0:0:
448,192,150588,1,0,0:0:0:0:
64,192,150740,1,8,0:0:0:0:
192,192,150740,1,0,0:0:0:0:
448,192,150740,1,0,0:0:0:0:
192,192,150892,1,0,0:0:0:0:
320,192,150892,1,0,0:0:0:0:
64,192,151045,1,2,0:0:0:0:
448,192,151045,1,0,0:0:0:0:
192,192,151095,1,0,0:0:0:0:
320,192,151146,1,0,0:0:0:0:
64,192,151197,1,2,0:0:0:0:
448,192,151197,1,0,0:0:0:0:
192,192,151248,1,0,0:0:0:0:
320,192,151298,1,0,0:0:0:0:
64,192,151349,1,8,0:0:0:0:
192,192,151349,1,0,0:0:0:0:
448,192,151349,1,0,0:0:0:0:
64,192,151501,1,4,0:0:0:0:
320,192,151501,128,2,151806:0:0:0:0:
448,192,151501,128,0,151806:0:0:0:0:
64,192,151806,1,2,0:0:0:0:
192,192,151806,1,0,0:0:0:0:
64,192,151958,1,8,0:0:0:0:
320,192,151958,1,0,0:0:0:0:
448,192,151958,1,0,0:0:0:0:
192,192,152111,1,0,0:0:0:0:
320,192,152111,1,0,0:0:0:0:
448,192,152187,1,0,0:0:0:0:
64,192,152263,1,2,0:0:0:0:
192,192,152263,1,0,0:0:0:0:
320,192,152415,1,2,0:0:0:0:
448,192,152415,1,0,0:0:0:0:
64,192,152567,1,8,0:0:0:0:
192,192,152567,1,0,0:0:0:0:
448,192,152567,1,0,0:0:0:0:
192,192,152720,1,4,0:0:0:0:
320,192,152720,1,2,0:0:0:0:
64,192,152796,1,0,0:0:0:0:
320,192,152872,1,2,0:0:0:0:
448,192,152872,1,0,0:0:0:0:
64,192,153024,1,2,0:0:0:0:
192,192,153024,1,0,0:0:0:0:
64,192,153177,1,8,0:0:0:0:
320,192,153177,1,0,0:0:0:0:
448,192,153177,1,0,0:0:0:0:
192,192,153329,1,2,0:0:0:0:
320,192,153329,1,0,0:0:0:0:
448,192,153405,1,0,0:0:0:0:
192,192,153481,1,2,0:0:0:0:
64,192,153481,1,0,0:0:0:0:
448,192,153633,1,2,0:0:0:0:
320,192,153633,1,0,0:0:0:0:
64,192,153786,1,8,0:0:0:0:
192,192,153786,1,0,0:0:0:0:
448,192,153786,1,0,0:0:0:0:
64,192,153938,1,4,0:0:0:0:
320,192,153938,128,2,154243:0:0:0:0:
448,192,153938,128,0,154243:0:0:0:0:
64,192,154243,1,2,0:0:0:0:
192,192,154243,1,0,0:0:0:0:
64,192,154395,1,8,0:0:0:0:
320,192,154395,1,0,0:0:0:0:
448,192,154395,1,0,0:0:0:0:
64,192,154547,128,4,154852:0:0:0:0:
192,192,154547,128,2,154852:0:0:0:0:
448,192,154547,1,0,0:0:0:0:
320,192,154852,1,2,0:0:0:0:
448,192,154852,1,0,0:0:0:0:
64,192,155004,1,8,0:0:0:0:
192,192,155004,1,0,0:0:0:0:
448,192,155004,1,0,0:0:0:0:
64,192,155156,128,4,155385:0:0:0:0:
320,192,155156,128,2,155385:0:0:0:0:
448,192,155156,128,0,155385:0:0:0:0:
64,192,155461,128,0,155537:0:0:0:0:
320,192,155461,128,0,155537:0:0:0:0:
192,192,155537,128,0,155613:0:0:0:0:
64,192,155613,128,0,155689:0:0:0:0:
448,192,155613,128,0,155689:0:0:0:0:
320,192,155689,128,0,155765:0:0:0:0:
64,192,155765,128,0,155842:0:0:0:0:
192,192,155765,128,0,155842:0:0:0:0:
448,192,155842,128,0,155918:0:0:0:0:
64,192,155918,1,8,0:0:0:0:
192,192,155918,1,0,0:0:0:0:
320,192,155918,1,0,0:0:0:0:
64,192,156070,1,8,0:0:0:0:
192,192,156070,1,0,0:0:0:0:
448,192,156070,1,0,0:0:0:0:
64,192,156222,1,8,0:0:0:0:
320,192,156222,1,0,0:0:0:0:
448,192,156222,1,0,0:0:0:0:
64,192,156375,128,2,156603:0:0:0:0:
192,192,156375,128,4,156603:0:0:0:0:
320,192,156375,128,0,156603:0:0:0:0:
448,192,156375,128,0,156603:0:0:0:0:
64,192,156679,1,2,0:0:0:0:
448,192,156679,1,0,0:0:0:0:
320,192,156755,1,0,0:0:0:0:
64,192,156831,1,8,0:0:0:0:
192,192,156831,1,0,0:0:0:0:
448,192,156831,1,0,0:0:0:0:
192,192,156984,1,2,0:0:0:0:
320,192,156984,1,0,0:0:0:0:
64,192,157136,1,8,0:0:0:0:
320,192,157136,1,0,0:0:0:0:
448,192,157136,1,0,0:0:0:0:
192,192,157288,1,2,0:0:0:0:
448,192,157288,1,0,0:0:0:0:
64,192,157441,1,8,0:0:0:0:
192,192,157441,1,0,0:0:0:0:
320,192,157441,1,0,0:0:0:0:
64,192,157593,1,2,0:0:0:0:
448,192,157593,1,4,0:0:0:0:
320,192,157669,1,0,0:0:0:0:
64,192,157745,1,8,0:0:0:0:
192,192,157745,1,0,0:0:0:0:
448,192,157745,1,0,0:0:0:0:
192,192,157897,1,2,0:0:0:0:
320,192,157897,1,0,0:0:0:0:
64,192,158050,1,8,0:0:0:0:
320,192,158050,1,0,0:0:0:0:
448,192,158050,1,0,0:0:0:0:
64,192,158202,1,2,0:0:0:0:
192,192,158202,1,0,0:0:0:0:
192,192,158354,1,8,0:0:0:0:
320,192,158354,1,0,0:0:0:0:
448,192,158354,1,0,0:0:0:0:
64,192,158507,1,2,0:0:0:0:
448,192,158507,1,0,0:0:0:0:
192,192,158583,1,0,0:0:0:0:
64,192,158659,1,8,0:0:0:0:
320,192,158659,1,0,0:0:0:0:
448,192,158659,1,0,0:0:0:0:
64,192,158811,128,4,159040:0:0:0:0:
192,192,158811,128,2,159040:0:0:0:0:
320,192,158811,128,0,159040:0:0:0:0:
448,192,158811,128,0,159040:0:0:0:0:
192,192,159116,1,2,0:0:0:0:
320,192,159116,1,0,0:0:0:0:
64,192,159268,1,8,0:0:0:0:
320,192,159268,1,0,0:0:0:0:
448,192,159268,1,0,0:0:0:0:
64,192,159420,1,2,0:0:0:0:
448,192,159420,1,0,0:0:0:0:
192,192,159496,1,0,0:0:0:0:
64,192,159573,1,8,0:0:0:0:
320,192,159573,1,0,0:0:0:0:
448,192,159573,1,0,0:0:0:0:
192,192,159725,1,2,0:0:0:0:
320,192,159725,1,0,0:0:0:0:
64,192,159877,1,8,0:0:0:0:
192,192,159877,1,0,0:0:0:0:
448,192,159877,1,0,0:0:0:0:
64,192,160029,1,4,0:0:0:0:
320,192,160029,1,2,0:0:0:0:
192,192,160182,1,8,0:0:0:0:
320,192,160182,1,0,0:0:0:0:
448,192,160182,1,0,0:0:0:0:
64,192,160334,1,2,0:0:0:0:
448,192,160334,1,0,0:0:0:0:
64,192,160486,1,8,0:0:0:0:
192,192,160486,1,0,0:0:0:0:
320,192,160486,1,0,0:0:0:0:
192,192,160639,1,2,0:0:0:0:
448,192,160639,1,0,0:0:0:0:
64,192,160791,1,8,0:0:0:0:
320,192,160791,1,0,0:0:0:0:
448,192,160791,1,0,0:0:0:0:
192,192,160867,1,0,0:0:0:0:
64,192,160943,1,2,0:0:0:0:
448,192,160943,1,0,0:0:0:0:
320,192,161019,1,0,0:0:0:0:
64,192,161095,1,8,0:0:0:0:
192,192,161095,1,0,0:0:0:0:
448,192,161095,1,0,0:0:0:0:
64,192,161248,128,4,161552:0:0:0:0:
192,192,161248,128,2,161552:0:0:0:0:
320,192,161248,1,0,0:0:0:0:
448,192,161248,1,0,0:0:0:0:
320,192,161552,1,2,0:0:0:0:
448,192,161552,1,0,0:0:0:0:
64,192,161705,1,8,0:0:0:0:
192,192,161705,1,0,0:0:0:0:
448,192,161705,1,0,0:0:0:0:
320,192,161857,1,0,0:0:0:0:
64,192,162009,128,2,162161:0:0:0:0:
448,192,162009,1,0,0:0:0:0:
192,192,162161,1,2,0:0:0:0:
320,192,162161,128,0,162314:0:0:0:0:
64,192,162314,1,8,0:0:0:0:
192,192,162314,1,0,0:0:0:0:
448,192,162314,1,0,0:0:0:0:
320,192,162466,128,2,162771:0:0:0:0:
448,192,162466,128,4,162771:0:0:0:0:
64,192,162618,1,2,0:0:0:0:
192,192,162771,1,2,0:0:0:0:
64,192,162771,1,0,0:0:0:0:
64,192,162923,1,8,0:0:0:0:
320,192,162923,1,0,0:0:0:0:
448,192,162923,1,0,0:0:0:0:
192,192,163075,1,0,0:0:0:0:
448,192,163075,1,0,0:0:0:0:
64,192,163227,1,2,0:0:0:0:
320,192,163227,1,0,0:0:0:0:
192,192,163380,1,2,0:0:0:0:
448,192,163380,1,0,0:0:0:0:
64,192,163532,1,8,0:0:0:0:
192,192,163532,1,0,0:0:0:0:
320,192,163532,1,0,0:0:0:0:
64,192,163684,1,2,0:0:0:0:
192,192,163684,1,4,0:0:0:0:
320,192,163684,128,0,163989:0:0:0:0:
448,192,163684,128,0,163989:0:0:0:0:
64,192,163989,1,2,0:0:0:0:
192,192,163989,1,0,0:0:0:0:
64,192,164141,1,8,0:0:0:0:
320,192,164141,1,0,0:0:0:0:
448,192,164141,1,0,0:0:0:0:
192,192,164293,1,2,0:0:0:0:
320,192,164293,1,0,0:0:0:0:
64,192,164446,1,8,0:0:0:0:
192,192,164446,1,4,0:0:0:0:
448,192,164446,1,0,0:0:0:0:
192,192,164598,1,2,0:0:0:0:
320,192,164598,1,0,0:0:0:0:
64,192,164750,1,8,0:0:0:0:
320,192,164750,1,0,0:0:0:0:
448,192,164750,1,0,0:0:0:0:
64,192,164903,128,2,165512:0:0:0:0:
192,192,164903,1,4,0:0:0:0:
320,192,165055,1,8,0:0:0:0:
448,192,165055,1,0,0:0:0:0:
192,192,165207,1,2,0:0:0:0:
448,192,165283,1,0,0:0:0:0:
192,192,165359,1,8,0:0:0:0:
320,192,165359,1,0,0:0:0:0:
448,192,165512,1,2,0:0:0:0:
320,192,165550,1,2,0:0:0:0:
64,192,165588,1,2,0:0:0:0:
192,192,165626,1,2,0:0:0:0:
448,192,165664,1,2,0:0:0:0:
320,192,165702,1,2,0:0:0:0:
64,192,165740,1,2,0:0:0:0:
192,192,165778,1,2,0:0:0:0:
448,192,165816,1,2,0:0:0:0:
320,192,165854,1,2,0:0:0:0:
64,192,165892,1,2,0:0:0:0:
192,192,165930,1,2,0:0:0:0:
448,192,165968,1,10,0:0:0:0:
320,192,166007,1,2,0:0:0:0:
64,192,166045,1,2,0:0:0:0:
192,192,166083,1,2,0:0:0:0:
320,192,166121,1,2,0:0:0:0:
448,192,166121,128,4,166349:0:0:0:0:
64,192,166273,128,0,166425:0:0:0:0:
192,192,166349,128,0,166425:0:0:0:0:
448,192,166425,128,0,166578:0:0:0:0:
320,192,166501,128,0,166578:0:0:0:0:
64,192,166578,128,2,166882:0:0:0:0:
192,192,166654,128,0,166882:0:0:0:0:
320,192,166730,128,0,166882:0:0:0:0:
448,192,166882,128,2,167187:0:0:0:0:
64,192,167034,128,0,167111:0:0:0:0:
320,192,167111,128,0,167187:0:0:0:0:
64,192,167187,128,2,167491:0:0:0:0:
192,192,167187,128,0,167491:0:0:0:0:
448,192,167491,128,2,167644:0:0:0:0:
320,192,167567,128,0,167720:0:0:0:0:
64,192,167644,128,0,167796:0:0:0:0:
192,192,167720,128,0,167872:0:0:0:0:
320,192,167796,128,2,167948:0:0:0:0:
448,192,167872,128,0,168024:0:0:0:0:
64,192,167948,128,0,168100:0:0:0:0:
192,192,168024,128,0,168100:0:0:0:0:
320,192,168100,128,2,168329:0:0:0:0:
448,192,168100,128,0,168329:0:0:0:0:
64,192,168329,128,0,168557:0:0:0:0:
192,192,168405,128,2,168557:0:0:0:0:
320,192,168557,128,4,168862:0:0:0:0:
448,192,168557,128,2,168862:0:0:0:0:
64,192,168862,128,0,168938:0:0:0:0:
64,192,169014,128,2,169090:0:0:0:0:
448,192,169014,1,0,0:0:0:0:
320,192,169166,128,0,169319:0:0:0:0:
192,192,169319,128,2,169395:0:0:0:0:
448,192,169319,1,0,0:0:0:0:
192,192,169471,128,0,169547:0:0:0:0:
320,192,169623,1,2,0:0:0:0:
448,192,169623,128,0,169776:0:0:0:0:
64,192,169776,128,0,169852:0:0:0:0:
64,192,169928,128,2,170004:0:0:0:0:
448,192,169928,1,0,0:0:0:0:
320,192,170080,128,0,170232:0:0:0:0:
64,192,170232,1,2,0:0:0:0:
192,192,170232,128,0,170309:0:0:0:0:
192,192,170385,128,0,170461:0:0:0:0:
320,192,170537,128,2,170842:0:0:0:0:
448,192,170537,128,0,170689:0:0:0:0:
64,192,170689,1,0,0:0:0:0:
192,192,170689,128,0,170994:0:0:0:0:
64,192,170842,128,2,170994:0:0:0:0:
448,192,170842,1,0,0:0:0:0:
320,192,170994,128,0,171298:0:0:0:0:
448,192,170994,128,0,171298:0:0:0:0:
64,192,171146,1,0,0:0:0:0:
64,192,171298,128,0,171451:0:0:0:0:
320,192,171451,1,2,0:0:0:0:
448,192,171451,128,0,171603:0:0:0:0:
192,192,171603,128,0,171679:0:0:0:0:
64,192,171755,1,2,0:0:0:0:
192,192,171755,128,0,171831:0:0:0:0:
320,192,171908,128,0,172060:0:0:0:0:
64,192,172060,128,2,172136:0:0:0:0:
192,192,172060,1,0,0:0:0:0:
64,192,172212,128,0,172288:0:0:0:0:
320,192,172212,1,0,0:0:0:0:
320,192,172364,1,2,0:0:0:0:
448,192,172364,128,0,172517:0:0:0:0:
192,192,172517,128,0,172593:0:0:0:0:
64,192,172669,1,8,0:0:0:0:
192,192,172669,128,0,172745:0:0:0:0:
448,192,172669,1,0,0:0:0:0:
320,192,172821,128,0,173126:0:0:0:0:
192,192,172974,1,2,0:0:0:0:
64,192,173126,1,8,0:0:0:0:
448,192,173126,1,0,0:0:0:0:
64,192,173278,1,8,0:0:0:0:
192,192,173278,1,0,0:0:0:0:
448,192,173278,1,0,0:0:0:0:
64,192,173430,128,4,173735:0:0:0:0:
192,192,173430,128,2,173735:0:0:0:0:
320,192,173430,1,0,0:0:0:0:
448,192,173430,1,0,0:0:0:0:
320,192,173735,1,2,0:0:0:0:
448,192,173735,128,0,173811:0:0:0:0:
320,192,173887,1,2,0:0:0:0:
448,192,173887,128,0,173963:0:0:0:0:
64,192,174040,128,0,174192:0:0:0:0:
320,192,174192,128,2,174268:0:0:0:0:
448,192,174192,1,0,0:0:0:0:
320,192,174344,128,0,174420:0:0:0:0:
64,192,174496,1,2,0:0:0:0:
192,192,174496,128,0,174649:0:0:0:0:
448,192,174649,128,0,174725:0:0:0:0:
320,192,174801,1,2,0:0:0:0:
448,192,174801,128,0,174877:0:0:0:0:
64,192,174953,128,0,175106:0:0:0:0:
320,192,175106,128,2,175182:0:0:0:0:
448,192,175106,1,0,0:0:0:0:
320,192,175258,128,0,175334:0:0:0:0:
64,192,175410,128,2,175562:0:0:0:0:
192,192,175410,1,0,0:0:0:0:
320,192,175562,128,0,175715:0:0:0:0:
448,192,175562,1,0,0:0:0:0:
64,192,175715,1,2,0:0:0:0:
192,192,175715,128,0,175867:0:0:0:0:
320,192,175867,128,0,176172:0:0:0:0:
448,192,175867,128,0,176172:0:0:0:0:
64,192,176019,1,0,0:0:0:0:
64,192,176172,128,0,176324:0:0:0:0:
320,192,176324,128,2,176476:0:0:0:0:
448,192,176324,1,0,0:0:0:0:
192,192,176476,128,0,176552:0:0:0:0:
64,192,176628,1,2,0:0:0:0:
192,192,176628,128,0,176705:0:0:0:0:
448,192,176781,128,0,176933:0:0:0:0:
64,192,176933,128,2,177009:0:0:0:0:
320,192,176933,1,0,0:0:0:0:
64,192,177085,128,2,177161:0:0:0:0:
320,192,177085,1,0,0:0:0:0:
64,192,177238,1,8,0:0:0:0:
192,192,177238,1,4,0:0:0:0:
448,192,177238,1,0,0:0:0:0:
192,192,177390,1,2,0:0:0:0:
320,192,177390,1,0,0:0:0:0:
64,192,177542,1,8,0:0:0:0:
320,192,177542,1,0,0:0:0:0:
448,192,177542,1,0,0:0:0:0:
64,192,177694,1,8,0:0:0:0:
320,192,177694,1,4,0:0:0:0:
448,192,177694,1,0,0:0:0:0:
192,192,177847,1,2,0:0:0:0:
320,192,177847,1,0,0:0:0:0:
64,192,177999,1,8,0:0:0:0:
192,192,177999,1,4,0:0:0:0:
448,192,177999,1,0,0:0:0:0:
64,192,178151,1,8,0:0:0:0:
192,192,178151,1,0,0:0:0:0:
448,192,178151,1,0,0:0:0:0:
320,192,178227,1,2,0:0:0:0:
64,192,178304,128,4,178608:0:0:0:0:
192,192,178304,128,2,178608:0:0:0:0:
448,192,178304,1,0,0:0:0:0:
320,192,178608,128,2,178684:0:0:0:0:
448,192,178608,1,0,0:0:0:0:
64,192,178760,1,2,0:0:0:0:
320,192,178760,128,0,178837:0:0:0:0:
64,192,178913,128,0,179065:0:0:0:0:
192,192,179065,1,8,0:0:0:0:
320,192,179065,1,0,0:0:0:0:
448,192,179065,128,0,179141:0:0:0:0:
448,192,179217,128,8,179293:0:0:0:0:
192,192,179370,128,0,179522:0:0:0:0:
64,192,179522,1,2,0:0:0:0:
320,192,179522,128,0,179598:0:0:0:0:
320,192,179674,128,0,179750:0:0:0:0:
64,192,179826,128,8,179979:0:0:0:0:
192,192,179826,1,0,0:0:0:0:
448,192,179826,1,0,0:0:0:0:
320,192,179979,1,2,0:0:0:0:
448,192,179979,128,0,180055:0:0:0:0:
64,192,180131,1,2,0:0:0:0:
448,192,180131,128,0,180207:0:0:0:0:
64,192,180283,128,8,180588:0:0:0:0:
192,192,180283,128,0,180436:0:0:0:0:
448,192,180283,1,0,0:0:0:0:
320,192,180436,1,0,0:0:0:0:
448,192,180436,128,0,180740:0:0:0:0:
192,192,180588,1,0,0:0:0:0:
320,192,180588,128,0,180740:0:0:0:0:
64,192,180740,128,2,181045:0:0:0:0:
192,192,180740,128,4,181045:0:0:0:0:
320,192,181045,1,8,0:0:0:0:
448,192,181045,128,0,181197:0:0:0:0:
64,192,181197,128,2,181349:0:0:0:0:
192,192,181197,1,0,0:0:0:0:
320,192,181349,1,2,0:0:0:0:
448,192,181349,128,0,181425:0:0:0:0:
64,192,181501,1,8,0:0:0:0:
320,192,181501,1,0,0:0:0:0:
448,192,181501,128,0,181578:0:0:0:0:
192,192,181654,128,0,181806:0:0:0:0:
320,192,181806,128,2,181882:0:0:0:0:
448,192,181806,1,0,0:0:0:0:
320,192,181958,128,2,182034:0:0:0:0:
448,192,181958,1,0,0:0:0:0:
64,192,182111,128,0,182263:0:0:0:0:
192,192,182263,1,8,0:0:0:0:
320,192,182263,1,0,0:0:0:0:
448,192,182263,128,0,182339:0:0:0:0:
192,192,182415,1,2,0:0:0:0:
448,192,182415,128,0,182491:0:0:0:0:
64,192,182567,128,2,182872:0:0:0:0:
320,192,182567,1,0,0:0:0:0:
320,192,182720,1,8,0:0:0:0:
448,192,182720,1,0,0:0:0:0:
192,192,182872,1,2,0:0:0:0:
448,192,182872,128,0,183024:0:0:0:0:
192,192,183024,128,2,183177:0:0:0:0:
320,192,183024,1,0,0:0:0:0:
64,192,183177,1,2,0:0:0:0:
320,192,183177,128,4,183481:0:0:0:0:
448,192,183177,128,0,183481:0:0:0:0:
64,192,183481,128,0,183557:0:0:0:0:
192,192,183481,1,0,0:0:0:0:
64,192,183633,128,2,183710:0:0:0:0:
320,192,183633,1,0,0:0:0:0:
320,192,183786,128,2,183938:0:0:0:0:
64,192,183938,1,8,0:0:0:0:
192,192,183938,128,0,184014:0:0:0:0:
448,192,183938,1,0,0:0:0:0:
192,192,184090,128,0,184166:0:0:0:0:
448,192,184243,128,0,184395:0:0:0:0:
64,192,184395,128,8,184471:0:0:0:0:
64,192,184547,128,2,184623:0:0:0:0:
192,192,184547,1,0,0:0:0:0:
64,192,184699,1,8,0:0:0:0:
320,192,184699,128,0,184852:0:0:0:0:
448,192,184699,1,0,0:0:0:0:
192,192,184852,128,2,184928:0:0:0:0:
448,192,184852,1,0,0:0:0:0:
192,192,185004,128,2,185080:0:0:0:0:
320,192,185004,1,0,0:0:0:0:
64,192,185156,1,8,0:0:0:0:
320,192,185156,128,0,185461:0:0:0:0:
448,192,185156,128,0,185309:0:0:0:0:
64,192,185309,1,8,0:0:0:0:
192,192,185309,128,0,185613:0:0:0:0:
64,192,185461,128,0,185613:0:0:0:0:
448,192,185461,1,0,0:0:0:0:
320,192,185613,128,4,185918:0:0:0:0:
448,192,185613,128,2,185918:0:0:0:0:
64,192,185918,1,0,0:0:0:0:
192,192,185918,128,0,186070:0:0:0:0:
320,192,186070,1,2,0:0:0:0:
448,192,186070,128,0,186222:0:0:0:0:
64,192,186222,1,2,0:0:0:0:
192,192,186222,128,0,186298:0:0:0:0:
64,192,186375,1,8,0:0:0:0:
192,192,186375,128,0,186451:0:0:0:0:
448,192,186375,1,0,0:0:0:0:
320,192,186527,128,0,186679:0:0:0:0:
64,192,186679,128,0,186755:0:0:0:0:
64,192,186831,128,2,186908:0:0:0:0:
192,192,186831,1,4,0:0:0:0:
448,192,186831,1,0,0:0:0:0:
320,192,186984,128,0,187136:0:0:0:0:
64,192,187136,1,8,0:0:0:0:
192,192,187136,1,0,0:0:0:0:
448,192,187136,1,0,0:0:0:0:
192,192,187288,1,2,0:0:0:0:
320,192,187288,1,0,0:0:0:0:
64,192,187441,1,2,0:0:0:0:
448,192,187441,1,0,0:0:0:0:
320,192,187517,1,2,0:0:0:0:
64,192,187593,1,8,0:0:0:0:
192,192,187593,1,0,0:0:0:0:
448,192,187593,1,0,0:0:0:0:
64,192,187745,1,2,0:0:0:0:
448,192,187745,1,0,0:0:0:0:
192,192,187821,1,0,0:0:0:0:
64,192,187897,1,8,0:0:0:0:
320,192,187897,1,0,0:0:0:0:
448,192,187897,1,0,0:0:0:0:
64,192,188050,128,4,188354:0:0:0:0:
192,192,188050,128,2,188354:0:0:0:0:
448,192,188050,1,0,0:0:0:0:
320,192,188354,1,2,0:0:0:0:
448,192,188354,1,0,0:0:0:0:
64,192,188507,1,8,0:0:0:0:
192,192,188507,1,0,0:0:0:0:
448,192,188507,128,0,188659:0:0:0:0:
192,192,188659,1,2,0:0:0:0:
320,192,188659,1,0,0:0:0:0:
64,192,188811,128,8,189116:0:0:0:0:
320,192,188811,1,0,0:0:0:0:
448,192,188811,1,0,0:0:0:0:
192,192,188963,1,2,0:0:0:0:
448,192,188963,1,0,0:0:0:0:
192,192,189116,1,8,0:0:0:0:
320,192,189116,1,0,0:0:0:0:
192,192,189268,1,4,0:0:0:0:
448,192,189268,128,2,189573:0:0:0:0:
64,192,189420,1,8,0:0:0:0:
320,192,189420,1,0,0:0:0:0:
64,192,189573,1,2,0:0:0:0:
192,192,189573,1,0,0:0:0:0:
192,192,189725,128,8,189877:0:0:0:0:
320,192,189725,1,0,0:0:0:0:
448,192,189725,1,0,0:0:0:0:
64,192,189877,1,2,0:0:0:0:
448,192,189877,1,0,0:0:0:0:
64,192,190029,1,8,0:0:0:0:
192,192,190029,1,0,0:0:0:0:
448,192,190029,128,0,190334:0:0:0:0:
64,192,190182,1,2,0:0:0:0:
320,192,190182,1,0,0:0:0:0:
192,192,190334,1,8,0:0:0:0:
320,192,190334,1,0,0:0:0:0:
64,192,190486,128,2,190791:0:0:0:0:
320,192,190486,1,4,0:0:0:0:
192,192,190639,1,8,0:0:0:0:
448,192,190639,1,0,0:0:0:0:
320,192,190791,1,2,0:0:0:0:
448,192,190791,1,0,0:0:0:0:
64,192,190943,1,8,0:0:0:0:
192,192,190943,1,0,0:0:0:0:
448,192,190943,128,0,191095:0:0:0:0:
192,192,191095,1,2,0:0:0:0:
320,192,191095,1,0,0:0:0:0:
64,192,191248,128,8,191552:0:0:0:0:
320,192,191248,1,0,0:0:0:0:
448,192,191248,1,0,0:0:0:0:
192,192,191400,1,2,0:0:0:0:
320,192,191400,1,0,0:0:0:0:
192,192,191552,1,8,0:0:0:0:
448,192,191552,1,0,0:0:0:0:
64,192,191705,1,2,0:0:0:0:
448,192,191705,1,4,0:0:0:0:
192,192,191781,1,0,0:0:0:0:
64,192,191857,1,8,0:0:0:0:
320,192,191857,1,0,0:0:0:0:
448,192,191857,1,0,0:0:0:0:
192,192,192009,1,2,0:0:0:0:
320,192,192009,1,0,0:0:0:0:
64,192,192161,1,8,0:0:0:0:
192,192,192161,1,0,0:0:0:0:
448,192,192161,1,0,0:0:0:0:
64,192,192314,1,2,0:0:0:0:
320,192,192314,1,0,0:0:0:0:
192,192,192466,1,8,0:0:0:0:
320,192,192466,1,0,0:0:0:0:
448,192,192466,1,0,0:0:0:0:
64,192,192618,1,2,0:0:0:0:
448,192,192618,1,0,0:0:0:0:
64,192,192771,1,8,0:0:0:0:
192,192,192771,1,0,0:0:0:0:
320,192,192771,1,0,0:0:0:0:
192,192,192923,1,2,0:0:0:0:
320,192,192923,128,4,193227:0:0:0:0:
448,192,192923,128,0,193227:0:0:0:0:
64,192,193227,1,2,0:0:0:0:
192,192,193227,1,0,0:0:0:0:
320,192,193304,1,0,0:0:0:0:
64,192,193380,128,8,193532:0:0:0:0:
192,192,193380,1,0,0:0:0:0:
448,192,193380,1,0,0:0:0:0:
320,192,193532,1,2,0:0:0:0:
448,192,193532,1,0,0:0:0:0:
64,192,193684,1,8,0:0:0:0:
192,192,193684,1,0,0:0:0:0:
448,192,193684,128,0,193989:0:0:0:0:
192,192,193837,1,2,0:0:0:0:
320,192,193837,1,0,0:0:0:0:
64,192,193989,1,8,0:0:0:0:
320,192,193989,1,0,0:0:0:0:
64,192,194141,1,4,0:0:0:0:
448,192,194141,1,2,0:0:0:0:
320,192,194217,1,0,0:0:0:0:
64,192,194293,1,8,0:0:0:0:
192,192,194293,1,0,0:0:0:0:
448,192,194293,1,0,0:0:0:0:
192,192,194446,1,2,0:0:0:0:
320,192,194446,1,0,0:0:0:0:
64,192,194598,1,8,0:0:0:0:
320,192,194598,128,0,194750:0:0:0:0:
448,192,194598,1,0,0:0:0:0:
64,192,194750,1,2,0:0:0:0:
448,192,194750,1,0,0:0:0:0:
192,192,194826,1,2,0:0:0:0:
64,192,194903,128,8,195207:0:0:0:0:
320,192,194903,1,0,0:0:0:0:
448,192,194903,1,0,0:0:0:0:
192,192,195055,1,2,0:0:0:0:
320,192,195055,1,0,0:0:0:0:
192,192,195207,1,8,0:0:0:0:
448,192,195207,1,0,0:0:0:0:
64,192,195359,1,4,0:0:0:0:
320,192,195359,128,2,195512:0:0:0:0:
64,192,195512,1,8,0:0:0:0:
192,192,195512,1,0,0:0:0:0:
448,192,195512,1,0,0:0:0:0:
64,192,195664,1,2,0:0:0:0:
448,192,195664,1,0,0:0:0:0:
192,192,195740,1,2,0:0:0:0:
64,192,195816,1,8,0:0:0:0:
320,192,195816,1,0,0:0:0:0:
448,192,195816,1,0,0:0:0:0:
192,192,195968,1,2,0:0:0:0:
320,192,195968,1,0,0:0:0:0:
64,192,196121,1,8,0:0:0:0:
192,192,196121,1,0,0:0:0:0:
448,192,196121,1,0,0:0:0:0:
320,192,196197,1,0,0:0:0:0:
64,192,196273,1,2,0:0:0:0:
448,192,196273,1,0,0:0:0:0:
192,192,196349,1,2,0:0:0:0:
64,192,196425,1,8,0:0:0:0:
320,192,196425,1,0,0:0:0:0:
448,192,196425,1,0,0:0:0:0:
192,192,196578,1,4,0:0:0:0:
320,192,196578,1,2,0:0:0:0:
64,192,196730,1,8,0:0:0:0:
192,192,196730,1,0,0:0:0:0:
448,192,196730,1,0,0:0:0:0:
192,192,196882,1,2,0:0:0:0:
320,192,196882,1,0,0:0:0:0:
64,192,197034,1,8,0:0:0:0:
320,192,197034,1,0,0:0:0:0:
448,192,197034,1,0,0:0:0:0:
64,192,197187,1,8,0:0:0:0:
320,192,197187,1,0,0:0:0:0:
448,192,197187,1,0,0:0:0:0:
192,192,197339,1,2,0:0:0:0:
320,192,197339,1,0,0:0:0:0:
64,192,197491,1,8,0:0:0:0:
192,192,197491,1,0,0:0:0:0:
448,192,197491,1,0,0:0:0:0:
64,192,197644,1,8,0:0:0:0:
192,192,197644,1,0,0:0:0:0:
448,192,197644,1,0,0:0:0:0:
64,192,197796,128,4,198100:0:0:0:0:
192,192,197796,128,2,198100:0:0:0:0:
320,192,197796,1,0,0:0:0:0:
448,192,197796,1,0,0:0:0:0:
320,192,198100,1,2,0:0:0:0:
448,192,198100,1,0,0:0:0:0:
64,192,198253,1,8,0:0:0:0:
192,192,198253,1,0,0:0:0:0:
448,192,198253,1,0,0:0:0:0:
192,192,198405,1,0,0:0:0:0:
64,192,198557,1,2,0:0:0:0:
320,192,198557,1,0,0:0:0:0:
192,192,198710,1,2,0:0:0:0:
448,192,198710,1,0,0:0:0:0:
64,192,198862,1,8,0:0:0:0:
320,192,198862,1,0,0:0:0:0:
448,192,198862,1,0,0:0:0:0:
192,192,199014,1,0,0:0:0:0:
320,192,199014,1,0,0:0:0:0:
192,192,199166,1,2,0:0:0:0:
448,192,199166,1,0,0:0:0:0:
64,192,199319,1,2,0:0:0:0:
320,192,199319,1,0,0:0:0:0:
64,192,199471,1,8,0:0:0:0:
192,192,199471,1,0,0:0:0:0:
448,192,199471,1,0,0:0:0:0:
320,192,199547,1,0,0:0:0:0:
192,192,199623,1,0,0:0:0:0:
448,192,199623,1,0,0:0:0:0:
64,192,199776,1,2,0:0:0:0:
320,192,199776,1,0,0:0:0:0:
192,192,199852,1,0,0:0:0:0:
64,192,199928,1,2,0:0:0:0:
448,192,199928,1,0,0:0:0:0:
320,192,200004,1,0,0:0:0:0:
64,192,200080,1,8,0:0:0:0:
192,192,200080,1,0,0:0:0:0:
448,192,200080,1,0,0:0:0:0:
64,192,200232,1,2,0:0:0:0:
320,192,200232,128,4,200537:0:0:0:0:
448,192,200232,128,0,200537:0:0:0:0:
64,192,200537,1,2,0:0:0:0:
192,192,200537,1,0,0:0:0:0:
64,192,200689,1,8,0:0:0:0:
320,192,200689,1,0,0:0:0:0:
448,192,200689,1,0,0:0:0:0:
192,192,200842,1,2,0:0:0:0:
448,192,200842,1,0,0:0:0:0:
320,192,200918,1,2,0:0:0:0:
64,192,200994,1,2,0:0:0:0:
192,192,200994,1,0,0:0:0:0:
64,192,201146,1,2,0:0:0:0:
320,192,201146,1,0,0:0:0:0:
192,192,201298,1,8,0:0:0:0:
320,192,201298,1,0,0:0:0:0:
448,192,201298,1,0,0:0:0:0:
64,192,201451,1,2,0:0:0:0:
448,192,201451,1,4,0:0:0:0:
192,192,201527,1,0,0:0:0:0:
64,192,201603,1,2,0:0:0:0:
320,192,201603,1,0,0:0:0:0:
192,192,201755,1,2,0:0:0:0:
448,192,201755,1,0,0:0:0:0:
64,192,201908,1,8,0:0:0:0:
192,192,201908,1,0,0:0:0:0:
320,192,201908,1,0,0:0:0:0:
64,192,202060,1,2,0:0:0:0:
448,192,202060,1,0,0:0:0:0:
320,192,202136,1,2,0:0:0:0:
192,192,202212,1,2,0:0:0:0:
448,192,202212,1,0,0:0:0:0:
192,192,202364,1,0,0:0:0:70:LR_Tom Hit 2.wav
320,192,202364,1,0,0:0:0:0:
64,192,202517,1,8,0:0:0:0:
320,192,202517,1,0,0:0:0:0:
448,192,202517,1,0,0:0:0:0:
64,192,202669,128,2,202974:0:0:0:0:
192,192,202669,128,4,202974:0:0:0:0:
448,192,202669,1,0,0:0:0:0:
320,192,202974,128,0,203278:0:0:0:0:
64,192,203126,128,2,203430:0:0:0:0:
448,192,203126,128,0,203278:0:0:0:0:
192,192,203278,128,0,203430:0:0:0:0:
320,192,203430,128,2,203583:0:0:0:0:
448,192,203430,128,0,203735:0:0:0:0:
64,192,203583,128,0,203735:0:0:0:0:
192,192,203735,128,2,204040:0:0:0:0:
320,192,203735,128,0,203887:0:0:0:0:
64,192,203887,128,0,204040:0:0:0:0:
320,192,204040,128,2,204344:0:0:0:0:
448,192,204040,128,0,204192:0:0:0:0:
192,192,204192,128,0,204344:0:0:0:0:
64,192,204344,128,2,204496:0:0:0:0:
448,192,204344,128,0,204649:0:0:0:0:
320,192,204496,128,0,204649:0:0:0:0:
64,192,204649,128,2,204953:0:0:0:0:
192,192,204649,128,0,204801:0:0:0:0:
448,192,204801,128,0,204953:0:0:0:0:
192,192,204953,128,2,205106:0:0:0:0:
320,192,204953,128,0,205258:0:0:0:0:
448,192,205106,128,0,205258:0:0:0:0:
64,192,205258,128,2,205410:0:0:0:0:
192,192,205258,128,0,205562:0:0:0:0:
320,192,205410,128,0,205562:0:0:0:0:
64,192,205562,128,2,205867:0:0:0:0:
448,192,205562,128,0,205715:0:0:0:0:
192,192,205715,128,0,205867:0:0:0:0:
320,192,205867,128,2,206019:0:0:0:0:
448,192,205867,128,0,206172:0:0:0:0:
64,192,206019,128,0,206172:0:0:0:0:
192,192,206172,128,2,206324:0:0:0:0:
320,192,206172,128,0,206324:0:0:0:0:
448,192,206324,128,0,206476:0:0:0:0:
64,192,206476,1,2,0:0:0:0:
192,192,206476,1,0,0:0:0:0:
320,192,206476,1,0,0:0:0:0:
64,192,206628,128,0,206781:0:0:0:70:LR_Tom Hit 2.wav
448,192,206628,1,0,0:0:0:0:
192,192,206705,128,0,206781:0:0:0:70:LR_Tom Hit 2.wav
320,192,206781,1,2,0:0:0:0:
448,192,206781,128,0,206933:0:0:0:0:
64,192,206933,1,0,0:0:0:70:LR_Tom Hit 2.wav
192,192,206933,128,0,207085:0:0:0:0:
320,192,207085,128,2,207238:0:0:0:0:
448,192,207085,128,0,207238:0:0:0:0:
64,192,207238,128,0,207390:0:0:0:70:LR_Tom Hit 2.wav
192,192,207238,1,0,0:0:0:0:
320,192,207390,128,0,207542:0:0:0:70:LR_Tom Hit 3.wav
448,192,207390,1,0,0:0:0:0:
64,192,207542,128,2,207847:0:0:0:0:
192,192,207542,128,4,207847:0:0:0:0:
448,192,207542,1,0,0:0:0:0:
320,192,207847,1,2,0:0:0:0:
64,192,207999,1,8,0:0:0:0:
192,192,207999,1,0,0:0:0:0:
448,192,207999,128,0,208151:0:0:0:0:
320,192,208151,1,0,0:0:0:0:
64,192,208304,128,2,208456:0:0:0:0:
448,192,208304,1,0,0:0:0:0:
320,192,208456,128,2,208608:0:0:0:0:
64,192,208608,1,8,0:0:0:0:
192,192,208608,1,0,0:0:0:0:
448,192,208608,1,0,0:0:0:0:
64,192,208760,128,0,209065:0:0:0:0:
192,192,208913,1,2,0:0:0:0:
448,192,208913,1,0,0:0:0:0:
320,192,209065,1,0,0:0:0:0:
64,192,209217,1,8,0:0:0:0:
192,192,209217,128,0,209370:0:0:0:0:
448,192,209217,1,0,0:0:0:0:
320,192,209370,1,0,0:0:0:0:
64,192,209522,128,2,209674:0:0:0:0:
192,192,209522,1,0,0:0:0:0:
320,192,209674,1,2,0:0:0:0:
448,192,209674,1,0,0:0:0:0:
64,192,209826,128,8,209903:0:0:0:0:
320,192,209826,128,0,209903:0:0:0:0:
448,192,209826,128,0,209903:0:0:0:0:
64,192,209979,128,2,210207:0:0:0:0:
192,192,209979,128,4,210207:0:0:0:0:
448,192,209979,128,0,210207:0:0:0:0:
192,192,210283,1,2,0:0:0:0:
320,192,210283,1,0,0:0:0:0:
64,192,210436,1,8,0:0:0:0:
320,192,210436,1,0,0:0:0:0:
448,192,210436,1,0,0:0:0:0:
64,192,210588,128,0,210892:0:0:0:0:
192,192,210588,128,0,210740:0:0:0:0:
320,192,210740,1,2,0:0:0:0:
448,192,210740,1,0,0:0:0:0:
192,192,210892,1,2,0:0:0:0:
320,192,210892,1,0,0:0:0:0:
64,192,211045,1,8,0:0:0:0:
192,192,211045,1,0,0:0:0:0:
448,192,211045,1,0,0:0:0:0:
64,192,211197,1,2,0:0:0:0:
320,192,211197,128,4,211501:0:0:0:0:
448,192,211197,128,0,211501:0:0:0:0:
64,192,211501,1,2,0:0:0:0:
192,192,211501,1,0,0:0:0:0:
64,192,211654,1,8,0:0:0:0:
320,192,211654,1,0,0:0:0:0:
448,192,211654,1,0,0:0:0:0:
64,192,211806,1,2,0:0:0:0:
448,192,211806,1,0,0:0:0:0:
192,192,211882,1,2,0:0:0:0:
64,192,211958,1,8,0:0:0:0:
320,192,211958,1,0,0:0:0:0:
448,192,211958,1,0,0:0:0:0:
64,192,212111,1,2,0:0:0:0:
448,192,212111,1,0,0:0:0:0:
320,192,212187,1,2,0:0:0:0:
64,192,212263,1,8,0:0:0:0:
192,192,212263,1,0,0:0:0:0:
448,192,212263,1,0,0:0:0:0:
64,192,212415,128,2,212720:0:0:0:0:
448,192,212415,128,4,214243:0:0:0:0:
320,192,212720,1,0,0:0:0:0:
64,192,212872,128,0,213177:0:0:0:0:
320,192,213177,1,0,0:0:0:0:
64,192,213329,128,0,213633:0:0:0:0:
320,192,213633,1,0,0:0:0:0:
64,192,213786,128,0,214090:0:0:0:0:
320,192,214090,1,0,0:0:0:0:
64,192,214243,1,8,0:0:0:0:
192,192,214243,1,0,0:0:0:0:
320,192,214319,1,8,0:0:0:0:
64,192,214395,1,8,0:0:0:0:
192,192,214395,1,0,0:0:0:0:
448,192,214395,1,0,0:0:0:0:
320,192,214547,1,8,0:0:0:0:
448,192,214547,1,0,0:0:0:0:
64,192,214699,1,8,0:0:0:0:
192,192,214699,1,0,0:0:0:0:
64,192,214852,128,2,215080:0:0:0:0:
320,192,214852,128,4,215080:0:0:0:0:
448,192,214852,128,0,215080:0:0:0:0:
320,192,215156,1,2,0:0:0:0:
448,192,215156,1,0,0:0:0:0:
64,192,215309,128,8,215537:0:0:0:0:
192,192,215309,128,4,215537:0:0:0:0:
448,192,215309,128,0,215537:0:0:0:0:
64,192,215613,1,2,0:0:0:0:
192,192,215613,1,0,0:0:0:0:
64,192,215765,128,4,215994:0:0:0:0:
320,192,215765,128,8,215994:0:0:0:0:
448,192,215765,128,0,215994:0:0:0:0:
320,192,216070,1,2,0:0:0:0:
448,192,216070,1,0,0:0:0:0:
64,192,216222,128,8,216451:0:0:0:0:
192,192,216222,128,4,216451:0:0:0:0:
448,192,216222,128,0,216451:0:0:0:0:
64,192,216527,1,2,0:0:0:0:
192,192,216527,1,0,0:0:0:0:
64,192,216679,128,4,216908:0:0:0:0:
192,192,216679,128,8,216908:0:0:0:0:
448,192,216679,128,0,216908:0:0:0:0:
64,192,216984,1,2,0:0:0:0:
192,192,216984,1,0,0:0:0:0:
320,192,217060,1,8,0:0:0:0:
448,192,217060,1,0,0:0:0:0:
64,192,217136,128,4,217288:0:0:0:0:
192,192,217136,128,8,217288:0:0:0:0:
320,192,217288,1,8,0:0:0:0:
448,192,217288,128,4,217593:0:0:0:0:
64,192,217593,128,0,217745:0:0:0:0:
192,192,217745,128,0,217897:0:0:0:0:
448,192,217897,128,0,218050:0:0:0:0:
320,192,218050,128,0,218202:0:0:0:0:
192,192,218202,128,0,218354:0:0:0:0:
448,192,218354,128,0,218507:0:0:0:0:
64,192,218507,128,0,218811:0:0:0:0:
320,192,218811,128,0,218963:0:0:0:0:
448,192,218963,128,0,219116:0:0:0:0:
64,192,219116,128,0,219268:0:0:0:0:
192,192,219268,128,0,219420:0:0:0:0:
448,192,219420,128,0,219573:0:0:0:0:
320,192,219573,128,0,219725:0:0:0:0:
448,192,219725,128,0,220029:0:0:0:0:
64,192,220029,128,0,220182:0:0:0:0:
192,192,220182,128,0,220334:0:0:0:0:
320,192,220334,128,0,220486:0:0:0:0:
448,192,220486,128,0,220639:0:0:0:0:
192,192,220639,128,0,220791:0:0:0:0:
64,192,220791,128,0,220943:0:0:0:0:
320,192,220943,128,0,221248:0:0:0:0:
448,192,220943,128,0,221248:0:0:0:0:
64,192,221248,128,0,221400:0:0:0:0:
192,192,221248,128,0,221400:0:0:0:0:
320,192,221400,128,0,221552:0:0:0:0:
448,192,221400,128,0,221552:0:0:0:0:
64,192,221552,128,0,221705:0:0:0:0:
192,192,221552,128,0,221705:0:0:0:0:
320,192,221705,128,0,221781:0:0:0:0:
448,192,221705,128,0,221781:0:0:0:0:
64,192,221781,128,0,221857:0:0:0:0:
192,192,221857,128,0,221933:0:0:0:0:
320,192,221857,128,0,221933:0:0:0:0:
64,192,221933,128,0,222009:0:0:0:0:
320,192,222009,128,0,222085:0:0:0:0:
448,192,222009,128,0,222085:0:0:0:0:
192,192,222085,128,0,222161:0:0:0:0:
64,192,222161,128,0,222238:0:0:0:0:
448,192,222161,128,0,222238:0:0:0:0:
320,192,222238,128,0,222314:0:0:0:0:
64,192,222314,128,4,222618:0:0:0:0:
192,192,222314,1,2,0:0:0:0:
448,192,222314,1,0,0:0:0:0:
320,192,222466,128,0,222618:0:0:0:0:
192,192,222618,128,0,222771:0:0:0:0:
320,192,222771,1,2,0:0:0:0:
448,192,222771,128,0,223380:0:0:0:0:
64,192,222923,128,8,223380:0:0:0:0:
192,192,222923,1,0,0:0:0:0:
320,192,223075,1,0,0:0:0:0:
192,192,223227,1,0,0:0:0:0:
320,192,223380,1,8,0:0:0:0:
64,192,223532,1,2,0:0:0:0:
192,192,223532,1,0,0:0:0:0:
64,192,223684,1,8,0:0:0:0:
320,192,223684,1,0,0:0:0:0:
448,192,223684,1,0,0:0:0:0:
192,192,223837,1,0,0:0:0:0:
64,192,223989,1,2,0:0:0:0:
448,192,223989,1,0,0:0:0:0:
320,192,224065,1,0,0:0:0:0:
64,192,224141,1,8,0:0:0:0:
192,192,224141,1,0,0:0:0:0:
448,192,224141,1,0,0:0:0:0:
64,192,224293,1,0,0:0:0:0:
448,192,224293,1,0,0:0:0:0:
192,192,224370,1,0,0:0:0:0:
64,192,224446,1,2,0:0:0:0:
320,192,224446,1,0,0:0:0:0:
448,192,224446,1,0,0:0:0:0:
64,192,224598,128,4,224826:0:0:0:0:
192,192,224598,128,8,224826:0:0:0:0:
448,192,224598,128,0,224826:0:0:0:0:
64,192,224903,128,8,224979:0:0:0:0:
320,192,224903,128,4,224979:0:0:0:0:
448,192,224903,128,0,224979:0:0:0:0:
64,192,225055,128,8,225207:0:0:0:0:
320,192,225055,128,4,225207:0:0:0:0:
448,192,225055,128,0,225207:0:0:0:0:
64,192,225359,128,0,225664:0:0:0:0:
192,192,225359,128,0,225664:0:0:0:0:
448,192,225588,1,2,0:0:0:0:
320,192,225664,1,2,0:0:0:0:
192,192,225740,1,2,0:0:0:0:
64,192,225816,1,6,0:0:0:0:
448,192,225816,1,8,0:0:0:0:
320,192,225892,1,2,0:0:0:0:
192,192,225968,1,2,0:0:0:0:
64,192,226045,1,2,0:0:0:0:
320,192,226121,1,12,0:0:0:0:
448,192,226121,1,2,0:0:0:0:
192,192,226197,1,2,0:0:0:0:
64,192,226273,1,6,0:0:0:0:
448,192,226273,1,8,0:0:0:0:
320,192,226324,1,0,0:0:0:0:
192,192,226375,1,0,0:0:0:0:
64,192,226425,1,0,0:0:0:0:
448,192,226578,128,0,226882:0:0:0:0:
192,192,226882,128,0,227034:0:0:0:0:
64,192,227034,128,4,229014:0:0:0:0:
320,192,227034,1,2,0:0:0:0:
448,192,227034,1,0,0:0:0:0:
320,192,227339,128,0,227491:0:0:0:0:
192,192,227491,128,0,227644:0:0:0:0:
448,192,227644,128,0,227796:0:0:0:0:
320,192,227796,128,0,227948:0:0:0:0:
448,192,227948,128,0,228100:0:0:0:0:
320,192,228253,128,0,228405:0:0:0:0:
448,192,228557,128,0,228710:0:0:0:0:
192,192,228710,128,0,229014:0:0:0:0:
320,192,229014,1,2,0:0:0:0:
448,192,229014,128,4,229471:0:0:0:0:
320,192,229319,128,0,229471:0:0:0:0:
64,192,229471,128,4,230689:0:0:0:0:
192,192,229471,128,2,229776:0:0:0:0:
448,192,229776,128,0,229928:0:0:0:0:
192,192,229928,128,0,230080:0:0:0:0:
320,192,230080,128,0,230232:0:0:0:0:
448,192,230232,128,0,230385:0:0:0:0:
192,192,230385,128,0,230537:0:0:0:0:
320,192,230689,1,0,0:0:0:70:LR_Tom Hit 2.wav
448,192,230689,1,0,0:0:0:0:
64,192,230765,1,0,0:0:0:70:LR_Tom Hit 2.wav
192,192,230765,1,0,0:0:0:0:
320,192,230842,1,0,0:0:0:70:LR_Tom Hit 2.wav
448,192,230842,1,0,0:0:0:0:
320,192,230994,1,0,0:0:0:70:LR_Tom Hit 2.wav
448,192,230994,1,0,0:0:0:0:
192,192,231146,1,0,0:0:0:70:LR_Tom Hit 3.wav
320,192,231146,1,0,0:0:0:0:
192,192,231298,1,0,0:0:0:70:LR_Tom Hit 3.wav
320,192,231298,1,0,0:0:0:0:
64,192,231451,1,0,0:0:0:70:LR_Tom Hit 3.wav
192,192,231451,1,0,0:0:0:0:
64,192,231603,1,0,0:0:0:70:LR_Tom Hit 3.wav
192,192,231603,1,0,0:0:0:0:
320,192,231755,1,0,0:0:0:70:LR_Tom Hit 3.wav
448,192,231755,1,0,0:0:0:0:
64,192,231908,128,4,232212:0:0:0:0:
192,192,231908,128,2,232212:0:0:0:0:
448,192,231908,1,0,0:0:0:0:
448,192,232212,128,0,232364:0:0:0:0:
64,192,232364,1,4,0:0:0:0:
192,192,232364,128,2,232517:0:0:0:0:
320,192,232364,1,0,0:0:0:0:
448,192,232517,128,0,232669:0:0:0:0:
64,192,232669,128,8,232821:0:0:0:0:
192,192,232669,1,4,0:0:0:0:
320,192,232821,128,0,232974:0:0:0:0:
64,192,232974,128,0,233126:0:0:0:0:
320,192,233126,128,4,233278:0:0:0:0:
448,192,233126,1,8,0:0:0:0:
192,192,233278,128,0,233430:0:0:0:0:
64,192,233430,1,8,0:0:0:0:
448,192,233430,128,4,233583:0:0:0:0:
64,192,233583,128,2,233735:0:0:0:0:
320,192,233583,1,0,0:0:0:0:
192,192,233735,1,2,0:0:0:0:
320,192,233735,128,0,233887:0:0:0:0:
64,192,233887,128,8,234040:0:0:0:0:
192,192,233887,1,4,0:0:0:0:
448,192,233887,1,0,0:0:0:0:
448,192,234040,128,0,234192:0:0:0:0:
192,192,234192,128,0,234344:0:0:0:0:
64,192,234344,1,4,0:0:0:0:
320,192,234344,128,2,234649:0:0:0:0:
448,192,234344,128,0,234649:0:0:0:0:
64,192,234649,1,2,0:0:0:0:
192,192,234649,1,0,0:0:0:0:
64,192,234801,1,8,0:0:0:0:
320,192,234801,1,0,0:0:0:0:
448,192,234801,1,0,0:0:0:0:
64,192,234953,128,4,235258:0:0:0:0:
192,192,234953,128,2,235258:0:0:0:0:
448,192,234953,1,0,0:0:0:0:
320,192,235258,1,2,0:0:0:0:
448,192,235258,1,0,0:0:0:0:
64,192,235410,1,8,0:0:0:0:
192,192,235410,1,0,0:0:0:0:
448,192,235410,1,0,0:0:0:0:
64,192,235562,128,4,235791:0:0:0:0:
320,192,235562,128,2,235791:0:0:0:0:
448,192,235562,128,0,235791:0:0:0:0:
64,192,235867,128,0,235943:0:0:0:0:
192,192,235867,128,0,235943:0:0:0:0:
448,192,235943,128,0,236019:0:0:0:0:
192,192,236019,128,0,236095:0:0:0:0:
320,192,236019,128,0,236095:0:0:0:0:
64,192,236095,128,0,236172:0:0:0:0:
320,192,236172,128,0,236248:0:0:0:0:
448,192,236172,128,0,236248:0:0:0:0:
192,192,236248,128,0,236324:0:0:0:0:
64,192,236324,1,8,0:0:0:0:
320,192,236324,1,0,0:0:0:0:
448,192,236324,1,0,0:0:0:0:
192,192,236476,1,8,0:0:0:0:
320,192,236476,1,0,0:0:0:0:
64,192,236628,1,8,0:0:0:0:
192,192,236628,1,0,0:0:0:0:
448,192,236628,1,0,0:0:0:0:
64,192,236781,128,2,237009:0:0:0:0:
192,192,236781,128,4,237009:0:0:0:0:
320,192,236781,128,0,237009:0:0:0:0:
448,192,236781,128,0,237009:0:0:0:0:
64,192,237085,1,2,0:0:0:0:
448,192,237085,1,0,0:0:0:0:
320,192,237161,1,0,0:0:0:0:
64,192,237238,1,8,0:0:0:0:
192,192,237238,1,0,0:0:0:0:
448,192,237238,1,0,0:0:0:0:
192,192,237390,1,2,0:0:0:0:
320,192,237390,1,0,0:0:0:0:
64,192,237542,1,8,0:0:0:0:
320,192,237542,1,0,0:0:0:0:
448,192,237542,1,0,0:0:0:0:
64,192,237694,1,2,0:0:0:0:
448,192,237694,1,0,0:0:0:0:
192,192,237771,1,0,0:0:0:0:
64,192,237847,1,8,0:0:0:0:
320,192,237847,1,0,0:0:0:0:
448,192,237847,1,0,0:0:0:0:
192,192,237999,1,2,0:0:0:0:
320,192,237999,1,4,0:0:0:0:
64,192,238151,1,8,0:0:0:0:
192,192,238151,1,0,0:0:0:0:
448,192,238151,1,0,0:0:0:0:
64,192,238304,1,2,0:0:0:0:
320,192,238304,1,0,0:0:0:0:
192,192,238456,1,8,0:0:0:0:
320,192,238456,1,0,0:0:0:0:
448,192,238456,1,0,0:0:0:0:
64,192,238608,1,2,0:0:0:0:
192,192,238608,1,0,0:0:0:0:
64,192,238760,1,8,0:0:0:0:
320,192,238760,1,0,0:0:0:0:
448,192,238760,1,0,0:0:0:0:
192,192,238913,1,2,0:0:0:0:
320,192,238913,1,0,0:0:0:0:
64,192,239065,1,8,0:0:0:0:
192,192,239065,1,0,0:0:0:0:
448,192,239065,1,0,0:0:0:0:
64,192,239217,128,4,239446:0:0:0:0:
192,192,239217,128,2,239446:0:0:0:0:
320,192,239217,128,0,239446:0:0:0:0:
448,192,239217,128,0,239446:0:0:0:0:
64,192,239522,1,2,0:0:0:0:
448,192,239522,1,0,0:0:0:0:
192,192,239598,1,0,0:0:0:0:
64,192,239674,1,8,0:0:0:0:
320,192,239674,1,0,0:0:0:0:
448,192,239674,1,0,0:0:0:0:
192,192,239826,1,2,0:0:0:0:
320,192,239826,1,0,0:0:0:0:
64,192,239979,1,8,0:0:0:0:
192,192,239979,1,0,0:0:0:0:
448,192,239979,1,0,0:0:0:0:
64,192,240131,1,2,0:0:0:0:
320,192,240131,1,0,0:0:0:0:
192,192,240283,1,8,0:0:0:0:
320,192,240283,1,0,0:0:0:0:
448,192,240283,1,0,0:0:0:0:
64,192,240436,1,4,0:0:0:0:
448,192,240436,1,2,0:0:0:0:
320,192,240512,1,2,0:0:0:0:
64,192,240588,1,8,0:0:0:0:
192,192,240588,1,0,0:0:0:0:
448,192,240588,1,0,0:0:0:0:
320,192,240664,1,2,0:0:0:0:
64,192,240740,1,2,0:0:0:0:
448,192,240740,1,0,0:0:0:0:
192,192,240816,1,2,0:0:0:0:
64,192,240892,1,8,0:0:0:0:
320,192,240892,1,0,0:0:0:0:
448,192,240892,1,0,0:0:0:0:
192,192,240968,1,2,0:0:0:0:
64,192,241045,1,2,0:0:0:0:
448,192,241045,1,0,0:0:0:0:
320,192,241121,1,2,0:0:0:0:
64,192,241197,1,8,0:0:0:0:
192,192,241197,1,0,0:0:0:0:
448,192,241197,1,0,0:0:0:0:
320,192,241273,1,2,0:0:0:0:
64,192,241349,1,2,0:0:0:0:
448,192,241349,1,0,0:0:0:0:
192,192,241425,1,2,0:0:0:0:
64,192,241501,1,8,0:0:0:0:
320,192,241501,1,0,0:0:0:0:
448,192,241501,1,0,0:0:0:0:
64,192,241654,1,4,0:0:0:0:
192,192,241654,1,2,0:0:0:0:
320,192,241654,128,0,241958:0:0:0:0:
448,192,241654,128,0,241958:0:0:0:0:
64,192,241958,1,2,0:0:0:0:
192,192,241958,1,0,0:0:0:0:
64,192,242111,1,8,0:0:0:0:
320,192,242111,1,0,0:0:0:0:
448,192,242111,1,0,0:0:0:0:
448,192,242263,1,0,0:0:0:0:
64,192,242415,128,2,242567:0:0:0:0:
320,192,242415,1,0,0:0:0:0:
192,192,242567,1,2,0:0:0:0:
320,192,242567,128,0,242720:0:0:0:0:
64,192,242720,1,8,0:0:0:0:
192,192,242720,1,0,0:0:0:0:
448,192,242720,1,0,0:0:0:0:
320,192,242872,128,8,243100:0:0:0:0:
448,192,242872,128,4,243100:0:0:0:0:
64,192,243024,1,2,0:0:0:0:
192,192,243100,1,0,0:0:0:0:
64,192,243177,1,2,0:0:0:0:
448,192,243177,1,0,0:0:0:0:
320,192,243253,1,0,0:0:0:0:
64,192,243329,1,8,0:0:0:0:
192,192,243329,1,0,0:0:0:0:
448,192,243329,1,0,0:0:0:0:
192,192,243481,1,2,0:0:0:0:
320,192,243481,1,0,0:0:0:0:
448,192,243633,128,0,243786:0:0:0:0:
64,192,243786,1,2,0:0:0:0:
192,192,243786,128,0,243938:0:0:0:0:
64,192,243938,1,8,0:0:0:0:
320,192,243938,1,0,0:0:0:0:
448,192,243938,1,0,0:0:0:0:
64,192,244090,1,2,0:0:0:0:
192,192,244090,1,4,0:0:0:0:
320,192,244090,128,0,244395:0:0:0:0:
448,192,244090,128,0,244395:0:0:0:0:
64,192,244395,1,2,0:0:0:0:
192,192,244395,1,0,0:0:0:0:
64,192,244547,1,8,0:0:0:0:
320,192,244547,1,0,0:0:0:0:
448,192,244547,1,0,0:0:0:0:
192,192,244699,1,2,0:0:0:0:
320,192,244699,1,0,0:0:0:0:
64,192,244852,1,8,0:0:0:0:
192,192,244852,1,4,0:0:0:0:
448,192,244852,1,0,0:0:0:0:
192,192,245004,1,2,0:0:0:0:
320,192,245004,1,0,0:0:0:0:
64,192,245156,1,8,0:0:0:0:
320,192,245156,1,0,0:0:0:0:
448,192,245156,1,0,0:0:0:0:
64,192,245309,128,2,245918:0:0:0:0:
192,192,245309,1,4,0:0:0:0:
320,192,245461,1,8,0:0:0:0:
448,192,245461,1,0,0:0:0:0:
192,192,245613,1,2,0:0:0:0:
448,192,245689,1,0,0:0:0:0:
192,192,245765,1,8,0:0:0:0:
320,192,245765,1,0,0:0:0:0:
448,192,245918,1,2,0:0:0:0:
320,192,245956,1,2,0:0:0:0:
64,192,245994,1,2,0:0:0:0:
192,192,246032,1,2,0:0:0:0:
448,192,246070,1,2,0:0:0:0:
320,192,246108,1,2,0:0:0:0:
64,192,246146,1,2,0:0:0:0:
192,192,246184,1,2,0:0:0:0:
448,192,246222,1,2,0:0:0:0:
320,192,246260,1,2,0:0:0:0:
64,192,246298,1,2,0:0:0:0:
192,192,246337,1,2,0:0:0:0:
448,192,246375,1,10,0:0:0:0:
320,192,246413,1,2,0:0:0:0:
64,192,246451,1,2,0:0:0:0:
192,192,246489,1,2,0:0:0:0:
320,192,246527,1,4,0:0:0:0:
448,192,246527,128,2,246755:0:0:0:0:
64,192,246679,128,0,246831:0:0:0:0:
192,192,246755,128,0,246831:0:0:0:0:
448,192,246831,128,0,246984:0:0:0:0:
320,192,246908,128,0,246984:0:0:0:0:
64,192,246984,128,0,247288:0:0:0:0:
192,192,247060,128,0,247288:0:0:0:0:
320,192,247136,128,0,247288:0:0:0:0:
448,192,247288,128,0,247593:0:0:0:0:
64,192,247441,128,0,247517:0:0:0:0:
320,192,247517,128,0,247593:0:0:0:0:
64,192,247593,128,0,247897:0:0:0:0:
192,192,247593,128,0,247897:0:0:0:0:
448,192,247897,128,0,248050:0:0:0:0:
320,192,247974,128,0,248126:0:0:0:0:
64,192,248050,128,0,248202:0:0:0:0:
192,192,248126,128,0,248278:0:0:0:0:
320,192,248202,128,0,248354:0:0:0:0:
448,192,248278,128,0,248430:0:0:0:0:
64,192,248354,128,0,248507:0:0:0:0:
192,192,248430,128,0,248507:0:0:0:0:
320,192,248507,128,0,248735:0:0:0:0:
448,192,248507,128,0,248735:0:0:0:0:
64,192,248735,128,0,248963:0:0:0:0:
192,192,248811,128,0,248963:0:0:0:0:
320,192,248963,128,4,249192:0:0:0:0:
448,192,248963,128,2,249192:0:0:0:0:
64,192,249268,1,2,0:0:0:0:
448,192,249268,1,0,0:0:0:0:
192,192,249344,1,0,0:0:0:0:
64,192,249420,128,8,249649:0:0:0:0:
320,192,249420,128,0,249649:0:0:0:0:
448,192,249420,128,0,249649:0:0:0:0:
320,192,249725,1,2,0:0:0:0:
448,192,249725,1,0,0:0:0:0:
64,192,249877,1,2,0:0:0:0:
192,192,249877,1,0,0:0:0:0:
64,192,250029,1,8,0:0:0:0:
320,192,250029,1,0,0:0:0:0:
448,192,250029,1,0,0:0:0:0:
64,192,250182,128,4,250410:0:0:0:0:
192,192,250182,128,2,250410:0:0:0:0:
320,192,250182,1,0,0:0:0:0:
448,192,250334,1,0,0:0:0:0:
320,192,250410,1,0,0:0:0:0:
64,192,250486,1,2,0:0:0:0:
448,192,250486,1,0,0:0:0:0:
192,192,250562,1,0,0:0:0:0:
64,192,250639,1,8,0:0:0:0:
320,192,250639,1,0,0:0:0:0:
448,192,250639,128,0,250791:0:0:0:0:
192,192,250791,128,0,250943:0:0:0:0:
64,192,250943,1,2,0:0:0:0:
448,192,250943,128,0,251095:0:0:0:0:
320,192,251019,128,0,251095:0:0:0:0:
64,192,251095,1,2,0:0:0:0:
192,192,251095,1,0,0:0:0:0:
64,192,251248,1,8,0:0:0:0:
320,192,251248,1,0,0:0:0:0:
448,192,251248,1,0,0:0:0:0:
64,192,251400,128,4,251628:0:0:0:0:
192,192,251400,128,2,251628:0:0:0:0:
448,192,251400,128,0,251628:0:0:0:0:
320,192,251705,1,2,0:0:0:0:
448,192,251705,1,0,0:0:0:0:
64,192,251857,1,8,0:0:0:0:
192,192,251857,1,0,0:0:0:0:
448,192,251857,1,0,0:0:0:0:
320,192,251933,1,0,0:0:0:0:
64,192,252009,1,0,0:0:0:0:
448,192,252009,1,0,0:0:0:0:
192,192,252161,1,2,0:0:0:0:
320,192,252161,1,0,0:0:0:0:
64,192,252314,1,2,0:0:0:0:
320,192,252314,1,0,0:0:0:0:
64,192,252466,1,8,0:0:0:0:
192,192,252466,1,0,0:0:0:0:
448,192,252466,1,0,0:0:0:0:
192,192,252618,1,4,0:0:0:0:
320,192,252618,128,2,252923:0:0:0:0:
448,192,252618,128,0,252923:0:0:0:0:
64,192,252923,1,2,0:0:0:0:
192,192,252999,1,0,0:0:0:0:
320,192,253075,1,8,0:0:0:0:
448,192,253075,1,0,0:0:0:0:
64,192,253151,1,0,0:0:0:0:
192,192,253151,1,0,0:0:0:0:
320,192,253227,1,0,0:0:0:0:
448,192,253227,1,0,0:0:0:0:
64,192,253380,1,8,0:0:0:0:
192,192,253380,1,0,0:0:0:0:
448,192,253380,1,0,0:0:0:0:
64,192,253532,1,2,0:0:0:0:
320,192,253532,1,0,0:0:0:0:
192,192,253684,1,2,0:0:0:0:
448,192,253684,1,0,0:0:0:0:
64,192,253837,1,4,0:0:0:0:
320,192,253837,128,2,254141:0:0:0:0:
448,192,253837,128,0,254141:0:0:0:0:
64,192,254141,1,2,0:0:0:0:
192,192,254141,1,0,0:0:0:0:
64,192,254293,1,8,0:0:0:0:
320,192,254293,128,0,254446:0:0:0:0:
448,192,254293,1,0,0:0:0:0:
192,192,254446,1,0,0:0:0:0:
64,192,254598,128,2,254750:0:0:0:0:
448,192,254598,1,0,0:0:0:0:
192,192,254674,128,2,254750:0:0:0:0:
320,192,254750,1,2,0:0:0:0:
448,192,254750,1,0,0:0:0:0:
192,192,254826,1,0,0:0:0:0:
64,192,254903,1,8,0:0:0:0:
320,192,254903,1,0,0:0:0:0:
448,192,254903,1,0,0:0:0:0:
64,192,255055,128,4,255359:0:0:0:0:
192,192,255055,128,2,255359:0:0:0:0:
448,192,255055,1,0,0:0:0:0:
320,192,255359,1,2,0:0:0:0:
448,192,255359,1,0,0:0:0:0:
192,192,255436,1,0,0:0:0:0:
64,192,255512,1,8,0:0:0:0:
320,192,255512,1,0,0:0:0:0:
448,192,255512,128,0,255664:0:0:0:0:
192,192,255664,128,0,255816:0:0:0:0:
64,192,255816,1,2,0:0:0:0:
448,192,255816,128,0,255968:0:0:0:0:
320,192,255892,128,0,255968:0:0:0:0:
64,192,255968,1,2,0:0:0:0:
192,192,255968,1,0,0:0:0:0:
64,192,256121,1,8,0:0:0:0:
320,192,256121,1,0,0:0:0:0:
448,192,256121,1,0,0:0:0:0:
64,192,256273,128,4,256578:0:0:0:0:
192,192,256273,128,2,256578:0:0:0:0:
448,192,256273,1,0,0:0:0:0:
320,192,256578,1,2,0:0:0:0:
448,192,256578,1,0,0:0:0:0:
192,192,256654,1,2,0:0:0:0:
64,192,256730,1,8,0:0:0:0:
320,192,256730,1,0,0:0:0:0:
448,192,256730,1,0,0:0:0:0:
192,192,256882,1,2,0:0:0:0:
320,192,256882,1,0,0:0:0:0:
64,192,257034,1,8,0:0:0:0:
192,192,257034,1,0,0:0:0:0:
448,192,257034,1,0,0:0:0:0:
320,192,257111,1,0,0:0:0:0:
64,192,257187,1,2,0:0:0:0:
448,192,257187,1,0,0:0:0:0:
64,192,257339,1,8,0:0:0:0:
320,192,257339,1,0,0:0:0:0:
448,192,257339,1,0,0:0:0:0:
192,192,257491,1,4,0:0:0:0:
320,192,257491,1,2,0:0:0:0:
64,192,257644,1,8,0:0:0:0:
192,192,257644,1,0,0:0:0:0:
448,192,257644,1,0,0:0:0:0:
64,192,257796,1,2,0:0:0:0:
448,192,257796,1,0,0:0:0:0:
192,192,257872,1,0,0:0:0:0:
64,192,257948,128,8,258177:0:0:0:0:
320,192,257948,128,0,258177:0:0:0:0:
448,192,257948,128,0,258177:0:0:0:0:
64,192,258253,1,2,0:0:0:0:
448,192,258253,1,0,0:0:0:0:
320,192,258304,1,0,0:0:0:0:
192,192,258354,1,0,0:0:0:0:
64,192,258405,1,2,0:0:0:0:
448,192,258405,1,0,0:0:0:0:
320,192,258456,1,0,0:0:0:0:
192,192,258507,1,0,0:0:0:0:
64,192,258557,1,8,0:0:0:0:
320,192,258557,1,0,0:0:0:0:
448,192,258557,1,0,0:0:0:0:
64,192,258710,128,4,259014:0:0:0:0:
192,192,258710,128,2,259014:0:0:0:0:
448,192,258710,1,0,0:0:0:0:
320,192,259014,1,2,0:0:0:0:
448,192,259014,1,0,0:0:0:0:
64,192,259166,128,2,259319:0:0:0:0:
192,192,259166,1,0,0:0:0:0:
320,192,259319,128,0,259471:0:0:0:0:
64,192,259471,1,4,0:0:0:0:
192,192,259471,128,8,259776:0:0:0:0:
448,192,259471,1,0,0:0:0:0:
448,192,259623,128,0,259776:0:0:0:0:
320,192,259776,128,0,259928:0:0:0:0:
64,192,259928,1,4,0:0:0:0:
192,192,259928,1,2,0:0:0:0:
448,192,259928,128,0,260232:0:0:0:0:
192,192,260080,128,0,260232:0:0:0:0:
64,192,260232,128,8,260385:0:0:0:0:
320,192,260232,1,0,0:0:0:0:
320,192,260385,128,2,260537:0:0:0:0:
448,192,260385,1,0,0:0:0:0:
64,192,260537,1,2,0:0:0:0:
192,192,260537,1,0,0:0:0:0:
64,192,260689,128,4,260842:0:0:0:0:
320,192,260689,1,8,0:0:0:0:
448,192,260689,128,0,260994:0:0:0:0:
192,192,260842,128,0,260994:0:0:0:0:
320,192,260994,128,0,261146:0:0:0:0:
64,192,261146,128,4,261451:0:0:0:0:
192,192,261146,128,2,261451:0:0:0:0:
448,192,261146,1,0,0:0:0:0:
320,192,261451,1,2,0:0:0:0:
448,192,261451,128,0,261603:0:0:0:0:
64,192,261603,1,2,0:0:0:0:
192,192,261603,128,0,261755:0:0:0:0:
320,192,261755,128,0,261908:0:0:0:0:
64,192,261908,128,4,262212:0:0:0:0:
192,192,261908,1,8,0:0:0:0:
448,192,261908,1,0,0:0:0:0:
448,192,262060,128,0,262212:0:0:0:0:
192,192,262212,128,0,262364:0:0:0:0:
64,192,262364,1,4,0:0:0:0:
320,192,262364,1,2,0:0:0:0:
448,192,262364,128,0,262669:0:0:0:0:
192,192,262517,128,0,262669:0:0:0:0:
64,192,262669,1,8,0:0:0:0:
320,192,262669,128,0,262821:0:0:0:0:
64,192,262821,128,2,262974:0:0:0:0:
192,192,262821,1,0,0:0:0:0:
320,192,262974,1,8,0:0:0:0:
448,192,262974,1,0,0:0:0:0:
192,192,263050,1,8,0:0:0:0:
64,192,263126,1,8,0:0:0:0:
320,192,263126,1,0,0:0:0:0:
448,192,263126,128,0,263430:0:0:0:0:
64,192,263278,1,2,0:0:0:0:
192,192,263278,1,0,0:0:0:0:
192,192,263430,1,8,0:0:0:0:
320,192,263430,1,0,0:0:0:0:
64,192,263583,128,4,263887:0:0:0:0:
192,192,263583,128,2,263887:0:0:0:0:
448,192,263583,1,0,0:0:0:0:
320,192,263887,1,2,0:0:0:0:
448,192,263887,1,0,0:0:0:0:
64,192,264040,128,8,264192:0:0:0:0:
192,192,264040,1,0,0:0:0:0:
448,192,264040,1,0,0:0:0:0:
320,192,264192,128,2,264344:0:0:0:0:
64,192,264344,1,4,0:0:0:0:
192,192,264344,128,8,264649:0:0:0:0:
448,192,264344,1,0,0:0:0:0:
448,192,264496,128,2,264649:0:0:0:0:
64,192,264649,1,8,0:0:0:0:
320,192,264649,128,0,264801:0:0:0:0:
192,192,264801,1,4,0:0:0:0:
448,192,264801,128,2,265106:0:0:0:0:
64,192,264953,1,8,0:0:0:0:
192,192,264953,128,0,265106:0:0:0:0:
64,192,265106,128,2,265258:0:0:0:0:
320,192,265106,1,0,0:0:0:0:
192,192,265258,1,8,0:0:0:0:
320,192,265258,128,0,265410:0:0:0:0:
448,192,265258,1,0,0:0:0:0:
64,192,265410,1,2,0:0:0:0:
192,192,265410,1,0,0:0:0:0:
64,192,265562,128,4,265715:0:0:0:0:
320,192,265562,1,8,0:0:0:0:
448,192,265562,128,0,265867:0:0:0:0:
192,192,265715,128,2,265867:0:0:0:0:
64,192,265867,1,8,0:0:0:0:
320,192,265867,128,0,266019:0:0:0:0:
64,192,266019,128,4,266324:0:0:0:0:
192,192,266019,1,2,0:0:0:0:
448,192,266019,1,0,0:0:0:0:
320,192,266172,1,8,0:0:0:0:
448,192,266172,1,0,0:0:0:0:
192,192,266324,1,2,0:0:0:0:
320,192,266324,128,0,266476:0:0:0:0:
64,192,266476,1,8,0:0:0:0:
192,192,266476,128,0,266628:0:0:0:0:
448,192,266476,1,0,0:0:0:0:
320,192,266628,128,2,266781:0:0:0:0:
64,192,266781,128,4,267085:0:0:0:0:
192,192,266781,1,8,0:0:0:0:
448,192,266781,1,0,0:0:0:0:
320,192,266933,1,2,0:0:0:0:
448,192,266933,128,0,267085:0:0:0:0:
192,192,267085,128,8,267238:0:0:0:0:
320,192,267085,1,0,0:0:0:0:
64,192,267238,1,4,0:0:0:0:
448,192,267238,1,0,0:0:0:0:
320,192,267314,1,0,0:0:0:0:
64,192,267390,1,2,0:0:0:0:
192,192,267390,1,0,0:0:0:0:
448,192,267466,1,0,0:0:0:0:
320,192,267542,1,0,0:0:0:0:
192,192,267618,1,0,0:0:0:0:
64,192,267694,1,2,0:0:0:0:
448,192,267694,1,0,0:0:0:0:
320,192,267771,1,0,0:0:0:0:
64,192,267847,1,8,0:0:0:0:
192,192,267847,1,0,0:0:0:0:
320,192,267923,1,8,0:0:0:0:
448,192,267923,1,0,0:0:0:0:
64,192,267999,1,0,0:0:0:70:LR_Tom Hit 2.wav
192,192,267999,1,0,0:0:0:0:
320,192,268075,1,0,0:0:0:70:LR_Tom Hit 2.wav
64,192,268151,1,0,0:0:0:70:LR_Tom Hit 3.wav
448,192,268151,1,0,0:0:0:0:
192,192,268227,1,0,0:0:0:70:LR_Tom Hit 3.wav
64,192,268304,1,8,0:0:0:0:
320,192,268304,1,0,0:0:0:0:
448,192,268304,1,0,0:0:0:0:
64,192,268456,128,4,268760:0:0:0:0:
192,192,268456,1,2,0:0:0:0:
448,192,268456,1,0,0:0:0:0:
448,192,268760,128,0,268913:0:0:0:0:
64,192,268913,1,2,0:0:0:0:
192,192,268913,128,0,269065:0:0:0:0:
320,192,269065,128,0,269217:0:0:0:0:
64,192,269217,128,2,269293:0:0:0:0:
448,192,269217,1,0,0:0:0:0:
192,192,269293,128,0,269370:0:0:0:0:
320,192,269370,128,0,269522:0:0:0:0:
64,192,269522,128,2,269674:0:0:0:0:
192,192,269522,1,0,0:0:0:0:
448,192,269674,128,0,269979:0:0:0:0:
64,192,269826,1,2,0:0:0:0:
320,192,269826,1,0,0:0:0:0:
192,192,269979,128,0,270131:0:0:0:0:
320,192,270131,128,2,270283:0:0:0:0:
448,192,270131,1,0,0:0:0:0:
64,192,270283,128,0,270436:0:0:0:0:
192,192,270436,1,2,0:0:0:0:
448,192,270436,128,0,270512:0:0:0:0:
320,192,270512,128,0,270588:0:0:0:0:
192,192,270588,128,0,270740:0:0:0:0:
320,192,270740,1,2,0:0:0:0:
448,192,270740,128,0,270892:0:0:0:0:
64,192,270892,128,0,271197:0:0:0:0:
192,192,271045,1,2,0:0:0:0:
448,192,271045,1,0,0:0:0:0:
320,192,271197,128,0,271349:0:0:0:0:
64,192,271349,1,2,0:0:0:0:
192,192,271349,128,0,271501:0:0:0:0:
448,192,271501,128,0,271654:0:0:0:0:
64,192,271654,128,2,271730:0:0:0:0:
320,192,271654,1,0,0:0:0:0:
192,192,271730,128,0,271806:0:0:0:0:
320,192,271806,128,0,272034:0:0:0:0:
64,192,271958,1,2,0:0:0:0:
448,192,271958,1,0,0:0:0:0:
320,192,272111,128,0,272415:0:0:0:0:
64,192,272263,1,2,0:0:0:0:
192,192,272263,1,0,0:0:0:0:
64,192,272415,128,0,272491:0:0:0:0:
192,192,272491,128,0,272567:0:0:0:0:
320,192,272567,128,2,272644:0:0:0:0:
448,192,272567,1,0,0:0:0:0:
64,192,272644,128,0,272720:0:0:0:0:
448,192,272720,128,0,272796:0:0:0:0:
320,192,272796,128,0,272872:0:0:0:0:
64,192,272872,1,2,0:0:0:0:
192,192,272872,128,0,272948:0:0:0:0:
448,192,272948,128,0,273024:0:0:0:0:
64,192,273024,128,0,273100:0:0:0:0:
320,192,273100,128,0,273177:0:0:0:0:
64,192,273177,1,2,0:0:0:0:
192,192,273177,128,0,273253:0:0:0:0:
448,192,273253,128,0,273329:0:0:0:0:
64,192,273329,128,0,273633:0:0:0:0:
192,192,273481,1,2,0:0:0:0:
320,192,273481,1,0,0:0:0:0:
448,192,273633,128,0,273786:0:0:0:0:
64,192,273786,1,8,0:0:0:0:
192,192,273786,128,0,273938:0:0:0:0:
320,192,273786,1,0,0:0:0:0:
320,192,273938,128,0,274090:0:0:0:0:
64,192,274090,128,2,274166:0:0:0:0:
448,192,274090,1,0,0:0:0:0:
192,192,274166,128,0,274243:0:0:0:0:
64,192,274243,128,0,274395:0:0:0:0:
192,192,274395,1,8,0:0:0:0:
320,192,274395,1,0,0:0:0:0:
448,192,274395,128,0,274547:0:0:0:0:
192,192,274547,128,0,274852:0:0:0:0:
64,192,274699,1,2,0:0:0:0:
320,192,274699,1,0,0:0:0:0:
448,192,274852,128,0,274928:0:0:0:0:
320,192,274928,128,0,275004:0:0:0:0:
64,192,275004,1,8,0:0:0:0:
192,192,275004,1,0,0:0:0:0:
448,192,275004,128,0,275156:0:0:0:0:
64,192,275156,128,0,275309:0:0:0:0:
320,192,275309,128,2,275385:0:0:0:0:
448,192,275309,1,0,0:0:0:0:
192,192,275385,128,0,275461:0:0:0:0:
320,192,275461,128,0,275613:0:0:0:0:
64,192,275613,128,8,275765:0:0:0:0:
192,192,275613,1,0,0:0:0:0:
448,192,275613,1,0,0:0:0:0:
448,192,275765,128,0,275994:0:0:0:0:
64,192,275918,1,2,0:0:0:0:
192,192,275918,1,0,0:0:0:0:
320,192,275994,1,8,0:0:0:0:
64,192,276070,128,8,276222:0:0:0:0:
192,192,276146,1,8,0:0:0:0:
320,192,276222,1,8,0:0:0:0:
448,192,276222,128,0,276375:0:0:0:0:
64,192,276298,1,8,0:0:0:0:
192,192,276375,128,2,276527:0:0:0:0:
64,192,276451,1,0,0:0:0:0:
320,192,276527,1,8,0:0:0:0:
448,192,276527,128,0,276603:0:0:0:0:
64,192,276603,128,8,276679:0:0:0:0:
320,192,276679,128,2,276755:0:0:0:0:
192,192,276755,128,0,276831:0:0:0:0:
448,192,276831,128,8,276908:0:0:0:0:
64,192,276908,128,0,276984:0:0:0:0:
448,192,276984,128,6,277212:0:0:0:0:
448,192,277288,128,0,277441:0:0:0:0:
64,192,277441,128,0,277745:0:0:0:0:
448,192,277745,128,0,278202:0:0:0:0:
320,192,277897,128,0,278202:0:0:0:0:
