osu file format v14

[General]
AudioFilename: audio.mp3
AudioLeadIn: 0
PreviewTime: -1
Countdown: 1
SampleSet: Soft
StackLeniency: 1
Mode: 0
LetterboxInBreaks: 0
WidescreenStoryboard: 0

[Editor]
DistanceSpacing: 0.6
BeatDivisor: 4
GridSize: 4
TimelineZoom: 1

[Metadata]
Title:Zenzenzense
TitleUnicode:前前前世
Artist:RADWIMPS
ArtistUnicode:RADWIMPS
Creator:rohasshiki
Version:Dreaming
Source:
Tags:
BeatmapID:1070491
BeatmapSetID:503064

[Difficulty]
HPDrainRate:6
CircleSize:4
OverallDifficulty:8
ApproachRate:9
SliderMultiplier:2
SliderTickRate:1

[Events]
//Background and Video events
0,0,"Kimi-no-Na-wa-Wallpaper-kimi-no-na-wa-39515376-1920-1080.jpg",0,0
//Break Periods
//Storyboard Layer 0 (Background)
//Storyboard Layer 1 (Fail)
//Storyboard Layer 2 (Pass)
//Storyboard Layer 3 (Foreground)
//Storyboard Sound Samples

[TimingPoints]
249.148231996725,315.789473684211,4,2,0,100,1,0
20459,-166.666666666667,4,2,0,100,0,0
20775,-166.666666666667,4,2,0,100,0,0
55828,-200,4,2,0,100,0,0
63407,-100,4,2,0,100,0,0
88670,-200,4,2,0,100,0,0

[HitObjects]
362,83,249,6,0,L|408:104,3,50
440,132,564,2,0,P|464:196|448:264,1,100
276,240,880,1,0,0:0:0:0:
384,192,1038,1,0,0:0:0:0:
372,316,1196,1,0,0:0:0:0:
224,308,1354,6,0,P|160:264|120:148,1,200
324,48,1828,2,0,P|384:116|392:156,1,100
340,256,2143,2,0,L|260:188,1,100
140,100,2459,1,0,0:0:0:0:
195,329,2775,6,0,L|168:288,3,50
152,256,3091,2,0,P|192:172|224:152,1,100
404,72,3407,2,0,P|428:148|424:184,1,100
348,300,3722,1,0,0:0:0:0:
176,264,3880,2,0,P|132:200|144:80,1,200
268,164,4354,5,0,0:0:0:0:
400,280,4512,1,0,0:0:0:0:
216,264,4670,1,0,0:0:0:0:
384,168,4828,1,0,0:0:0:0:
268,304,4985,2,0,P|240:256|228:200,1,100
164,58,5301,6,0,L|128:92,3,50
108,136,5617,2,0,P|96:192|144:252,1,100
348,132,5933,2,0,P|284:64|248:44,2,100
352,308,6407,2,0,P|260:332|148:300,1,200
76,188,6880,5,0,0:0:0:0:
236,208,7038,1,0,0:0:0:0:
176,80,7196,1,0,0:0:0:0:
328,120,7354,1,0,0:0:0:0:
392,244,7512,6,0,L|300:292,1,100
140,160,7828,2,0,L|80:136,2,50
344,92,8143,2,0,P|368:148|348:224,1,100
168,308,8459,2,0,P|148:256|160:196,1,100
268,200,8775,1,0,0:0:0:0:
380,120,8933,1,0,0:0:0:0:
380,120,8985,1,0,0:0:0:0:
380,120,9038,6,0,L|464:228,2,133.333333333333
156,200,9670,2,0,L|72:88,2,133.333333333333
404,200,10354,6,0,L|348:132,2,50
264,276,10670,1,0,0:0:0:0:
416,312,10828,1,0,0:0:0:0:
368,180,10985,2,0,L|312:84,1,100
148,64,11301,5,0,0:0:0:0:
208,208,11459,1,0,0:0:0:0:
292,96,11617,2,0,L|392:68,1,100
416,216,11933,2,0,L|308:252,1,100
168,204,12249,2,0,L|268:172,1,100
349,301,12564,2,0,L|256:336,1,100
352,96,12880,6,0,L|388:56,2,50
192,148,13196,1,0,0:0:0:0:
380,232,13354,1,0,0:0:0:0:
228,316,13512,2,0,L|276:220,1,100
320,68,13828,5,0,0:0:0:0:
112,144,13985,1,0,0:0:0:0:
288,256,14143,1,0,0:0:0:0:
192,60,14301,1,0,0:0:0:0:
196,268,14459,1,0,0:0:0:0:
112,72,14617,1,0,0:0:0:0:
120,292,14775,1,0,0:0:0:0:
36,88,14933,1,0,0:0:0:0:
48,296,15091,6,0,P|136:316|180:304,1,100
380,288,15407,2,0,L|424:320,2,50
336,148,15722,2,0,P|264:84|240:80,1,100
180,200,16038,2,0,P|232:248|280:256,1,100
280,180,16354,2,0,P|232:128|184:116,1,100
136,244,16670,2,0,P|180:280|244:296,1,100
396,232,16985,6,0,P|432:184|428:112,1,100
204,80,17301,2,0,P|152:120|128:168,1,100
284,320,17617,2,0,P|344:300|384:264,1,100
376,104,17933,2,0,L|424:76,3,50
344,124,18249,2,0,L|256:180,1,100
112,264,18564,6,0,P|80:196|100:140,1,100
208,76,18880,1,0,0:0:0:0:
364,148,19038,2,0,P|396:200|396:244,1,100
204,304,19354,1,0,0:0:0:0:
368,212,19512,1,0,0:0:0:0:
216,132,19670,1,0,0:0:0:0:
324,312,19828,1,0,0:0:0:0:
156,212,19985,1,0,0:0:0:0:
320,136,20143,5,0,0:0:0:0:
320,136,20222,1,0,0:0:0:0:
320,136,20301,1,0,0:0:0:0:
320,136,20380,1,0,0:0:0:0:
320,136,20459,2,0,L|280:184,1,59.9999981689454
408,232,20775,6,0,L|448:184,1,59.9999981689454
352,156,21091,2,0,L|304:216,1,59.9999981689454
328,288,21407,2,0,L|380:344,1,59.9999981689454
400,232,21722,2,0,L|352:180,1,59.9999981689454,0|0,0:0|2:0,0:0:0:0:
212,228,22038,5,0,0:0:0:0:
212,228,22196,1,0,0:0:0:0:
212,228,22354,2,0,P|160:188|136:148,2,89.9999972534181
268,76,22985,6,0,L|328:112,1,59.9999981689454
256,164,23301,2,0,L|192:132,1,59.9999981689454
192,60,23617,2,0,L|152:120,1,59.9999981689454
188,208,23933,2,0,L|248:248,1,59.9999981689454
292,176,24249,2,0,L|348:212,1,59.9999981689454
304,280,24564,2,0,L|276:340,1,59.9999981689454
208,280,24880,6,0,L|240:224,1,59.9999981689454
340,180,25196,2,0,L|308:248,1,59.9999981689454
140,260,25512,5,0,0:0:0:0:
396,272,25670,1,0,0:0:0:0:
280,96,25828,1,0,0:0:0:0:
264,288,25985,1,0,0:0:0:0:
388,152,26143,2,0,L|324:208,1,59.9999981689454
296,320,26459,5,0,0:0:0:0:
240,120,26617,1,0,0:0:0:0:
124,312,26775,2,0,L|188:276,1,59.9999981689454
376,168,27091,1,0,0:0:0:0:
376,168,27249,1,0,0:0:0:0:
376,168,27407,6,0,L|280:144,2,89.9999972534181
428,240,28038,2,0,L|392:304,1,59.9999981689454
256,224,28354,2,0,L|288:164,1,59.9999981689454
196,40,28670,2,0,L|156:112,1,59.9999981689454
168,224,28985,2,0,L|236:264,1,59.9999981689454
376,144,29301,6,0,L|324:116,1,59.9999981689454
108,172,29617,2,0,L|176:208,1,59.9999981689454
356,288,29933,2,0,L|324:268,1,29.9999990844727
408,228,30091,2,0,L|432:196,1,29.9999990844727
332,208,30249,2,0,L|304:188,1,29.9999990844727
376,152,30407,2,0,L|396:124,1,29.9999990844727
304,128,30564,6,0,L|260:176,1,59.9999981689454
56,184,30880,2,0,L|104:136,1,59.9999981689454
344,228,31196,2,0,L|304:284,1,59.9999981689454
176,316,31512,2,0,L|116:272,1,59.9999981689454
220,80,31828,2,0,L|272:116,1,59.9999981689454
408,276,32143,5,0,0:0:0:0:
408,276,32301,1,0,0:0:0:0:
408,276,32459,2,0,P|448:232|456:192,2,89.9999972534181
292,232,33091,2,0,L|236:196,1,59.9999981689454
316,80,33407,1,0,0:0:0:0:
316,80,33564,1,0,0:0:0:0:
316,80,33722,6,0,L|376:108,1,59.9999981689454
424,256,34038,2,0,L|344:224,1,59.9999981689454
176,272,34354,2,0,L|248:308,1,59.9999981689454
260,116,34670,2,0,L|200:80,1,59.9999981689454
56,224,34985,2,0,L|116:256,1,59.9999981689454
336,264,35301,2,0,L|268:228,1,59.9999981689454
160,60,35617,6,0,L|216:96,1,59.9999981689454
412,212,35933,1,0,0:0:0:0:
152,320,36091,1,0,0:0:0:0:
352,136,36249,2,0,L|280:152,1,59.9999981689454
48,240,36564,1,0,0:0:0:0:
200,56,36722,1,0,0:0:0:0:
344,224,36880,6,0,L|304:268,1,59.9999981689454
88,128,37196,1,0,0:0:0:0:
336,128,37354,1,0,0:0:0:0:
60,236,37512,2,0,L|128:264,1,59.9999981689454
336,312,37828,1,0,0:0:0:0:
340,312,37985,2,0,P|372:184|84:192,1,539.999983520508
192,304,39722,5,0,0:0:0:0:
236,276,40038,1,0,0:0:0:0:
280,248,40354,1,0,0:0:0:0:
404,128,40670,5,0,0:0:0:0:
120,156,40828,1,0,0:0:0:0:
376,288,40985,1,0,0:0:0:0:
256,52,41143,1,0,0:0:0:0:
176,300,41301,2,0,P|132:280|116:260,1,59.9999981689454
128,60,41617,5,0,0:0:0:0:
56,292,41775,1,0,0:0:0:0:
264,104,41933,2,0,P|312:128|320:140,1,59.9999981689454
256,328,42249,2,0,P|220:320|200:300,1,59.9999981689454
180,76,42564,2,0,P|224:80|240:96,1,59.9999981689454
140,300,42880,1,0,0:0:0:0:
140,300,43038,1,0,0:0:0:0:
140,300,43196,2,0,B|72:224|96:152|188:232|288:172|288:172|232:108,1,359.999989013672
120,88,44301,6,0,P|136:132|152:144,1,59.9999981689454
288,208,44617,1,0,0:0:0:0:
440,256,44775,2,0,P|464:216|464:196,1,59.9999981689454
376,64,45091,5,0,0:0:0:0:
340,80,45170,1,0,0:0:0:0:
304,104,45249,1,0,0:0:0:0:
272,132,45328,1,0,0:0:0:0:
248,160,45407,2,0,P|220:192|192:264,1,119.999996337891
416,272,45880,5,0,0:0:0:0:
248,56,46038,1,0,0:0:0:0:
104,280,46196,1,0,0:0:0:0:
404,208,46354,1,0,0:0:0:0:
96,192,46512,1,0,0:0:0:0:
408,288,46670,5,0,0:0:0:0:
188,112,46828,1,0,0:0:0:0:
328,332,46985,1,0,0:0:0:0:
124,156,47143,1,0,0:0:0:0:
424,208,47301,2,0,L|468:152,2,59.9999981689454
152,312,47775,2,0,P|132:268|140:236,1,59.9999981689454
244,76,48091,1,0,0:0:0:0:
456,192,48249,6,0,B|424:248|360:280|112:228,1,359.999989013672
92,212,49354,2,0,P|128:132|324:48,1,299.999990844727
432,180,50459,1,0,0:0:0:0:
140,308,50775,5,0,0:0:0:0:
160,84,50933,1,0,0:0:0:0:
376,212,51091,1,0,0:0:0:0:
264,32,51249,1,0,0:0:0:0:
104,180,51407,1,0,0:0:0:0:
256,328,51564,1,0,0:0:0:0:
392,108,51722,6,0,P|376:80|348:60,1,59.9999981689454
164,224,52038,2,0,P|192:256|212:264,1,59.9999981689454
424,236,52354,1,0,0:0:0:0:
240,80,52512,1,0,0:0:0:0:
224,332,52670,1,0,0:0:0:0:
48,184,52828,1,0,0:0:0:0:
324,60,52985,2,0,P|356:80|376:104,1,59.9999981689454
144,312,53301,6,0,B|88:272|140:212|140:212|200:252|200:252|228:224|188:172|188:172|264:140,1,359.999989013672
320,160,54407,2,0,B|280:220|280:220|336:244|336:244|256:312|184:320,1,299.999990844727
96,188,55512,1,0,0:0:0:0:
268,72,55828,6,0,P|332:80|384:104,1,100
436,244,56301,1,0,0:0:0:0:
436,244,56459,2,0,P|352:236|324:224,1,100
172,104,56933,1,0,0:0:0:0:
172,104,57091,2,0,P|252:104|288:116,1,100
328,296,57564,1,0,0:0:0:0:
328,296,57722,6,0,P|284:308|260:300,1,50
192,192,58038,2,0,P|228:180|256:184,1,50
368,136,58354,2,0,P|316:104|272:88,1,100
88,148,58828,1,0,0:0:0:0:
88,148,58985,2,0,P|124:192|168:216,1,100
368,184,59459,1,0,0:0:0:0:
368,184,59617,2,0,P|312:236|272:256,1,100
104,256,60091,1,0,0:0:0:0:
104,256,60249,6,0,P|120:216|136:200,1,50
296,156,60564,2,0,P|296:188|284:212,1,50
184,316,60880,2,0,P|172:264|180:212,1,100
344,104,61354,1,0,0:0:0:0:
344,104,61512,2,0,P|356:168|352:216,1,100
140,208,61985,1,0,0:0:0:0:
140,208,62143,2,0,P|220:176|240:176,1,100
432,256,62617,1,0,0:0:0:0:
432,256,62775,6,0,P|392:264|368:256,1,50
216,184,63091,2,0,P|240:168|280:164,1,50
392,60,63407,6,0,P|432:104|444:152,1,100
376,300,63722,1,0,0:0:0:0:
376,300,63880,2,0,P|316:256|296:192,1,100
236,64,64196,1,0,0:0:0:0:
236,64,64354,2,0,P|300:80|352:120,1,100
416,264,64670,6,0,P|336:272|284:248,1,100
148,176,64985,1,0,0:0:0:0:
148,176,65143,2,0,P|232:152|276:152,1,100
308,312,65459,1,0,0:0:0:0:
308,312,65617,2,0,P|256:280|228:220,1,100
268,56,65933,2,0,P|328:104|356:152,1,100
220,300,66249,6,0,P|160:256|132:204,1,100
368,128,66564,2,0,P|428:176|456:224,1,100
264,316,66880,2,0,P|200:256|184:200,1,100
264,104,67196,2,0,L|220:76,7,50
264,104,67828,1,0,0:0:0:0:
88,236,68459,6,0,L|168:300,1,100
384,244,68775,2,0,L|460:172,1,100
268,40,69091,2,0,L|196:116,1,100
120,264,69407,1,0,0:0:0:0:
352,292,69564,1,0,0:0:0:0:
352,292,69643,1,0,0:0:0:0:
352,292,69722,6,0,L|288:212,1,100
212,64,70038,1,0,0:0:0:0:
56,124,70196,2,0,L|128:212,1,100
248,328,70512,1,0,0:0:0:0:
368,60,70670,1,0,0:0:0:0:
160,260,70828,1,0,0:0:0:0:
448,88,70985,6,0,L|400:180,1,100
184,312,71301,1,0,0:0:0:0:
280,48,71459,1,0,0:0:0:0:
280,48,71538,1,0,0:0:0:0:
280,48,71617,2,0,L|240:160,1,100
448,268,71933,1,0,0:0:0:0:
244,320,72091,2,0,P|180:296|144:252,1,100
200,64,72407,5,0,0:0:0:0:
200,64,72564,2,0,P|260:84|296:116,1,100
360,332,72880,2,0,P|288:320|248:296,1,100
84,148,73196,1,0,0:0:0:0:
84,148,73354,2,0,P|168:128|220:140,1,100
444,160,73670,5,0,0:0:0:0:
144,304,73828,1,0,0:0:0:0:
184,40,73985,1,0,0:0:0:0:
380,268,74143,1,0,0:0:0:0:
116,144,74301,1,0,0:0:0:0:
344,36,74459,1,0,0:0:0:0:
184,300,74617,6,0,P|116:260|96:220,1,100
168,60,74933,1,0,0:0:0:0:
376,224,75091,1,0,0:0:0:0:
92,312,75249,1,0,0:0:0:0:
304,100,75407,1,0,0:0:0:0:
360,348,75564,1,0,0:0:0:0:
92,312,75722,2,0,P|48:244|52:196,1,100
248,56,76038,6,0,P|288:88|304:148,1,100
328,332,76354,1,0,0:0:0:0:
328,332,76512,2,0,P|264:320|212:284,1,100
348,104,76828,2,0,P|420:120|456:148,1,100
240,296,77143,2,0,P|192:248|168:180,1,100
308,40,77459,5,0,0:0:0:0:
296,272,77617,1,0,0:0:0:0:
152,144,77775,2,0,L|64:96,1,100
128,304,78091,1,0,0:0:0:0:
360,192,78249,1,0,0:0:0:0:
324,168,78328,1,0,0:0:0:0:
280,160,78407,1,0,0:0:0:0:
236,160,78485,1,0,0:0:0:0:
192,172,78564,6,0,P|148:196|116:240,1,100
356,300,78880,2,0,P|416:252|436:200,1,100
208,80,79196,2,0,P|144:112|112:168,1,100
360,204,79512,1,0,0:0:0:0:
360,204,79670,2,0,P|400:144|404:80,1,100
132,184,79985,2,0,P|96:256|112:300,1,100
412,192,80301,6,0,P|356:156|276:152,1,100
72,236,80617,1,0,0:0:0:0:
296,44,80775,1,0,0:0:0:0:
333,309,80933,1,0,0:0:0:0:
176,128,81091,2,0,P|144:196|156:232,1,100
432,136,81407,5,0,0:0:0:0:
180,236,81564,2,0,P|200:292|244:324,1,100
408,196,81880,2,0,P|396:112|344:88,1,100
117,180,82196,2,0,P|104:236|139:292,2,100
380,83,82670,5,0,0:0:0:0:
380,83,82828,2,0,P|426:151|415:197,1,100
175,302,83143,2,0,P|144:241|154:195,1,100
442,187,83459,2,0,P|387:232|330:235,1,100
98,250,83775,5,0,0:0:0:0:
283,61,83933,1,0,0:0:0:0:
400,297,84091,1,0,0:0:0:0:
112,180,84249,1,0,0:0:0:0:
402,91,84407,1,0,0:0:0:0:
334,335,84564,1,0,0:0:0:0:
140,179,84722,6,0,P|181:123|227:106,1,100
448,150,85038,1,0,0:0:0:0:
181,299,85196,1,0,0:0:0:0:
189,38,85354,1,0,0:0:0:0:
446,220,85512,1,0,0:0:0:0:
155,108,85670,1,0,0:0:0:0:
407,288,85828,1,0,0:0:0:0:
122,185,85985,6,0,P|161:260|195:283,1,100
444,161,86301,1,0,0:0:0:0:
444,161,86459,2,0,P|418:97|266:53,1,200
99,128,86933,1,0,0:0:0:0:
363,176,87091,1,0,0:0:0:0:
181,325,87249,2,0,P|180:245|232:131,1,200
317,78,87722,5,0,0:0:0:0:
436,64,87880,2,0,P|450:142|435:208,1,100
236,300,88196,2,0,P|218:254|219:205,1,100
380,59,88512,1,0,0:0:0:0:
380,59,88670,2,0,P|402:141|397:181,1,100
346,263,89143,1,0,0:0:0:0:
219,300,89301,6,0,P|157:290|119:261,1,100
85,143,89775,1,0,0:0:0:0:
180,40,89933,2,0,P|252:42|285:59,1,100
395,144,90407,1,0,0:0:0:0:
299,303,90564,2,0,L|255:277,1,50
125,193,90880,5,0,0:0:0:0:
125,193,91038,2,0,P|155:134|190:113,1,100
349,91,91512,1,0,0:0:0:0:
256,192,91670,12,0,93407,0:0:0:0:
