osu file format v14

[General]
AudioFilename: audio.mp3
AudioLeadIn: 0
PreviewTime: 67758
Countdown: 0
SampleSet: Soft
StackLeniency: 0.5
Mode: 3
LetterboxInBreaks: 0
SpecialStyle: 0
WidescreenStoryboard: 1

[Editor]
Bookmarks: 35153
DistanceSpacing: 1.3
BeatDivisor: 4
GridSize: 4
TimelineZoom: 2.1

[Metadata]
Title:Zen Zen Zense (movie ver.)
TitleUnicode:前前前世 (movie ver.)
Artist:RADWIMPS
ArtistUnicode:RADWIMPS
Creator:ZZHBOY
Version:Normal
Source:君の名は。
Tags:
BeatmapID:1152031
BeatmapSetID:543532

[Difficulty]
HPDrainRate:8
CircleSize:4
OverallDifficulty:8
ApproachRate:9.4
SliderMultiplier:1.76
SliderTickRate:1

[Events]
//Background and Video events
0,0,"thumb-1920-737491.jpg",0,0
//Break Periods
//Storyboard Layer 0 (Background)
//Storyboard Layer 1 (Fail)
//Storyboard Layer 2 (Pass)
//Storyboard Layer 3 (Foreground)
//Storyboard Sound Samples

[TimingPoints]
101,315.789473684211,4,2,1,50,1,0

[Colours]
Combo1 : 172,89,255
Combo2 : 55,255,255
Combo3 : 255,128,255
Combo4 : 254,168,73

[HitObjects]
64,192,101,5,0,0:0:0:0:
448,192,101,1,0,0:0:0:0:
320,192,416,1,0,0:0:0:0:
64,192,732,1,0,0:0:0:0:
192,192,1048,1,0,0:0:0:0:
320,192,1364,1,0,0:0:0:0:
192,192,1679,1,0,0:0:0:0:
320,192,1995,1,0,0:0:0:0:
64,192,2311,1,0,0:0:0:0:
448,192,2627,1,0,0:0:0:0:
192,192,2627,1,0,0:0:0:0:
320,192,2943,1,0,0:0:0:0:
448,192,3258,1,0,0:0:0:0:
192,192,3574,1,0,0:0:0:0:
64,192,3890,1,0,0:0:0:0:
320,192,4206,1,0,0:0:0:0:
448,192,4522,1,0,0:0:0:0:
192,192,4837,1,0,0:0:0:0:
320,192,5153,1,0,0:0:0:0:
64,192,5153,1,0,0:0:0:0:
448,192,5469,1,0,0:0:0:0:
320,192,5785,1,0,0:0:0:0:
192,192,6101,1,0,0:0:0:0:
64,192,6416,1,0,0:0:0:0:
320,192,6732,1,0,0:0:0:0:
192,192,7048,1,0,0:0:0:0:
448,192,7364,1,0,0:0:0:0:
320,192,7679,1,0,0:0:0:0:
64,192,7679,1,0,0:0:0:0:
192,192,7995,1,0,0:0:0:0:
448,192,8311,1,0,0:0:0:0:
320,192,8627,1,0,0:0:0:0:
64,192,8943,1,0,0:0:0:0:
192,192,9179,1,0,0:0:0:0:
448,192,9416,1,0,0:0:0:0:
320,192,9653,1,0,0:0:0:0:
64,192,9811,1,0,0:0:0:0:
192,192,10048,1,0,0:0:0:0:
448,192,10206,1,0,0:0:0:0:
320,192,10206,1,0,0:0:0:0:
64,192,10522,1,0,0:0:0:0:
192,192,10837,1,0,0:0:0:0:
320,192,11153,1,0,0:0:0:0:
448,192,11469,1,0,0:0:0:0:
192,192,11785,1,0,0:0:0:0:
320,192,12101,1,0,0:0:0:0:
64,192,12416,1,0,0:0:0:0:
192,192,12732,1,0,0:0:0:0:
448,192,12732,1,0,0:0:0:0:
320,192,13048,1,0,0:0:0:0:
448,192,13364,1,0,0:0:0:0:
64,192,13679,1,0,0:0:0:0:
320,192,13995,1,0,0:0:0:0:
192,192,14311,1,0,0:0:0:0:
448,192,14627,1,0,0:0:0:0:
64,192,14943,1,0,0:0:0:0:
192,192,15101,1,0,0:0:0:0:
448,192,15258,1,0,0:0:0:0:
320,192,15258,1,0,0:0:0:0:
64,192,15574,1,0,0:0:0:0:
320,192,15890,1,0,0:0:0:0:
192,192,16206,1,0,0:0:0:0:
448,192,16522,1,0,0:0:0:0:
320,192,16837,1,0,0:0:0:0:
64,192,17153,1,0,0:0:0:0:
192,192,17469,1,0,0:0:0:0:
448,192,17785,1,0,0:0:0:0:
64,192,18101,1,0,0:0:0:0:
192,192,18416,1,0,0:0:0:0:
320,192,18732,1,0,0:0:0:0:
192,192,19048,1,0,0:0:0:0:
64,192,19206,1,0,0:0:0:0:
320,192,19364,1,0,0:0:0:0:
448,192,19364,1,0,0:0:0:0:
192,192,19679,1,0,0:0:0:0:
64,192,19995,1,0,0:0:0:0:
192,192,20311,1,0,0:0:0:0:
320,192,20627,1,0,0:0:0:0:
192,192,20943,1,0,0:0:0:0:
320,192,21258,1,0,0:0:0:0:
64,192,21574,1,0,0:0:0:0:
448,192,21890,1,0,0:0:0:0:
64,192,22206,1,0,0:0:0:0:
448,192,22522,1,0,0:0:0:0:
320,192,22837,1,0,0:0:0:0:
192,192,23153,1,0,0:0:0:0:
320,192,23469,1,0,0:0:0:0:
192,192,23785,1,0,0:0:0:0:
448,192,24101,1,0,0:0:0:0:
64,192,24416,1,0,0:0:0:0:
448,192,24732,1,0,0:0:0:0:
64,192,25048,1,0,0:0:0:0:
320,192,25364,1,0,0:0:0:0:
192,192,25364,1,0,0:0:0:0:
448,192,25679,1,0,0:0:0:0:
64,192,25995,1,0,0:0:0:0:
192,192,26311,1,0,0:0:0:0:
320,192,26627,1,0,0:0:0:0:
64,192,26943,1,0,0:0:0:0:
448,192,27258,1,0,0:0:0:0:
192,192,27574,1,0,0:0:0:0:
320,192,27890,1,0,0:0:0:0:
64,192,27890,1,0,0:0:0:0:
448,192,28206,1,0,0:0:0:0:
192,192,28522,1,0,0:0:0:0:
320,192,28837,1,0,0:0:0:0:
64,192,29153,1,0,0:0:0:0:
192,192,29469,1,0,0:0:0:0:
448,192,29785,1,0,0:0:0:0:
320,192,30101,1,0,0:0:0:0:
192,192,30416,1,0,0:0:0:0:
64,192,30416,1,0,0:0:0:0:
320,192,30732,1,0,0:0:0:0:
448,192,31048,1,0,0:0:0:0:
192,192,31364,1,0,0:0:0:0:
64,192,31679,1,0,0:0:0:0:
320,192,31995,1,0,0:0:0:0:
192,192,32232,1,0,0:0:0:0:
448,192,32627,1,0,0:0:0:0:
320,192,32943,1,0,0:0:0:0:
192,192,33258,1,0,0:0:0:0:
64,192,33574,1,0,0:0:0:0:
192,192,33890,1,0,0:0:0:0:
320,192,34206,1,0,0:0:0:0:
448,192,34522,1,0,0:0:0:0:
192,192,34837,1,0,0:0:0:0:
64,192,35153,1,0,0:0:0:0:
448,192,35469,1,0,0:0:0:0:
320,192,35469,1,0,0:0:0:0:
64,192,35785,1,0,0:0:0:0:
192,192,36101,1,0,0:0:0:0:
320,192,36416,1,0,0:0:0:0:
448,192,36732,1,0,0:0:0:0:
192,192,37048,1,0,0:0:0:0:
320,192,37364,1,0,0:0:0:0:
64,192,37679,1,0,0:0:0:0:
192,192,37995,1,0,0:0:0:0:
448,192,37995,1,0,0:0:0:0:
320,192,38311,1,0,0:0:0:0:
64,192,38627,1,0,0:0:0:0:
192,192,38943,1,0,0:0:0:0:
320,192,39258,1,0,0:0:0:0:
64,192,39574,1,0,0:0:0:0:
192,192,39890,1,0,0:0:0:0:
320,192,40206,1,0,0:0:0:0:
448,192,40522,1,0,0:0:0:0:
64,192,40522,1,0,0:0:0:0:
192,192,40837,1,0,0:0:0:0:
320,192,41153,1,0,0:0:0:0:
448,192,41469,1,0,0:0:0:0:
64,192,41785,1,0,0:0:0:0:
192,192,41785,1,0,0:0:0:0:
320,192,42101,1,0,0:0:0:0:
448,192,42416,1,0,0:0:0:0:
192,192,42732,1,0,0:0:0:0:
64,192,43048,1,0,0:0:0:0:
320,192,43048,1,0,0:0:0:0:
448,192,43364,1,0,0:0:0:0:
192,192,43679,1,0,0:0:0:0:
64,192,43995,1,0,0:0:0:0:
192,192,44153,1,0,0:0:0:0:
448,192,44153,1,0,0:0:0:0:
320,192,44311,1,0,0:0:0:0:
64,192,44469,1,0,0:0:0:0:
192,192,44548,1,0,0:0:0:0:
320,192,44627,1,0,0:0:0:0:
448,192,44785,1,0,0:0:0:0:
64,192,44943,1,0,0:0:0:0:
192,192,45101,1,0,0:0:0:0:
320,192,45258,1,0,0:0:0:0:
448,192,45258,1,0,0:0:0:0:
192,192,45574,1,0,0:0:0:0:
64,192,45574,1,0,0:0:0:0:
448,192,45890,1,0,0:0:0:0:
320,192,46048,1,0,0:0:0:0:
64,192,46206,1,0,0:0:0:0:
192,192,46364,1,0,0:0:0:0:
448,192,46522,1,0,0:0:0:0:
320,192,46522,1,0,0:0:0:0:
64,192,46837,1,0,0:0:0:0:
192,192,46995,1,0,0:0:0:0:
448,192,47153,1,0,0:0:0:0:
320,192,47311,1,0,0:0:0:0:
192,192,47469,1,0,0:0:0:0:
320,192,47627,1,0,0:0:0:0:
64,192,47785,1,0,0:0:0:0:
192,192,47943,1,0,0:0:0:0:
320,192,48101,1,0,0:0:0:0:
448,192,48258,1,0,0:0:0:0:
192,192,48416,1,0,0:0:0:0:
64,192,48574,1,0,0:0:0:0:
320,192,48732,1,0,0:0:0:0:
64,192,49048,1,0,0:0:0:0:
192,192,49048,1,0,0:0:0:0:
448,192,49364,1,0,0:0:0:0:
320,192,49522,1,0,0:0:0:0:
64,192,49679,1,0,0:0:0:0:
192,192,49837,1,0,0:0:0:0:
320,192,49995,1,0,0:0:0:0:
192,192,50153,1,0,0:0:0:0:
448,192,50311,1,0,0:0:0:0:
320,192,50469,1,0,0:0:0:0:
64,192,50627,1,0,0:0:0:0:
448,192,50785,1,0,0:0:0:0:
320,192,50943,1,0,0:0:0:0:
192,192,51101,1,0,0:0:0:0:
64,192,51258,1,0,0:0:0:0:
320,192,51416,1,0,0:0:0:0:
448,192,51574,1,0,0:0:0:0:
192,192,51574,1,0,0:0:0:0:
320,192,51890,1,0,0:0:0:0:
192,192,52048,1,0,0:0:0:0:
64,192,52206,1,0,0:0:0:0:
320,192,52364,1,0,0:0:0:0:
448,192,52522,1,0,0:0:0:0:
192,192,52679,1,0,0:0:0:0:
320,192,52837,1,0,0:0:0:0:
64,192,52995,1,0,0:0:0:0:
192,192,53153,1,0,0:0:0:0:
448,192,53311,1,0,0:0:0:0:
320,192,53469,1,0,0:0:0:0:
192,192,53627,1,0,0:0:0:0:
64,192,53785,1,0,0:0:0:0:
320,192,53943,1,0,0:0:0:0:
448,192,54101,1,0,0:0:0:0:
192,192,54101,1,0,0:0:0:0:
64,192,54258,1,0,0:0:0:0:
320,192,54416,1,0,0:0:0:0:
192,192,54574,1,0,0:0:0:0:
448,192,54732,1,0,0:0:0:0:
64,192,54890,1,0,0:0:0:0:
192,192,54969,1,0,0:0:0:0:
320,192,55048,1,0,0:0:0:0:
64,192,55206,1,0,0:0:0:0:
448,192,55364,1,0,0:0:0:0:
320,192,55522,1,0,0:0:0:0:
192,192,55679,1,0,0:0:0:0:
64,192,55679,1,0,0:0:0:0:
320,192,55995,1,0,0:0:0:0:
192,192,56153,1,0,0:0:0:0:
448,192,56311,1,0,0:0:0:0:
320,192,56627,1,0,0:0:0:0:
192,192,56785,1,0,0:0:0:0:
64,192,56943,1,0,0:0:0:0:
320,192,57101,1,0,0:0:0:0:
448,192,57258,1,0,0:0:0:0:
192,192,57574,1,0,0:0:0:0:
320,192,57732,1,0,0:0:0:0:
64,192,57890,1,0,0:0:0:0:
448,192,58206,1,0,0:0:0:0:
192,192,58364,1,0,0:0:0:0:
64,192,58679,1,0,0:0:0:0:
320,192,58837,1,0,0:0:0:0:
448,192,59153,1,0,0:0:0:0:
192,192,59311,1,0,0:0:0:0:
64,192,59627,1,0,0:0:0:0:
320,192,59785,1,0,0:0:0:0:
192,192,60101,1,0,0:0:0:0:
448,192,60416,1,0,0:0:0:0:
64,192,60732,1,0,0:0:0:0:
320,192,60890,1,0,0:0:0:0:
192,192,61048,1,0,0:0:0:0:
448,192,61364,1,0,0:0:0:0:
64,192,61679,1,0,0:0:0:0:
320,192,61837,1,0,0:0:0:0:
448,192,62153,1,0,0:0:0:0:
192,192,62311,1,0,0:0:0:0:
64,192,62627,1,0,0:0:0:0:
320,192,62785,1,0,0:0:0:0:
192,192,62943,1,0,0:0:0:0:
448,192,62943,1,0,0:0:0:0:
64,192,63258,1,0,0:0:0:0:
320,192,63574,1,0,0:0:0:0:
192,192,63890,1,0,0:0:0:0:
320,192,64048,1,0,0:0:0:0:
448,192,64206,1,0,0:0:0:0:
64,192,64364,1,0,0:0:0:0:
320,192,64522,1,0,0:0:0:0:
192,192,64679,1,0,0:0:0:0:
448,192,64837,1,0,0:0:0:0:
64,192,65153,1,0,0:0:0:0:
320,192,65311,1,0,0:0:0:0:
192,192,65469,1,0,0:0:0:0:
448,192,65785,1,0,0:0:0:0:
64,192,65785,1,0,0:0:0:0:
320,192,66101,1,0,0:0:0:0:
64,192,66416,1,0,0:0:0:0:
448,192,66574,1,0,0:0:0:0:
192,192,66732,1,0,0:0:0:0:
320,192,66890,1,0,0:0:0:0:
64,192,67048,1,0,0:0:0:0:
448,192,67206,128,0,67679:0:0:0:0:
64,192,67679,1,0,0:0:0:0:
64,192,68311,1,0,0:0:0:0:
448,192,68311,1,0,0:0:0:0:
192,192,68627,1,0,0:0:0:0:
320,192,68943,1,0,0:0:0:0:
64,192,69101,1,0,0:0:0:0:
448,192,69258,1,0,0:0:0:0:
192,192,69416,1,0,0:0:0:0:
320,192,69416,1,0,0:0:0:0:
64,192,69732,1,0,0:0:0:0:
448,192,69890,1,0,0:0:0:0:
320,192,70206,1,0,0:0:0:0:
64,192,70364,1,0,0:0:0:0:
192,192,70522,1,0,0:0:0:0:
448,192,70837,1,0,0:0:0:0:
320,192,71153,1,0,0:0:0:0:
64,192,71469,1,0,0:0:0:0:
320,192,71627,1,0,0:0:0:0:
192,192,71785,1,0,0:0:0:0:
448,192,71943,1,0,0:0:0:0:
64,192,72258,1,0,0:0:0:0:
320,192,72416,1,0,0:0:0:0:
448,192,72732,1,0,0:0:0:0:
64,192,72890,1,0,0:0:0:0:
320,192,73048,1,0,0:0:0:0:
192,192,73364,1,0,0:0:0:0:
448,192,73679,1,0,0:0:0:0:
64,192,73995,1,0,0:0:0:0:
192,192,74153,1,0,0:0:0:0:
448,192,74311,1,0,0:0:0:0:
320,192,74469,1,0,0:0:0:0:
64,192,74469,1,0,0:0:0:0:
192,192,74785,1,0,0:0:0:0:
448,192,74943,1,0,0:0:0:0:
64,192,75258,1,0,0:0:0:0:
320,192,75416,1,0,0:0:0:0:
192,192,75574,1,0,0:0:0:0:
64,192,75890,1,0,0:0:0:0:
448,192,76206,1,0,0:0:0:0:
64,192,76522,1,0,0:0:0:0:
320,192,76679,1,0,0:0:0:0:
192,192,76837,1,0,0:0:0:0:
448,192,76995,1,0,0:0:0:0:
64,192,76995,1,0,0:0:0:0:
192,192,77311,1,0,0:0:0:0:
320,192,77469,1,0,0:0:0:0:
448,192,77627,1,0,0:0:0:0:
64,192,77627,1,0,0:0:0:0:
192,192,77943,1,0,0:0:0:0:
448,192,78101,1,0,0:0:0:0:
320,192,78258,1,0,0:0:0:0:
192,192,78337,1,0,0:0:0:0:
64,192,78416,1,0,0:0:0:0:
448,192,78416,1,0,0:0:0:0:
320,192,78732,1,0,0:0:0:0:
192,192,79048,1,0,0:0:0:0:
320,192,79206,1,0,0:0:0:0:
64,192,79364,1,0,0:0:0:0:
192,192,79522,1,0,0:0:0:0:
448,192,79522,1,0,0:0:0:0:
320,192,79837,1,0,0:0:0:0:
64,192,79995,1,0,0:0:0:0:
192,192,80311,1,0,0:0:0:0:
448,192,80469,1,0,0:0:0:0:
64,192,80627,1,0,0:0:0:0:
192,192,80943,1,0,0:0:0:0:
448,192,81258,1,0,0:0:0:0:
320,192,81574,1,0,0:0:0:0:
192,192,81732,1,0,0:0:0:0:
64,192,81890,1,0,0:0:0:0:
320,192,82048,1,0,0:0:0:0:
448,192,82048,1,0,0:0:0:0:
64,192,82364,1,0,0:0:0:0:
448,192,82522,1,0,0:0:0:0:
192,192,82837,1,0,0:0:0:0:
320,192,82995,1,0,0:0:0:0:
64,192,83153,1,0,0:0:0:0:
448,192,83469,1,0,0:0:0:0:
192,192,83785,1,0,0:0:0:0:
320,192,84101,1,0,0:0:0:0:
192,192,84258,1,0,0:0:0:0:
64,192,84416,1,0,0:0:0:0:
320,192,84574,1,0,0:0:0:0:
448,192,84574,1,0,0:0:0:0:
64,192,84890,1,0,0:0:0:0:
320,192,85048,1,0,0:0:0:0:
192,192,85364,1,0,0:0:0:0:
448,192,85522,1,0,0:0:0:0:
64,192,85679,1,0,0:0:0:0:
320,192,85995,1,0,0:0:0:0:
192,192,86153,1,0,0:0:0:0:
64,192,86469,1,0,0:0:0:0:
448,192,86627,1,0,0:0:0:0:
64,192,86943,1,0,0:0:0:0:
192,192,87101,1,0,0:0:0:0:
448,192,87258,1,0,0:0:0:0:
320,192,87337,1,0,0:0:0:0:
192,192,87416,1,0,0:0:0:0:
64,192,87574,1,0,0:0:0:0:
192,192,87732,1,0,0:0:0:0:
320,192,87811,1,0,0:0:0:0:
448,192,87890,1,0,0:0:0:0:
64,192,88048,1,0,0:0:0:0:
320,192,88206,1,0,0:0:0:0:
64,192,88522,1,0,0:0:0:0:
448,192,88522,1,0,0:0:0:0:
192,192,88837,1,0,0:0:0:0:
320,192,88995,1,0,0:0:0:0:
64,192,89153,1,0,0:0:0:0:
320,192,89469,1,0,0:0:0:0:
192,192,89627,1,0,0:0:0:0:
64,192,89785,1,0,0:0:0:0:
448,192,89785,1,0,0:0:0:0:
320,192,89943,1,0,0:0:0:0:
192,192,90101,1,0,0:0:0:0:
320,192,90258,1,0,0:0:0:0:
64,192,90574,1,0,0:0:0:0:
448,192,90732,1,0,0:0:0:0:
192,192,91048,1,0,0:0:0:0:
64,192,91048,1,0,0:0:0:0:
320,192,92943,1,0,0:0:0:0:
320,192,93101,1,0,0:0:0:0:
448,192,93574,1,0,0:0:0:0:
64,192,93574,1,0,0:0:0:0:
320,192,93890,1,0,0:0:0:0:
192,192,94206,1,0,0:0:0:0:
320,192,94522,1,0,0:0:0:0:
64,192,94522,1,0,0:0:0:0:
448,192,94837,1,0,0:0:0:0:
192,192,95153,1,0,0:0:0:0:
64,192,95469,1,0,0:0:0:0:
320,192,95785,1,0,0:0:0:0:
192,192,96101,1,0,0:0:0:0:
448,192,96416,1,0,0:0:0:0:
64,192,96732,1,0,0:0:0:0:
320,192,97048,1,0,0:0:0:0:
448,192,97364,1,0,0:0:0:0:
320,192,97679,1,0,0:0:0:0:
192,192,97995,1,0,0:0:0:0:
320,192,98311,1,0,0:0:0:0:
64,192,98627,1,0,0:0:0:0:
448,192,98627,1,0,0:0:0:0:
192,192,98943,1,0,0:0:0:0:
320,192,99258,1,0,0:0:0:0:
192,192,99574,1,0,0:0:0:0:
448,192,99890,1,0,0:0:0:0:
320,192,100206,1,0,0:0:0:0:
64,192,100522,1,0,0:0:0:0:
192,192,100837,1,0,0:0:0:0:
448,192,100837,1,0,0:0:0:0:
320,192,101153,1,0,0:0:0:0:
64,192,101469,1,0,0:0:0:0:
192,192,101627,1,0,0:0:0:0:
448,192,101627,1,0,0:0:0:0:
320,192,101785,1,0,0:0:0:0:
64,192,101943,1,0,0:0:0:0:
192,192,102101,1,0,0:0:0:0:
448,192,102101,1,0,0:0:0:0:
64,192,102416,1,0,0:0:0:0:
448,192,102416,1,0,0:0:0:0:
192,192,102522,1,0,0:0:0:0:
320,192,102627,1,0,0:0:0:0:
448,192,102732,1,0,0:0:0:0:
320,192,102837,1,0,0:0:0:0:
192,192,102943,1,0,0:0:0:0:
64,192,103048,1,0,0:0:0:0:
448,192,103258,1,0,0:0:0:0:
320,192,103364,1,0,0:0:0:0:
192,192,103469,1,0,0:0:0:0:
64,192,103574,1,0,0:0:0:0:
448,192,103679,1,0,0:0:0:0:
320,192,103679,1,0,0:0:0:0:
64,192,103995,1,0,0:0:0:0:
192,192,104153,1,0,0:0:0:0:
320,192,104232,1,0,0:0:0:0:
448,192,104311,1,0,0:0:0:0:
64,192,104311,1,0,0:0:0:0:
192,192,104469,1,0,0:0:0:0:
320,192,104627,1,0,0:0:0:0:
448,192,104785,1,0,0:0:0:0:
64,192,104943,1,0,0:0:0:0:
192,192,105101,1,0,0:0:0:0:
448,192,105258,1,0,0:0:0:0:
320,192,105416,1,0,0:0:0:0:
64,192,105574,1,0,0:0:0:0:
192,192,105732,1,0,0:0:0:0:
320,192,105890,1,0,0:0:0:0:
448,192,105890,1,0,0:0:0:0:
192,192,106048,1,0,0:0:0:0:
64,192,106048,128,0,111258:0:0:0:0:
