osu file format v14

[General]
AudioFilename: audio.mp3
AudioLeadIn: 0
PreviewTime: 67758
Countdown: 0
SampleSet: Soft
StackLeniency: 0.5
Mode: 3
LetterboxInBreaks: 0
SpecialStyle: 0
WidescreenStoryboard: 1

[Editor]
Bookmarks: 35153
DistanceSpacing: 1.3
BeatDivisor: 4
GridSize: 4
TimelineZoom: 2.1

[Metadata]
Title:Zen Zen Zense (movie ver.)
TitleUnicode:前前前世 (movie ver.)
Artist:RADWIMPS
ArtistUnicode:RADWIMPS
Creator:ZZHBOY
Version:Insane
Source:君の名は。
Tags:
BeatmapID:1152030
BeatmapSetID:543532

[Difficulty]
HPDrainRate:8
CircleSize:4
OverallDifficulty:8
ApproachRate:9.4
SliderMultiplier:1.76
SliderTickRate:1

[Events]
//Background and Video events
0,0,"thumb-1920-737491.jpg",0,0
//Break Periods
//Storyboard Layer 0 (Background)
//Storyboard Layer 1 (Fail)
//Storyboard Layer 2 (Pass)
//Storyboard Layer 3 (Foreground)
//Storyboard Sound Samples

[TimingPoints]
101,315.789473684211,4,2,1,50,1,0
8943,-66.6666666666667,4,2,1,50,0,0
9048,-200,4,2,1,50,0,0
9153,-66.6666666666667,4,2,1,50,0,0
9258,-200,4,2,1,50,0,0
9364,-66.6666666666667,4,2,1,50,0,0
9469,-200,4,2,1,50,0,0
9574,-66.6666666666667,4,2,1,50,0,0
9679,-200,4,2,1,50,0,0
9785,-66.6666666666667,4,2,1,50,0,0
9890,-200,4,2,1,50,0,0
9995,-66.6666666666667,4,2,1,50,0,0
10101,-200,4,2,1,50,0,0
10206,-100,4,2,1,50,0,0

[Colours]
Combo1 : 172,89,255
Combo2 : 55,255,255
Combo3 : 255,128,255
Combo4 : 254,168,73

[HitObjects]
64,192,101,5,0,0:0:0:0:
192,192,101,1,0,0:0:0:0:
448,192,101,1,0,0:0:0:0:
320,192,179,1,0,0:0:0:0:
192,192,258,128,0,416:0:0:0:0:
64,192,416,1,0,0:0:0:0:
448,192,416,128,0,574:0:0:0:0:
320,192,574,1,0,0:0:0:0:
64,192,653,1,0,0:0:0:0:
192,192,732,128,0,1048:0:0:0:0:
448,192,732,1,0,0:0:0:0:
64,192,1048,1,0,0:0:0:0:
448,192,1048,1,0,0:0:0:0:
320,192,1127,1,0,0:0:0:0:
448,192,1206,128,0,1522:0:0:0:0:
192,192,1364,1,0,0:0:0:0:
64,192,1522,128,0,1679:0:0:0:0:
448,192,1679,128,0,1837:0:0:0:0:
320,192,1679,1,0,0:0:0:0:
192,192,1837,128,0,1995:0:0:0:0:
320,192,1995,128,0,2153:0:0:0:0:
64,192,1995,1,0,0:0:0:0:
192,192,2153,128,0,2311:0:0:0:0:
64,192,2311,128,0,2627:0:0:0:0:
448,192,2311,1,0,0:0:0:0:
448,192,2627,1,0,0:0:0:0:
192,192,2627,1,0,0:0:0:0:
320,192,2627,1,0,0:0:0:0:
64,192,2706,1,0,0:0:0:0:
320,192,2785,128,0,2943:0:0:0:0:
448,192,2943,1,0,0:0:0:0:
64,192,2943,128,0,3101:0:0:0:0:
192,192,3101,1,0,0:0:0:0:
448,192,3179,1,0,0:0:0:0:
320,192,3258,128,0,3574:0:0:0:0:
64,192,3258,1,0,0:0:0:0:
448,192,3574,1,0,0:0:0:0:
64,192,3574,1,0,0:0:0:0:
192,192,3653,1,0,0:0:0:0:
64,192,3732,128,0,4048:0:0:0:0:
320,192,3890,1,0,0:0:0:0:
448,192,4048,128,0,4206:0:0:0:0:
64,192,4206,128,0,4364:0:0:0:0:
192,192,4206,1,0,0:0:0:0:
320,192,4364,128,0,4522:0:0:0:0:
192,192,4522,128,0,4679:0:0:0:0:
448,192,4522,1,0,0:0:0:0:
320,192,4679,128,0,4837:0:0:0:0:
448,192,4837,128,0,5153:0:0:0:0:
64,192,4837,1,0,0:0:0:0:
64,192,5153,1,0,0:0:0:0:
320,192,5153,1,0,0:0:0:0:
192,192,5153,1,0,0:0:0:0:
448,192,5232,1,0,0:0:0:0:
192,192,5311,128,0,5469:0:0:0:0:
448,192,5469,128,0,5627:0:0:0:0:
64,192,5469,1,0,0:0:0:0:
320,192,5627,1,0,0:0:0:0:
64,192,5706,1,0,0:0:0:0:
192,192,5785,128,0,6101:0:0:0:0:
448,192,6101,1,0,0:0:0:0:
64,192,6101,1,0,0:0:0:0:
320,192,6179,1,0,0:0:0:0:
448,192,6258,128,0,6574:0:0:0:0:
192,192,6416,1,0,0:0:0:0:
64,192,6574,128,0,6732:0:0:0:0:
320,192,6732,1,0,0:0:0:0:
448,192,6732,128,0,6890:0:0:0:0:
192,192,6890,128,0,7048:0:0:0:0:
64,192,7048,1,0,0:0:0:0:
320,192,7048,128,0,7206:0:0:0:0:
192,192,7206,128,0,7364:0:0:0:0:
448,192,7364,1,0,0:0:0:0:
64,192,7364,128,0,7679:0:0:0:0:
320,192,7679,1,0,0:0:0:0:
192,192,7679,1,0,0:0:0:0:
448,192,7679,1,0,0:0:0:0:
64,192,7758,1,0,0:0:0:0:
320,192,7837,1,0,0:0:0:0:
192,192,7916,1,0,0:0:0:0:
448,192,7995,128,0,8153:0:0:0:0:
64,192,7995,1,0,0:0:0:0:
64,192,8153,128,0,8311:0:0:0:0:
192,192,8153,1,0,0:0:0:0:
320,192,8311,1,0,0:0:0:0:
448,192,8311,128,0,8469:0:0:0:0:
64,192,8469,1,0,0:0:0:0:
192,192,8548,1,0,0:0:0:0:
448,192,8627,1,0,0:0:0:0:
320,192,8627,128,0,8785:0:0:0:0:
64,192,8785,128,0,8943:0:0:0:0:
448,192,8943,1,0,0:0:0:0:
192,192,8943,1,0,0:0:0:0:
192,192,9153,1,0,0:0:0:0:
448,192,9153,1,0,0:0:0:0:
192,192,9364,1,0,0:0:0:0:
448,192,9364,1,0,0:0:0:0:
192,192,9574,1,0,0:0:0:0:
448,192,9574,1,0,0:0:0:0:
192,192,9785,1,0,0:0:0:0:
448,192,9785,1,0,0:0:0:0:
448,192,9995,1,0,0:0:0:0:
192,192,9995,1,0,0:0:0:0:
64,192,10206,1,0,0:0:0:0:
320,192,10206,1,0,0:0:0:0:
448,192,10206,1,0,0:0:0:0:
192,192,10285,1,0,0:0:0:0:
448,192,10364,128,0,10522:0:0:0:0:
320,192,10364,1,0,0:0:0:0:
192,192,10522,1,0,0:0:0:0:
64,192,10522,128,0,10679:0:0:0:0:
320,192,10522,1,0,0:0:0:0:
192,192,10679,128,0,10837:0:0:0:0:
448,192,10679,1,0,0:0:0:0:
448,192,10837,128,0,11153:0:0:0:0:
320,192,10837,1,0,0:0:0:0:
64,192,10837,1,0,0:0:0:0:
192,192,10995,1,0,0:0:0:0:
320,192,11153,128,0,11311:0:0:0:0:
64,192,11153,1,0,0:0:0:0:
192,192,11153,1,0,0:0:0:0:
192,192,11311,128,0,11469:0:0:0:0:
448,192,11469,128,0,11627:0:0:0:0:
64,192,11469,1,0,0:0:0:0:
320,192,11469,1,0,0:0:0:0:
192,192,11627,1,0,0:0:0:0:
64,192,11785,128,0,11943:0:0:0:0:
448,192,11785,1,0,0:0:0:0:
320,192,11785,1,0,0:0:0:0:
320,192,11943,128,0,12101:0:0:0:0:
192,192,11943,1,0,0:0:0:0:
448,192,12101,128,0,12416:0:0:0:0:
64,192,12101,1,0,0:0:0:0:
192,192,12101,1,0,0:0:0:0:
320,192,12258,1,0,0:0:0:0:
192,192,12416,128,0,12732:0:0:0:0:
64,192,12416,1,0,0:0:0:0:
320,192,12416,1,0,0:0:0:0:
448,192,12574,1,0,0:0:0:0:
64,192,12732,1,0,0:0:0:0:
320,192,12732,1,0,0:0:0:0:
448,192,12732,1,0,0:0:0:0:
192,192,12811,1,0,0:0:0:0:
448,192,12890,128,0,13048:0:0:0:0:
320,192,12890,1,0,0:0:0:0:
192,192,13048,1,0,0:0:0:0:
64,192,13048,128,0,13206:0:0:0:0:
320,192,13048,1,0,0:0:0:0:
192,192,13206,128,0,13364:0:0:0:0:
448,192,13206,1,0,0:0:0:0:
448,192,13364,128,0,13679:0:0:0:0:
320,192,13364,1,0,0:0:0:0:
64,192,13364,1,0,0:0:0:0:
192,192,13522,1,0,0:0:0:0:
320,192,13679,128,0,13837:0:0:0:0:
64,192,13679,1,0,0:0:0:0:
192,192,13679,1,0,0:0:0:0:
192,192,13837,128,0,13995:0:0:0:0:
448,192,13995,128,0,14153:0:0:0:0:
64,192,13995,1,0,0:0:0:0:
320,192,13995,1,0,0:0:0:0:
192,192,14153,1,0,0:0:0:0:
64,192,14311,128,0,14469:0:0:0:0:
448,192,14311,1,0,0:0:0:0:
320,192,14311,1,0,0:0:0:0:
320,192,14469,128,0,14627:0:0:0:0:
192,192,14469,1,0,0:0:0:0:
448,192,14627,128,0,14943:0:0:0:0:
64,192,14627,1,0,0:0:0:0:
192,192,14627,1,0,0:0:0:0:
320,192,14785,1,0,0:0:0:0:
320,192,14943,128,0,15101:0:0:0:0:
64,192,14943,1,0,0:0:0:0:
192,192,14943,1,0,0:0:0:0:
448,192,15101,1,0,0:0:0:0:
192,192,15101,128,0,15258:0:0:0:0:
448,192,15258,1,0,0:0:0:0:
320,192,15258,1,0,0:0:0:0:
64,192,15258,1,0,0:0:0:0:
192,192,15337,1,0,0:0:0:0:
320,192,15416,1,0,0:0:0:0:
448,192,15416,128,0,15574:0:0:0:0:
320,192,15574,1,0,0:0:0:0:
64,192,15574,128,0,15732:0:0:0:0:
192,192,15574,1,0,0:0:0:0:
448,192,15732,1,0,0:0:0:0:
192,192,15732,128,0,15890:0:0:0:0:
64,192,15890,1,0,0:0:0:0:
320,192,15890,1,0,0:0:0:0:
448,192,15890,128,0,16206:0:0:0:0:
192,192,16048,1,0,0:0:0:0:
192,192,16206,1,0,0:0:0:0:
64,192,16206,1,0,0:0:0:0:
320,192,16206,128,0,16364:0:0:0:0:
192,192,16364,128,0,16522:0:0:0:0:
320,192,16522,1,0,0:0:0:0:
64,192,16522,1,0,0:0:0:0:
448,192,16522,128,0,16679:0:0:0:0:
192,192,16679,1,0,0:0:0:0:
448,192,16837,1,0,0:0:0:0:
192,192,16837,1,0,0:0:0:0:
64,192,16837,128,0,16995:0:0:0:0:
320,192,16995,1,0,0:0:0:0:
192,192,16995,128,0,17153:0:0:0:0:
320,192,17153,1,0,0:0:0:0:
64,192,17153,1,0,0:0:0:0:
448,192,17153,128,0,17469:0:0:0:0:
192,192,17311,1,0,0:0:0:0:
192,192,17469,1,0,0:0:0:0:
320,192,17469,1,0,0:0:0:0:
64,192,17469,128,0,17785:0:0:0:0:
448,192,17627,1,0,0:0:0:0:
192,192,17785,1,0,0:0:0:0:
448,192,17785,1,0,0:0:0:0:
320,192,17837,1,0,0:0:0:0:
192,192,17890,1,0,0:0:0:0:
64,192,17943,1,0,0:0:0:0:
192,192,18101,1,0,0:0:0:0:
64,192,18101,128,0,18258:0:0:0:0:
448,192,18101,1,0,0:0:0:0:
192,192,18258,128,0,18416:0:0:0:0:
320,192,18258,1,0,0:0:0:0:
320,192,18416,128,0,18574:0:0:0:0:
448,192,18416,1,0,0:0:0:0:
64,192,18416,1,0,0:0:0:0:
192,192,18574,1,0,0:0:0:0:
448,192,18574,128,0,18732:0:0:0:0:
320,192,18732,128,0,18890:0:0:0:0:
64,192,18732,1,0,0:0:0:0:
192,192,18732,1,0,0:0:0:0:
192,192,18890,128,0,19048:0:0:0:0:
448,192,18890,1,0,0:0:0:0:
448,192,19048,128,0,20311:0:0:0:0:
64,192,19048,1,0,0:0:0:0:
320,192,19048,1,0,0:0:0:0:
192,192,19206,1,0,0:0:0:0:
320,192,19364,1,0,0:0:0:0:
64,192,19364,1,0,0:0:0:0:
192,192,19364,1,0,0:0:0:0:
64,192,19679,1,0,0:0:0:0:
192,192,19679,1,0,0:0:0:0:
320,192,19837,1,0,0:0:0:0:
192,192,19916,1,0,0:0:0:0:
64,192,19995,1,0,0:0:0:0:
320,192,20074,1,0,0:0:0:0:
192,192,20153,1,0,0:0:0:0:
64,192,20232,1,0,0:0:0:0:
320,192,20311,1,0,0:0:0:0:
192,192,20311,1,0,0:0:0:0:
64,192,20469,1,0,0:0:0:0:
192,192,20627,1,0,0:0:0:0:
448,192,20627,1,0,0:0:0:0:
320,192,20785,1,0,0:0:0:0:
64,192,20943,1,0,0:0:0:0:
192,192,20943,1,0,0:0:0:0:
320,192,21101,1,0,0:0:0:0:
448,192,21258,1,0,0:0:0:0:
192,192,21258,1,0,0:0:0:0:
320,192,21416,1,0,0:0:0:0:
192,192,21574,1,0,0:0:0:0:
64,192,21574,1,0,0:0:0:0:
320,192,21732,1,0,0:0:0:0:
448,192,21890,1,0,0:0:0:0:
192,192,21890,1,0,0:0:0:0:
64,192,22048,1,0,0:0:0:0:
320,192,22206,1,0,0:0:0:0:
448,192,22206,1,0,0:0:0:0:
64,192,22364,1,0,0:0:0:0:
192,192,22522,1,0,0:0:0:0:
448,192,22522,1,0,0:0:0:0:
320,192,22679,1,0,0:0:0:0:
192,192,22758,1,0,0:0:0:0:
64,192,22837,1,0,0:0:0:0:
448,192,22837,1,0,0:0:0:0:
192,192,22995,1,0,0:0:0:0:
320,192,23153,1,0,0:0:0:0:
448,192,23153,1,0,0:0:0:0:
192,192,23311,1,0,0:0:0:0:
64,192,23469,1,0,0:0:0:0:
320,192,23469,1,0,0:0:0:0:
448,192,23627,1,0,0:0:0:0:
192,192,23785,1,0,0:0:0:0:
64,192,23785,1,0,0:0:0:0:
320,192,23943,1,0,0:0:0:0:
64,192,24101,1,0,0:0:0:0:
448,192,24101,1,0,0:0:0:0:
192,192,24258,1,0,0:0:0:0:
448,192,24416,1,0,0:0:0:0:
320,192,24416,1,0,0:0:0:0:
192,192,24574,1,0,0:0:0:0:
448,192,24732,1,0,0:0:0:0:
64,192,24732,1,0,0:0:0:0:
192,192,24890,1,0,0:0:0:0:
320,192,24969,1,0,0:0:0:0:
192,192,25048,1,0,0:0:0:0:
448,192,25048,1,0,0:0:0:0:
320,192,25206,1,0,0:0:0:0:
448,192,25364,1,0,0:0:0:0:
64,192,25364,1,0,0:0:0:0:
192,192,25364,1,0,0:0:0:0:
192,192,25522,1,0,0:0:0:0:
448,192,25679,1,0,0:0:0:0:
320,192,25679,1,0,0:0:0:0:
320,192,25837,1,0,0:0:0:0:
448,192,25995,1,0,0:0:0:0:
64,192,25995,1,0,0:0:0:0:
64,192,26153,1,0,0:0:0:0:
448,192,26311,1,0,0:0:0:0:
192,192,26311,1,0,0:0:0:0:
448,192,26469,1,0,0:0:0:0:
320,192,26627,1,0,0:0:0:0:
64,192,26627,1,0,0:0:0:0:
64,192,26785,1,0,0:0:0:0:
448,192,26943,1,0,0:0:0:0:
192,192,26943,1,0,0:0:0:0:
448,192,27101,1,0,0:0:0:0:
320,192,27258,1,0,0:0:0:0:
64,192,27258,1,0,0:0:0:0:
64,192,27416,1,0,0:0:0:0:
448,192,27574,1,0,0:0:0:0:
192,192,27574,1,0,0:0:0:0:
448,192,27732,1,0,0:0:0:0:
320,192,27890,1,0,0:0:0:0:
192,192,27890,1,0,0:0:0:0:
64,192,27890,1,0,0:0:0:0:
64,192,28048,1,0,0:0:0:0:
320,192,28206,1,0,0:0:0:0:
448,192,28206,1,0,0:0:0:0:
320,192,28364,1,0,0:0:0:0:
448,192,28522,1,0,0:0:0:0:
64,192,28522,1,0,0:0:0:0:
64,192,28679,1,0,0:0:0:0:
320,192,28837,1,0,0:0:0:0:
192,192,28837,1,0,0:0:0:0:
320,192,28995,1,0,0:0:0:0:
448,192,29153,1,0,0:0:0:0:
64,192,29153,1,0,0:0:0:0:
64,192,29311,1,0,0:0:0:0:
192,192,29469,1,0,0:0:0:0:
448,192,29469,1,0,0:0:0:0:
448,192,29627,1,0,0:0:0:0:
64,192,29785,128,0,30416:0:0:0:0:
192,192,29785,1,0,0:0:0:0:
320,192,29943,1,0,0:0:0:0:
448,192,30101,1,0,0:0:0:0:
192,192,30101,1,0,0:0:0:0:
320,192,30258,1,0,0:0:0:0:
448,192,30416,1,0,0:0:0:0:
192,192,30416,1,0,0:0:0:0:
320,192,30416,1,0,0:0:0:0:
64,192,30574,1,0,0:0:0:0:
192,192,30732,1,0,0:0:0:0:
448,192,30732,1,0,0:0:0:0:
320,192,30890,1,0,0:0:0:0:
192,192,31048,1,0,0:0:0:0:
64,192,31048,1,0,0:0:0:0:
320,192,31206,1,0,0:0:0:0:
448,192,31364,1,0,0:0:0:0:
192,192,31364,1,0,0:0:0:0:
320,192,31522,1,0,0:0:0:0:
448,192,31679,1,0,0:0:0:0:
64,192,31679,1,0,0:0:0:0:
192,192,31837,1,0,0:0:0:0:
320,192,31995,1,0,0:0:0:0:
64,192,31995,1,0,0:0:0:0:
448,192,32153,1,0,0:0:0:0:
320,192,32311,1,0,0:0:0:0:
64,192,32311,1,0,0:0:0:0:
192,192,32469,1,0,0:0:0:0:
448,192,32627,1,0,0:0:0:0:
320,192,32627,1,0,0:0:0:0:
64,192,32785,1,0,0:0:0:0:
192,192,32864,1,0,0:0:0:0:
320,192,32943,1,0,0:0:0:0:
64,192,32943,1,0,0:0:0:0:
448,192,33101,1,0,0:0:0:0:
320,192,33258,1,0,0:0:0:0:
192,192,33258,1,0,0:0:0:0:
64,192,33416,1,0,0:0:0:0:
448,192,33574,1,0,0:0:0:0:
320,192,33574,1,0,0:0:0:0:
192,192,33732,1,0,0:0:0:0:
64,192,33890,1,0,0:0:0:0:
320,192,33890,1,0,0:0:0:0:
448,192,34048,1,0,0:0:0:0:
64,192,34206,1,0,0:0:0:0:
448,192,34206,1,0,0:0:0:0:
192,192,34364,1,0,0:0:0:0:
320,192,34443,1,0,0:0:0:0:
448,192,34522,1,0,0:0:0:0:
192,192,34522,1,0,0:0:0:0:
64,192,34679,1,0,0:0:0:0:
448,192,34837,1,0,0:0:0:0:
192,192,34837,1,0,0:0:0:0:
320,192,34995,1,0,0:0:0:0:
192,192,35074,1,0,0:0:0:0:
320,192,35153,1,0,0:0:0:0:
64,192,35153,1,0,0:0:0:0:
448,192,35311,1,0,0:0:0:0:
64,192,35469,1,0,0:0:0:0:
192,192,35469,1,0,0:0:0:0:
448,192,35469,1,0,0:0:0:0:
320,192,35627,1,0,0:0:0:0:
64,192,35785,1,0,0:0:0:0:
192,192,35785,1,0,0:0:0:0:
320,192,35943,1,0,0:0:0:0:
192,192,36101,1,0,0:0:0:0:
64,192,36101,1,0,0:0:0:0:
320,192,36258,1,0,0:0:0:0:
192,192,36416,1,0,0:0:0:0:
64,192,36416,1,0,0:0:0:0:
320,192,36574,1,0,0:0:0:0:
448,192,36732,1,0,0:0:0:0:
192,192,36732,1,0,0:0:0:0:
64,192,36890,1,0,0:0:0:0:
448,192,37048,1,0,0:0:0:0:
192,192,37048,1,0,0:0:0:0:
64,192,37206,1,0,0:0:0:0:
448,192,37364,1,0,0:0:0:0:
192,192,37364,1,0,0:0:0:0:
64,192,37522,1,0,0:0:0:0:
448,192,37679,1,0,0:0:0:0:
192,192,37679,1,0,0:0:0:0:
64,192,37837,1,0,0:0:0:0:
320,192,37995,1,0,0:0:0:0:
192,192,37995,1,0,0:0:0:0:
448,192,37995,1,0,0:0:0:0:
64,192,38153,1,0,0:0:0:0:
192,192,38311,1,0,0:0:0:0:
448,192,38311,1,0,0:0:0:0:
64,192,38469,1,0,0:0:0:0:
448,192,38627,1,0,0:0:0:0:
192,192,38627,1,0,0:0:0:0:
64,192,38785,1,0,0:0:0:0:
448,192,38943,1,0,0:0:0:0:
192,192,38943,1,0,0:0:0:0:
64,192,39101,1,0,0:0:0:0:
320,192,39258,1,0,0:0:0:0:
192,192,39258,1,0,0:0:0:0:
448,192,39416,1,0,0:0:0:0:
192,192,39574,1,0,0:0:0:0:
320,192,39574,1,0,0:0:0:0:
448,192,39732,1,0,0:0:0:0:
192,192,39890,1,0,0:0:0:0:
320,192,39890,1,0,0:0:0:0:
448,192,40048,1,0,0:0:0:0:
192,192,40206,1,0,0:0:0:0:
320,192,40206,1,0,0:0:0:0:
448,192,40364,1,0,0:0:0:0:
320,192,40443,1,0,0:0:0:0:
192,192,40522,1,0,0:0:0:0:
448,192,40522,1,0,0:0:0:0:
64,192,40522,128,0,41785:0:0:0:0:
448,192,40837,1,0,0:0:0:0:
448,192,41153,1,0,0:0:0:0:
320,192,41469,1,0,0:0:0:0:
192,192,41469,1,0,0:0:0:0:
448,192,41785,128,0,43048:0:0:0:0:
320,192,41785,1,0,0:0:0:0:
192,192,41785,1,0,0:0:0:0:
192,192,42101,1,0,0:0:0:0:
192,192,42416,1,0,0:0:0:0:
320,192,42732,1,0,0:0:0:0:
64,192,42732,1,0,0:0:0:0:
64,192,43048,128,0,44153:0:0:0:0:
320,192,43048,1,0,0:0:0:0:
192,192,43048,1,0,0:0:0:0:
192,192,43364,1,0,0:0:0:0:
448,192,43364,1,0,0:0:0:0:
192,192,43679,1,0,0:0:0:0:
448,192,43679,1,0,0:0:0:0:
320,192,43995,1,0,0:0:0:0:
192,192,44153,1,0,0:0:0:0:
448,192,44153,1,0,0:0:0:0:
320,192,44153,1,0,0:0:0:0:
64,192,44311,1,0,0:0:0:0:
320,192,44311,1,0,0:0:0:0:
448,192,44469,1,0,0:0:0:0:
192,192,44469,1,0,0:0:0:0:
64,192,44548,1,0,0:0:0:0:
320,192,44548,1,0,0:0:0:0:
448,192,44627,1,0,0:0:0:0:
192,192,44627,1,0,0:0:0:0:
64,192,44785,1,0,0:0:0:0:
320,192,44785,1,0,0:0:0:0:
448,192,44943,1,0,0:0:0:0:
320,192,44943,1,0,0:0:0:0:
192,192,45101,1,0,0:0:0:0:
64,192,45101,1,0,0:0:0:0:
448,192,45258,1,0,0:0:0:0:
320,192,45258,1,0,0:0:0:0:
64,192,45258,1,0,0:0:0:0:
448,192,45574,1,0,0:0:0:0:
320,192,45574,1,0,0:0:0:0:
64,192,45574,128,0,45890:0:0:0:0:
448,192,45890,128,0,46048:0:0:0:0:
192,192,45890,1,0,0:0:0:0:
320,192,45890,1,0,0:0:0:0:
320,192,46048,128,0,46206:0:0:0:0:
64,192,46048,1,0,0:0:0:0:
64,192,46206,128,0,46364:0:0:0:0:
192,192,46206,1,0,0:0:0:0:
448,192,46206,1,0,0:0:0:0:
448,192,46364,128,0,46522:0:0:0:0:
320,192,46364,1,0,0:0:0:0:
64,192,46522,128,0,46995:0:0:0:0:
320,192,46522,1,0,0:0:0:0:
192,192,46522,1,0,0:0:0:0:
448,192,46837,1,0,0:0:0:0:
320,192,46837,1,0,0:0:0:0:
192,192,46837,1,0,0:0:0:0:
448,192,46995,128,0,47153:0:0:0:0:
192,192,46995,1,0,0:0:0:0:
64,192,47153,128,0,47311:0:0:0:0:
320,192,47153,1,0,0:0:0:0:
192,192,47153,1,0,0:0:0:0:
448,192,47311,128,0,47469:0:0:0:0:
192,192,47311,1,0,0:0:0:0:
64,192,47469,128,0,47785:0:0:0:0:
192,192,47469,1,0,0:0:0:0:
320,192,47469,1,0,0:0:0:0:
448,192,47627,1,0,0:0:0:0:
448,192,47785,128,0,48101:0:0:0:0:
320,192,47785,1,0,0:0:0:0:
192,192,47785,1,0,0:0:0:0:
192,192,48101,128,0,48258:0:0:0:0:
64,192,48101,1,0,0:0:0:0:
320,192,48101,1,0,0:0:0:0:
64,192,48258,128,0,48890:0:0:0:0:
448,192,48258,1,0,0:0:0:0:
192,192,48416,1,0,0:0:0:0:
320,192,48416,1,0,0:0:0:0:
448,192,48416,1,0,0:0:0:0:
320,192,48574,1,0,0:0:0:0:
192,192,48732,1,0,0:0:0:0:
320,192,48732,1,0,0:0:0:0:
448,192,48732,1,0,0:0:0:0:
192,192,48890,1,0,0:0:0:0:
64,192,49048,1,0,0:0:0:0:
320,192,49048,1,0,0:0:0:0:
448,192,49048,1,0,0:0:0:0:
448,192,49206,128,0,49364:0:0:0:0:
64,192,49364,128,0,49679:0:0:0:0:
320,192,49364,1,0,0:0:0:0:
192,192,49364,1,0,0:0:0:0:
448,192,49522,1,0,0:0:0:0:
192,192,49679,128,0,49837:0:0:0:0:
320,192,49679,1,0,0:0:0:0:
448,192,49679,1,0,0:0:0:0:
448,192,49837,128,0,49995:0:0:0:0:
64,192,49837,1,0,0:0:0:0:
320,192,49995,128,0,50153:0:0:0:0:
64,192,49995,1,0,0:0:0:0:
192,192,49995,1,0,0:0:0:0:
64,192,50153,128,0,50311:0:0:0:0:
448,192,50153,1,0,0:0:0:0:
320,192,50311,128,0,50627:0:0:0:0:
448,192,50311,1,0,0:0:0:0:
192,192,50311,1,0,0:0:0:0:
64,192,50469,1,0,0:0:0:0:
192,192,50627,128,0,50943:0:0:0:0:
64,192,50627,1,0,0:0:0:0:
448,192,50627,1,0,0:0:0:0:
320,192,50785,1,0,0:0:0:0:
448,192,50943,128,0,51101:0:0:0:0:
320,192,50943,1,0,0:0:0:0:
64,192,50943,1,0,0:0:0:0:
320,192,51101,128,0,51258:0:0:0:0:
192,192,51101,1,0,0:0:0:0:
64,192,51258,128,0,51416:0:0:0:0:
192,192,51258,1,0,0:0:0:0:
448,192,51258,1,0,0:0:0:0:
448,192,51416,128,0,51574:0:0:0:0:
64,192,51574,128,0,51890:0:0:0:0:
192,192,51574,1,0,0:0:0:0:
320,192,51574,1,0,0:0:0:0:
448,192,51890,128,0,52048:0:0:0:0:
320,192,51890,1,0,0:0:0:0:
192,192,51890,1,0,0:0:0:0:
320,192,52048,128,0,52206:0:0:0:0:
64,192,52048,1,0,0:0:0:0:
64,192,52206,128,0,52364:0:0:0:0:
192,192,52206,1,0,0:0:0:0:
448,192,52206,1,0,0:0:0:0:
192,192,52364,128,0,52522:0:0:0:0:
320,192,52364,1,0,0:0:0:0:
320,192,52522,128,0,52679:0:0:0:0:
448,192,52522,1,0,0:0:0:0:
64,192,52522,1,0,0:0:0:0:
448,192,52679,128,0,52837:0:0:0:0:
192,192,52679,1,0,0:0:0:0:
64,192,52837,128,0,53153:0:0:0:0:
320,192,52837,1,0,0:0:0:0:
192,192,52837,1,0,0:0:0:0:
448,192,52995,1,0,0:0:0:0:
320,192,53153,128,0,53469:0:0:0:0:
448,192,53153,1,0,0:0:0:0:
192,192,53153,1,0,0:0:0:0:
64,192,53311,1,0,0:0:0:0:
64,192,53469,128,0,53627:0:0:0:0:
192,192,53469,1,0,0:0:0:0:
448,192,53469,1,0,0:0:0:0:
192,192,53627,128,0,53785:0:0:0:0:
320,192,53627,1,0,0:0:0:0:
448,192,53785,128,0,53943:0:0:0:0:
320,192,53785,1,0,0:0:0:0:
64,192,53785,1,0,0:0:0:0:
320,192,53943,128,0,54101:0:0:0:0:
192,192,53943,1,0,0:0:0:0:
448,192,54101,1,0,0:0:0:0:
192,192,54101,1,0,0:0:0:0:
64,192,54101,128,0,54258:0:0:0:0:
192,192,54258,128,0,54416:0:0:0:0:
320,192,54416,128,0,54574:0:0:0:0:
448,192,54416,1,0,0:0:0:0:
64,192,54416,1,0,0:0:0:0:
448,192,54574,128,0,54732:0:0:0:0:
192,192,54574,1,0,0:0:0:0:
64,192,54732,1,0,0:0:0:0:
320,192,54732,1,0,0:0:0:0:
64,192,54890,1,0,0:0:0:0:
448,192,54890,1,0,0:0:0:0:
192,192,54969,1,0,0:0:0:0:
320,192,54969,1,0,0:0:0:0:
64,192,55048,1,0,0:0:0:0:
448,192,55048,1,0,0:0:0:0:
192,192,55206,1,0,0:0:0:0:
320,192,55206,1,0,0:0:0:0:
448,192,55364,1,0,0:0:0:0:
64,192,55364,1,0,0:0:0:0:
320,192,55522,1,0,0:0:0:0:
64,192,55522,1,0,0:0:0:0:
192,192,55679,1,0,0:0:0:0:
448,192,55679,1,0,0:0:0:0:
320,192,55679,1,0,0:0:0:0:
64,192,55995,1,0,0:0:0:0:
320,192,56153,1,0,0:0:0:0:
448,192,56153,1,0,0:0:0:0:
64,192,56311,1,0,0:0:0:0:
192,192,56311,1,0,0:0:0:0:
448,192,56311,1,0,0:0:0:0:
320,192,56627,1,0,0:0:0:0:
192,192,56785,1,0,0:0:0:0:
448,192,56785,1,0,0:0:0:0:
64,192,56943,1,0,0:0:0:0:
320,192,57101,1,0,0:0:0:0:
192,192,57101,1,0,0:0:0:0:
448,192,57101,1,0,0:0:0:0:
64,192,57258,1,0,0:0:0:0:
192,192,57416,1,0,0:0:0:0:
320,192,57416,1,0,0:0:0:0:
448,192,57574,1,0,0:0:0:0:
64,192,57574,1,0,0:0:0:0:
192,192,57574,1,0,0:0:0:0:
320,192,57732,1,0,0:0:0:0:
192,192,57890,1,0,0:0:0:0:
64,192,58206,1,0,0:0:0:0:
448,192,58364,1,0,0:0:0:0:
192,192,58364,1,0,0:0:0:0:
320,192,58364,1,0,0:0:0:0:
64,192,58522,1,0,0:0:0:0:
192,192,58679,1,0,0:0:0:0:
320,192,58679,1,0,0:0:0:0:
448,192,58837,1,0,0:0:0:0:
192,192,58837,1,0,0:0:0:0:
64,192,58837,1,0,0:0:0:0:
64,192,59153,1,0,0:0:0:0:
320,192,59153,1,0,0:0:0:0:
448,192,59153,1,0,0:0:0:0:
320,192,59311,1,0,0:0:0:0:
192,192,59311,1,0,0:0:0:0:
448,192,59627,1,0,0:0:0:0:
192,192,59627,1,0,0:0:0:0:
64,192,59627,1,0,0:0:0:0:
320,192,59785,1,0,0:0:0:0:
192,192,59943,1,0,0:0:0:0:
64,192,59943,1,0,0:0:0:0:
320,192,60101,1,0,0:0:0:0:
448,192,60258,1,0,0:0:0:0:
192,192,60258,1,0,0:0:0:0:
64,192,60416,1,0,0:0:0:0:
192,192,60416,1,0,0:0:0:0:
448,192,60416,1,0,0:0:0:0:
320,192,60574,1,0,0:0:0:0:
192,192,60732,1,0,0:0:0:0:
64,192,60732,1,0,0:0:0:0:
448,192,60732,1,0,0:0:0:0:
320,192,60890,1,0,0:0:0:0:
192,192,61048,1,0,0:0:0:0:
64,192,61048,1,0,0:0:0:0:
64,192,61364,1,0,0:0:0:0:
320,192,61364,1,0,0:0:0:0:
448,192,61364,1,0,0:0:0:0:
320,192,61522,1,0,0:0:0:0:
192,192,61522,1,0,0:0:0:0:
448,192,61679,1,0,0:0:0:0:
192,192,61837,1,0,0:0:0:0:
64,192,61995,1,0,0:0:0:0:
320,192,61995,1,0,0:0:0:0:
448,192,62153,1,0,0:0:0:0:
192,192,62153,1,0,0:0:0:0:
320,192,62311,1,0,0:0:0:0:
192,192,62469,1,0,0:0:0:0:
64,192,62469,1,0,0:0:0:0:
448,192,62627,1,0,0:0:0:0:
192,192,62627,1,0,0:0:0:0:
320,192,62785,1,0,0:0:0:0:
64,192,62785,1,0,0:0:0:0:
64,192,62943,1,0,0:0:0:0:
320,192,62943,1,0,0:0:0:0:
448,192,62943,1,0,0:0:0:0:
64,192,63258,1,0,0:0:0:0:
192,192,63258,1,0,0:0:0:0:
448,192,63574,1,0,0:0:0:0:
320,192,63574,1,0,0:0:0:0:
64,192,63574,1,0,0:0:0:0:
192,192,63732,1,0,0:0:0:0:
64,192,63890,1,0,0:0:0:0:
448,192,63890,1,0,0:0:0:0:
320,192,64048,1,0,0:0:0:0:
192,192,64048,1,0,0:0:0:0:
64,192,64206,1,0,0:0:0:0:
192,192,64364,1,0,0:0:0:0:
448,192,64364,1,0,0:0:0:0:
320,192,64522,1,0,0:0:0:0:
192,192,64679,1,0,0:0:0:0:
64,192,64679,1,0,0:0:0:0:
64,192,64837,1,0,0:0:0:0:
320,192,64837,1,0,0:0:0:0:
448,192,64837,1,0,0:0:0:0:
192,192,64995,1,0,0:0:0:0:
320,192,65153,1,0,0:0:0:0:
64,192,65153,1,0,0:0:0:0:
448,192,65311,1,0,0:0:0:0:
448,192,65469,1,0,0:0:0:0:
192,192,65469,1,0,0:0:0:0:
64,192,65469,1,0,0:0:0:0:
320,192,65627,1,0,0:0:0:0:
192,192,65706,1,0,0:0:0:0:
64,192,65785,1,0,0:0:0:0:
320,192,65785,1,0,0:0:0:0:
448,192,66101,1,0,0:0:0:0:
192,192,66101,1,0,0:0:0:0:
64,192,66101,1,0,0:0:0:0:
320,192,66258,1,0,0:0:0:0:
320,192,66416,1,0,0:0:0:0:
192,192,66416,1,0,0:0:0:0:
64,192,66416,1,0,0:0:0:0:
192,192,66574,1,0,0:0:0:0:
64,192,66732,1,0,0:0:0:0:
448,192,66732,1,0,0:0:0:0:
192,192,67048,1,0,0:0:0:0:
320,192,67048,1,0,0:0:0:0:
448,192,67206,1,0,0:0:0:0:
320,192,67206,1,0,0:0:0:0:
64,192,67206,1,0,0:0:0:0:
192,192,67285,1,0,0:0:0:0:
320,192,67364,1,0,0:0:0:0:
64,192,67364,1,0,0:0:0:0:
192,192,67443,1,0,0:0:0:0:
448,192,67443,1,0,0:0:0:0:
320,192,67522,1,0,0:0:0:0:
64,192,67522,1,0,0:0:0:0:
192,192,67601,1,0,0:0:0:0:
448,192,67601,1,0,0:0:0:0:
320,192,67679,1,0,0:0:0:0:
64,192,67679,1,0,0:0:0:0:
64,192,68311,128,0,68548:0:0:0:0:
192,192,68311,128,0,68548:0:0:0:0:
448,192,68311,128,0,68548:0:0:0:0:
448,192,68627,128,0,68864:0:0:0:0:
192,192,68627,128,0,68864:0:0:0:0:
64,192,68627,128,0,68864:0:0:0:0:
64,192,68943,1,0,0:0:0:0:
192,192,68943,1,0,0:0:0:0:
448,192,68943,1,0,0:0:0:0:
320,192,69101,1,0,0:0:0:0:
192,192,69101,1,0,0:0:0:0:
448,192,69258,1,0,0:0:0:0:
64,192,69258,1,0,0:0:0:0:
320,192,69258,1,0,0:0:0:0:
64,192,69416,1,0,0:0:0:0:
192,192,69416,1,0,0:0:0:0:
448,192,69416,128,0,69732:0:0:0:0:
192,192,69732,1,0,0:0:0:0:
320,192,69732,1,0,0:0:0:0:
448,192,69890,1,0,0:0:0:0:
320,192,69890,1,0,0:0:0:0:
64,192,69890,1,0,0:0:0:0:
192,192,70206,1,0,0:0:0:0:
320,192,70206,1,0,0:0:0:0:
192,192,70364,1,0,0:0:0:0:
64,192,70364,1,0,0:0:0:0:
320,192,70522,1,0,0:0:0:0:
448,192,70522,1,0,0:0:0:0:
64,192,70522,1,0,0:0:0:0:
448,192,70679,1,0,0:0:0:0:
192,192,70837,1,0,0:0:0:0:
320,192,70837,128,0,71153:0:0:0:0:
64,192,71153,1,0,0:0:0:0:
192,192,71153,1,0,0:0:0:0:
448,192,71153,1,0,0:0:0:0:
320,192,71469,1,0,0:0:0:0:
64,192,71469,1,0,0:0:0:0:
192,192,71627,1,0,0:0:0:0:
448,192,71627,1,0,0:0:0:0:
64,192,71785,1,0,0:0:0:0:
448,192,71785,1,0,0:0:0:0:
320,192,71785,1,0,0:0:0:0:
64,192,71943,1,0,0:0:0:0:
192,192,71943,1,0,0:0:0:0:
448,192,71943,128,0,72258:0:0:0:0:
192,192,72258,1,0,0:0:0:0:
320,192,72258,1,0,0:0:0:0:
64,192,72416,1,0,0:0:0:0:
448,192,72416,1,0,0:0:0:0:
320,192,72416,1,0,0:0:0:0:
64,192,72732,1,0,0:0:0:0:
320,192,72732,1,0,0:0:0:0:
192,192,72890,1,0,0:0:0:0:
320,192,72890,1,0,0:0:0:0:
448,192,73048,1,0,0:0:0:0:
192,192,73048,1,0,0:0:0:0:
64,192,73048,1,0,0:0:0:0:
64,192,73364,1,0,0:0:0:0:
320,192,73364,128,0,73679:0:0:0:0:
448,192,73679,1,0,0:0:0:0:
64,192,73679,1,0,0:0:0:0:
192,192,73679,1,0,0:0:0:0:
448,192,73995,1,0,0:0:0:0:
192,192,73995,1,0,0:0:0:0:
192,192,74153,1,0,0:0:0:0:
320,192,74153,1,0,0:0:0:0:
448,192,74311,1,0,0:0:0:0:
320,192,74311,1,0,0:0:0:0:
64,192,74311,1,0,0:0:0:0:
64,192,74469,1,0,0:0:0:0:
192,192,74469,1,0,0:0:0:0:
448,192,74469,128,0,74785:0:0:0:0:
192,192,74785,1,0,0:0:0:0:
320,192,74785,1,0,0:0:0:0:
64,192,74943,1,0,0:0:0:0:
192,192,74943,1,0,0:0:0:0:
448,192,74943,1,0,0:0:0:0:
192,192,75258,1,0,0:0:0:0:
320,192,75258,1,0,0:0:0:0:
192,192,75416,1,0,0:0:0:0:
64,192,75416,1,0,0:0:0:0:
448,192,75574,1,0,0:0:0:0:
320,192,75574,1,0,0:0:0:0:
64,192,75574,1,0,0:0:0:0:
64,192,75890,1,0,0:0:0:0:
320,192,75890,1,0,0:0:0:0:
192,192,75890,128,0,76206:0:0:0:0:
448,192,76206,1,0,0:0:0:0:
320,192,76206,1,0,0:0:0:0:
64,192,76206,1,0,0:0:0:0:
64,192,76522,1,0,0:0:0:0:
192,192,76522,1,0,0:0:0:0:
192,192,76679,1,0,0:0:0:0:
320,192,76679,1,0,0:0:0:0:
448,192,76837,1,0,0:0:0:0:
320,192,76837,1,0,0:0:0:0:
64,192,76837,1,0,0:0:0:0:
64,192,76995,1,0,0:0:0:0:
192,192,76995,1,0,0:0:0:0:
448,192,76995,128,0,77311:0:0:0:0:
192,192,77311,1,0,0:0:0:0:
320,192,77311,1,0,0:0:0:0:
64,192,77469,1,0,0:0:0:0:
192,192,77469,1,0,0:0:0:0:
448,192,77469,1,0,0:0:0:0:
64,192,77627,1,0,0:0:0:0:
320,192,77627,1,0,0:0:0:0:
448,192,77627,1,0,0:0:0:0:
64,192,77943,1,0,0:0:0:0:
192,192,77943,1,0,0:0:0:0:
320,192,78101,1,0,0:0:0:0:
448,192,78101,1,0,0:0:0:0:
64,192,78101,1,0,0:0:0:0:
192,192,78258,1,0,0:0:0:0:
320,192,78337,1,0,0:0:0:0:
64,192,78416,128,0,78653:0:0:0:0:
192,192,78416,128,0,78653:0:0:0:0:
448,192,78416,128,0,78653:0:0:0:0:
64,192,78732,128,0,78969:0:0:0:0:
192,192,78732,128,0,78969:0:0:0:0:
448,192,78732,128,0,78969:0:0:0:0:
64,192,79048,1,0,0:0:0:0:
192,192,79048,1,0,0:0:0:0:
448,192,79048,1,0,0:0:0:0:
320,192,79206,1,0,0:0:0:0:
192,192,79206,1,0,0:0:0:0:
192,192,79364,1,0,0:0:0:0:
448,192,79364,1,0,0:0:0:0:
64,192,79364,1,0,0:0:0:0:
448,192,79522,1,0,0:0:0:0:
320,192,79522,1,0,0:0:0:0:
64,192,79522,128,0,79837:0:0:0:0:
192,192,79837,1,0,0:0:0:0:
320,192,79837,1,0,0:0:0:0:
448,192,79995,1,0,0:0:0:0:
192,192,79995,1,0,0:0:0:0:
64,192,79995,1,0,0:0:0:0:
192,192,80311,1,0,0:0:0:0:
320,192,80311,1,0,0:0:0:0:
448,192,80469,1,0,0:0:0:0:
320,192,80469,1,0,0:0:0:0:
448,192,80627,1,0,0:0:0:0:
64,192,80627,1,0,0:0:0:0:
192,192,80627,1,0,0:0:0:0:
320,192,80943,1,0,0:0:0:0:
192,192,80943,128,0,81258:0:0:0:0:
64,192,81258,1,0,0:0:0:0:
320,192,81258,1,0,0:0:0:0:
448,192,81258,1,0,0:0:0:0:
448,192,81574,1,0,0:0:0:0:
64,192,81574,1,0,0:0:0:0:
192,192,81732,1,0,0:0:0:0:
320,192,81732,1,0,0:0:0:0:
192,192,81890,1,0,0:0:0:0:
64,192,81890,1,0,0:0:0:0:
448,192,81890,1,0,0:0:0:0:
64,192,82048,1,0,0:0:0:0:
320,192,82048,1,0,0:0:0:0:
448,192,82048,128,0,82364:0:0:0:0:
192,192,82364,1,0,0:0:0:0:
320,192,82364,1,0,0:0:0:0:
192,192,82522,1,0,0:0:0:0:
64,192,82522,1,0,0:0:0:0:
448,192,82522,1,0,0:0:0:0:
192,192,82837,1,0,0:0:0:0:
448,192,82837,1,0,0:0:0:0:
192,192,82995,1,0,0:0:0:0:
320,192,82995,1,0,0:0:0:0:
448,192,83153,1,0,0:0:0:0:
320,192,83153,1,0,0:0:0:0:
64,192,83153,1,0,0:0:0:0:
192,192,83469,1,0,0:0:0:0:
448,192,83469,128,0,83785:0:0:0:0:
192,192,83785,1,0,0:0:0:0:
64,192,83785,1,0,0:0:0:0:
320,192,83785,1,0,0:0:0:0:
320,192,84101,1,0,0:0:0:0:
64,192,84101,1,0,0:0:0:0:
192,192,84258,1,0,0:0:0:0:
320,192,84258,1,0,0:0:0:0:
448,192,84416,1,0,0:0:0:0:
192,192,84416,1,0,0:0:0:0:
64,192,84416,1,0,0:0:0:0:
320,192,84574,1,0,0:0:0:0:
448,192,84574,1,0,0:0:0:0:
64,192,84574,128,0,84890:0:0:0:0:
192,192,84890,1,0,0:0:0:0:
320,192,84890,1,0,0:0:0:0:
64,192,85048,1,0,0:0:0:0:
320,192,85048,1,0,0:0:0:0:
448,192,85048,1,0,0:0:0:0:
192,192,85364,1,0,0:0:0:0:
320,192,85364,1,0,0:0:0:0:
448,192,85522,1,0,0:0:0:0:
320,192,85522,1,0,0:0:0:0:
448,192,85679,1,0,0:0:0:0:
192,192,85679,1,0,0:0:0:0:
64,192,85679,1,0,0:0:0:0:
320,192,85995,1,0,0:0:0:0:
448,192,85995,1,0,0:0:0:0:
64,192,85995,1,0,0:0:0:0:
320,192,86153,1,0,0:0:0:0:
192,192,86153,1,0,0:0:0:0:
64,192,86469,1,0,0:0:0:0:
192,192,86469,1,0,0:0:0:0:
320,192,86627,1,0,0:0:0:0:
448,192,86627,1,0,0:0:0:0:
64,192,86627,1,0,0:0:0:0:
448,192,86943,1,0,0:0:0:0:
192,192,86943,1,0,0:0:0:0:
64,192,86943,1,0,0:0:0:0:
64,192,87101,1,0,0:0:0:0:
320,192,87101,1,0,0:0:0:0:
448,192,87258,1,0,0:0:0:0:
192,192,87258,1,0,0:0:0:0:
320,192,87337,1,0,0:0:0:0:
64,192,87337,1,0,0:0:0:0:
192,192,87416,1,0,0:0:0:0:
448,192,87416,1,0,0:0:0:0:
64,192,87574,1,0,0:0:0:0:
320,192,87574,1,0,0:0:0:0:
64,192,87732,1,0,0:0:0:0:
448,192,87732,1,0,0:0:0:0:
192,192,87811,1,0,0:0:0:0:
320,192,87811,1,0,0:0:0:0:
448,192,87890,1,0,0:0:0:0:
64,192,87890,1,0,0:0:0:0:
320,192,88048,1,0,0:0:0:0:
192,192,88048,1,0,0:0:0:0:
64,192,88206,1,0,0:0:0:0:
192,192,88206,1,0,0:0:0:0:
448,192,88522,1,0,0:0:0:0:
320,192,88522,1,0,0:0:0:0:
64,192,88522,1,0,0:0:0:0:
192,192,88837,1,0,0:0:0:0:
448,192,88837,128,0,88995:0:0:0:0:
64,192,88995,1,0,0:0:0:0:
320,192,88995,128,0,89153:0:0:0:0:
192,192,89153,1,0,0:0:0:0:
448,192,89153,1,0,0:0:0:0:
64,192,89153,128,0,89469:0:0:0:0:
320,192,89469,128,0,89627:0:0:0:0:
192,192,89627,1,0,0:0:0:0:
448,192,89627,128,0,89943:0:0:0:0:
64,192,89785,1,0,0:0:0:0:
320,192,89785,1,0,0:0:0:0:
192,192,89785,1,0,0:0:0:0:
320,192,89943,1,0,0:0:0:0:
64,192,89943,128,0,90101:0:0:0:0:
320,192,90101,1,0,0:0:0:0:
192,192,90101,1,0,0:0:0:0:
448,192,90101,128,0,90416:0:0:0:0:
192,192,90258,1,0,0:0:0:0:
64,192,90258,1,0,0:0:0:0:
64,192,90416,128,0,90574:0:0:0:0:
448,192,90574,1,0,0:0:0:0:
192,192,90574,128,0,90732:0:0:0:0:
64,192,90732,1,0,0:0:0:0:
320,192,90732,128,0,91048:0:0:0:0:
64,192,91048,1,0,0:0:0:0:
192,192,91048,1,0,0:0:0:0:
448,192,91048,128,0,92943:0:0:0:0:
64,192,92943,1,0,0:0:0:0:
192,192,92943,1,0,0:0:0:0:
320,192,92943,1,0,0:0:0:0:
64,192,93101,5,0,0:0:0:0:
192,192,93101,1,0,0:0:0:0:
320,192,93101,1,0,0:0:0:0:
64,192,93574,5,0,0:0:0:0:
320,192,93574,1,0,0:0:0:0:
448,192,93574,1,0,0:0:0:0:
192,192,93732,1,0,0:0:0:0:
320,192,93811,1,0,0:0:0:0:
192,192,93890,1,0,0:0:0:0:
64,192,93890,128,0,94048:0:0:0:0:
448,192,93890,1,0,0:0:0:0:
192,192,94048,128,0,94206:0:0:0:0:
320,192,94048,1,0,0:0:0:0:
448,192,94206,128,0,94364:0:0:0:0:
320,192,94206,1,0,0:0:0:0:
64,192,94206,1,0,0:0:0:0:
192,192,94364,1,0,0:0:0:0:
448,192,94443,1,0,0:0:0:0:
320,192,94522,128,0,94679:0:0:0:0:
64,192,94522,1,0,0:0:0:0:
192,192,94522,1,0,0:0:0:0:
192,192,94679,128,0,94995:0:0:0:0:
448,192,94837,1,0,0:0:0:0:
64,192,94837,1,0,0:0:0:0:
320,192,94995,1,0,0:0:0:0:
64,192,95153,128,0,95311:0:0:0:0:
448,192,95153,1,0,0:0:0:0:
320,192,95153,1,0,0:0:0:0:
320,192,95311,128,0,95469:0:0:0:0:
192,192,95311,1,0,0:0:0:0:
448,192,95469,128,0,95627:0:0:0:0:
64,192,95469,1,0,0:0:0:0:
192,192,95469,1,0,0:0:0:0:
64,192,95627,1,0,0:0:0:0:
320,192,95627,128,0,95785:0:0:0:0:
192,192,95785,128,0,96101:0:0:0:0:
64,192,95785,1,0,0:0:0:0:
448,192,95785,1,0,0:0:0:0:
448,192,95943,1,0,0:0:0:0:
64,192,96101,1,0,0:0:0:0:
320,192,96101,1,0,0:0:0:0:
448,192,96101,1,0,0:0:0:0:
192,192,96179,1,0,0:0:0:0:
448,192,96258,128,0,96416:0:0:0:0:
320,192,96258,1,0,0:0:0:0:
192,192,96416,1,0,0:0:0:0:
64,192,96416,128,0,96574:0:0:0:0:
320,192,96416,1,0,0:0:0:0:
192,192,96574,128,0,96732:0:0:0:0:
448,192,96574,1,0,0:0:0:0:
448,192,96732,128,0,96890:0:0:0:0:
320,192,96732,1,0,0:0:0:0:
64,192,96732,1,0,0:0:0:0:
192,192,96890,1,0,0:0:0:0:
320,192,97048,128,0,97206:0:0:0:0:
64,192,97048,1,0,0:0:0:0:
192,192,97048,1,0,0:0:0:0:
448,192,97206,1,0,0:0:0:0:
448,192,97364,128,0,97522:0:0:0:0:
64,192,97364,1,0,0:0:0:0:
320,192,97364,1,0,0:0:0:0:
192,192,97522,1,0,0:0:0:0:
64,192,97679,128,0,97837:0:0:0:0:
448,192,97679,1,0,0:0:0:0:
320,192,97679,1,0,0:0:0:0:
192,192,97837,1,0,0:0:0:0:
320,192,97916,1,0,0:0:0:0:
448,192,97995,128,0,98153:0:0:0:0:
64,192,97995,1,0,0:0:0:0:
192,192,97995,1,0,0:0:0:0:
320,192,98153,1,0,0:0:0:0:
192,192,98311,128,0,98469:0:0:0:0:
64,192,98311,1,0,0:0:0:0:
320,192,98311,1,0,0:0:0:0:
448,192,98469,1,0,0:0:0:0:
64,192,98469,128,0,98627:0:0:0:0:
448,192,98627,1,0,0:0:0:0:
320,192,98627,1,0,0:0:0:0:
192,192,98627,1,0,0:0:0:0:
64,192,98706,1,0,0:0:0:0:
320,192,98785,1,0,0:0:0:0:
448,192,98785,128,0,98943:0:0:0:0:
320,192,98943,1,0,0:0:0:0:
64,192,98943,128,0,99101:0:0:0:0:
192,192,98943,1,0,0:0:0:0:
448,192,99101,1,0,0:0:0:0:
192,192,99101,128,0,99258:0:0:0:0:
64,192,99258,1,0,0:0:0:0:
320,192,99258,1,0,0:0:0:0:
448,192,99258,128,0,99574:0:0:0:0:
192,192,99416,1,0,0:0:0:0:
192,192,99574,1,0,0:0:0:0:
64,192,99574,1,0,0:0:0:0:
320,192,99574,128,0,99732:0:0:0:0:
192,192,99732,128,0,100048:0:0:0:0:
448,192,99890,1,0,0:0:0:0:
64,192,99890,1,0,0:0:0:0:
320,192,100048,1,0,0:0:0:0:
192,192,100127,1,0,0:0:0:0:
320,192,100206,1,0,0:0:0:0:
448,192,100206,1,0,0:0:0:0:
64,192,100206,128,0,100364:0:0:0:0:
192,192,100364,1,0,0:0:0:0:
320,192,100364,128,0,100522:0:0:0:0:
192,192,100522,1,0,0:0:0:0:
64,192,100522,1,0,0:0:0:0:
448,192,100522,128,0,100837:0:0:0:0:
320,192,100679,1,0,0:0:0:0:
320,192,100837,1,0,0:0:0:0:
64,192,100837,1,0,0:0:0:0:
192,192,100837,128,0,101153:0:0:0:0:
448,192,100995,1,0,0:0:0:0:
64,192,101153,1,0,0:0:0:0:
448,192,101153,1,0,0:0:0:0:
320,192,101206,1,0,0:0:0:0:
192,192,101258,1,0,0:0:0:0:
64,192,101311,1,0,0:0:0:0:
64,192,101469,128,0,101627:0:0:0:0:
320,192,101469,1,0,0:0:0:0:
192,192,101627,128,0,101785:0:0:0:0:
320,192,101627,1,0,0:0:0:0:
448,192,101627,1,0,0:0:0:0:
320,192,101785,128,0,101943:0:0:0:0:
64,192,101785,1,0,0:0:0:0:
192,192,101943,1,0,0:0:0:0:
448,192,101943,128,0,102101:0:0:0:0:
320,192,102101,128,0,102258:0:0:0:0:
64,192,102101,1,0,0:0:0:0:
192,192,102101,1,0,0:0:0:0:
192,192,102258,128,0,102416:0:0:0:0:
64,192,102416,1,0,0:0:0:0:
448,192,102416,1,0,0:0:0:0:
320,192,102522,1,0,0:0:0:0:
192,192,102627,1,0,0:0:0:0:
448,192,102732,1,0,0:0:0:0:
64,192,102732,1,0,0:0:0:0:
320,192,102837,1,0,0:0:0:0:
192,192,102943,1,0,0:0:0:0:
64,192,103048,1,0,0:0:0:0:
448,192,103048,1,0,0:0:0:0:
320,192,103258,1,0,0:0:0:0:
448,192,103364,1,0,0:0:0:0:
192,192,103469,1,0,0:0:0:0:
64,192,103574,1,0,0:0:0:0:
320,192,103679,1,0,0:0:0:0:
192,192,103679,1,0,0:0:0:0:
448,192,103679,1,0,0:0:0:0:
64,192,103758,1,0,0:0:0:0:
192,192,103837,128,0,103995:0:0:0:0:
64,192,103995,1,0,0:0:0:0:
320,192,103995,1,0,0:0:0:0:
448,192,103995,128,0,104153:0:0:0:0:
192,192,104153,1,0,0:0:0:0:
320,192,104232,1,0,0:0:0:0:
192,192,104311,1,0,0:0:0:0:
448,192,104311,128,0,104627:0:0:0:0:
64,192,104311,1,0,0:0:0:0:
64,192,104469,1,0,0:0:0:0:
64,192,104627,128,0,104785:0:0:0:0:
320,192,104627,1,0,0:0:0:0:
192,192,104627,1,0,0:0:0:0:
320,192,104785,128,0,105101:0:0:0:0:
192,192,104943,1,0,0:0:0:0:
192,192,105101,128,0,105258:0:0:0:0:
64,192,105101,1,0,0:0:0:0:
448,192,105101,1,0,0:0:0:0:
448,192,105258,128,0,105416:0:0:0:0:
320,192,105258,1,0,0:0:0:0:
64,192,105416,128,0,105574:0:0:0:0:
192,192,105416,1,0,0:0:0:0:
448,192,105574,128,0,105732:0:0:0:0:
192,192,105574,1,0,0:0:0:0:
320,192,105574,1,0,0:0:0:0:
192,192,105732,128,0,105890:0:0:0:0:
64,192,105890,128,0,106048:0:0:0:0:
448,192,105890,1,0,0:0:0:0:
320,192,105890,1,0,0:0:0:0:
448,192,106048,128,0,111258:0:0:0:0:
320,192,106048,1,0,0:0:0:0:
192,192,106048,1,0,0:0:0:0:
