osu file format v14

[General]
AudioFilename: audio.mp3
AudioLeadIn: 0
PreviewTime: 67758
Countdown: 0
SampleSet: Soft
StackLeniency: 0.5
Mode: 0
LetterboxInBreaks: 0
WidescreenStoryboard: 1

[Editor]
Bookmarks: 101,8943,10206,20311,45574,55679,63258,68311,78416,87337,88522,91048,93574,103679,105890,113785
DistanceSpacing: 1
BeatDivisor: 4
GridSize: 4
TimelineZoom: 2.1

[Metadata]
Title:Zen Zen Zense (movie ver.)
TitleUnicode:前前前世 (movie ver.)
Artist:RADWIMPS
ArtistUnicode:RADWIMPS
Creator:Monstrata
Version:Sotarks' Insane
Source:君の名は。
Tags:your name taki mitsuha kimi no na wa Sotarks Haruto HabiHolic Akitoshi Kalibe Kocari Battle Haruto_Aizawa Haruto-
BeatmapID:1093245
BeatmapSetID:513590

[Difficulty]
HPDrainRate:6.2
CircleSize:3.8
OverallDifficulty:8.5
ApproachRate:9.2
SliderMultiplier:1.72
SliderTickRate:1

[Events]
//Background and Video events
0,0,"BGSotarks.jpg",0,0
//Break Periods
//Storyboard Layer 0 (Background)
Sprite,Background,Centre,"BGSotarks.jpg",320,240 S,0,101,1092,0.6282739,0.6423011 F,0,101,8943,0,1 M,0,101,67679,320,240 F,0,8943,10206,1,0 F,0,10206,10285,0,1 F,0,10285,67048,1 F,0,67048,67679,1,0
Sprite,Background,Centre,"BGSotarks.jpg",320,240 F,0,68311,91048,1 S,0,68311,92943,0.6352876,0.7895891 F,0,91048,92864,1,0 F,0,92864,93101,0 M,0,92943,,320,240
Sprite,Background,Centre,"BGSotarks.jpg",320,240 S,0,93574,,0.6493152 F,0,93574,103679,1 F,0,103679,106048,1,0 M,0,106048,,320,240
//Storyboard Layer 1 (Fail)
//Storyboard Layer 2 (Pass)
//Storyboard Layer 3 (Foreground)
Sprite,Foreground,Centre,"SBSotarks\white.jpg",320,240 F,0,10206,10679,1,0
Sprite,Foreground,Centre,"SBSotarks\lightrotate.png",320,240 S,0,68311,68785,1.862685,2.129205 F,0,68311,91048,0.7159452 M,0,68311,92943,439.9343,82.89316,475.0027,40.81096 R,0,68311,92943,0,1.585096 F,0,91048,92311,0.7159452,0
Sprite,Foreground,Centre,"SBSotarks\white.jpg",320,240 M,0,68311,,308.7781,250.5205 F,0,68311,68785,1,0
Sprite,Foreground,Centre,"SBSotarks\white.jpg",320,240 F,0,93574,94048,1,0
Sprite,Foreground,Centre,"SBSotarks\ring2.png",320,240 M,0,68311,,241.4466,168.4603 F,0,68311,69258,1,0 S,0,68311,69258,0.1,1.299343
//Storyboard Sound Samples

[TimingPoints]
101,315.789473684211,4,2,22,70,1,0
101,-133.333333333333,4,2,22,70,0,0
1206,-117.647058823529,4,2,22,70,0,0
1522,-133.333333333333,4,2,22,70,0,0
2311,-153.846153846153,4,2,22,70,0,0
2548,-133.333333333333,4,2,22,70,0,0
3732,-117.647058823529,4,2,22,70,0,0
4048,-133.333333333333,4,2,22,70,0,0
4837,-153.846153846153,4,2,22,70,0,0
5153,-133.333333333333,4,2,22,70,0,0
6258,-117.647058823529,4,2,22,70,0,0
6574,-133.333333333333,4,2,22,70,0,0
7364,-153.846153846153,4,2,22,70,0,0
7679,-133.333333333333,4,2,22,70,0,0
8943,-95.2380952380951,4,2,22,70,0,0
9048,-95.2380952380951,4,2,22,5,0,0
9153,-95.2380952380951,4,2,22,70,0,0
9258,-95.2380952380951,4,2,22,5,0,0
9364,-95.2380952380951,4,2,22,70,0,0
9469,-95.2380952380951,4,2,22,5,0,0
9574,-95.2380952380951,4,2,22,70,0,0
9679,-95.2380952380951,4,2,22,5,0,0
9785,-95.2380952380951,4,2,22,70,0,0
9890,-95.2380952380951,4,2,22,5,0,0
9995,-95.2380952380951,4,2,22,70,0,0
10101,-95.2380952380951,4,2,22,5,0,0
10206,-100,4,2,22,70,0,0
20311,-142.857142857143,4,2,22,40,0,0
45495,-142.857142857143,4,2,22,5,0,0
45574,-100,4,2,22,60,0,0
55679,-133.333333333333,4,3,22,50,0,0
63258,-114.285714285714,4,2,22,60,0,0
68311,-90.9090909090909,4,2,22,70,0,1
68548,-90.9090909090909,4,2,22,5,0,1
68627,-90.9090909090909,4,2,22,70,0,1
68864,-90.9090909090909,4,2,22,5,0,1
68943,-90.9090909090909,4,2,22,70,0,1
69179,-90.9090909090909,4,2,22,5,0,1
69258,-90.9090909090909,4,2,22,70,0,1
78653,-90.9090909090909,4,2,22,5,0,1
78732,-90.9090909090909,4,2,22,70,0,1
78969,-90.9090909090909,4,2,22,5,0,1
79048,-90.9090909090909,4,2,22,70,0,1
79285,-90.9090909090909,4,2,22,5,0,1
79364,-90.9090909090909,4,2,22,70,0,1
88522,-133.333333333333,4,2,22,70,0,1
91048,-172.413793103448,4,2,22,70,0,1
92864,-172.413793103448,4,2,22,5,0,1
92943,-172.413793103448,4,2,22,70,0,1
93574,-100,4,2,22,70,0,0
103679,-117.647058823529,4,2,22,60,0,0
106048,-184.91124260355,4,2,22,70,0,0
113785,-184.91124260355,4,2,22,5,0,0

[Colours]
Combo1 : 125,213,255
Combo2 : 208,197,130
Combo3 : 168,182,215
Combo4 : 255,251,89
SliderTrackOverride : 75,70,36
SliderBorder : 193,189,162

[HitObjects]
136,128,101,6,2,L|144:184,2,32.2500012302399
200,216,416,2,0,P|152:196|56:220,2,129.00000492096,2|2|0,0:0|0:0|3:0,0:0:0:0:
284,44,1206,6,0,L|293:223,1,146.200002788544,2|0,0:0|0:0,0:0:0:0:
454,155,1679,1,2,0:0:0:0:
402,70,1837,1,0,0:0:0:0:
343,249,1995,1,2,0:0:0:0:
372,163,2153,1,0,3:0:0:0:
460,275,2311,2,0,P|407:266|353:277,1,83.8499961616518,2|0,0:0|0:0,0:0:0:0:
336,294,2627,38,2,L|328:332,2,32.2500012302399
286,221,2943,2,0,L|196:227,1,64.5000024604798,2|0,0:0|0:0,0:0:0:0:
130,299,3258,2,0,L|65:294,1,64.5000024604798,2|0,0:0|0:0,0:0:0:0:
8,184,3574,1,0,3:0:0:0:
215,84,3732,6,0,B|237:136|237:136|218:242,1,146.200002788544,2|0,0:0|0:0,0:0:0:0:
366,162,4206,1,2,0:0:0:0:
300,78,4364,1,0,0:0:0:0:
304,240,4522,1,2,0:0:0:0:
425,231,4679,1,0,3:0:0:0:
271,159,4837,2,0,B|231:160|231:160|181:177,1,83.8499961616518,2|0,0:0|0:0,0:0:0:0:
131,227,5153,38,2,L|80:243,1,32.2500012302399,2|2,0:0|2:0,0:0:0:0:
19,266,5311,1,2,0:0:0:0:
108,133,5469,1,2,0:0:0:0:
156,315,5627,1,0,3:0:0:0:
257,222,5785,2,0,B|193:208|197:256|109:218,1,129.00000492096,2|0,0:0|0:0,0:0:0:0:
300,138,6258,6,0,B|339:170|339:170|346:226|327:279,1,146.200002788544,2|0,0:0|0:0,0:0:0:0:
389,103,6732,1,2,0:0:0:0:
425,207,6890,1,0,0:0:0:0:
474,66,7048,1,2,0:0:0:0:
432,186,7206,1,0,3:0:0:0:
316,39,7364,2,0,P|309:80|321:146,1,83.8499961616518,2|0,0:0|0:0,0:0:0:0:
343,193,7679,38,2,P|338:227|333:251,1,32.2500012302399
260,289,7837,2,2,P|257:273|255:257,1,32.2500012302399
253,180,7995,1,0,0:0:0:0:
349,317,8153,1,2,0:0:0:0:
245,171,8311,1,0,3:0:0:0:
357,330,8469,1,2,0:0:0:0:
195,295,8627,2,0,L|279:287,1,64.5000024604798,2|0,0:0|0:0,0:0:0:0:
363,189,8943,6,0,L|378:290,1,60.1999981628419,0|0,3:0|3:0,3:0:0:0:
152,165,9153,2,0,L|137:266,1,60.1999981628419,0|0,3:0|3:0,3:0:0:0:
456,119,9364,38,0,L|471:220,1,60.1999981628419,0|0,3:0|3:0,3:0:0:0:
248,99,9574,2,0,L|233:200,1,60.1999981628419,0|0,3:0|3:0,3:0:0:0:
386,0,9785,6,0,L|394:59,1,60.1999981628419,0|0,3:0|3:0,3:0:0:0:
174,24,9995,2,0,L|165:83,1,60.1999981628419,0|0,3:0|3:0,3:0:0:0:
389,240,10206,6,0,P|338:225|289:224,1,86,8|0,0:0|2:0,0:0:0:0:
84,301,10522,2,0,P|135:286|184:285,1,86,8|0,0:0|2:0,0:0:0:0:
308,137,10837,2,0,L|304:243,1,86,8|0,0:0|0:0,0:0:0:0:
108,217,11153,2,0,L|104:131,1,86,8|0,0:0|0:0,0:0:0:0:
206,222,11469,5,8,0:0:0:0:
19,182,11627,1,0,1:0:0:0:
291,91,11785,37,8,0:0:0:0:
104,131,11943,1,0,1:0:0:0:
392,104,12101,5,8,0:0:0:0:
190,82,12259,1,0,1:0:0:0:
433,204,12416,38,0,P|338:208|314:206,1,86,8|0,0:0|0:0,0:0:0:0:
200,255,12732,5,8,0:0:0:0:
200,255,12811,1,0,0:0:0:0:
200,255,12890,1,0,0:0:0:0:
321,126,13048,2,0,P|345:200|356:247,1,86,8|0,0:0|0:0,0:0:0:0:
190,82,13364,2,0,P|166:156|155:203,1,86,8|0,0:0|0:0,0:0:0:0:
390,71,13679,2,0,P|414:145|425:192,1,86,8|0,0:0|0:0,0:0:0:0:
262,12,13995,37,8,0:0:0:0:
347,207,14153,1,0,1:0:0:0:
333,62,14311,5,8,0:0:0:0:
248,257,14469,1,0,1:0:0:0:
254,115,14627,37,8,0:0:0:0:
339,310,14785,1,0,1:0:0:0:
334,163,14943,5,8,0:0:0:0:
237,358,15101,1,0,1:0:0:0:
152,188,15258,37,8,0:0:0:0:
164,216,15337,1,0,0:0:0:0:
176,248,15416,1,0,0:0:0:0:
288,112,15574,2,0,P|332:107|472:148,2,172,8|8|8,0:0|0:0|0:0,0:0:0:0:
164,216,16364,1,0,0:0:0:0:
371,189,16522,5,8,0:0:0:0:
160,100,16679,1,0,1:0:0:0:
108,272,16837,37,8,0:0:0:0:
288,112,16994,1,0,1:0:0:0:
356,296,17153,5,8,0:0:0:0:
132,184,17310,1,0,1:0:0:0:
268,329,17469,38,0,P|272:283|276:223,1,86,8|0,0:0|0:0,0:0:0:0:
126,141,17785,6,0,L|132:192,1,43,8|0,0:0|0:0,0:0:0:0:
364,216,17943,2,0,L|369:173,1,43
235,98,18101,37,8,0:0:0:0:
179,259,18258,1,0,0:0:0:0:
304,174,18416,1,8,0:0:0:0:
261,19,18574,1,0,0:0:0:0:
208,181,18732,1,8,0:0:0:0:
304,174,18890,1,0,0:0:0:0:
235,98,19048,6,0,B|164:106|164:106|86:176,2,172,8|12|0,0:0|0:0|0:0,0:0:0:0:
274,272,19837,37,0,1:0:0:0:
237,293,19915,1,0,1:0:0:0:
196,284,19995,1,8,0:0:0:0:
172,250,20073,1,0,1:0:0:0:
176,209,20152,1,0,1:0:0:0:
208,181,20231,1,0,1:0:0:0:
250,182,20311,22,0,B|321:204|301:167|373:186,1,120.399996325684,2|0,1:0|1:0,0:0:0:0:
441,254,20785,1,0,0:0:0:0:
440,134,20943,2,0,P|447:201|436:271,1,120.399996325684,2|0,1:0|1:0,0:0:0:0:
370,193,21416,1,0,0:0:0:0:
310,262,21574,6,0,P|274:267|245:269,1,60.1999981628419,0|0,1:0|0:0,0:0:0:0:
177,216,21890,2,0,P|141:211|112:209,1,60.1999981628419,0|0,1:0|0:0,0:0:0:0:
40,298,22206,2,0,P|28:228|37:166,1,120.399996325684,0|0,1:0|1:0,0:0:0:0:
89,104,22679,1,0,3:0:0:0:
103,101,22758,1,0,3:0:0:0:
118,96,22837,38,0,P|194:81|251:78,2,120.399996325684,2|0|0,1:0|1:0|1:0,0:0:0:0:
189,165,23627,1,0,0:0:0:0:
189,165,23785,2,0,P|225:175|254:180,1,60.1999981628419,0|0,1:0|0:0,0:0:0:0:
312,121,24101,6,0,P|340:112|370:106,1,60.1999981628419,0|0,1:0|0:0,0:0:0:0:
458,176,24416,2,0,P|429:184|399:190,1,60.1999981628419,0|0,1:0|0:0,0:0:0:0:
339,259,24732,1,2,1:0:0:0:
260,214,24890,1,0,3:0:0:0:
260,214,24969,1,0,3:0:0:0:
260,214,25048,2,0,P|211:211|204:211,1,30.0999990814209,0|0,3:0|2:0,3:0:0:0:
164,272,25206,2,0,P|115:275|108:275,1,30.0999990814209,0|0,3:0|2:0,3:0:0:0:
71,214,25364,38,0,L|64:138,2,60.1999981628419,6|0|0,1:0|0:0|1:0,0:0:0:0:
145,151,25837,1,0,0:0:0:0:
36,79,25995,2,0,L|115:74,1,60.1999981628419,2|0,1:0|0:0,0:0:0:0:
205,154,26311,2,0,L|126:149,1,60.1999981628419,2|0,1:0|0:0,0:0:0:0:
277,101,26627,6,0,P|288:155|288:176,2,60.1999981628419,2|0|0,1:0|0:0|1:0,0:0:0:0:
208,162,27101,1,0,0:0:0:0:
260,240,27258,1,2,1:0:0:0:
120,242,27416,2,0,L|195:240,1,60.1999981628419,0|0,0:0|1:0,0:0:0:0:
271,240,27732,1,2,0:0:0:0:
113,182,27890,38,0,L|125:328,2,120.399996325684,4|0|0,1:0|1:0|1:0,0:0:0:0:
160,102,28679,1,0,0:0:0:0:
160,102,28837,2,0,L|229:97,1,60.1999981628419,0|0,1:0|0:0,0:0:0:0:
289,159,29153,6,0,L|349:163,1,60.1999981628419,0|0,1:0|0:0,0:0:0:0:
425,240,29469,2,0,L|364:244,1,60.1999981628419,0|0,1:0|0:0,0:0:0:0:
283,288,29785,1,0,1:0:0:0:
211,221,29943,1,0,3:0:0:0:
211,221,30022,1,0,3:0:0:0:
211,221,30101,2,0,L|206:176,1,30.0999990814209,0|0,3:0|2:0,3:0:0:0:
134,136,30258,2,0,L|139:91,1,30.0999990814209,0|0,3:0|2:0,3:0:0:0:
198,46,30416,38,0,B|240:41|240:41|274:54|274:54|327:49,1,120.399996325684,2|0,1:0|1:0,0:0:0:0:
405,33,30890,1,0,0:0:0:0:
441,126,31048,2,0,P|440:184|425:253,1,120.399996325684,2|0,1:0|1:0,0:0:0:0:
357,177,31522,1,0,0:0:0:0:
310,254,31679,6,0,P|275:262|238:263,1,60.1999981628419,0|0,1:0|0:0,0:0:0:0:
174,203,31995,2,0,P|144:205|114:212,1,60.1999981628419,0|0,1:0|0:0,0:0:0:0:
44,303,32311,2,0,L|30:157,1,120.399996325684,2|0,1:0|0:0,0:0:0:0:
93,101,32785,2,0,L|131:103,1,30.0999990814209,0|0,0:0|2:0,0:0:0:0:
206,130,32943,38,0,L|135:131,1,60.1999981628419,2|0,1:0|0:0,0:0:0:0:
277,52,33258,2,0,L|214:50,1,60.1999981628419,0|0,1:0|0:0,0:0:0:0:
291,132,33574,2,0,P|299:180|306:213,1,60.1999981628419,0|0,1:0|0:0,0:0:0:0:
374,283,33890,2,0,P|379:253|384:223,1,60.1999981628419,0|0,1:0|0:0,0:0:0:0:
376,131,34206,5,0,1:0:0:0:
297,195,34364,1,0,3:0:0:0:
279,202,34443,1,0,3:0:0:0:
262,210,34522,2,0,L|187:235,1,60.1999981628419,0|0,1:0|0:0,0:0:0:0:
124,182,34837,1,2,1:0:0:0:
91,269,34995,38,0,L|88:314,1,30.0999990814209,0|0,3:0|2:0,3:0:0:0:
100,180,35153,1,2,1:0:0:0:
187,303,35311,2,0,L|184:348,1,30.0999990814209,0|0,3:0|2:0,3:0:0:0:
191,215,35469,6,0,P|234:219|277:221,1,60.1999981628419,6|0,1:0|0:0,0:0:0:0:
376,146,35785,2,0,P|333:150|290:152,1,60.1999981628419,0|0,1:0|0:0,0:0:0:0:
223,124,36101,1,2,1:0:0:0:
288,54,36258,1,0,0:0:0:0:
316,151,36416,1,2,1:0:0:0:
251,221,36573,1,0,0:0:0:0:
121,44,36732,38,0,L|130:163,1,90.2999972442628,2|0,1:0|0:0,0:0:0:0:
113,174,37048,1,0,1:0:0:0:
47,250,37206,1,0,0:0:0:0:
166,255,37364,2,0,P|125:257|43:249,1,120.399996325684,2|0,1:0|1:0,0:0:0:0:
118,169,37837,1,0,0:0:0:0:
245,203,37995,6,0,B|258:239|258:239|228:344,2,120.399996325684,4|0|0,1:0|1:0|1:0,0:0:0:0:
182,131,38785,1,0,0:0:0:0:
182,131,38943,2,0,L|258:109,1,60.1999981628419,0|0,1:0|0:0,0:0:0:0:
335,207,39258,38,0,L|259:185,1,60.1999981628419,0|0,1:0|0:0,0:0:0:0:
341,125,39574,2,0,L|398:141,1,60.1999981628419,0|0,1:0|0:0,0:0:0:0:
429,281,39890,2,0,L|417:209,1,60.1999981628419,2|0,1:0|0:0,0:0:0:0:
318,348,40206,2,0,L|330:276,1,60.1999981628419,2|0,1:0|0:0,0:0:0:0:
273,209,40522,5,4,1:0:0:0:
225,292,40679,1,0,0:0:0:0:
142,131,40837,37,0,1:0:0:0:
190,214,40994,1,0,0:0:0:0:
272,51,41153,5,2,1:0:0:0:
224,134,41310,1,0,0:0:0:0:
358,226,41469,38,0,P|354:196|346:167,1,60.1999981628419,2|0,1:0|0:0,0:0:0:0:
197,95,41785,2,0,P|200:155|218:207,1,90.2999972442628,0|0,1:0|0:0,0:0:0:0:
229,215,42101,1,0,1:0:0:0:
129,204,42258,1,0,0:0:0:0:
182,291,42416,2,0,P|223:300|250:298,1,60.1999981628419,2|0,1:0|0:0,0:0:0:0:
319,243,42732,1,2,1:0:0:0:
355,332,42890,1,0,0:0:0:0:
390,136,43048,6,0,P|401:206|399:269,1,120.399996325684,4|0,1:0|1:0,0:0:0:0:
152,109,43679,2,0,P|141:179|143:242,1,120.399996325684,0|0,1:0|1:0,0:0:0:0:
183,33,44153,1,8,0:0:0:0:
216,174,44311,37,0,1:0:0:0:
93,119,44469,1,8,3:0:0:0:
122,114,44547,1,8,3:0:0:0:
152,109,44626,1,8,3:0:0:0:
62,126,44785,5,4,3:0:0:0:
181,106,44943,1,4,3:0:0:0:
7,196,45101,37,4,3:0:0:0:
239,38,45258,2,0,P|259:92|259:140,1,90.2999972442628,8|0,0:0|0:0,0:0:0:0:
222,202,45574,22,0,L|315:211,1,86,6|0,0:0|0:0,0:0:0:0:
419,140,45890,1,8,0:0:0:0:
393,310,46048,6,0,L|384:210,1,86,2|8,0:0|0:0,0:0:0:0:
322,113,46364,1,0,0:0:0:0:
256,283,46522,38,0,L|161:292,1,86,8|0,0:0|0:0,0:0:0:0:
77,198,46837,1,8,0:0:0:0:
173,76,46995,6,0,P|199:139|206:180,1,86,2|8,0:0|0:0,0:0:0:0:
169,289,47311,1,0,0:0:0:0:
272,195,47469,38,0,P|328:183|369:182,1,86,8|0,0:0|0:0,0:0:0:0:
458,267,47785,1,8,0:0:0:0:
362,260,47943,1,0,0:0:0:0:
291,75,48101,5,8,0:0:0:0:
248,272,48258,1,0,1:0:0:0:
390,140,48416,1,8,0:0:0:0:
224,165,48574,1,0,1:0:0:0:
344,325,48732,1,8,0:0:0:0:
316,175,48890,1,0,1:0:0:0:
152,286,49048,2,0,L|266:274,1,86,12|0,0:0|0:0,0:0:0:0:
401,236,49364,37,8,0:0:0:0:
232,200,49522,1,0,0:0:0:0:
319,370,49679,1,8,0:0:0:0:
316,214,49837,1,0,0:0:0:0:
140,299,49995,2,0,L|239:285,1,86,8|0,0:0|0:0,0:0:0:0:
57,191,50311,1,8,0:0:0:0:
26,350,50469,1,0,0:0:0:0:
144,211,50627,6,0,P|133:142|120:100,1,86,8|0,0:0|0:0,0:0:0:0:
31,44,50943,1,8,0:0:0:0:
232,34,51101,38,0,P|143:43|119:49,1,86,2|8,0:0|0:0,0:0:0:0:
41,131,51416,1,0,0:0:0:0:
222,164,51574,6,0,P|279:129|296:110,1,86,8|0,0:0|0:0,0:0:0:0:
352,7,51890,1,8,0:0:0:0:
397,159,52048,38,0,P|402:225|399:280,1,86,2|8,0:0|0:0,0:0:0:0:
341,358,52364,1,0,0:0:0:0:
110,258,52522,6,0,P|159:249|209:253,1,86,8|0,0:0|0:0,0:0:0:0:
323,272,52837,1,8,0:0:0:0:
235,330,52995,1,2,0:0:0:0:
192,154,53153,37,8,0:0:0:0:
361,175,53311,1,0,1:0:0:0:
185,257,53469,1,8,0:0:0:0:
267,118,53627,1,0,1:0:0:0:
402,255,53785,1,8,0:0:0:0:
256,202,53943,1,0,1:0:0:0:
439,160,54101,2,0,L|337:150,1,86,8|0,0:0|0:0,0:0:0:0:
240,71,54416,5,8,0:0:0:0:
355,233,54574,2,0,L|253:223,1,86,0|8,1:0|0:0,0:0:0:0:
112,143,54890,1,0,1:0:0:0:
150,146,54968,1,0,1:0:0:0:
189,150,55047,1,8,0:0:0:0:
101,57,55206,1,8,3:0:0:0:
120,231,55364,1,4,3:0:0:0:
99,43,55522,1,4,3:0:0:0:
121,243,55679,6,0,B|173:224|197:266|261:231,1,129.00000492096,4|0,0:0|0:0,0:0:0:0:
312,160,56153,1,0,0:0:0:0:
302,300,56311,2,0,P|326:261|334:231,1,64.5000024604798,8|0,0:0|0:0,0:0:0:0:
300,137,56627,1,0,0:0:0:0:
410,275,56785,6,0,P|406:221|400:200,1,64.5000024604798,4|0,0:0|0:0,0:0:0:0:
217,78,57101,2,0,P|210:109|210:141,1,64.5000024604798,8|0,0:0|0:0,0:0:0:0:
249,236,57416,1,0,0:0:0:0:
131,151,57574,2,0,P|152:193|171:216,1,64.5000024604798,8|0,0:0|0:0,0:0:0:0:
328,252,57890,2,0,P|314:281|296:307,1,64.5000024604798
245,230,58206,37,4,0:0:0:0:
329,118,58364,1,8,0:0:0:0:
182,162,58522,2,0,P|225:148|259:143,1,64.5000024604798
354,231,58837,1,8,0:0:0:0:
328,105,58995,1,0,0:0:0:0:
261,279,59153,2,0,P|271:219|281:196,1,64.5000024604798,8|0,0:0|0:0,0:0:0:0:
339,94,59469,5,0,0:0:0:0:
408,204,59627,2,0,P|375:232|339:247,1,64.5000024604798,8|0,0:0|0:0,0:0:0:0:
251,197,59943,1,4,0:0:0:0:
246,193,60258,1,0,0:0:0:0:
286,67,60416,2,0,P|304:107|314:148,1,64.5000024604798,8|0,0:0|0:0,0:0:0:0:
87,123,60732,38,0,L|235:115,1,129.00000492096,4|0,0:0|0:0,0:0:0:0:
147,42,61206,1,0,0:0:0:0:
128,202,61364,2,0,P|128:244|132:278,1,64.5000024604798,8|0,0:2|0:2,0:2:0:0:
228,348,61679,2,0,P|230:315|230:283,1,64.5000024604798,0|0,0:2|0:2,0:2:0:0:
211,193,61995,5,4,0:0:0:0:
148,342,62153,2,0,P|84:340|53:335,2,64.5000024604798,8|0|0,0:0|0:0|0:0,0:0:0:0:
112,201,62627,2,0,L|119:283,1,64.5000024604798,8|0,0:0|0:0,0:0:0:0:
224,140,62943,2,0,L|217:222,1,64.5000024604798,12|0,0:0|0:0,0:0:0:0:
304,63,63258,38,0,B|210:41|210:41|161:61,1,150.50000143528,6|8,0:0|0:0,0:0:0:0:
161,61,63890,1,0,1:0:0:0:
377,138,64048,2,0,L|385:59,1,75.2500007176399,0|0,1:0|0:0,0:0:0:0:
337,218,64364,6,0,L|432:215,2,75.2500007176399,8|0|0,0:0|0:0|1:0,0:0:0:0:
225,139,64837,2,0,P|272:143|338:228,1,150.50000143528,8|0,0:0|1:0,0:0:0:0:
200,223,65311,1,0,1:0:0:0:
200,223,65469,2,0,P|159:200|133:171,1,75.2500007176399,8|0,0:0|0:0,0:0:0:0:
109,47,65785,1,0,1:0:0:0:
107,54,66101,5,8,0:0:0:0:
52,205,66258,1,0,1:0:0:0:
191,125,66416,1,8,0:0:0:0:
36,101,66574,1,0,1:0:0:0:
128,256,66732,2,0,P|135:202|133:162,1,75.2500007176399,8|0,0:0|0:0,0:0:0:0:
104,46,67048,5,0,1:0:0:0:
223,214,67206,1,0,1:0:0:0:
256,197,67284,1,0,1:0:0:0:
274,165,67363,1,0,1:0:0:0:
272,128,67442,1,0,1:0:0:0:
249,99,67521,1,0,1:0:0:0:
214,87,67600,1,0,1:0:0:0:
178,97,67679,1,8,0:0:0:0:
178,97,68311,6,0,B|234:72|245:123|344:79,1,141.900004330444,6|0,1:0|0:0,0:0:0:0:
388,51,68627,2,0,B|398:92|398:92|383:143|383:143|388:190,1,141.900004330444,10|0,0:0|0:0,0:0:0:0:
302,178,68943,2,0,P|252:176|244:264,1,141.900004330444,2|0,1:0|0:0,0:0:0:0:
256,285,69258,1,8,0:0:0:0:
86,341,69416,6,0,L|195:333,2,94.600002886963,0|0|0,1:0|0:0|1:0,0:0:0:0:
160,227,69890,1,8,0:0:0:0:
264,356,70048,2,0,P|255:299|238:258,1,94.600002886963,0|0,0:0|1:0,0:0:0:0:
338,290,70364,1,0,1:0:0:0:
244,156,70522,1,8,0:0:0:0:
177,326,70679,1,0,0:0:0:0:
249,166,70837,37,6,1:0:0:0:
258,343,70995,2,0,L|253:243,1,94.600002886963,0|8,0:0|0:0,0:0:0:0:
244,85,71311,1,0,0:0:0:0:
343,174,71469,2,0,L|233:164,1,94.600002886963,0|0,1:0|1:0,0:0:0:0:
429,184,71785,1,8,0:0:0:0:
332,55,71943,6,0,L|352:271,1,189.200005773926,6|0,1:0|1:0,0:0:0:0:
253,86,72416,2,0,P|195:78|138:76,1,94.600002886963,8|0,0:0|0:0,0:0:0:0:
185,248,72732,2,0,L|197:140,2,94.600002886963,0|0|8,1:0|1:0|0:0,0:0:0:0:
351,242,73206,38,0,P|283:207|169:274,1,189.200005773926,6|0,1:0|0:0,0:0:0:0:
411,319,73679,2,0,P|433:261|436:217,1,94.600002886963,8|0,0:0|0:0,0:0:0:0:
379,129,73995,1,0,1:0:0:0:
346,250,74153,1,0,1:0:0:0:
465,150,74311,1,8,0:0:0:0:
280,154,74469,6,0,B|373:119|365:185|467:149,1,189.200005773926,6|0,1:0|1:0,0:0:0:0:
229,76,74943,2,0,P|200:123|188:182,1,94.600002886963,8|0,0:0|0:0,0:0:0:0:
246,260,75258,1,0,1:0:0:0:
119,225,75416,1,0,1:0:0:0:
273,161,75574,1,8,0:0:0:0:
282,157,75890,38,0,L|386:153,1,94.600002886963,6|0,1:0|0:0,0:0:0:0:
489,221,76206,1,8,0:0:0:0:
444,45,76364,2,0,L|458:165,1,94.600002886963,2|0,0:0|1:0,0:0:0:0:
390,324,76679,2,0,L|400:230,1,94.600002886963,0|8,1:0|0:0,0:0:0:0:
266,74,76995,6,0,B|268:140|268:140|288:188|288:188|292:272,1,189.200005773926,6|0,1:0|1:0,0:0:0:0:
347,105,77469,1,8,0:0:0:0:
203,214,77627,2,0,P|132:196|192:125,1,189.200005773926,4|0,1:0|1:0,0:0:0:0:
298,248,78101,1,8,0:0:0:0:
167,323,78258,1,0,1:0:0:0:
205,327,78337,1,0,1:0:0:0:
246,333,78416,38,0,B|308:340|308:340|410:290,1,141.900004330444,6|0,1:0|0:0,0:0:0:0:
293,241,78732,2,0,B|272:172|320:187|287:90,1,141.900004330444,10|0,0:0|0:0,0:0:0:0:
209,156,79048,2,0,P|154:141|200:62,1,141.900004330444,2|0,1:0|0:0,0:0:0:0:
211,43,79364,1,8,0:0:0:0:
77,129,79522,6,0,P|130:121|227:177,1,141.900004330444,4|0,1:0|0:0,0:0:0:0:
273,228,79837,2,0,P|326:236|395:204,1,94.600002886963,0|8,1:0|0:0,0:0:0:0:
451,77,80153,2,0,L|467:268,1,189.200005773926,2|0,1:0|1:0,0:0:0:0:
369,134,80627,1,8,0:0:0:0:
359,305,80785,1,0,0:0:0:0:
181,201,80943,38,0,B|245:189|245:189|389:232,1,189.200005773926,6|8,1:0|0:0,0:0:0:0:
111,286,81416,2,0,L|96:176,1,94.600002886963,0|0,0:0|1:0,0:0:0:0:
136,68,81732,1,0,1:0:0:0:
188,212,81890,1,8,0:0:0:0:
34,100,82048,6,0,B|95:90|95:90|167:100|167:100|247:88,1,189.200005773926,6|0,1:0|1:0,0:0:0:0:
377,151,82522,2,8,L|246:170,1,94.600002886963,8|0,0:0|0:0,0:0:0:0:
432,73,82837,1,0,1:0:0:0:
483,232,82995,1,0,1:0:0:0:
372,145,83153,1,8,0:0:0:0:
319,328,83311,38,0,L|351:213,1,94.600002886963,6|0,0:0|1:0,0:0:0:0:
363,137,83627,1,0,0:0:0:0:
261,262,83785,2,0,L|137:275,1,94.600002886963,10|0,0:0|0:0,0:0:0:0:
87,168,84101,1,0,1:0:0:0:
53,305,84258,1,0,1:0:0:0:
181,168,84416,1,8,0:0:0:0:
0,219,84574,6,0,P|62:210|167:272,1,189.200005773926,6|0,1:0|1:0,0:0:0:0:
160,69,85048,2,0,L|180:172,1,94.600002886963,10|0,0:0|0:0,0:0:0:0:
79,109,85364,1,0,1:0:0:0:
254,107,85522,1,0,1:0:0:0:
97,201,85679,2,0,L|78:108,1,94.600002886963,8|0,0:0|0:0,0:0:0:0:
132,300,85994,5,0,1:0:0:0:
252,296,86153,2,0,L|270:203,1,94.600002886963,8|0,0:0|0:0,0:0:0:0:
288,112,86469,1,0,1:0:0:0:
434,255,86627,2,0,L|334:261,1,94.600002886963,8|0,0:0|0:0,0:0:0:0:
391,172,86943,1,0,1:0:0:0:
479,334,87101,2,0,L|379:340,1,94.600002886963,8|0,0:0|1:0,0:0:0:0:
293,329,87337,1,0,3:0:0:0:
293,329,87416,6,0,L|281:396,1,47.3000014434815,0|0,3:0|3:0,3:0:0:0:
312,243,87574,1,8,0:0:0:0:
206,325,87732,38,0,L|194:392,1,47.3000014434815,0|0,3:0|3:0,3:0:0:0:
221,235,87890,1,8,0:0:0:0:
399,252,88048,5,8,3:0:0:0:
133,225,88206,1,8,3:0:0:0:
312,243,88364,1,8,3:0:0:0:
213,106,88522,38,0,L|221:253,1,129.00000492096,4|0,0:0|0:0,0:0:0:0:
294,154,88995,1,0,0:0:0:0:
120,135,89153,2,0,P|79:167|44:248,1,129.00000492096,8|0,0:0|0:0,0:0:0:0:
52,75,89627,1,8,0:0:0:0:
130,227,89785,5,4,0:0:0:0:
130,227,89943,1,0,0:0:0:0:
30,160,90101,2,0,L|116:151,1,64.5000024604798,8|0,0:0|0:0,0:0:0:0:
178,109,90416,1,8,3:0:0:0:
317,193,90574,1,4,3:0:0:0:
274,89,90732,1,8,3:0:0:0:
179,218,90890,1,4,3:0:0:0:
211,21,91048,6,0,B|291:-1|291:-1|336:23|372:45|377:85|383:119|375:135|360:157|337:171|316:194|316:194|366:198|394:228|403:264|399:324|348:347|292:330,1,573.620017505494,6|0,0:0|0:0,0:0:0:0:
264,317,92943,5,8,0:0:0:0:
274,89,93101,1,8,0:0:0:0:
267,94,93574,6,0,L|169:104,1,86,12|0,0:0|0:0,0:0:0:0:
344,194,93890,2,0,L|442:204,1,86,8|0,0:0|0:0,0:0:0:0:
230,175,94206,2,0,L|214:279,1,86,8|0,0:0|0:0,0:0:0:0:
386,115,94522,1,8,0:0:0:0:
394,308,94679,6,0,L|390:222,1,86,2|8,0:0|0:0,0:0:0:0:
300,92,94995,1,0,0:0:0:0:
313,282,95153,2,0,L|309:196,1,86,8|0,0:0|0:0,0:0:0:0:
210,270,95469,1,8,0:0:0:0:
255,358,95627,1,0,0:0:0:0:
398,292,95785,2,0,L|296:280,1,86,8|0,0:0|0:0,0:0:0:0:
141,331,96101,38,0,P|128:275|127:235,1,86,8|0,0:0|0:0,0:0:0:0:
45,98,96416,2,0,P|41:140|30:182,1,86,8|0,0:0|0:0,0:0:0:0:
159,83,96732,2,0,P|212:69|258:69,1,86,8|0,0:0|0:0,0:0:0:0:
411,152,97048,2,0,P|358:138|312:138,1,86,8|0,0:0|0:0,0:0:0:0:
261,315,97364,5,8,0:0:0:0:
222,151,97522,1,0,1:0:0:0:
120,247,97679,37,8,0:0:0:0:
159,83,97837,1,0,1:0:0:0:
366,195,97995,6,0,P|296:213|257:220,1,86,8|0,0:0|0:0,0:0:0:0:
397,89,98311,1,8,0:0:0:0:
455,207,98469,1,0,0:0:0:0:
472,34,98627,38,0,P|479:93|473:131,1,86,12|0,0:0|0:0,0:0:0:0:
371,253,98943,2,0,P|367:210|374:167,1,86,8|0,0:0|0:0,0:0:0:0:
455,288,99258,2,0,P|462:330|458:373,1,86,8|0,0:0|0:0,0:0:0:0:
452,198,99574,1,8,0:0:0:0:
379,337,99732,6,0,P|330:341|277:337,1,86,2|8,0:0|0:0,0:0:0:0:
248,196,100048,1,0,0:0:0:0:
216,373,100206,2,0,P|213:320|217:280,1,86,8|0,0:0|0:0,0:0:0:0:
300,127,100522,1,8,0:0:0:0:
328,257,100679,1,0,0:0:0:0:
162,205,100837,2,0,P|242:195|277:198,1,86,8|0,0:0|0:0,0:0:0:0:
332,299,101153,38,0,P|327:249|329:222,1,43,8|0,0:0|0:0,0:0:0:0:
407,147,101311,2,0,P|405:168|402:189,1,43,0|0,1:0|0:0,0:0:0:0:
322,149,101469,1,0,1:0:0:0:
491,164,101627,2,0,P|485:97|473:66,1,86,8|0,0:0|1:0,0:0:0:0:
350,33,101943,1,0,1:0:0:0:
248,103,102101,2,0,P|236:144|236:187,1,86,8|0,0:0|0:0,0:0:0:0:
274,280,102416,6,8,L|342:298,2,57.3333333333333,0|8|8,1:0|0:0|0:0,0:0:0:0:
329,208,102732,2,0,L|387:195,2,57.3333333333333,0|8|8,1:0|0:0|0:0,0:2:0:0:
316,108,103048,1,0,1:0:0:0:
316,108,103153,2,8,P|273:64|240:44,1,57.3333333333333,8|8,3:0|3:0,3:0:0:0:
155,127,103364,1,4,3:0:0:0:
155,127,103469,2,0,P|182:120|211:117,1,57.3333333333333,8|8,3:0|3:0,0:0:0:0:
329,208,103679,6,0,P|279:182|211:255,1,146.200002788544,12|0,0:0|0:0,0:0:0:0:
176,318,104153,1,2,0:0:0:0:
84,182,104311,2,0,L|71:337,1,146.200002788544,8|0,0:0|0:0,0:0:0:0:
19,124,104785,6,0,B|59:93|59:93|128:91|168:140,1,146.200002788544,2|8,0:0|0:0,0:0:0:0:
207,194,105258,2,0,P|248:200|299:187,1,73.1000013942719
336,125,105574,2,0,P|377:119|428:132,1,73.1000013942719,8|0,0:0|0:0,0:0:0:0:
450,286,105890,5,4,1:0:0:0:
471,56,106048,1,4,1:0:0:0:
256,192,106127,12,0,113785,0:0:0:0:
