osu file format v14

[General]
AudioFilename: audio.mp3
AudioLeadIn: 0
PreviewTime: 67758
Countdown: 0
SampleSet: None
StackLeniency: 0.7
Mode: 0
LetterboxInBreaks: 0
WidescreenStoryboard: 1

[Editor]
Bookmarks: 35153
DistanceSpacing: 0.7
BeatDivisor: 4
GridSize: 32
TimelineZoom: 2.1

[Metadata]
Title:Zen Zen Zense (movie ver.)
TitleUnicode:前前前世 (movie ver.)
Artist:RADWIMPS
ArtistUnicode:RADWIMPS
Creator:Monstrata
Version:Kocari's Insane
Source:君の名は。
Tags:your name taki mitsuha kimi no na wa Sotarks Haruto HabiHolic Akitoshi Kalibe Kocari Battle Haruto_Aizawa Haruto-
BeatmapID:1099752
BeatmapSetID:513590

[Difficulty]
HPDrainRate:6
CircleSize:4
OverallDifficulty:8
ApproachRate:9.2
SliderMultiplier:1.7
SliderTickRate:1

[Events]
//Background and Video events
0,0,"thumb-1920-737491.jpg",0,0
//Break Periods
//Storyboard Layer 0 (Background)
//Storyboard Layer 1 (Fail)
//Storyboard Layer 2 (Pass)
//Storyboard Layer 3 (Foreground)
//Storyboard Sound Samples

[TimingPoints]
101,315.789473684211,4,3,1,70,1,0
101,-125,4,3,1,70,0,0
1364,-125,4,3,1,50,0,0
2311,-125,4,3,1,70,0,0
4206,-125,4,3,1,50,0,0
5153,-125,4,3,1,70,0,0
6416,-125,4,3,1,50,0,0
7364,-125,4,3,1,70,0,0
8943,-125,4,2,1,40,0,0
9364,-125,4,2,1,50,0,0
9785,-125,4,2,1,60,0,0
10206,-100,4,3,1,70,0,0
20311,-125,4,2,1,50,0,0
44311,-125,4,2,0,50,0,0
45258,-125,4,3,1,40,0,0
45574,-111.111111111111,4,3,1,70,0,0
55679,-125,4,2,1,70,0,0
63258,-117.647058823529,4,3,1,70,0,0
68311,-90.9090909090909,4,3,1,85,0,1
69416,-100,4,3,1,70,0,1
78416,-90.9090909090909,4,3,1,70,0,1
79837,-100,4,3,1,70,0,1
88522,-117.647058823529,4,3,1,70,0,1
93574,-100,4,3,1,70,0,0
102416,-100,4,3,1,40,0,0
102837,-100,4,3,1,50,0,0
103258,-100,4,3,1,60,0,0
103679,-100,4,3,1,70,0,0
106048,-142.857142857143,4,3,1,70,0,0
113785,-142.857142857143,4,3,1,5,0,0

[Colours]
Combo1 : 172,89,255
Combo2 : 55,255,255
Combo3 : 255,128,255
Combo4 : 254,168,73

[HitObjects]
66,276,101,6,0,L|72:344,1,68,6|0,0:2|0:0,0:0:0:0:
154,168,416,2,0,L|160:236,1,68,0|2,1:0|0:2,0:0:0:0:
316,324,732,2,0,P|251:346|189:326,1,136,0|0,0:0|1:0,0:0:0:0:
304,257,1206,5,2,0:2:0:0:
304,257,1364,2,0,L|316:326,1,68,0|0,0:0|0:0,0:0:0:0:
485,321,1679,2,0,L|497:255,1,68,4|0,0:3|0:0,0:0:0:0:
406,166,1995,2,0,L|400:233,1,68,4|0,0:0|0:0,0:0:0:0:
415,71,2311,1,4,0:0:0:0:
101,106,2627,6,0,P|171:121|229:90,1,136,2|0,0:0|1:0,0:0:0:0:
158,32,3101,1,2,3:2:0:0:
232,160,3258,2,0,L|225:89,1,68,0|0,0:0|3:0,0:0:0:0:
46,175,3574,1,0,1:0:0:0:
46,175,3732,6,0,L|37:316,1,136,2|0,3:2|3:0,0:0:0:0:
164,295,4206,2,0,P|196:281|236:283,1,68,4|0,3:0|3:0,0:0:0:0:
391,333,4522,2,0,P|357:332|326:319,1,68,4|0,3:0|3:0,0:0:0:0:
323,159,4837,2,0,P|322:192|309:223,1,68,4|0,3:0|3:0,0:0:0:0:
155,354,5153,6,0,L|146:218,1,136,2|0,0:0|1:0,0:0:0:0:
80,134,5627,1,2,0:2:0:0:
19,222,5785,2,0,P|84:241|152:212,1,136,0|0,0:0|1:0,0:0:0:0:
223,75,6258,5,2,0:2:0:0:
223,75,6416,2,0,L|215:153,1,68,0|0,0:0|0:0,0:0:0:0:
155,284,6732,2,0,L|145:212,1,68,4|0,0:0|0:0,0:0:0:0:
275,217,7048,2,0,P|308:227|342:225,1,68,4|0,0:0|0:0,0:0:0:0:
425,155,7364,1,4,0:0:0:0:
492,350,7679,6,0,B|520:274|520:274|511:205,1,136,2|0,0:0|1:0,0:0:0:0:
425,155,8153,1,2,0:2:0:0:
341,225,8311,2,0,P|275:236|214:210,1,136,0|0,0:0|1:0,0:0:0:0:
425,155,8785,1,0,0:0:0:0:
362,46,8943,6,0,L|317:54,1,45.3333333333333,2|0,0:2|2:0,0:0:0:0:
185,102,9153,2,0,L|237:110,1,45.3333333333333,2|0,0:2|2:0,0:0:0:0:
386,82,9364,6,0,L|335:76,1,45.3333333333333,2|0,0:2|2:0,0:0:0:0:
221,69,9574,2,0,L|176:74,1,45.3333333333333,2|0,0:2|2:0,0:0:0:0:
93,185,9785,6,0,L|104:133,1,45.3333333333333,2|0,0:2|2:0,0:0:0:0:
16,33,9995,2,0,L|25:77,1,45.3333333333333,2|0,0:2|2:0,0:0:0:0:
117,272,10206,6,0,P|75:275|37:257,1,85,8|0,0:0|0:0,0:0:0:0:
186,201,10522,1,10,0:2:0:0:
219,347,10679,1,2,0:0:0:0:
279,207,10837,2,0,P|314:184|356:184,1,85,10|0,0:2|0:0,0:0:0:0:
501,292,11153,2,0,P|459:291|424:268,1,85,10|0,0:2|0:0,0:0:0:0:
445,99,11469,6,0,L|439:186,1,85,10|2,0:2|0:0,0:0:0:0:
348,348,11785,2,0,L|342:263,1,85,10|2,0:2|0:0,0:0:0:0:
269,111,12101,1,10,0:2:0:0:
186,214,12258,1,0,0:0:0:0:
355,183,12416,1,10,0:2:0:0:
265,66,12574,1,0,0:0:0:0:
101,222,12732,6,0,L|189:213,1,85,0|0,1:0|1:0,0:0:0:0:
338,305,13048,2,0,L|253:296,1,85,10|2,0:2|0:0,0:0:0:0:
39,279,13364,2,0,P|18:239|26:185,1,85,10|0,0:2|0:0,0:0:0:0:
203,133,13679,2,0,P|204:175|183:211,1,85,10|0,0:2|0:0,0:0:0:0:
297,67,13995,5,10,0:2:0:0:
87,100,14153,1,2,0:0:0:0:
297,67,14311,1,10,0:2:0:0:
203,133,14469,1,2,0:0:0:0:
203,133,14627,2,0,L|195:49,1,85,10|0,0:2|0:0,0:0:0:0:
434,109,14943,2,0,P|446:150|433:201,1,85,10|2,0:2|0:2,0:0:0:0:
291,270,15258,6,0,P|332:277|372:265,1,85,0|0,1:0|1:0,0:0:0:0:
203,133,15574,2,0,L|190:217,1,85,10|2,0:2|0:0,0:0:0:0:
91,318,15890,2,0,L|78:233,1,85,10|0,0:2|0:0,0:0:0:0:
187,57,16206,2,0,P|229:57|264:81,1,85,10|0,0:2|0:0,0:0:0:0:
372,265,16522,5,10,0:2:0:0:
361,46,16679,1,2,0:0:0:0:
372,265,16837,1,10,0:2:0:0:
464,120,16995,1,2,0:0:0:0:
310,320,17153,2,0,P|290:282|300:225,1,85,10|0,0:2|0:0,0:0:0:0:
469,325,17469,2,0,P|431:344|389:342,1,85,10|0,0:2|0:0,0:0:0:0:
259,160,17785,5,0,0:0:0:0:
259,160,17864,1,0,0:0:0:0:
259,160,17943,1,0,0:0:0:0:
188,249,18101,2,0,L|104:244,1,85,10|2,0:2|0:0,0:0:0:0:
259,160,18416,2,0,L|343:154,1,85,10|2,0:2|0:2,0:0:0:0:
298,0,18732,1,6,0:2:0:0:
172,75,18890,1,0,0:0:0:0:
259,160,19048,6,0,L|343:154,1,85,2|0,0:0|0:0,0:0:0:0:
172,75,19364,2,0,L|88:69,1,85,4|0,0:1|0:0,0:0:0:0:
298,0,19679,1,0,1:0:0:0:
487,134,19837,5,0,0:0:0:0:
482,154,19916,1,0,0:0:0:0:
477,174,19995,1,0,0:0:0:0:
472,194,20074,1,0,0:0:0:0:
467,214,20153,1,0,0:0:0:0:
462,234,20232,1,0,0:0:0:0:
456,254,20311,6,0,B|374:276|374:276|308:254,1,136,2|0,1:2|1:2,0:0:0:0:
377,170,20785,1,0,0:0:0:0:
246,241,20943,2,0,P|245:274|260:308,1,68,2|0,1:2|0:0,0:0:0:0:
184,176,21258,2,0,P|164:203|159:237,1,68,2|2,1:2|0:0,0:0:0:0:
246,115,21574,6,0,P|191:88|120:118,1,136,0|2,1:0|1:2,0:0:0:0:
318,167,22048,1,0,0:0:0:0:
318,167,22206,2,0,P|333:132|329:94,1,68,2|0,1:2|0:0,0:0:0:0:
351,254,22522,2,0,P|381:231|397:196,1,68,0|0,1:0|0:0,0:0:0:0:
288,318,22837,6,0,P|349:342|419:309,2,136,2|2|2,1:2|1:2|1:2,0:0:0:0:
237,224,23627,1,2,0:0:0:0:
147,279,23785,2,0,L|150:349,1,68,0|2,1:0|0:0,0:0:0:0:
58,154,24101,2,0,L|47:298,1,136,0|2,1:0|1:2,0:0:0:0:
92,58,24574,1,0,0:0:0:0:
92,58,24732,2,0,L|24:48,1,68,2|0,1:2|0:0,0:0:0:0:
157,127,25048,2,0,L|224:118,1,68,2|0,1:2|0:0,0:0:0:0:
411,81,25364,5,6,1:2:0:0:
324,224,25522,1,0,0:2:0:0:
427,114,25679,1,2,1:2:0:0:
327,120,25837,1,0,0:2:0:0:
491,204,25995,1,2,1:2:0:0:
473,30,26153,1,2,0:2:0:0:
327,120,26311,2,0,L|251:114,1,68,2|2,1:2|0:2,0:0:0:0:
64,89,26627,5,2,1:2:0:0:
177,19,26785,1,0,0:2:0:0:
235,230,26943,1,2,1:2:0:0:
167,119,27101,1,0,0:2:0:0:
100,288,27258,1,2,1:2:0:0:
100,288,27416,2,0,L|21:278,1,68,2|0,0:0|1:0,0:0:0:0:
167,119,27732,1,2,0:0:0:0:
235,230,27890,6,0,L|370:240,1,136,6|2,1:2|1:2,0:0:0:0:
445,160,28364,1,2,0:0:0:0:
401,60,28522,2,0,L|266:70,1,136,0|2,1:0|1:2,0:0:0:0:
167,119,28995,1,0,0:0:0:0:
61,91,29153,2,0,L|67:23,1,68,2|2,1:2|0:0,0:0:0:0:
167,119,29469,2,0,L|160:186,1,68,0|2,1:2|0:0,0:0:0:0:
82,258,29785,2,0,P|60:220|58:185,1,68,2|0,1:2|0:0,0:0:0:0:
234,258,30101,2,0,P|252:229|259:196,1,68,2|0,1:2|0:0,0:0:0:0:
174,51,30416,6,0,L|158:199,1,136,2|0,1:0|1:0,0:0:0:0:
234,258,30890,1,0,0:0:0:0:
234,258,31048,2,0,L|320:261,1,68,2|0,1:2|0:0,0:0:0:0:
485,194,31364,2,0,L|417:191,1,68,2|2,1:2|0:0,0:0:0:0:
235,84,31679,2,0,B|310:65|310:65|365:85,1,136,0|2,1:0|1:2,0:0:0:0:
305,168,32153,1,0,0:0:0:0:
156,123,32311,2,0,P|147:90|156:47,1,68,2|0,1:2|0:0,0:0:0:0:
111,204,32627,2,0,P|85:181|69:140,1,68,0|2,1:0|0:0,0:0:0:0:
214,200,32943,6,0,L|201:335,1,136,2|2,1:2|1:2,0:0:0:0:
156,123,33416,1,0,0:0:0:0:
308,212,33574,2,0,P|386:206|431:163,1,136,2|2,1:2|1:2,0:0:0:0:
344,118,34048,1,2,0:0:0:0:
461,246,34206,2,0,L|469:110,1,136,0|2,1:0|1:2,0:0:0:0:
402,24,34679,1,0,0:0:0:0:
344,118,34837,2,0,L|276:112,1,68,2|0,1:2|0:0,0:0:0:0:
402,24,35153,2,0,L|469:28,1,68,2|0,1:2|0:0,0:0:0:0:
256,221,35469,5,6,1:2:0:0:
378,206,35627,1,0,0:0:0:0:
276,112,35785,1,2,1:2:0:0:
162,303,35943,1,0,0:0:0:0:
355,313,36101,2,0,L|430:311,1,68,2|2,1:2|0:0,0:0:0:0:
276,112,36416,2,0,L|208:110,1,68,2|2,1:2|0:0,0:0:0:0:
37,239,36732,5,2,1:2:0:0:
125,107,36890,1,0,0:0:0:0:
163,328,37048,1,2,1:2:0:0:
276,112,37206,1,2,0:0:0:0:
163,328,37364,2,0,L|173:260,1,68,2|0,1:2|0:0,0:0:0:0:
276,112,37679,2,0,L|287:180,1,68,2|2,1:2|0:0,0:0:0:0:
444,346,37995,6,0,L|461:202,1,136,4|2,1:1|1:2,0:0:0:0:
428,118,38469,1,2,0:0:0:0:
338,165,38627,2,0,P|392:204|470:208,1,136,0|2,1:0|1:2,0:0:0:0:
428,118,39101,1,2,0:0:0:0:
336,97,39258,2,0,L|338:179,1,68,0|2,1:2|0:0,0:0:0:0:
234,41,39574,2,0,L|236:123,1,68,0|2,1:2|0:0,0:0:0:0:
162,248,39890,2,0,L|160:166,1,68,2|0,1:2|0:0,0:0:0:0:
60,192,40206,2,0,L|58:110,1,68,2|0,1:2|0:0,0:0:0:0:
100,310,40522,6,0,P|168:332|229:303,1,136,6|2,1:2|1:2,0:0:0:0:
270,208,40995,1,0,0:0:0:0:
439,310,41153,2,0,P|377:332|315:307,1,136,2|2,1:2|1:0,0:0:0:0:
270,208,41627,1,0,0:0:0:0:
387,115,41785,6,0,L|381:250,1,136,2|2,1:2|1:2,0:0:0:0:
270,208,42258,1,2,0:0:0:0:
155,111,42416,2,0,L|161:248,1,136,2|2,1:2|1:0,0:0:0:0:
161,247,42890,1,0,0:0:0:0:
87,61,43048,6,0,P|146:30|218:59,1,136,4|0,1:3|1:0,0:0:0:0:
361,118,43522,1,0,0:0:0:0:
270,208,43679,1,0,1:0:0:0:
361,118,43837,1,0,0:0:0:0:
305,325,43995,1,0,1:0:0:0:
455,193,44153,5,8,0:3:0:0:
361,118,44311,1,0,0:0:0:0:
441,314,44469,1,0,1:0:0:0:
270,208,44627,1,2,3:0:0:0:
416,42,44785,1,2,3:0:0:0:
455,193,44943,1,2,2:3:0:0:
455,193,45101,1,8,2:3:0:0:
272,112,45258,2,0,B|221:92|221:92|149:103,1,102,8|0,3:0|0:0,0:0:0:0:
130,114,45574,6,0,L|44:114,1,76.4999976654053,8|0,0:0|0:0,0:0:0:0:
153,232,45890,1,4,0:0:0:0:
227,45,46048,1,0,0:0:0:0:
296,196,46206,2,0,P|332:209|381:205,1,76.4999976654053,4|0,0:0|0:0,0:0:0:0:
503,73,46522,2,0,P|464:72|429:85,1,76.4999976654053,8|0,0:0|0:0,0:0:0:0:
473,232,46837,2,0,L|480:147,1,76.4999976654053,4|0,0:0|0:0,0:0:0:0:
336,52,47153,2,0,L|342:128,1,76.4999976654053,4|0,0:0|0:0,0:0:0:0:
359,285,47469,1,8,0:0:0:0:
359,285,47627,1,0,0:0:0:0:
479,155,47785,2,0,L|473:232,1,76.4999976654053,8|0,0:0|0:0,0:0:0:0:
386,361,48101,6,0,P|344:365|296:336,1,76.4999976654053,8|0,0:0|0:0,0:0:0:0:
130,295,48416,2,0,P|172:299|220:270,1,76.4999976654053,4|0,0:0|0:0,0:0:0:0:
381,217,48732,2,0,P|339:221|291:192,1,76.4999976654053,4|0,0:0|0:0,0:0:0:0:
294,21,49048,1,8,0:0:0:0:
215,133,49206,6,0,L|212:285,1,152.999995330811,0|0,0:0|0:0,0:0:0:0:
126,169,49679,2,0,P|114:133|130:80,1,76.4999976654053,4|0,0:0|0:0,0:0:0:0:
305,105,49995,2,0,P|311:143|300:179,1,76.4999976654053,4|0,0:0|0:0,0:0:0:0:
126,169,50311,2,0,P|114:133|130:80,1,76.4999976654053,8|0,0:0|0:0,0:0:0:0:
216,239,50627,6,0,L|205:314,1,76.4999976654053,8|0,0:0|0:0,0:0:0:0:
305,105,50943,2,0,L|228:112,1,76.4999976654053,4|0,0:0|0:0,0:0:0:0:
51,152,51258,2,0,L|126:169,1,76.4999976654053,4|0,0:0|0:0,0:0:0:0:
327,216,51574,1,8,0:0:0:0:
430,34,51732,1,0,0:0:0:0:
228,61,51890,2,0,P|217:106|227:146,1,76.4999976654053,4|0,0:0|0:0,0:0:0:0:
410,248,52206,2,0,P|415:210|405:174,1,76.4999976654053,4|0,0:0|0:0,0:0:0:0:
114,248,52522,2,0,P|151:253|188:242,1,76.4999976654053,8|0,0:0|0:0,0:0:0:0:
302,66,52837,2,0,P|257:55|217:65,1,76.4999976654053,8|0,0:0|0:0,0:0:0:0:
44,327,53153,6,0,B|25:237|25:237|54:184,1,152.999995330811,8|4,0:0|0:0,0:0:0:0:
188,242,53627,1,0,0:0:0:0:
53,183,53785,2,0,P|48:140|55:107,1,76.4999976654053,4|0,0:0|0:0,0:0:0:0:
180,129,54101,1,8,0:0:0:0:
336,241,54258,6,0,B|287:234|287:234|248:250|248:250|188:242,1,152.999995330811,0|2,0:0|0:0,0:0:0:0:
402,301,54732,2,0,P|422:252|418:214,1,76.4999976654053,0|0,0:0|0:0,0:0:0:0:
407,192,54969,1,0,0:0:0:0:
407,192,55048,1,8,0:0:0:0:
316,116,55206,1,8,0:0:0:0:
459,39,55364,2,0,L|449:119,1,76.4999976654053,4|4,0:0|0:0,0:0:0:0:
261,180,55679,6,0,P|239:149|266:47,1,136,6|0,0:0|0:0,0:0:0:0:
316,116,56153,1,0,0:0:0:0:
307,254,56311,2,0,P|262:266|184:222,1,136,10|2,0:2|0:0,0:0:0:0:
159,133,56785,2,0,B|94:112|94:112|14:137,1,136,0|8,0:0|0:0,0:0:0:0:
96,216,57258,1,0,0:0:0:0:
29,132,57416,1,0,0:0:0:0:
62,38,57574,2,0,P|98:31|132:40,1,68,10|0,0:0|0:0,0:0:0:0:
247,100,57890,2,0,P|280:107|313:100,1,68,0|2,0:0|0:0,0:0:0:0:
445,25,58206,6,0,B|469:101|415:96|436:176,1,136,2|0,0:0|0:0,0:0:0:0:
458,281,58679,1,2,0:0:0:0:
458,281,58837,2,0,P|420:273|372:290,1,68,8|2,0:0|0:0,0:0:0:0:
290,333,59153,2,0,L|214:328,1,68,10|0,0:0|0:0,0:0:0:0:
63,252,59469,2,0,L|139:247,1,68,2|8,0:0|0:0,0:0:0:0:
221,169,59785,1,2,0:2:0:0:
290,333,59943,1,2,3:2:0:0:
334,109,60101,1,0,0:0:0:0:
340,75,60416,1,8,0:0:0:0:
159,191,60732,6,0,B|212:201|256:184|256:184|221:169,1,136,6|0,0:2|0:0,0:0:0:0:
89,140,61206,2,0,P|74:181|115:266,1,136,0|0,0:0|0:0,0:0:0:0:
244,270,61679,2,0,L|84:260,1,136,2|2,0:0|0:0,0:0:0:0:
307,328,62153,2,0,P|326:292|326:253,1,68,8|0,0:0|0:0,0:0:0:0:
264,70,62469,1,2,0:0:0:0:
360,126,62627,2,0,L|427:132,1,68,8|0,2:3|0:0,0:0:0:0:
214,187,62943,2,0,L|281:179,1,68,12|0,0:0|0:0,0:0:0:0:
486,203,63258,6,0,P|514:139|493:71,1,144.500002756119,2|8,0:1|0:0,0:0:0:0:
355,210,63732,1,0,0:0:0:0:
289,134,63890,2,0,B|342:113|342:113|443:136,1,144.500002756119,2|0,0:0|0:0,0:0:0:0:
355,210,64364,1,2,0:0:0:0:
281,278,64522,6,0,P|347:305|416:288,1,144.500002756119,2|8,0:0|0:0,0:0:0:0:
355,210,64995,1,0,0:0:0:0:
281,278,65153,2,0,L|199:273,1,72.2500013780594,2|8,0:0|0:0,0:0:0:0:
355,210,65469,2,0,L|428:215,1,72.2500013780594,8|2,0:0|0:0,0:0:0:0:
259,47,65785,6,0,P|236:120|261:190,1,144.500002756119,8|8,0:0|0:0,0:0:0:0:
355,210,66258,1,0,0:0:0:0:
259,47,66416,2,0,L|177:56,1,72.2500013780594,8|0,0:0|0:0,0:0:0:0:
54,173,66732,2,0,L|125:180,1,72.2500013780594,8|0,0:0|0:0,0:0:0:0:
355,210,67048,1,2,0:0:0:0:
228,340,67206,5,8,0:0:0:0:
232,314,67285,1,8,0:0:0:0:
236,285,67364,1,8,0:0:0:0:
241,256,67443,1,8,0:0:0:0:
246,227,67522,1,8,0:0:0:0:
251,198,67601,1,8,0:0:0:0:
256,169,67679,5,8,0:0:0:0:
329,55,67837,1,0,0:0:0:0:
430,143,67995,2,0,P|465:152|502:143,1,72.2500013780594,0|0,0:0|0:0,0:0:0:0:
256,169,68311,6,0,P|232:116|289:124,1,140.25000428009,6|0,0:2|2:0,0:0:0:0:
301,127,68627,6,0,L|158:104,1,140.25000428009,10|0,0:2|2:0,0:0:0:0:
23,120,68943,6,0,L|162:104,1,140.25000428009,2|0,0:2|2:0,0:0:0:0:
162,103,69258,1,10,0:2:0:0:
239,37,69416,1,6,0:3:0:0:
332,214,69574,1,2,0:2:0:0:
390,126,69732,1,2,0:0:0:0:
219,284,69890,2,0,L|219:199,1,85,8|2,0:0|0:2,0:0:0:0:
448,192,70206,2,0,P|472:158|474:107,1,85,2|2,1:2|0:2,0:0:0:0:
332,214,70522,2,0,P|335:255|359:290,1,85,10|0,0:2|0:0,0:0:0:0:
390,126,70837,6,0,L|287:118,1,85,2|2,1:2|0:2,0:0:0:0:
67,92,71153,1,8,0:0:0:0:
232,43,71311,1,2,0:2:0:0:
157,224,71469,1,2,0:2:0:0:
167,126,71627,1,0,0:0:0:0:
98,314,71785,1,10,0:2:0:0:
157,224,71943,6,0,B|224:234|224:234|268:223|268:223|327:231,1,170,6|2,0:2|0:0,0:0:0:0:
274,312,72416,1,8,0:0:0:0:
344,131,72574,1,2,0:2:0:0:
450,242,72732,1,2,1:2:0:0:
324,230,72890,1,2,0:2:0:0:
482,135,73048,2,0,L|497:48,1,85,8|6,0:0|0:2,0:0:0:0:
186,120,73364,6,0,B|263:157|263:157|344:131,1,170,0|8,0:0|0:0,0:0:0:0:
270,57,73837,1,0,0:0:0:0:
324,230,73995,1,2,1:2:0:0:
186,120,74153,1,2,0:2:0:0:
344,131,74311,1,8,0:0:0:0:
206,227,74469,6,0,L|72:213,1,127.5,6|0,0:2|0:0,0:0:0:0:
45,209,74785,1,2,0:2:0:0:
240,303,74943,2,0,P|275:276|288:232,1,85,8|0,0:0|0:0,0:0:0:0:
138,55,75258,2,0,P|152:94|185:119,1,85,2|2,1:2|1:2,0:0:0:0:
344,131,75574,2,0,P|409:114|466:141,1,127.5,8|0,0:0|0:0,0:0:0:0:
483,164,75890,6,0,B|489:231|489:231|476:266|476:266|482:337,1,170,6|8,0:2|0:2,0:0:0:0:
284,190,76364,2,0,P|259:134|289:66,1,127.5,2|0,0:2|0:0,0:0:0:0:
307,54,76679,1,2,0:2:0:0:
483,164,76837,1,0,0:0:0:0:
367,310,76995,6,0,B|263:328|263:328|198:302,1,170,2|2,0:2|0:0,0:0:0:0:
63,199,77469,1,2,0:0:0:0:
203,304,77627,1,4,0:1:0:0:
237,55,77943,5,2,0:0:0:0:
175,198,78101,1,2,0:0:0:0:
73,73,78258,1,0,0:0:0:0:
262,148,78416,6,0,B|344:162|344:162|405:144,1,140.25000428009,6|0,0:2|0:0,0:0:0:0:
396,9,78732,6,0,B|382:91|382:91|400:152,1,140.25000428009,10|0,0:2|0:0,0:0:0:0:
400,282,79048,6,0,B|414:200|414:200|396:139,1,140.25000428009,2|0,0:2|0:0,0:0:0:0:
397,145,79364,5,10,0:2:0:0:
325,329,79522,2,0,P|393:368|462:344,1,140.25000428009,6|0,0:2|0:0,0:0:0:0:
471,323,79837,1,2,0:0:0:0:
397,145,79995,1,8,0:0:0:0:
266,261,80153,2,0,L|179:253,1,85,2|0,0:2|0:0,0:0:0:0:
200,367,80469,1,2,0:2:0:0:
221,178,80627,1,10,0:2:0:0:
85,263,80785,1,0,0:0:0:0:
266,261,80943,6,0,P|306:199|277:104,1,170,2|8,1:2|0:0,0:0:0:0:
68,41,81416,2,0,L|73:131,1,85,2|2,0:2|1:0,0:0:0:0:
85,263,81732,1,2,0:2:0:0:
167,102,81890,1,10,0:2:0:0:
266,261,82048,2,0,B|390:288|390:288|381:238,1,170,6|2,0:2|0:0,0:0:0:0:
301,88,82522,2,0,L|314:171,1,85,8|2,0:0|0:2,0:0:0:0:
477,305,82837,2,0,L|463:221,1,85,0|0,1:0|0:0,0:0:0:0:
301,88,83153,1,8,0:0:0:0:
490,81,83311,1,6,0:2:0:0:
382,245,83469,6,0,P|304:263|228:221,1,170,0|8,0:0|0:0,0:0:0:0:
301,88,83943,1,0,0:0:0:0:
74,246,84101,2,0,P|155:263|227:222,1,170,2|8,1:2|0:0,0:0:0:0:
154,121,84574,2,0,P|105:162|170:159,1,170,6|2,0:2|0:2,0:0:0:0:
301,88,85048,2,0,L|293:197,1,85,8|0,0:0|0:0,0:0:0:0:
391,220,85364,1,2,1:2:0:0:
233,277,85522,1,2,1:2:0:0:
364,341,85679,2,0,L|449:333,1,85,8|0,0:0|0:0,0:0:0:0:
179,343,85995,6,0,P|149:282|177:214,1,127.5,2|0,0:0|0:0,0:0:0:0:
184,199,86311,2,0,L|187:103,1,85,0|2,0:0|0:0,0:0:0:0:
278,51,86627,1,8,0:0:0:0:
89,109,86785,1,0,0:0:0:0:
89,109,86943,1,2,0:0:0:0:
278,51,87101,5,8,0:0:0:0:
278,51,87179,1,0,0:0:0:0:
278,51,87258,2,0,L|333:57,1,42.5,2|2,0:0|0:0,0:0:0:0:
427,105,87416,2,0,L|420:165,1,42.5,8|0,0:0|0:0,0:0:0:0:
318,243,87574,1,8,0:0:0:0:
318,243,87653,1,0,0:0:0:0:
318,243,87732,2,0,L|315:200,1,42.5,8|8,0:0|0:0,0:0:0:0:
270,316,87890,6,0,P|314:331|366:317,1,85,4|8,0:0|0:0,0:0:0:0:
193,268,88206,2,0,P|178:312|192:364,1,85,8|0,0:0|0:0,0:0:0:0:
318,243,88522,6,0,L|312:91,1,144.500002756119,4|0,0:2|0:0,0:0:0:0:
231,37,88995,1,2,0:2:0:0:
150,98,89153,2,0,L|144:242,1,144.500002756119,8|2,0:0|0:2,0:0:0:0:
51,284,89627,1,8,0:0:0:0:
159,365,89785,2,0,P|248:338|302:349,1,144.500002756119,2|8,0:1|0:0,0:0:0:0:
364,271,90258,1,0,0:0:0:0:
455,366,90416,2,0,L|464:273,1,72.2500013780594,4|0,0:0|0:0,0:0:0:0:
357,199,90732,2,0,L|363:270,1,72.2500013780594,8|0,0:0|0:0,0:0:0:0:
445,91,91048,5,4,0:1:0:0:
256,192,91127,12,0,92785,0:0:0:0:
264,191,92943,5,8,0:0:0:0:
445,91,93101,1,8,0:0:0:0:
264,191,93574,6,0,L|173:183,1,85,0|0,1:0|1:0,0:0:0:0:
328,311,93890,2,0,L|419:303,1,85,10|0,0:2|0:0,0:0:0:0:
134,257,94206,2,0,P|96:178|147:104,1,170,10|10,0:2|0:2,0:0:0:0:
264,191,94679,1,2,0:2:0:0:
179,330,94837,2,0,P|136:342|87:328,1,85,0|0,0:0|0:0,0:0:0:0:
264,191,95153,2,0,P|307:203|356:189,1,85,10|0,0:2|0:0,0:0:0:0:
134,28,95469,2,0,L|135:131,1,85,10|2,0:2|0:2,0:0:0:0:
134,257,95785,1,10,0:2:0:0:
309,115,96101,6,0,L|394:120,1,85,0|0,1:0|1:0,0:0:0:0:
218,252,96416,2,0,L|134:257,1,85,10|0,0:2|0:0,0:0:0:0:
448,200,96732,2,0,P|480:145|448:43,1,170,10|10,0:2|0:2,0:0:0:0:
309,115,97206,1,0,0:0:0:0:
404,272,97364,2,0,P|451:285|490:273,1,85,10|0,0:2|0:0,0:0:0:0:
309,115,97679,2,0,P|262:128|223:116,1,85,10|0,0:2|0:0,0:0:0:0:
65,252,97995,2,0,P|112:265|151:253,1,85,10|0,0:2|0:0,0:0:0:0:
267,45,98311,1,10,0:2:0:0:
404,272,98627,6,0,L|413:187,1,85,0|0,1:0|1:0,0:0:0:0:
299,199,98943,2,0,L|308:114,1,85,10|0,0:2|0:0,0:0:0:0:
353,341,99258,2,0,P|433:351|487:289,1,170,10|10,0:2|0:2,0:0:0:0:
413,187,99732,1,2,0:2:0:0:
268,288,99890,2,0,L|178:278,1,85,0|0,0:0|0:0,0:0:0:0:
328,177,100206,2,0,L|413:187,1,85,10|0,0:2|0:0,0:0:0:0:
268,288,100522,1,10,0:2:0:0:
384,73,100679,1,2,0:2:0:0:
224,188,100837,1,10,0:2:0:0:
224,188,101153,6,0,L|134:178,1,85,0|0,1:0|1:0,0:0:0:0:
268,77,101469,1,2,0:0:0:0:
268,288,101627,2,0,L|358:278,1,85,8|2,0:0|0:0,0:0:0:0:
268,77,101943,1,2,0:0:0:0:
78,228,102101,2,0,P|61:186|71:145,1,85,8|0,0:0|0:0,0:0:0:0:
268,77,102416,6,0,L|336:82,1,56.6666666666667,8|8,0:0|0:0,0:0:0:0:
462,148,102627,2,0,L|395:149,1,56.6666666666667,8|8,0:0|0:0,0:0:0:0:
265,117,102837,6,0,L|332:116,1,56.6666666666667,8|8,0:0|0:0,0:0:0:0:
462,187,103048,2,0,L|394:182,1,56.6666666666667,8|8,0:0|0:0,0:0:0:0:
323,207,103258,1,8,0:0:0:0:
323,207,103364,2,0,L|325:263,2,56.6666666666667,8|4|0,0:0|0:0|0:0,0:0:0:0:
232,201,103679,6,0,L|233:328,1,127.5,4|0,0:1|0:0,0:0:0:0:
234,358,103995,1,2,0:2:0:0:
325,263,104153,1,0,0:0:0:0:
145,284,104311,2,0,P|113:216|151:111,1,170,10|2,0:2|0:2,0:0:0:0:
325,263,104785,2,0,P|357:195|319:90,1,170,2|10,0:2|0:2,0:0:0:0:
136,127,105258,2,0,L|45:117,1,85,8|0,0:0|0:0,0:0:0:0:
333,106,105574,2,0,L|417:96,1,85,10|0,0:2|0:0,0:0:0:0:
235,237,105890,5,4,0:0:0:0:
276,15,106048,1,2,0:1:0:0:
256,192,106127,12,0,113785,0:0:0:0:
