osu file format v14

[General]
AudioFilename: audio.mp3
AudioLeadIn: 0
PreviewTime: 67758
Countdown: 0
SampleSet: Soft
StackLeniency: 0.7
Mode: 0
LetterboxInBreaks: 0
WidescreenStoryboard: 0

[Editor]
Bookmarks: 35153
DistanceSpacing: 1.4
BeatDivisor: 4
GridSize: 4
TimelineZoom: 2.1

[Metadata]
Title:Zen Zen Zense (movie ver.)
TitleUnicode:前前前世 (movie ver.)
Artist:RADWIMPS
ArtistUnicode:RADWIMPS
Creator:Monstrata
Version:Kalibe's Hard
Source:君の名は。
Tags:your name taki mitsuha kimi no na wa Sotarks Haruto HabiHolic Akitoshi Kalibe Kocari Battle Haruto_Aizawa Haruto-
BeatmapID:1093529
BeatmapSetID:513590

[Difficulty]
HPDrainRate:5
CircleSize:3.8
OverallDifficulty:6
ApproachRate:8
SliderMultiplier:1.45
SliderTickRate:1

[Events]
//Background and Video events
0,0,"thumb-1920-737491.jpg",0,0
//Break Periods
//Storyboard Layer 0 (Background)
//Storyboard Layer 1 (Fail)
//Storyboard Layer 2 (Pass)
//Storyboard Layer 3 (Foreground)
//Storyboard Sound Samples

[TimingPoints]
101,315.789473684211,4,2,1,55,1,0
101,-111.111111111111,4,2,1,55,0,0
10206,-100,4,2,1,70,0,0
20311,-100,4,2,1,55,0,0
40522,-100,4,2,1,60,0,0
45574,-100,4,2,1,65,0,0
55679,-111.111111111111,4,2,1,55,0,0
63258,-111.111111111111,4,2,1,65,0,0
68311,-100,4,2,1,70,0,1
88522,-111.111111111111,4,2,1,60,0,1
93574,-100,4,2,1,70,0,0
106048,-125,4,2,1,35,0,0
113785,-125,4,2,1,5,0,0

[Colours]
Combo1 : 172,89,255
Combo2 : 55,255,255
Combo3 : 255,128,255
Combo4 : 254,168,73

[HitObjects]
191,104,101,6,0,L|217:75,2,32.624999004364,4|0|0,0:2|0:0|0:0,0:0:0:0:
129,171,416,2,0,L|259:143,2,130.499996017456,2|4|0,0:0|0:3|0:0,0:0:0:0:
50,218,1206,6,0,P|116:213|180:247,1,130.499996017456,4|0,0:3|0:0,0:0:0:0:
254,280,1679,2,0,P|260:247|259:209,1,65.2499980087281,4|0,0:3|0:0,0:0:0:0:
225,129,1995,2,0,L|152:144,1,65.2499980087281,2|0,0:0|0:0,0:0:0:0:
109,222,2311,2,0,L|186:244,1,65.2499980087281,4|0,0:3|0:0,0:0:0:0:
254,280,2627,6,0,L|253:334,2,32.624999004364,4|0|0,0:2|0:0|0:0,0:0:0:0:
334,235,2943,2,0,P|344:177|360:83,2,130.499996017456,2|4|0,0:0|0:3|0:0,0:0:0:0:
375,318,3732,6,0,P|314:285|246:281,1,130.499996017456,4|0,0:3|0:0,0:0:0:0:
162,289,4206,1,4,0:3:0:0:
162,289,4364,1,0,0:0:0:0:
88,232,4522,2,0,P|77:262|69:315,1,65.2499980087281,2|0,0:0|0:0,0:0:0:0:
136,368,4837,2,0,P|171:368|215:359,1,65.2499980087281,4|0,0:3|0:0,0:0:0:0:
253,279,5153,6,0,L|307:293,2,32.624999004364,4|0|0,0:2|0:0|0:0,0:0:0:0:
187,213,5469,2,0,L|48:230,2,130.499996017456,2|4|0,0:0|0:3|0:0,0:0:0:0:
271,177,6258,6,0,P|292:103|260:56,1,130.499996017456,4|0,0:3|0:0,0:0:0:0:
176,40,6732,2,0,L|91:54,1,65.2499980087281,4|0,0:3|0:0,0:0:0:0:
27,13,7048,1,2,0:0:0:0:
2,101,7206,1,0,0:0:0:0:
37,185,7364,2,0,P|72:185|112:167,1,65.2499980087281,4|0,0:3|0:0,0:0:0:0:
111,50,7679,6,0,B|192:38|192:38|247:68,1,130.499996017456,4|0,0:2|0:0,0:0:0:0:
312,111,8153,2,0,L|326:35,1,65.2499980087281,0|4,0:0|0:3,0:0:0:0:
404,2,8469,2,0,L|415:80,1,65.2499980087281
469,139,8785,1,4,0:0:0:0:
384,173,8943,6,0,B|342:160|342:160|286:149,2,86.9999973449708,2|2|2,0:3|3:3|3:3,0:3:0:0:
482,244,9574,2,0,B|492:205|492:205|498:144,2,86.9999973449708,2|2|2,0:3|0:3|0:3,0:0:0:0:
391,345,10206,6,0,P|296:345|253:296,1,145,12|8,0:0|0:0,0:0:0:0:
211,226,10679,1,0,0:0:0:0:
295,159,10837,2,0,L|286:247,1,72.5,8|0,0:0|0:0,0:0:0:0:
140,264,11153,2,0,L|126:193,1,72.5,8|0,0:0|0:0,0:0:0:0:
59,115,11469,6,0,P|149:147|201:120,1,145,8|8,0:0|0:0,0:0:0:0:
265,59,11943,1,0,3:0:0:0:
173,29,12101,1,8,0:0:0:0:
173,29,12258,1,0,0:0:0:0:
190,129,12416,2,0,P|226:139|281:151,1,72.5,8|0,0:0|0:0,0:0:0:0:
357,115,12732,6,0,P|329:187|301:263,1,145,12|8,0:0|0:0,0:0:0:0:
209,215,13206,1,0,0:0:0:0:
165,307,13364,2,0,P|200:303|249:297,2,72.5,8|0|8,0:0|3:0|0:0,0:0:0:0:
65,286,13837,1,0,0:0:0:0:
72,184,13995,6,0,B|146:181|146:181|222:221,1,145,8|8,0:0|0:0,0:0:0:0:
305,250,14469,1,0,0:0:0:0:
373,174,14627,2,0,P|337:163|284:147,1,72.5,8|0,0:0|0:0,0:0:0:0:
188,120,14943,2,0,P|194:156|200:195,1,72.5,8|0,0:0|3:0,0:0:0:0:
247,307,15258,6,0,P|316:296|396:256,2,145,12|8|8,0:0|0:0|0:0,0:0:0:0:
146,290,16048,1,0,3:0:0:0:
57,339,16206,2,0,P|48:300|48:251,1,72.5,8|0,0:0|0:0,0:0:0:0:
122,198,16522,6,0,P|157:200|203:214,1,72.5,8|0,0:0|3:0,0:0:0:0:
288,245,16837,2,0,P|275:213|267:167,1,72.5,8|0,0:0|3:0,0:0:0:0:
248,75,17153,2,0,P|227:106|191:137,1,72.5,8|0,0:0|3:0,0:0:0:0:
122,198,17469,1,8,0:0:0:0:
122,198,17627,1,0,3:0:0:0:
28,128,17785,6,0,P|41:199|56:276,1,145,12|8,0:0|0:0,0:0:0:0:
134,348,18258,2,0,P|140:312|153:253,1,72.5,0|8,0:0|0:0,0:0:0:0:
237,211,18574,2,0,P|243:246|251:296,1,72.5,0|8,0:0|0:0,0:0:0:0:
340,332,18890,1,0,3:0:0:0:
408,260,19048,6,0,L|331:239,1,72.5,8|0,0:0|0:0,0:0:0:0:
240,180,19364,2,0,B|144:162|144:162|95:191,1,145,12|0,0:0|0:0,0:0:0:0:
72,89,19837,1,10,0:0:0:0:
169,60,19995,2,8,L|219:70,3,36.25
255,76,20311,6,0,P|326:71|417:61,1,145,4|0,0:0|0:0,0:0:0:0:
496,96,20785,1,2,0:0:0:0:
438,179,20943,2,0,P|365:173|295:154,1,145,0|0,3:0|0:0,0:0:0:0:
118,55,21574,6,0,P|136:124|142:197,1,145,0|0,3:0|0:0,0:0:0:0:
54,249,22048,1,2,0:0:0:0:
137,306,22206,2,0,B|216:293|191:330|279:320,1,145,0|0,3:0|0:0,0:0:0:0:
375,278,22679,1,2,0:0:0:0:
375,278,22837,6,0,P|299:286|239:239,2,145,0|0|0,3:0|0:0|3:0,0:0:0:0:
431,193,23627,2,0,P|425:159|405:111,1,72.5
352,39,23943,1,0,0:0:0:0:
352,39,24101,6,0,P|334:112|317:185,1,145,0|0,3:0|0:0,0:0:0:0:
245,248,24574,1,2,0:0:0:0:
149,213,24732,2,0,P|112:218|75:221,2,72.5,0|0|0,3:0|0:0|3:0,0:0:0:0:
234,157,25206,1,0,0:0:0:0:
189,65,25364,6,0,P|171:97|154:136,1,72.5,4|0,0:0|0:0,0:0:0:0:
163,230,25679,2,0,P|197:249|245:268,1,72.5,2|0,0:0|0:0,0:0:0:0:
84,188,25995,2,0,P|47:193|-8:204,1,72.5,2|0,0:0|0:0,0:0:0:0:
156,129,26311,2,0,P|193:134|245:146,1,72.5,2|0,0:0|0:0,0:0:0:0:
324,172,26627,5,0,3:0:0:0:
424,148,26785,2,0,P|430:184|433:227,2,72.5,2|0|2,0:0|0:0|0:0,0:0:0:0:
352,76,27258,1,0,3:0:0:0:
252,96,27416,2,0,L|280:244,1,145,2|0,0:0|0:0,0:0:0:0:
336,324,27890,6,0,P|264:280|208:296,1,145,4|0,0:1|0:0,0:0:0:0:
116,336,28364,1,0,0:0:0:0:
116,336,28522,2,0,B|108:304|108:304|112:256,1,72.5,0|0,3:0|0:0,0:0:0:0:
176,188,28837,2,0,B|212:188|212:188|260:200,1,72.5,0|0,3:0|0:0,0:0:0:0:
320,268,29153,6,0,B|296:204|296:204|316:124,1,145,0|0,3:0|0:0,0:0:0:0:
348,32,29627,1,0,0:0:0:0:
439,76,29785,2,0,P|475:88|523:100,1,72.5,2|0,0:0|0:0,0:0:0:0:
451,181,30101,2,0,P|415:193|363:201,1,72.5,0|0,3:0|0:0,0:0:0:0:
280,152,30416,6,0,B|252:220|292:228|264:300,1,145,4|0,0:0|0:0,0:0:0:0:
212,380,30890,1,2,0:0:0:0:
138,303,31048,2,0,P|210:269|272:301,1,145,0|0,3:0|0:0,0:0:0:0:
468,264,31679,6,0,P|396:230|334:262,1,145,0|0,3:0|0:0,0:0:0:0:
252,308,32153,1,2,0:0:0:0:
184,232,32311,2,0,P|192:156|208:76,1,145,0|0,3:0|0:0,0:0:0:0:
284,24,32785,1,2,0:0:0:0:
284,24,32943,6,0,P|300:112|304:176,2,145,0|0|0,3:0|0:0|3:0,0:0:0:0:
188,60,33732,2,0,P|152:52|112:44,2,72.5,2|0|0,0:0|3:0|0:0,0:0:0:0:
192,164,34206,6,0,P|122:147|46:134,1,145,2|0,0:0|0:0,0:0:0:0:
4,225,34679,1,0,0:0:0:0:
44,320,34837,2,0,P|117:316|190:309,1,145,2|0,0:0|0:0,0:0:0:0:
284,268,35311,1,2,0:0:0:0:
376,312,35469,6,0,B|412:324|412:324|456:328,1,72.5,4|0,0:0|0:0,0:0:0:0:
468,228,35785,2,0,B|432:216|432:216|388:212,1,72.5,2|0,0:0|0:0,0:0:0:0:
304,256,36101,2,0,B|292:292|292:292|288:336,1,72.5,2|0,0:0|0:0,0:0:0:0:
397,212,36416,2,0,B|393:177|393:177|381:141,1,72.5,2|0,0:0|0:0,0:0:0:0:
304,76,36732,6,0,P|228:88|140:112,1,145,2|0,0:0|3:0,0:0:0:0:
76,52,37206,1,0,0:0:0:0:
84,152,37364,2,0,P|160:157|244:176,1,145,2|0,0:0|3:0,0:0:0:0:
324,200,37837,1,0,0:0:0:0:
288,296,37995,5,4,0:0:0:0:
352,104,38311,2,0,L|336:20,1,72.5,2|0,0:0|0:0,0:0:0:0:
244,72,38627,2,0,P|232:148|220:232,1,145,0|0,3:0|0:0,0:0:0:0:
256,312,39101,6,0,P|220:300|180:292,2,72.5,2|0|0,0:0|0:0|0:0,0:0:0:0:
348,356,39574,1,2,0:0:0:0:
348,356,39732,1,0,0:0:0:0:
436,308,39890,2,0,B|456:264|456:264|444:168,1,145,2|0,0:0|3:0,0:0:0:0:
396,80,40364,1,0,0:0:0:0:
308,132,40522,6,0,P|272:127|230:118,1,72.5,4|0,0:0|0:0,0:0:0:0:
142,79,40837,2,0,P|154:113|162:171,1,72.5,2|0,0:0|0:0,0:0:0:0:
135,247,41153,2,0,P|167:231|227:211,1,72.5,2|0,0:0|0:0,0:0:0:0:
298,250,41469,2,0,P|291:214|287:168,1,72.5,4|0,0:3|0:0,0:0:0:0:
358,104,41785,6,0,L|281:75,1,72.5,4|0,0:0|0:0,0:0:0:0:
192,91,42101,1,2,0:0:0:0:
192,91,42258,1,0,0:0:0:0:
108,28,42416,2,0,P|90:98|79:187,1,145,2|4,0:0|0:3,0:0:0:0:
80,272,42890,1,0,0:0:0:0:
184,248,43048,6,0,B|288:264|288:264|316:292,2,145,4|4|0,0:0|0:3|0:0,0:0:0:0:
104,184,43837,2,0,P|136:172|189:163,1,72.5,0|2,0:0|0:0,0:0:0:0:
278,152,44153,6,0,B|299:221|299:221|318:304,1,145,12|2,0:0|3:0,0:0:0:0:
253,373,44627,1,0,3:0:0:0:
253,373,44785,1,0,3:0:0:0:
149,338,44943,2,0,L|162:248,1,72.5,2|0,0:0|3:0,0:0:0:0:
173,164,45258,1,12,0:0:0:0:
173,164,45574,6,0,P|136:157|96:149,1,72.5,4|0,0:0|0:0,0:0:0:0:
32,76,45890,2,0,P|67:69|114:60,1,72.5,12|0,0:3|0:0,0:0:0:0:
216,12,46206,2,0,P|208:48|196:100,1,72.5,12|0,0:3|0:0,0:0:0:0:
233,203,46522,2,0,P|203:184|165:159,1,72.5,12|0,0:0|0:0,0:0:0:0:
103,62,46837,6,0,P|88:95|71:134,1,72.5,12|0,0:3|0:0,0:0:0:0:
145,231,47153,2,0,P|159:198|174:157,1,72.5,12|0,0:3|0:0,0:0:0:0:
266,124,47469,2,0,P|272:160|282:212,1,72.5,12|0,0:3|0:0,0:0:0:0:
300,328,47785,1,10,0:3:0:0:
300,328,48101,6,0,P|227:309|264:256,1,145,10|8,0:3|0:0,0:0:0:0:
332,208,48574,1,0,0:0:0:0:
332,208,48732,2,0,P|368:216|420:236,1,72.5,8|0,0:0|0:0,0:0:0:0:
472,300,49048,2,0,P|432:300|376:308,1,72.5,12|0,0:0|0:0,0:0:0:0:
300,328,49364,6,0,B|208:336|208:336|144:304,1,145,10|8,0:3|0:0,0:0:0:0:
73,260,49837,1,0,0:0:0:0:
165,211,49995,2,0,L|241:255,2,72.5,10|0|10,0:3|0:0|0:3,0:0:0:0:
128,116,50469,1,0,3:0:0:0:
44,172,50627,6,0,P|32:204|16:252,1,72.5,10|0,0:3|0:0,0:0:0:0:
24,344,50943,2,0,P|60:332|92:316,1,72.5,10|0,0:3|0:0,0:0:0:0:
184,276,51258,2,0,P|160:252|124:220,1,72.5,10|0,0:3|0:0,0:0:0:0:
44,172,51574,2,0,P|72:148|120:120,1,72.5,12|0,0:0|0:0,0:0:0:0:
204,132,51890,6,0,L|180:300,1,145,10|8,0:3|0:0,0:0:0:0:
208,376,52364,1,0,3:0:0:0:
304,340,52522,2,0,P|340:349|388:360,2,72.5,10|0|10,0:3|0:0|0:3,0:0:0:0:
216,288,52995,1,0,0:0:0:0:
308,240,53153,6,0,P|336:148|304:96,1,145,10|10,0:3|0:3,0:0:0:0:
252,32,53627,2,0,P|232:63|208:120,1,72.5,0|10,0:0|0:3,0:0:0:0:
120,68,53943,2,0,P|120:104|132:156,1,72.5,0|12,0:0|0:0,0:0:0:0:
180,228,54258,6,0,B|120:192|120:192|44:208,1,145,0|10,3:0|0:3,0:0:0:0:
68,308,54732,2,0,B|104:320|104:320|152:316,1,72.5,0|2,0:0|0:3,0:0:0:0:
224,260,55048,2,0,B|260:260|260:260|300:272,1,72.5,10|2,3:3|3:0,0:0:0:0:
389,309,55364,1,0,3:0:0:0:
389,309,55522,1,0,3:0:0:0:
388,216,55679,6,0,P|377:146|360:75,1,130.499996017456,4|2,0:0|0:0,0:0:0:0:
280,127,56153,1,0,3:0:0:0:
280,127,56311,2,0,P|211:106|150:94,1,130.499996017456,8|0,0:0|0:0,0:0:0:0:
74,47,56785,6,0,P|64:101|54:183,1,130.499996017456,2|8,0:3|0:0,0:0:0:0:
107,250,57258,2,0,P|167:270|255:290,2,130.499996017456,2|8|0,0:0|0:0|0:0,0:0:0:0:
54,175,58048,1,0,0:0:0:0:
139,142,58206,5,2,0:0:0:0:
139,142,58364,2,0,L|207:133,1,65.2499980087281,8|0,0:0|0:0,0:0:0:0:
294,124,58679,2,0,L|264:204,1,65.2499980087281,0|8,3:0|0:0,0:0:0:0:
235,269,58995,2,0,L|191:214,2,65.2499980087281,2|8|0,0:0|0:0|0:0,0:0:0:0:
295,338,59469,5,2,0:0:0:0:
295,338,59627,2,0,P|237:309|173:319,1,130.499996017456,8|0,0:0|0:0,0:0:0:0:
92,360,60101,2,0,P|121:301|110:238,1,130.499996017456,2|8,0:0|0:0,0:0:0:0:
56,165,60574,1,0,0:0:0:0:
136,122,60732,6,0,B|199:120|199:120|261:152,1,130.499996017456,4|0,0:0|3:0,0:0:0:0:
332,206,61206,2,0,P|341:174|350:126,1,65.2499980087281,2|8,0:0|0:0,0:0:0:0:
357,51,61522,1,0,0:0:0:0:
357,51,61679,2,0,P|324:58|276:74,1,65.2499980087281,2|0,0:0|0:0,0:0:0:0:
258,150,61995,5,0,3:0:0:0:
186,92,62153,2,0,P|172:123|163:161,1,65.2499980087281,8|0,0:0|0:0,0:0:0:0:
223,223,62469,1,0,3:0:0:0:
150,278,62627,2,0,L|69:287,1,65.2499980087281,8|0,0:0|0:0,0:0:0:0:
16,200,62943,1,12,0:0:0:0:
16,200,63258,6,0,L|168:184,1,130.499996017456,4|8,0:2|0:0,0:0:0:0:
313,254,63890,2,0,B|280:250|280:250|232:235,1,65.2499980087281,2|0,0:0|0:0,0:0:0:0:
302,165,64206,2,0,B|335:160|335:160|370:164,1,65.2499980087281,2|8,0:1|0:0,0:0:0:0:
441,216,64522,6,0,B|449:299|449:299|431:346,1,130.499996017456,2|8,0:0|0:0,0:0:0:0:
275,249,65153,2,0,B|192:241|192:241|148:257,1,130.499996017456,2|8,0:0|0:0,0:0:0:0:
69,306,65627,1,0,0:0:0:0:
28,224,65785,6,0,B|12:167|46:163|25:90,2,130.499996017456,4|10|8,0:0|0:0|0:0,0:0:0:0:
69,306,66574,1,0,0:0:0:0:
144,256,66732,2,0,L|128:180,2,65.2499980087281,8|0|2,0:0|0:0|3:0,0:0:0:0:
164,344,67206,5,8,0:0:0:0:
246,304,67364,1,10,3:0:0:0:
229,214,67522,1,10,3:0:0:0:
300,136,67679,1,10,2:0:0:0:
148,257,68311,6,0,B|144:208|144:208|159:169|159:169|152:96,2,145,4|8|0,0:1|0:0|3:0,0:0:0:0:
226,322,69101,2,0,P|233:288|243:229,1,72.5,0|8,0:0|0:0,0:0:0:0:
289,162,69416,1,4,0:0:0:0:
384,197,69574,6,0,L|395:114,2,72.5,2|0|8,0:0|0:0|0:0,0:0:0:0:
340,297,70048,2,0,P|262:303|244:231,1,145,2|0,0:0|0:0,0:0:0:0:
289,162,70522,1,8,0:0:0:0:
289,162,70679,1,0,0:0:0:0:
223,84,70837,6,0,P|203:115|186:148,1,72.5,2|0,0:0|0:0,0:0:0:0:
161,245,71153,1,8,0:0:0:0:
79,178,71311,2,0,P|41:184|-6:190,2,72.5,2|0|0,0:0|0:0|0:0,0:0:0:0:
186,146,71785,1,8,0:0:0:0:
270,202,71943,6,0,B|281:299|281:299|253:357,1,145,4|0,0:0|0:0,0:0:0:0:
163,316,72416,2,0,L|155:230,1,72.5,8|0,0:0|0:0,0:0:0:0:
186,146,72732,1,2,0:0:0:0:
270,202,72890,1,0,0:0:0:0:
288,102,73048,2,0,L|299:24,1,72.5,8|0,0:0|0:0,0:0:0:0:
430,76,73364,6,0,P|357:90|285:102,1,145,2|8,0:0|0:0,0:0:0:0:
185,107,73837,1,0,0:0:0:0:
94,60,73995,2,0,P|88:97|81:152,2,72.5,2|0|8,0:0|0:0|0:0,0:0:0:0:
194,40,74469,6,0,P|186:104|173:201,1,145,4|0,0:0|0:0,0:0:0:0:
152,283,74943,2,0,P|188:274|243:265,1,72.5,8|0,0:0|0:0,0:0:0:0:
321,244,75258,2,0,P|355:252|405:268,1,72.5,2|0,0:0|0:0,0:0:0:0:
484,304,75574,1,8,0:0:0:0:
484,304,75890,6,0,B|470:254|470:254|483:160,1,145,2|8,0:0|0:0,0:0:0:0:
407,92,76364,2,0,L|381:241,1,145,2|0,0:0|0:0,0:0:0:0:
311,162,76837,1,8,0:0:0:0:
237,244,76995,6,0,P|311:240|394:233,1,145,4|0,0:0|0:0,0:0:0:0:
311,162,77469,1,8,0:0:0:0:
210,173,77627,2,0,P|193:241|180:323,1,145,4|2,0:0|0:0,0:0:0:0:
100,378,78101,1,8,0:0:0:0:
54,287,78258,1,8,0:0:0:0:
54,287,78337,1,8,0:0:0:0:
54,287,78416,6,0,B|37:234|37:234|46:142,2,145,4|8|0,0:0|0:0|0:0,0:0:0:0:
119,208,79206,2,0,L|125:127,1,72.5,2|8,0:0|0:0,0:0:0:0:
57,60,79522,6,0,P|131:95|199:65,1,145,4|2,0:0|0:0,0:0:0:0:
274,24,79995,1,8,0:0:0:0:
294,123,80153,2,0,B|300:179|300:179|284:220|284:220|291:276,1,145,2|0,0:0|0:0,0:0:0:0:
387,236,80627,1,8,0:0:0:0:
387,236,80785,1,0,0:0:0:0:
367,135,80943,6,0,L|209:111,1,145,2|8,0:0|0:0,0:0:0:0:
133,64,81416,2,0,P|180:139|156:192,1,145,2|0,0:0|0:0,0:0:0:0:
89,257,81890,1,8,0:0:0:0:
188,224,82048,6,0,B|262:205|245:260|333:244,1,145,4|0,0:0|0:0,0:0:0:0:
411,187,82522,1,8,0:0:0:0:
323,132,82679,2,0,B|225:104|225:104|167:115,1,145,2|0,0:0|3:0,0:0:0:0:
88,152,83153,1,8,0:0:0:0:
88,152,83311,1,0,0:0:0:0:
168,213,83469,6,0,L|186:291,1,72.5,2|0,0:0|0:0,0:0:0:0:
72,336,83785,2,0,P|76:300|91:252,1,72.5,8|0,0:0|0:0,0:0:0:0:
168,213,84101,2,0,P|202:221|252:238,1,72.5,2|0,0:0|0:0,0:0:0:0:
320,312,84416,1,8,0:0:0:0:
381,228,84574,6,0,B|332:224|332:224|284:235|284:235|230:231,1,145,4|0,0:0|0:0,0:0:0:0:
143,190,85048,2,0,L|128:272,2,72.5,8|0|0,0:0|0:0|0:0,0:0:0:0:
249,160,85522,1,2,0:0:0:0:
249,160,85679,2,0,L|236:236,1,72.5,8|0,0:0|0:0,0:0:0:0:
200,338,85995,5,2,0:0:0:0:
129,261,86153,1,8,0:0:0:0:
56,353,86311,2,0,P|138:349|223:332,1,145,0|8,0:0|0:0,0:0:0:0:
327,170,86943,1,4,0:3:0:0:
228,143,87101,1,8,0:0:0:0:
319,98,87258,6,0,P|326:134|326:174,1,72.5,2|8,0:0|0:0,0:0:0:0:
244,231,87574,2,0,P|207:225|154:203,1,72.5,8|4,0:0|0:3,0:0:0:0:
81,169,87890,2,0,B|74:205|74:205|79:254,1,72.5,8|2,0:0|0:3,0:0:0:0:
128,329,88206,2,0,B|163:338|163:338|202:337,1,72.5,2|0,3:0|3:0,0:0:0:0:
290,325,88522,5,4,0:0:0:0:
276,235,88679,2,0,P|277:204|282:159,2,65.2499980087281,2|0|0,0:0|0:0|0:0,0:0:0:0:
406,202,89153,2,0,P|347:186|275:168,1,130.499996017456,12|0,0:3|0:0,0:0:0:0:
223,96,89627,1,8,0:0:0:0:
223,96,89785,6,0,P|200:149|173:235,1,130.499996017456,4|8,0:0|0:0,0:0:0:0:
160,307,90258,1,0,0:0:0:0:
249,286,90416,2,0,P|278:298|319:314,2,65.2499980087281,2|0|0,3:0|0:0|3:0,0:0:0:0:
177,218,90890,1,0,0:0:0:0:
88,248,91048,5,4,0:0:0:0:
256,192,91127,12,8,92943,0:0:0:0:
112,206,93574,6,0,P|183:194|273:193,1,145,4|8,0:0|0:0,0:0:0:0:
355,209,94048,1,0,0:0:0:0:
306,121,94206,2,0,P|269:114|218:105,2,72.5,8|0|12,0:0|0:0|0:3,0:0:0:0:
404,73,94679,6,0,L|348:229,1,145,2|0,0:0|3:0,0:0:0:0:
331,308,95153,2,0,P|310:277|273:232,1,72.5,8|0,0:0|0:0,0:0:0:0:
201,195,95469,2,0,P|164:198|108:212,1,72.5,8|0,0:0|0:0,0:0:0:0:
32,248,95785,2,0,P|42:214|53:170,1,72.5,8|0,0:0|0:0,0:0:0:0:
142,129,96101,6,0,P|161:201|181:286,2,145,12|8|8,0:0|0:0|0:0,0:0:0:0:
134,27,96890,1,0,0:0:0:0:
51,86,97048,2,0,L|31:166,1,72.5,8|0,0:0|0:0,0:0:0:0:
27,258,97364,6,0,P|95:243|173:226,1,145,8|8,0:0|0:0,0:0:0:0:
266,198,97837,1,2,3:0:0:0:
266,198,97995,2,0,L|252:280,1,72.5,8|0,0:0|0:0,0:0:0:0:
352,324,98311,2,0,L|344:244,1,72.5,8|0,0:0|0:0,0:0:0:0:
272,165,98627,6,0,B|223:150|223:150|174:152|174:152|125:140,1,145,12|8,0:0|0:0,0:0:0:0:
38,96,99101,1,0,3:0:0:0:
127,44,99258,2,0,L|213:28,2,72.5,8|0|8,0:0|0:0|0:0,0:0:0:0:
38,96,99732,6,0,B|21:194|21:194|39:252,1,145,2|0,0:0|0:0,0:0:0:0:
124,189,100206,2,0,B|158:177|158:177|203:177,1,72.5,8|0,0:0|0:0,0:0:0:0:
292,205,100522,2,0,L|271:292,1,72.5,8|0,0:0|0:0,0:0:0:0:
186,325,100837,2,0,L|172:239,1,72.5,12|0,0:0|0:0,0:0:0:0:
216,159,101153,6,0,P|306:123|366:166,1,145,12|2,0:0|3:0,0:0:0:0:
414,215,101627,2,0,P|324:179|264:222,1,145,12|2,0:0|3:0,0:0:0:0:
199,251,102101,2,0,P|162:255|117:245,1,72.5,12|0,0:0|0:0,0:0:0:0:
43,191,102416,6,0,L|-18:202,2,48.3333333333333,0|8|8,0:0|0:0|0:0,0:0:0:0:
113,169,102732,2,0,L|173:181,2,48.3333333333333,8|8|8,3:2|0:0|0:0,0:0:0:0:
55,117,103048,6,0,L|-4:124,2,48.3333333333333,8|8|2,0:0|0:0|3:0,0:0:0:0:
124,96,103364,2,0,L|195:111,2,48.3333333333333,2|0|0,3:0|3:0|3:0,0:0:0:0:
100,24,103679,6,0,L|113:180,1,145,12|4,0:0|0:3,0:0:0:0:
41,247,104153,1,2,0:3:0:0:
41,247,104311,2,0,P|114:209|177:237,1,145,8|2,0:0|0:0,0:0:0:0:
251,289,104785,6,0,B|325:305|325:305|400:287,1,145,2|8,0:0|0:0,0:0:0:0:
462,215,105258,2,0,P|429:200|389:186,1,72.5,2|0,3:0|0:0,0:0:0:0:
309,130,105574,2,0,P|301:165|296:210,1,72.5,8|0,0:0|0:0,0:0:0:0:
323,303,105890,5,4,0:1:0:0:
394,187,106048,1,4,0:0:0:0:
256,192,106127,12,0,113785,0:0:0:0:
