osu file format v14

[General]
AudioFilename: audio.mp3
AudioLeadIn: 0
PreviewTime: 67758
Countdown: 0
SampleSet: None
StackLeniency: 0.4
Mode: 0
LetterboxInBreaks: 0
WidescreenStoryboard: 1

[Editor]
Bookmarks: 1758,35153,53153,114101,116943
DistanceSpacing: 1
BeatDivisor: 16
GridSize: 32
TimelineZoom: 2.1

[Metadata]
Title:Zen Zen Zense (movie ver.)
TitleUnicode:前前前世 (movie ver.)
Artist:RADWIMPS
ArtistUnicode:RADWIMPS
Creator:Monstrata
Version:Haruto's Insane
Source:君の名は。
Tags:your name taki mitsuha kimi no na wa Sotarks Haruto HabiHolic Akitoshi Kalibe Kocari Battle Haruto_Aizawa Haruto-
BeatmapID:1093507
BeatmapSetID:513590

[Difficulty]
HPDrainRate:6
CircleSize:3.9
OverallDifficulty:8.2
ApproachRate:9
SliderMultiplier:1.8
SliderTickRate:1

[Events]
//Background and Video events
0,0,"thumb-1920-737491.jpg",0,0
//Break Periods
//Storyboard Layer 0 (Background)
//Storyboard Layer 1 (Fail)
//Storyboard Layer 2 (Pass)
//Storyboard Layer 3 (Foreground)
//Storyboard Sound Samples

[TimingPoints]
101,315.789473684211,4,3,1,50,1,0
101,-133.333333333333,4,3,1,50,0,0
6732,-100,4,3,1,30,0,0
7679,-100,4,3,1,50,0,0
8943,-100,4,3,1,25,0,0
9048,-100,4,3,1,25,0,0
9153,-100,4,3,1,35,0,0
9258,-100,4,3,1,35,0,0
9364,-100,4,3,1,45,0,0
9469,-100,4,3,1,45,0,0
9574,-100,4,3,1,55,0,0
9679,-100,4,3,1,55,0,0
9785,-100,4,3,1,65,0,0
9890,-100,4,3,1,65,0,0
9995,-100,4,3,1,75,0,0
10101,-100,4,3,1,75,0,0
10206,-100,4,3,1,55,0,0
20311,-100,4,2,1,60,0,0
41469,-100,4,2,1,90,0,0
41627,-100,4,2,1,60,0,0
42732,-100,4,2,1,90,0,0
42890,-100,4,2,1,60,0,0
44943,-100,4,2,1,80,0,0
45101,-100,4,3,0,65,0,0
45258,-100,4,2,1,75,0,0
45574,-100,4,3,1,60,0,0
55206,-100,4,3,0,60,0,0
55364,-100,4,3,0,55,0,0
55522,-100,4,3,0,75,0,0
55679,-133.333333333333,4,2,1,55,0,0
62627,-133.333333333333,4,3,0,55,0,0
62785,-133.333333333333,4,2,1,55,0,0
63258,-114.285714285714,4,3,1,55,0,0
66101,-114.285714285714,4,3,1,65,0,0
66416,-114.285714285714,4,3,1,75,0,0
66732,-114.285714285714,4,3,1,85,0,0
67206,-114.285714285714,4,3,1,45,0,0
67285,-114.285714285714,4,3,1,48,0,0
67364,-100,4,3,1,51,0,0
67443,-100,4,3,1,54,0,0
67522,-100,4,3,1,57,0,0
67601,-100,4,3,1,60,0,0
67679,-100,4,3,1,70,0,0
68311,-100,4,3,1,85,0,1
68548,-100,4,3,1,5,0,1
68627,-100,4,3,1,85,0,1
68864,-100,4,3,1,5,0,1
68943,-100,4,3,1,85,0,1
69179,-100,4,3,1,5,0,1
69258,-100,4,3,1,85,0,1
78653,-100,4,2,1,5,0,1
78732,-100,4,3,1,85,0,1
78969,-100,4,2,1,5,0,1
79048,-100,4,3,1,85,0,1
79285,-100,4,2,1,5,0,1
79364,-100,4,3,1,85,0,1
87890,-100,4,3,0,70,0,1
88206,-100,4,3,0,85,0,1
88522,-133.333333333333,4,3,1,70,0,0
90416,-133.333333333333,4,3,0,70,0,0
90732,-133.333333333333,4,3,0,80,0,0
91048,-526.315789473684,4,3,1,70,0,0
91127,-526.315789473684,4,3,1,20,0,0
92785,-526.315789473684,4,2,1,5,0,0
92943,-526.315789473684,4,3,1,85,0,0
93574,-100,4,3,1,55,0,1
93732,-100,4,3,1,55,0,0
102416,-100,4,3,0,55,0,0
102522,-100,4,3,1,55,0,0
103153,-100,4,3,0,55,0,0
103679,-100,4,3,1,55,0,0
105258,-100,4,3,0,55,0,0
105416,-100,4,3,1,55,0,0
106048,-355.87037037037,4,3,1,95,0,0
106127,-357.142857142857,4,3,1,95,0,0
106206,-357.142857142857,4,2,1,35,0,0
107469,-357.142857142857,4,2,1,5,0,0

[Colours]
Combo1 : 172,89,255
Combo2 : 55,255,255
Combo3 : 255,128,255
Combo4 : 254,168,73

[HitObjects]
128,224,101,6,0,L|108:278,2,33.7500012874604,6|0|0,0:2|0:0|0:0,0:0:0:0:
184,114,416,1,0,1:0:0:0:
101,141,574,1,2,0:2:0:0:
211,197,732,2,0,P|268:132|259:72,1,135.000005149842,0|0,0:0|1:0,0:0:0:0:
101,141,1206,1,2,0:2:0:0:
147,286,1364,6,0,P|130:256|127:223,1,67.5000025749208
203,50,1679,2,0,P|199:84|183:113,1,67.5000025749208,4|0,0:3|0:0,0:0:0:0:
37,121,1996,2,0,P|70:124|100:140,1,67.5000025749208,4|0,0:0|0:0,0:0:0:0:
270,176,2311,2,0,P|241:192|208:196,1,67.5000025749208,4|0,0:0|0:0,0:0:0:0:
338,242,2627,6,0,L|334:293,2,33.7500012874604,2|0|0,0:0|0:0|0:0,0:0:0:0:
336,108,2943,1,0,1:0:0:0:
270,176,3101,1,2,3:2:0:0:
404,174,3258,2,0,B|424:220|424:220|411:333,1,135.000005149842,0|0,0:0|1:0,0:0:0:0:
270,176,3732,1,2,3:2:0:0:
268,42,3890,6,0,P|310:15|350:21,1,67.5000025749208,0|0,0:0|3:0,0:0:0:0:
270,176,4206,1,4,3:0:0:0:
226,260,4364,1,0,3:0:0:0:
202,110,4522,1,4,3:0:0:0:
133,247,4679,1,0,3:0:0:0:
118,154,4837,2,0,P|65:176|48:204,1,67.5000025749208
321,257,5153,6,0,L|319:308,2,33.7500012874604,2|0|0,0:0|0:0|0:0,0:0:0:0:
202,110,5469,1,0,1:0:0:0:
226,260,5627,1,2,0:2:0:0:
391,190,5785,2,0,P|332:159|268:175,1,135.000005149842,0|0,0:0|1:0,0:0:0:0:
457,260,6258,6,0,B|480:213|480:213|475:104,1,135.000005149842,2|0,0:2|0:0,0:0:0:0:
321,257,6732,1,4,0:0:0:0:
387,327,6890,1,0,0:0:0:0:
457,260,7048,1,4,0:0:0:0:
391,190,7206,1,0,0:0:0:0:
220,215,7364,2,0,L|208:117,1,90
321,257,7679,6,0,P|348:247|368:234,2,45,2|0|0,0:0|0:0|0:0,0:0:0:0:
201,323,7995,1,0,1:0:0:0:
298,163,8153,1,2,0:2:0:0:
294,350,8311,1,0,0:0:0:0:
133,253,8469,1,0,0:0:0:0:
65,182,8627,2,0,P|133:158|174:170,1,90,0|0,1:0|0:0,0:0:0:0:
301,102,8943,22,0,L|297:162,1,60,2|0,0:2|2:0,0:0:0:0:
321,257,9153,2,0,L|374:230,1,60,2|0,0:2|2:0,0:0:0:0:
445,162,9364,2,0,L|395:128,1,60,2|0,0:2|2:0,0:0:0:0:
318,83,9574,6,0,L|296:145,1,60,2|0,0:2|2:0,0:0:0:0:
295,252,9785,2,0,L|359:239,1,60,2|0,0:2|2:0,0:0:0:0:
453,186,9995,2,0,L|410:136,1,60,2|0,0:2|2:0,0:0:0:0:
219,201,10206,6,0,P|204:261|224:315,1,90,8|0,0:0|0:0,0:0:0:0:
297,161,10522,2,0,P|312:101|292:47,1,90,10|2,0:2|0:0,0:0:0:0:
128,115,10837,2,0,L|218:109,1,90,10|0,0:2|0:0,0:0:0:0:
219,201,11153,2,0,L|129:207,1,90,10|0,0:2|0:0,0:0:0:0:
297,161,11469,6,0,P|312:101|292:47,1,90,10|2,0:2|0:0,0:0:0:0:
219,201,11785,2,0,P|204:261|224:315,1,90,10|2,0:2|0:0,0:0:0:0:
384,258,12101,2,0,L|295:252,1,90,10|0,0:2|0:0,0:0:0:0:
386,167,12416,2,0,L|296:160,1,90,10|0,0:2|0:0,0:0:0:0:
463,213,12732,5,0,1:0:0:0:
463,213,12811,1,0,1:2:0:0:
463,213,12890,1,0,1:0:0:0:
387,77,13048,1,10,0:2:0:0:
464,123,13206,1,2,0:0:0:0:
386,167,13364,2,0,L|296:160,1,90,10|0,0:2|0:0,0:0:0:0:
222,107,13679,2,0,P|269:72|310:71,1,90,10|0,0:2|0:0,0:0:0:0:
213,198,13995,6,0,P|159:174|137:139,1,90,10|2,0:2|0:0,0:0:0:0:
297,161,14311,2,0,P|303:219|284:255,1,90,10|2,0:2|0:0,0:0:0:0:
206,287,14627,2,0,L|212:197,1,90,10|0,0:2|0:0,0:0:0:0:
297,336,14943,1,10,0:2:0:0:
290,246,15100,1,2,0:2:0:0:
460,279,15258,21,0,1:0:0:0:
460,279,15337,1,0,1:0:0:0:
460,279,15416,1,0,1:0:0:0:
370,285,15574,1,10,0:2:0:0:
409,203,15732,1,2,0:0:0:0:
290,246,15890,1,10,0:2:0:0:
328,163,16048,1,0,0:0:0:0:
406,116,16206,2,0,P|418:159|409:203,1,90,10|0,0:2|0:0,0:0:0:0:
238,171,16522,6,0,L|142:172,1,90,10|2,0:2|0:0,0:0:0:0:
245,323,16837,2,0,L|292:239,1,90,10|2,0:2|0:0,0:0:0:0:
110,253,17153,2,0,L|158:336,1,90,10|0,0:2|0:0,0:0:0:0:
328,163,17469,1,10,0:2:0:0:
238,171,17627,1,0,0:0:0:0:
409,202,17785,5,0,0:0:0:0:
409,202,17864,1,0,0:0:0:0:
409,202,17943,1,0,0:0:0:0:
320,73,18101,1,10,0:2:0:0:
288,244,18258,1,2,0:0:0:0:
409,202,18416,2,0,P|418:148|401:108,1,90,10|2,0:2|0:2,0:0:0:0:
230,81,18732,2,0,L|126:93,1,90,6|0,0:2|0:0,0:0:0:0:
328,163,19048,5,2,0:0:0:0:
320,73,19206,1,0,0:0:0:0:
238,171,19364,2,0,P|263:222|298:249,1,90,4|0,0:1|0:0,0:0:0:0:
370,285,19679,21,0,1:0:0:0:
288,244,19837,1,0,0:0:0:0:
270,284,19915,1,0,0:0:0:0:
232,307,19994,1,0,0:0:0:0:
188,303,20073,1,0,0:0:0:0:
154,274,20152,1,0,0:0:0:0:
144,231,20231,1,0,0:0:0:0:
155,195,20311,6,0,B|172:241|152:285|152:285|132:333|152:370,1,180
73,237,20785,1,0,0:0:0:0:
73,237,20943,2,0,P|26:237|-25:269,1,90,2|0,1:2|0:0,0:0:0:0:
231,328,21258,2,0,P|271:347|315:346,1,90,2|2,1:2|0:0,0:0:0:0:
285,169,21574,6,0,L|290:259,1,90,0|2,1:0|0:0,0:0:0:0:
453,226,21890,2,0,P|412:206|368:207,1,90,2|0,1:2|0:0,0:0:0:0:
281,79,22206,2,0,L|285:168,1,90,2|0,1:2|0:0,0:0:0:0:
207,216,22522,1,0,1:0:0:0:
47,130,22679,1,0,0:0:0:0:
47,130,22758,1,0,0:0:0:0:
47,130,22837,6,0,P|123:87|201:126,1,180,2|2,1:2|1:2,0:0:0:0:
126,177,23311,1,0,0:0:0:0:
126,177,23469,2,0,P|117:222|135:277,1,90,2|2,1:2|0:0,0:0:0:0:
208,303,23785,2,0,P|217:258|199:203,1,90,0|2,1:0|0:0,0:0:0:0:
281,79,24101,22,0,L|285:168,1,90,0|2,1:0|0:0,0:0:0:0:
195,34,24416,2,0,L|199:123,1,90,2|0,1:2|0:0,0:0:0:0:
443,139,24732,2,0,P|403:117|359:120,1,90,2|0,1:2|0:0,0:0:0:0:
362,209,25048,2,0,P|402:230|447:228,1,90,2|0,1:2|0:0,0:0:0:0:
212,214,25364,5,6,1:2:0:0:
359,120,25522,1,0,0:2:0:0:
368,298,25679,1,2,1:2:0:0:
283,167,25837,1,0,0:2:0:0:
362,209,25996,1,2,1:2:0:0:
197,124,26153,1,2,0:2:0:0:
212,214,26311,1,2,1:2:0:0:
126,187,26469,1,2,0:2:0:0:
127,333,26627,5,2,1:2:0:0:
212,215,26785,1,0,0:2:0:0:
73,259,26943,1,2,1:2:0:0:
212,305,27101,1,0,0:2:0:0:
368,298,27258,1,2,1:2:0:0:
283,168,27416,2,0,P|240:180|212:214,1,90,2|0,0:0|1:0,0:0:0:0:
127,333,27732,1,2,0:0:0:0:
73,259,27890,6,0,P|39:208|48:145,1,90,6|0,1:2|0:0,0:0:0:0:
125,96,28206,2,0,L|125:186,1,90,2|2,1:2|0:0,0:0:0:0:
215,94,28522,2,0,P|207:51|178:16,1,90,0|2,1:0|0:0,0:0:0:0:
36,90,28837,2,0,L|35:179,1,90,2|0,1:2|0:0,0:0:0:0:
214,183,29153,37,2,1:2:0:0:
125,96,29311,1,2,0:0:0:0:
169,263,29469,2,0,P|238:273|273:253,1,90,0|2,1:2|0:0,0:0:0:0:
125,186,29785,1,2,1:2:0:0:
31,291,29943,1,0,0:0:0:0:
169,263,30101,1,2,1:2:0:0:
40,204,30258,1,0,0:0:0:0:
110,335,30416,6,0,P|175:356|213:342,1,90,2|0,1:0|0:0,0:0:0:0:
211,188,30732,2,0,P|200:231|169:263,1,90,0|0,1:0|0:0,0:0:0:0:
124,185,31048,2,0,P|166:110|252:110,1,180,2|2,1:2|1:2,0:0:0:0:
299,185,31522,1,2,0:0:0:0:
298,32,31679,6,0,P|331:62|340:106,1,90,0|2,1:0|0:0,0:0:0:0:
472,181,31995,2,0,P|429:194|387:180,1,90,2|0,1:2|0:0,0:0:0:0:
257,257,32311,2,0,P|266:213|299:184,1,90,2|0,1:2|0:0,0:0:0:0:
252,349,32627,1,0,1:0:0:0:
164,253,32785,1,2,0:0:0:0:
164,253,32864,1,0,0:0:0:0:
164,253,32943,22,0,L|153:145,1,90,2|0,1:2|0:0,0:0:0:0:
0,179,33258,2,0,L|81:216,1,90,2|0,1:2|0:0,0:0:0:0:
146,72,33574,2,0,L|73:124,1,90,2|0,1:2|0:0,0:0:0:0:
245,154,33890,1,2,1:2:0:0:
154,163,34048,1,2,0:0:0:0:
236,63,34206,5,0,1:0:0:0:
329,192,34364,1,2,2:0:0:0:
329,192,34443,1,0,0:0:0:0:
329,192,34522,2,0,P|331:122|309:87,1,90,2|0,1:2|0:0,0:0:0:0:
253,244,34837,2,0,P|251:314|273:349,1,90,2|0,1:2|0:0,0:0:0:0:
245,154,35153,2,0,L|144:164,1,90,2|0,1:2|0:0,0:0:0:0:
337,282,35469,6,0,L|438:272,1,90,6|0,1:2|0:0,0:0:0:0:
329,192,35785,1,2,1:2:0:0:
163,252,35943,1,0,0:0:0:0:
337,282,36101,1,2,1:2:0:0:
323,105,36258,1,2,0:0:0:0:
253,244,36416,1,2,1:2:0:0:
155,162,36574,1,2,0:0:0:0:
239,67,36732,22,0,P|237:137|259:172,1,90,2|0,1:2|0:0,0:0:0:0:
412,99,37048,2,0,L|323:105,1,90,2|2,1:2|0:0,0:0:0:0:
163,252,37364,1,0,0:0:0:0:
245,154,37522,1,0,0:0:0:0:
256,248,37679,1,0,0:0:0:0:
155,162,37837,1,0,0:0:0:0:
90,304,37995,6,0,B|128:348|184:344|220:318|220:318|239:331|272:333,1,180,4|2,1:1|1:2,0:0:0:0:
155,162,38469,1,2,0:0:0:0:
163,252,38627,1,0,1:0:0:0:
244,153,38785,1,2,0:0:0:0:
146,73,38943,1,2,1:2:0:0:
66,171,39101,1,2,0:0:0:0:
253,244,39258,6,0,P|309:219|332:178,1,90,0|2,1:2|0:0,0:0:0:0:
239,67,39574,2,0,P|232:127|256:168,1,90,0|2,1:2|0:0,0:0:0:0:
398,142,39890,2,0,P|365:113|322:103,1,90,2|0,1:2|0:0,0:0:0:0:
163,252,40206,2,0,L|155:162,1,90,2|0,1:2|0:0,0:0:0:0:
289,328,40522,5,6,1:2:0:0:
142,340,40679,1,0,0:0:0:0:
253,244,40837,1,2,1:2:0:0:
221,384,40995,1,0,0:0:0:0:
163,252,41153,5,2,1:2:0:0:
142,340,41311,1,0,0:0:0:0:
253,244,41469,1,2,1:0:0:0:
155,162,41627,1,0,0:0:0:0:
276,148,41785,6,0,L|288:336,1,180,2|2,1:2|1:2,0:0:0:0:
155,162,42258,1,2,0:0:0:0:
204,51,42416,2,0,P|286:26|381:93,1,180,2|2,1:2|1:0,0:0:0:0:
155,162,42890,1,0,0:0:0:0:
288,327,43048,5,4,1:3:0:0:
253,244,43206,1,0,0:0:0:0:
76,277,43364,1,0,1:0:0:0:
221,384,43522,1,0,0:0:0:0:
163,252,43679,1,0,1:0:0:0:
142,340,43837,1,0,0:0:0:0:
221,384,43995,1,0,1:0:0:0:
342,255,44153,6,0,P|322:188|205:166,1,180,8|0,0:3|1:0,0:0:0:0:
76,277,44627,1,2,3:0:0:0:
253,244,44785,1,2,3:0:0:0:
98,190,44943,1,2,2:3:0:0:
221,384,45101,1,8,2:3:0:0:
163,252,45258,1,8,3:0:0:0:
142,340,45416,1,0,0:0:0:0:
253,244,45574,5,8,0:0:0:0:
221,384,45732,1,0,0:0:0:0:
342,254,45890,2,0,L|253:244,1,90,4|0,0:0|0:0,0:0:0:0:
132,157,46206,1,0,0:0:0:0:
224,157,46364,1,4,0:0:0:0:
180,299,46522,5,8,0:0:0:0:
103,244,46679,1,0,0:0:0:0:
253,244,46837,2,0,L|351:256,1,90,4|0,0:0|0:0,0:0:0:0:
132,157,47153,1,4,0:0:0:0:
180,299,47311,1,0,0:0:0:0:
224,157,47469,2,0,P|203:95|155:67,1,90,8|0,0:0|0:0,0:0:0:0:
14,254,47785,2,0,L|104:244,1,90,8|0,0:0|0:0,0:0:0:0:
224,157,48101,5,8,0:0:0:0:
98,71,48258,1,0,0:0:0:0:
42,167,48416,2,0,L|131:156,1,90,4|0,0:0|0:0,0:0:0:0:
180,299,48732,1,4,0:0:0:0:
253,244,48890,1,0,0:0:0:0:
403,187,49048,6,0,L|314:176,1,90,8|0,0:0|0:0,0:0:0:0:
180,299,49364,1,8,0:0:0:0:
131,155,49522,1,0,0:0:0:0:
253,244,49679,5,4,0:0:0:0:
224,157,49837,1,0,0:0:0:0:
121,369,49995,1,4,0:0:0:0:
103,244,50153,1,0,0:0:0:0:
264,334,50311,1,8,0:0:0:0:
264,334,50469,1,0,0:0:0:0:
313,175,50627,6,0,P|306:111|276:78,1,90,8|0,0:0|0:0,0:0:0:0:
253,244,50943,2,0,P|311:269|355:260,1,90,4|0,0:0|0:0,0:0:0:0:
223,157,51258,2,0,P|171:195|157:237,1,90,4|0,0:0|0:0,0:0:0:0:
404,202,51574,5,8,0:0:0:0:
318,85,51732,2,0,L|312:184,1,90,0|4,0:0|0:0,0:0:0:0:
335,267,52048,1,0,0:0:0:0:
500,318,52206,2,0,L|494:219,1,90,4|0,0:0|0:0,0:0:0:0:
313,175,52522,1,8,0:0:0:0:
160,194,52679,1,0,0:0:0:0:
273,90,52837,1,8,0:0:0:0:
244,240,52995,1,0,0:0:0:0:
177,100,53153,6,0,P|123:103|88:131,1,90,8|0,0:0|0:0,0:0:0:0:
253,328,53469,2,0,L|243:239,1,90,4|0,0:0|0:0,0:0:0:0:
149,283,53785,2,0,L|159:193,1,90,4|0,0:0|0:0,0:0:0:0:
273,90,54101,1,8,0:0:0:0:
243,239,54258,1,0,0:0:0:0:
177,100,54416,6,0,P|123:103|88:131,1,90,8|2,0:0|0:0,0:0:0:0:
312,174,54732,1,0,0:0:0:0:
217,12,54890,1,0,0:0:0:0:
217,12,54969,1,0,0:0:0:0:
217,12,55048,1,8,0:0:0:0:
159,193,55206,1,8,0:0:0:0:
273,90,55364,1,4,0:0:0:0:
243,239,55522,1,4,0:0:0:0:
177,100,55679,6,0,P|123:103|63:167,1,135.000005149842,6|0,0:0|0:0,0:0:0:0:
243,239,56153,1,0,0:0:0:0:
312,174,56311,2,0,B|348:181|348:181|410:170|410:170|448:176,1,135.000005149842,10|2,0:2|0:0,0:0:0:0:
273,90,56785,1,0,0:0:0:0:
243,239,56943,38,0,L|242:333,1,67.5000025749208,2|8,0:0|0:0,0:0:0:0:
312,174,57258,1,0,0:0:0:0:
159,193,57416,2,0,L|69:221,1,67.5000025749208,0|10,0:0|0:0,0:0:0:0:
243,239,57732,1,0,0:0:0:0:
312,174,57890,1,0,0:0:0:0:
273,90,58048,1,2,0:0:0:0:
137,44,58206,6,0,L|177:100,1,67.5000025749208,2|8,0:0|0:0,0:0:0:0:
243,239,58522,1,0,0:0:0:0:
313,35,58679,2,0,L|272:89,1,67.5000025749208,2|8,0:0|0:0,0:0:0:0:
159,193,58995,1,2,0:0:0:0:
375,196,59153,2,0,L|310:173,1,67.5000025749208,10|0,0:0|0:0,0:0:0:0:
176,98,59469,5,2,0:0:0:0:
159,193,59627,1,8,0:0:0:0:
243,239,59785,1,2,0:2:0:0:
272,88,59943,1,2,3:2:0:0:
86,131,60101,1,0,0:0:0:0:
86,131,60258,1,2,3:0:0:0:
159,193,60416,2,0,P|147:236|156:282,1,67.5000025749208,8|0,0:0|0:0,0:0:0:0:
311,339,60732,38,0,P|297:275|242:238,1,135.000005149842,6|0,0:2|0:0,0:0:0:0:
159,193,61206,1,0,0:0:0:0:
151,354,61364,2,0,P|194:342|229:312,1,67.5000025749208,8|0,0:0|0:0,0:0:0:0:
159,193,61679,2,0,P|147:236|156:282,1,67.5000025749208,2|0,0:0|0:0,0:0:0:0:
151,354,61995,5,2,0:0:0:0:
293,279,62153,2,0,P|261:247|217:231,1,67.5000025749208,8|0,0:0|0:0,0:0:0:0:
176,98,62469,1,2,0:0:0:0:
311,173,62627,1,8,2:3:0:0:
159,193,62785,1,0,0:0:0:0:
272,88,62943,1,12,0:0:0:0:
242,238,63101,1,0,0:0:0:0:
176,98,63258,5,2,0:1:0:0:
405,182,63574,1,8,0:0:0:0:
224,330,63890,1,2,0:0:0:0:
242,238,64048,1,10,0:3:0:0:
316,309,64206,1,0,0:0:0:0:
131,342,64364,1,2,0:0:0:0:
159,193,64522,5,2,0:0:0:0:
248,161,64679,2,0,P|252:200|242:238,1,78.7500007510185,0|8,0:0|0:0,0:0:0:0:
90,256,64995,1,0,0:0:0:0:
70,165,65153,2,0,L|63:68,1,78.7500007510185,2|8,0:0|0:0,0:0:0:0:
159,193,65469,2,0,L|152:96,1,78.7500007510185,8|2,0:0|0:0,0:0:0:0:
288,138,65785,5,8,0:0:0:0:
288,138,66101,1,8,0:0:0:0:
224,64,66258,1,0,0:0:0:0:
361,75,66416,1,8,0:0:0:0:
214,202,66574,5,0,0:0:0:0:
351,212,66732,1,8,0:0:0:0:
361,75,66890,1,0,0:0:0:0:
147,126,67048,21,2,0:0:0:0:
276,281,67206,1,8,0:0:0:0:
276,281,67285,1,8,0:0:0:0:
276,281,67364,6,0,L|268:338,1,45,8|8,0:0|0:0,0:0:0:0:
355,256,67522,2,0,L|351:212,1,45,8|8,0:0|0:0,0:0:0:0:
114,228,67679,1,8,0:0:0:0:
113,227,68311,6,0,P|70:205|44:159,1,90,6|0,0:2|0:0,0:0:0:0:
139,49,68627,2,0,L|132:139,1,90,10|0,0:2|0:0,0:0:0:0:
227,68,68943,2,0,L|219:157,2,90,2|0|10,0:2|0:0|0:2,0:0:0:0:
368,182,69416,6,0,P|300:129|219:157,1,180,6|2,0:3|0:0,0:0:0:0:
139,312,69890,1,8,0:0:0:0:
201,246,70048,1,2,0:2:0:0:
132,139,70206,1,2,1:2:0:0:
114,228,70364,1,2,0:2:0:0:
219,157,70522,2,0,L|226:67,1,90,10|0,0:2|0:0,0:0:0:0:
287,217,70837,21,2,1:2:0:0:
114,228,70995,1,2,0:2:0:0:
269,305,71153,2,0,P|313:305|353:285,1,90,8|2,0:2|0:2,0:0:0:0:
371,197,71469,1,0,1:0:0:0:
371,197,71627,2,0,P|326:196|286:216,1,90,0|10,0:0|0:2,0:0:0:0:
439,257,71943,6,0,B|460:217|448:171|448:171|435:126|457:78,1,180,6|2,0:2|0:0,0:0:0:0:
378,34,72416,1,8,0:0:0:0:
221,106,72574,2,0,L|310:93,1,90,2|2,0:2|1:2,0:0:0:0:
296,4,72890,1,2,0:2:0:0:
296,4,73048,1,8,0:0:0:0:
137,74,73206,6,0,B|123:122|151:165|151:165|121:206|139:256,1,180,6|2,0:2|0:2,0:0:0:0:
216,368,73679,1,8,0:0:0:0:
222,221,73837,1,0,0:0:0:0:
130,335,73995,1,2,1:2:0:0:
272,297,74153,1,2,0:2:0:0:
135,245,74311,1,8,0:0:0:0:
298,171,74469,6,0,P|365:158|439:256,1,180,6|2,0:2|0:2,0:0:0:0:
272,297,74943,1,8,0:0:0:0:
348,247,75101,1,0,0:0:0:0:
217,131,75258,1,2,1:2:0:0:
222,221,75416,1,2,1:2:0:0:
295,77,75574,1,8,0:0:0:0:
354,338,75890,38,0,P|414:306|412:184,1,180,6|8,0:2|0:2,0:0:0:0:
217,131,76364,1,2,0:2:0:0:
272,297,76522,1,0,1:0:0:0:
272,297,76679,1,2,0:2:0:0:
298,171,76837,1,0,0:0:0:0:
135,245,76995,2,0,P|54:221|19:135,1,180,2|2,0:2|0:0,0:0:0:0:
217,131,77469,1,2,0:0:0:0:
426,204,77627,6,0,P|426:290|354:338,1,180,4|2,0:1|0:0,0:0:0:0:
130,335,78101,1,2,0:0:0:0:
217,131,78258,1,0,0:0:0:0:
217,131,78337,1,0,0:0:0:0:
217,131,78416,6,0,L|222:221,1,90,6|0,0:2|0:0,0:0:0:0:
293,81,78732,2,0,L|297:170,1,90,10|0,0:2|0:0,0:0:0:0:
368,30,79048,2,0,L|372:119,1,90,2|0,0:2|0:0,0:0:0:0:
212,41,79364,1,10,0:2:0:0:
132,226,79522,22,0,P|190:306|271:297,1,180,6|2,0:2|0:0,0:0:0:0:
221,220,79995,1,8,0:0:0:0:
126,137,80153,2,0,L|21:148,1,90,2|0,0:2|0:0,0:0:0:0:
132,226,80469,1,2,0:2:0:0:
215,131,80627,1,10,0:2:0:0:
221,220,80785,1,0,0:0:0:0:
470,182,80943,6,0,B|410:187|410:187|348:164|348:164|295:170,1,180,2|8,1:2|0:0,0:0:0:0:
301,259,81416,1,2,0:2:0:0:
227,309,81574,2,0,P|174:297|143:261,2,90,2|2|10,1:0|0:2|0:2,0:0:0:0:
101,380,82048,6,0,L|96:200,1,180,6|2,0:2|0:0,0:0:0:0:
215,131,82522,1,8,0:0:0:0:
301,259,82679,1,2,0:2:0:0:
291,83,82837,2,0,P|303:126|293:170,2,90,0|0|8,1:0|0:0|0:0,0:0:0:0:
221,220,83311,1,6,0:2:0:0:
384,293,83469,6,0,P|372:208|294:170,1,180,0|8,0:0|0:0,0:0:0:0:
96,200,83943,1,0,0:0:0:0:
96,200,84101,2,0,L|94:111,1,90,2|2,1:2|0:2,0:0:0:0:
221,220,84416,1,8,0:0:0:0:
101,380,84574,6,0,L|96:200,1,180,6|2,0:2|0:2,0:0:0:0:
215,131,85048,1,8,0:0:0:0:
301,259,85206,1,0,0:0:0:0:
221,220,85364,1,2,1:2:0:0:
290,82,85522,1,2,1:2:0:0:
290,82,85679,1,8,0:0:0:0:
375,210,85837,1,0,0:0:0:0:
375,210,85916,1,0,0:0:0:0:
375,210,85995,21,2,0:0:0:0:
227,309,86153,2,0,P|170:290|143:180,1,180,8|2,0:0|0:0,0:0:0:0:
301,259,86627,1,8,0:0:0:0:
301,259,86943,1,2,0:0:0:0:
290,82,87101,1,8,0:0:0:0:
215,131,87258,5,2,0:0:0:0:
215,131,87337,1,2,0:0:0:0:
215,131,87416,2,0,P|199:88|213:27,1,90,8|8,0:0|0:0,0:0:0:0:
338,156,87732,1,8,0:0:0:0:
338,156,87811,1,8,0:0:0:0:
338,156,87890,2,0,P|369:124|383:82,1,90,4|8,0:0|0:0,0:0:0:0:
264,206,88206,2,0,L|228:304,1,90,8|0,0:0|0:0,0:0:0:0:
71,274,88522,6,0,P|157:231|232:290,1,202.500007724762,4|2,0:2|0:2,0:0:0:0:
148,318,89153,2,0,L|140:104,1,202.500007724762,8|8,0:0|0:0,0:0:0:0:
256,67,89785,1,2,0:1:0:0:
174,33,89943,1,2,0:2:0:0:
221,148,90101,2,0,P|254:157|288:154,1,67.5000025749208,8|0,0:0|0:0,0:0:0:0:
408,229,90416,2,0,P|399:196|372:157,1,67.5000025749208,4|0,0:0|0:0,0:0:0:0:
345,81,90731,1,8,0:0:0:0:
140,115,91048,6,0,L|149:317,1,196.649997599487,4|8,0:1|0:0,0:0:0:0:
161,324,92943,1,0,0:0:0:0:
281,147,93101,1,8,0:0:0:0:
288,154,93574,21,0,1:0:0:0:
288,154,93653,1,0,1:0:0:0:
288,154,93732,2,0,L|291:27,1,90,0|10,1:0|0:2,0:0:0:0:
285,296,94048,1,0,0:0:0:0:
372,183,94206,1,10,0:2:0:0:
370,271,94364,1,0,0:0:0:0:
234,223,94522,1,10,0:2:0:0:
107,310,94679,1,2,0:2:0:0:
107,310,94837,6,0,L|197:304,1,90,0|0,0:0|0:0,0:0:0:0:
144,229,95153,2,0,L|233:222,1,90,10|0,0:2|0:0,0:0:0:0:
370,271,95469,1,10,0:2:0:0:
288,154,95627,1,2,0:2:0:0:
285,296,95785,1,10,0:2:0:0:
372,183,95943,1,0,0:0:0:0:
290,64,96101,5,0,1:0:0:0:
290,64,96179,1,0,1:0:0:0:
290,64,96258,1,0,0:0:0:0:
209,119,96416,2,0,P|243:147|288:154,1,90,8|0,0:0|1:0,0:0:0:0:
372,183,96732,1,10,0:2:0:0:
285,296,96890,1,0,0:0:0:0:
288,153,97048,1,10,0:2:0:0:
370,271,97206,1,0,0:0:0:0:
233,222,97364,6,0,L|144:229,1,90,10|0,0:2|0:0,0:0:0:0:
140,73,97679,2,0,P|172:105|184:148,1,90,10|0,0:2|0:0,0:0:0:0:
3,145,97995,2,0,L|93:152,1,90,10|0,0:2|0:0,0:0:0:0:
97,307,98311,2,0,P|65:275|54:233,1,90,10|2,0:2|0:2,0:0:0:0:
233,222,98627,1,0,1:0:0:0:
233,222,98706,1,0,1:0:0:0:
233,222,98785,38,0,L|144:229,2,90,0|10|0,1:0|0:2|0:0,0:0:0:0:
447,228,99258,1,10,0:2:0:0:
447,228,99416,1,0,0:0:0:0:
288,154,99574,1,10,0:2:0:0:
285,296,99732,1,2,0:2:0:0:
371,183,99890,6,0,L|373:93,1,90
370,271,100206,1,10,0:2:0:0:
288,154,100364,1,0,0:0:0:0:
285,296,100522,1,10,0:2:0:0:
371,183,100679,1,10,0:2:0:0:
233,222,100837,1,2,0:2:0:0:
220,99,101153,5,2,1:2:0:0:
220,99,101232,1,2,0:2:0:0:
220,99,101311,1,2,0:2:0:0:
195,305,101469,1,2,0:0:0:0:
288,154,101627,37,8,0:0:0:0:
112,267,101785,1,2,0:0:0:0:
349,357,101943,1,2,0:0:0:0:
236,224,102101,5,8,0:0:0:0:
285,296,102258,1,0,0:0:0:0:
371,183,102416,6,0,P|373:131|350:98,2,60,8|8|8,0:0|0:0|0:0,0:0:0:0:
288,154,102732,2,0,P|239:136|200:147,2,60,8|8|8,0:0|0:0|0:0,0:0:0:0:
236,224,103048,6,0,P|203:265|202:305,1,60,8|8,0:0|0:0,0:0:0:0:
289,300,103258,1,8,0:0:0:0:
289,300,103364,2,0,P|317:344|355:357,1,60,8|4,0:0|0:0,0:0:0:0:
374,275,103574,1,4,0:0:0:0:
374,275,103679,6,0,L|370:176,1,90,4|0,0:1|0:0,0:0:0:0:
232,136,103995,2,0,L|235:225,1,90,2|0,0:2|0:0,0:0:0:0:
308,88,104311,2,0,P|224:46|152:93,1,180,10|2,0:2|0:2,0:0:0:0:
150,260,104785,6,0,B|171:220|153:176|153:176|135:135|156:85,1,180,2|10,0:2|0:2,0:0:0:0:
232,136,105258,1,8,0:0:0:0:
356,218,105416,1,0,0:0:0:0:
304,80,105574,1,10,0:2:0:0:
264,221,105732,1,0,0:0:0:0:
380,130,105890,1,4,0:0:0:0:
156,85,106048,6,0,B|135:135|153:176|153:176|171:220|160:272|124:284|124:284|47:333|0:306|-8:244|18:194|88:196|112:236|124:284|124:284|160:344|216:328|216:328|264:312|304:320|330:346|330:346|336:288|376:268|376:268|432:240|452:192|432:144|376:120|340:160|340:160|304:120|232:140|232:216|280:236,1,1239.21530962614,2|0,0:1|0:0,0:0:0:0:
