osu file format v14

[General]
AudioFilename: audio.mp3
AudioLeadIn: 0
PreviewTime: 67758
Countdown: 0
SampleSet: None
StackLeniency: 0.4
Mode: 0
LetterboxInBreaks: 0
WidescreenStoryboard: 1

[Editor]
Bookmarks: 1758,35153,53153,73995,95469,114101,116943
DistanceSpacing: 1
BeatDivisor: 4
GridSize: 4
TimelineZoom: 2.1

[Metadata]
Title:Zen Zen Zense (movie ver.)
TitleUnicode:前前前世 (movie ver.)
Artist:RADWIMPS
ArtistUnicode:RADWIMPS
Creator:Monstrata
Version:Habi's Insane
Source:君の名は。
Tags:your name taki mitsuha kimi no na wa Sotarks Haruto HabiHolic Akitoshi Kalibe Kocari Battle Haruto_Aizawa Haruto-
BeatmapID:1104798
BeatmapSetID:513590

[Difficulty]
HPDrainRate:6
CircleSize:4
OverallDifficulty:7
ApproachRate:8.8
SliderMultiplier:1.6
SliderTickRate:1

[Events]
//Background and Video events
0,0,"thumb-1920-737491.jpg",0,0
//Break Periods
//Storyboard Layer 0 (Background)
//Storyboard Layer 1 (Fail)
//Storyboard Layer 2 (Pass)
//Storyboard Layer 3 (Foreground)
//Storyboard Sound Samples

[TimingPoints]
101,315.789473684211,4,3,1,50,1,0
20311,-133.333333333333,4,2,1,60,0,0
41469,-133.333333333333,4,2,1,90,0,0
41627,-133.333333333333,4,2,1,60,0,0
42732,-133.333333333333,4,2,1,90,0,0
42890,-133.333333333333,4,2,1,60,0,0
44943,-133.333333333333,4,2,1,80,0,0
45101,-133.333333333333,4,3,0,65,0,0
45258,-133.333333333333,4,2,1,75,0,0
45574,-100,4,3,1,60,0,0
55206,-100,4,3,0,60,0,0
55364,-100,4,3,0,55,0,0
55522,-100,4,3,0,75,0,0
55679,-133.333333333333,4,2,1,55,0,0
62627,-133.333333333333,4,3,0,55,0,0
62785,-133.333333333333,4,2,1,55,0,0
63258,-100,4,3,1,55,0,0
66101,-100,4,3,1,65,0,0
66416,-100,4,3,1,75,0,0
66732,-100,4,3,1,85,0,0
67206,-100,4,3,1,45,0,0
67285,-100,4,3,1,48,0,0
67364,-100,4,3,1,51,0,0
67443,-100,4,3,1,54,0,0
67522,-100,4,3,1,57,0,0
67601,-100,4,3,1,60,0,0
67679,-100,4,3,1,70,0,0
68311,-100,4,3,1,85,0,0
68548,-100,4,3,1,5,0,0
68627,-100,4,3,1,85,0,0
68864,-100,4,3,1,5,0,0
68943,-100,4,3,1,85,0,0
69179,-100,4,3,1,5,0,0
69258,-100,4,3,1,85,0,0
78653,-100,4,2,1,5,0,0
78732,-100,4,3,1,85,0,0
78969,-100,4,2,1,5,0,0
79048,-100,4,3,1,85,0,0
79285,-100,4,2,1,5,0,0
79364,-100,4,3,1,85,0,0
87890,-100,4,3,0,70,0,0
88206,-100,4,3,0,85,0,0
88522,-133.333333333333,4,3,1,70,0,0
90416,-133.333333333333,4,3,0,70,0,0
90732,-133.333333333333,4,3,0,80,0,0
91048,-133.333333333333,4,3,1,70,0,0
92785,-133.333333333333,4,2,1,5,0,0
92943,-133.333333333333,4,3,1,85,0,0
93574,-100,4,3,1,55,0,0
102416,-100,4,3,0,55,0,0
102522,-100,4,3,1,55,0,0
103153,-100,4,3,0,55,0,0
103679,-133.333333333333,4,3,1,55,0,0
105258,-133.333333333333,4,3,0,55,0,0
105416,-133.333333333333,4,3,1,55,0,0
106048,-133.333333333333,4,3,1,95,0,0
106206,-133.333333333333,4,2,1,35,0,0
107469,-133.333333333333,4,2,1,5,0,0

[Colours]
Combo1 : 172,89,255
Combo2 : 55,255,255
Combo3 : 255,128,255
Combo4 : 254,168,73

[HitObjects]
36,84,101,6,0,L|44:128,2,40,6|0|0,0:2|0:0|0:0,0:0:0:0:
140,128,416,2,0,L|124:208,1,80,0|2,1:0|0:2,0:0:0:0:
183,288,732,2,0,P|242:298|296:275,1,120,0|0,0:0|0:0,0:0:0:0:
320,252,1048,1,0,1:0:0:0:
384,112,1206,6,0,L|396:192,1,80,2|0,0:2|0:0,0:0:0:0:
296,164,1522,1,0,0:0:0:0:
352,23,1679,2,0,P|390:15|429:24,1,80,4|0,0:3|0:0,0:0:0:0:
268,72,1995,2,0,L|176:60,1,80,4|0,0:0|0:0,0:0:0:0:
104,112,2311,1,4,0:0:0:0:
104,112,2627,6,0,L|52:108,2,40,2|0|0,0:0|0:0|0:0,0:0:0:0:
172,188,2943,2,0,P|175:227|168:266,1,80,0|2,1:0|3:2,0:0:0:0:
236,348,3258,2,0,L|360:336,1,120
384,356,3574,1,0,1:0:0:0:
408,200,3732,1,2,3:2:0:0:
318,164,3890,6,0,P|310:202|319:241,1,80,0|0,0:0|3:0,0:0:0:0:
491,236,4206,2,0,P|499:196|491:158,1,80,4|0,3:0|3:0,0:0:0:0:
404,108,4522,1,4,3:0:0:0:
236,220,4679,1,0,3:0:0:0:
240,40,4837,1,4,3:0:0:0:
240,40,5153,6,0,L|248:96,2,40,2|0|0,0:0|0:0|0:0,0:0:0:0:
348,96,5469,2,0,L|332:184,1,80,0|2,1:0|0:2,0:0:0:0:
268,248,5785,2,0,P|200:256|156:224,1,120,0|0,0:0|0:0,0:0:0:0:
132,200,6101,2,0,L|144:120,1,80,0|2,1:0|0:2,0:0:0:0:
52,136,6416,5,0,0:0:0:0:
52,136,6574,1,0,0:0:0:0:
228,36,6732,2,0,L|240:116,1,80,4|0,0:0|0:0,0:0:0:0:
300,184,7048,1,4,0:0:0:0:
160,148,7206,1,0,0:0:0:0:
344,96,7364,1,4,0:0:0:0:
344,96,7679,6,0,L|396:104,3,40,2|0|0|0,0:0|0:0|0:0|0:0,0:0:0:0:
424,112,7995,2,0,P|432:68|420:24,1,80,0|2,1:0|0:2,0:0:0:0:
360,200,8311,2,0,P|352:239|360:277,1,80,0|0,0:0|0:0,0:0:0:0:
384,304,8548,1,0,0:0:0:0:
384,304,8627,2,0,L|468:292,1,80,0|0,1:0|0:0,0:0:0:0:
288,360,8943,6,0,L|176:340,2,106.666666666667,2|2|2,0:2|0:2|0:2,0:0:0:0:
295,231,9574,2,0,P|302:179|334:137,2,106.666666666667,2|2|2,0:2|0:2|0:2,0:0:0:0:
192,192,10206,6,0,L|104:200,1,80,8|0,0:0|0:0,0:0:0:0:
88,184,10443,1,0,0:0:0:0:
88,184,10522,1,10,0:2:0:0:
28,92,10679,1,2,0:0:0:0:
152,16,10837,2,0,P|160:56|148:100,1,80,10|0,0:2|0:0,0:0:0:0:
256,184,11153,2,0,P|247:145|255:106,1,80,10|0,0:2|0:0,0:0:0:0:
332,40,11469,6,0,L|464:52,1,120,10|0,0:2|0:0,0:0:0:0:
476,32,11785,1,10,0:2:0:0:
448,176,11943,1,2,0:0:0:0:
368,220,12101,2,0,P|356:180|364:140,1,80,10|0,0:2|0:0,0:0:0:0:
444,264,12416,2,0,P|450:303|438:340,1,80,10|0,0:2|0:0,0:0:0:0:
300,312,12732,6,0,L|248:300,2,40,4|0|0,1:0|1:2|1:0,0:0:0:0:
220,216,13048,2,0,L|140:228,1,80,10|2,0:2|0:0,0:0:0:0:
36,108,13364,2,0,P|80:104|120:124,1,80,10|0,0:2|0:0,0:0:0:0:
272,136,13679,2,0,L|284:52,1,80,10|0,0:2|0:0,0:0:0:0:
420,12,13995,6,0,L|432:176,1,160,10|10,0:2|0:2,0:0:0:0:
376,240,14469,1,2,0:0:0:0:
256,136,14627,2,0,L|340:144,1,80,10|0,0:2|0:0,0:0:0:0:
196,204,14943,2,0,P|172:172|164:132,1,80,10|2,0:2|0:2,0:0:0:0:
284,228,15258,6,0,L|272:280,2,40,4|0|0,1:0|1:0|1:0,0:0:0:0:
384,276,15574,2,0,L|392:360,1,80,10|2,0:2|0:0,0:0:0:0:
468,180,15890,2,0,L|475:100,1,80,10|0,0:2|0:0,0:0:0:0:
404,28,16206,2,0,P|340:24|296:56,1,120,10|0,0:2|0:0,0:0:0:0:
288,80,16522,6,0,L|296:164,1,80,10|2,0:2|0:0,0:0:0:0:
176,232,16837,2,0,L|183:152,1,80,10|2,0:2|0:0,0:0:0:0:
100,280,17153,2,0,P|165:320|239:296,1,160,10|10,0:2|0:2,0:0:0:0:
296,216,17627,1,0,0:0:0:0:
364,288,17785,6,0,L|356:336,1,40,0|0,0:0|0:0,0:0:0:0:
440,372,17943,2,0,L|448:324,1,40,0|0,0:0|0:0,0:0:0:0:
460,256,18101,2,0,P|452:212|464:172,1,80,10|2,0:2|0:0,0:0:0:0:
400,92,18416,2,0,L|320:100,1,80,10|2,0:2|0:2,0:0:0:0:
200,200,18732,2,0,L|280:192,1,80,6|0,0:2|0:0,0:0:0:0:
232,108,19048,5,2,0:0:0:0:
252,280,19206,1,0,0:0:0:0:
108,224,19364,2,0,P|44:228|8:184,1,120,4|0,0:1|0:0,0:0:0:0:
8,148,19679,2,0,L|24:64,1,80,0|0,1:0|0:0,0:0:0:0:
4,32,19916,1,0,0:0:0:0:
21,58,19994,1,0,0:0:0:0:
46,77,20073,1,0,0:0:0:0:
77,86,20152,1,0,0:0:0:0:
109,84,20231,1,0,0:0:0:0:
138,71,20311,6,0,P|194:56|245:85,1,120.000004577637,2|0,1:2|1:2,0:0:0:0:
320,140,20785,1,0,0:0:0:0:
403,92,20943,2,0,P|412:63|406:34,1,60.0000022888184,2|0,1:2|0:0,0:0:0:0:
404,192,21258,2,0,L|468:184,1,60.0000022888184,2|2,1:2|0:0,0:0:0:0:
320,240,21574,6,0,L|192:220,1,120.000004577637,0|2,1:0|1:2,0:0:0:0:
124,268,22048,1,0,0:0:0:0:
136,116,22206,2,0,L|144:180,1,60.0000022888184,2|0,1:2|0:0,0:0:0:0:
216,72,22522,2,0,P|199:47|173:33,1,60.0000022888184,0|0,1:0|0:0,0:0:0:0:
268,176,22837,6,0,L|392:168,1,120.000004577637,2|2,1:2|1:2,0:0:0:0:
452,108,23311,1,0,0:0:0:0:
504,188,23469,2,0,P|512:216|505:245,1,60.0000022888184,2|2,1:2|0:0,0:0:0:0:
420,280,23785,2,0,P|413:251|421:222,1,60.0000022888184,0|2,1:0|0:0,0:0:0:0:
344,344,24101,6,0,L|224:328,1,120.000004577637,0|2,1:0|1:2,0:0:0:0:
160,272,24574,1,0,0:0:0:0:
248,116,24732,2,0,P|259:174|243:231,1,120.000004577637,2|2,1:2|1:2,0:0:0:0:
243,231,25364,6,0,L|320:224,1,60.0000022888184,6|0,1:2|0:2,0:0:0:0:
416,128,25679,2,0,L|339:135,1,60.0000022888184,2|0,1:2|0:2,0:0:0:0:
244,56,25995,1,2,1:2:0:0:
164,100,26153,1,2,0:2:0:0:
168,8,26311,1,2,1:2:0:0:
244,56,26469,1,2,0:2:0:0:
160,192,26627,6,0,L|92:184,1,60.0000022888184,2|0,1:2|0:2,0:0:0:0:
92,276,26943,2,0,L|32:268,1,60.0000022888184,2|0,1:2|0:2,0:0:0:0:
152,348,27258,2,0,L|224:336,1,60.0000022888184,2|2,1:2|0:0,0:0:0:0:
280,272,27574,2,0,P|288:240|280:208,1,60.0000022888184,0|2,1:0|0:0,0:0:0:0:
175,104,27890,6,0,P|159:161|173:219,1,120.000004577637,6|2,1:2|1:2,0:0:0:0:
280,272,28364,1,2,0:0:0:0:
336,124,28522,2,0,L|268:120,1,60.0000022888184,0|2,1:0|0:0,0:0:0:0:
392,48,28837,2,0,P|416:76|424:104,1,60.0000022888184,2|0,1:2|0:0,0:0:0:0:
492,248,29153,6,0,L|508:128,2,120.000004577637,2|0|2,1:2|1:2|1:2,0:0:0:0:
424,304,29943,1,0,0:0:0:0:
352,184,30101,2,0,L|412:192,1,60.0000022888184,2|0,1:2|0:0,0:0:0:0:
279,240,30416,6,0,P|221:244|177:206,1,120.000004577637,2|0,1:0|1:0,0:0:0:0:
268,92,30890,1,0,0:0:0:0:
268,92,31048,2,0,L|252:168,1,60.0000022888184,2|0,1:2|0:0,0:0:0:0:
364,68,31364,2,0,L|351:9,1,60.0000022888184,2|2,1:2|0:0,0:0:0:0:
184,40,31679,6,0,L|160:160,1,120.000004577637,0|2,1:0|1:2,0:0:0:0:
216,228,32153,1,0,0:0:0:0:
64,216,32311,2,0,L|56:124,2,90.0000034332277,2|2|2,1:2|0:0|0:0,0:0:0:0:
192,308,32943,6,0,P|250:309|289:266,1,120.000004577637,2|2,1:2|1:2,0:0:0:0:
308,176,33416,1,0,0:0:0:0:
172,156,33574,2,0,L|180:228,1,60.0000022888184,2|0,1:2|0:0,0:0:0:0:
324,148,33890,1,2,1:2:0:0:
208,72,34048,1,2,0:0:0:0:
384,72,34206,6,0,P|415:121|410:180,1,120.000004577637,0|2,1:0|1:2,0:0:0:0:
296,272,34679,1,0,0:0:0:0:
296,272,34837,2,0,L|224:264,1,60.0000022888184,2|0,1:2|0:0,0:0:0:0:
184,172,35153,2,0,L|120:184,1,60.0000022888184,2|0,1:2|0:0,0:0:0:0:
44,124,35469,5,6,1:2:0:0:
0,212,35627,1,0,0:0:0:0:
104,320,35785,2,0,P|112:284|104:256,1,60.0000022888184,2|0,1:2|0:0,0:0:0:0:
196,172,36101,2,0,P|190:201|198:229,1,60.0000022888184,2|2,1:2|0:0,0:0:0:0:
268,296,36416,2,0,L|332:288,1,60.0000022888184,2|2,1:2|0:0,0:0:0:0:
456,184,36732,6,0,L|360:196,1,90.0000034332277,2|0,1:2|0:0,0:0:0:0:
328,200,37048,2,0,P|320:168|328:140,1,60.0000022888184,2|2,1:2|0:0,0:0:0:0:
212,24,37364,2,0,P|224:82|207:138,1,120.000004577637,2|2,1:2|1:2,0:0:0:0:
132,196,37837,1,2,0:0:0:0:
60,96,37995,6,0,L|120:104,1,60.0000022888184,4|0,1:1|0:0,0:0:0:0:
268,224,38311,2,0,L|396:208,1,120.000004577637,2|0,1:2|1:0,0:0:0:0:
460,152,38785,1,2,0:0:0:0:
368,52,38943,2,0,L|376:132,1,60.0000022888184,2|2,1:2|0:0,0:0:0:0:
240,244,39258,5,0,1:2:0:0:
176,168,39416,1,2,0:0:0:0:
144,264,39574,2,0,L|72:256,1,60.0000022888184,0|2,1:2|0:0,0:0:0:0:
212,332,39890,2,0,L|312:320,1,90.0000034332277,2|0,1:2|0:0,0:0:0:0:
336,320,40206,2,0,P|340:352|336:380,1,60.0000022888184,2|0,1:2|0:0,0:0:0:0:
272,232,40522,6,0,P|268:200|272:172,1,60.0000022888184,6|0,1:2|0:0,0:0:0:0:
340,104,40837,2,0,L|400:112,1,60.0000022888184,2|0,1:2|0:0,0:0:0:0:
468,216,41153,2,0,L|408:208,1,60.0000022888184,2|0,1:2|0:0,0:0:0:0:
340,104,41469,1,2,1:0:0:0:
348,272,41627,1,0,0:0:0:0:
252,140,41785,6,0,P|245:95|262:54,1,90.0000034332277,2|0,1:2|0:0,0:0:0:0:
296,24,42101,2,0,L|364:32,1,60.0000022888184,2|2,1:2|0:0,0:0:0:0:
184,208,42416,2,0,L|60:188,1,120.000004577637,2|2,1:2|1:0,0:0:0:0:
16,268,42890,1,0,0:0:0:0:
252,271,43048,6,0,P|275:217|265:159,1,120.000004577637,4|0,1:3|1:0,0:0:0:0:
200,96,43522,1,0,0:0:0:0:
276,36,43679,2,0,L|336:48,1,60.0000022888184,0|0,1:0|0:0,0:0:0:0:
412,148,43995,2,0,L|476:136,1,60.0000022888184,0|8,1:0|0:3,0:0:0:0:
344,216,44311,5,0,0:0:0:0:
364,60,44469,1,0,1:0:0:0:
328,232,44627,1,2,3:0:0:0:
280,96,44785,1,2,3:0:0:0:
428,224,44943,2,0,L|496:216,1,60.0000022888184,2|8,2:3|2:3,0:0:0:0:
240,192,45258,1,8,3:0:0:0:
380,312,45416,1,0,0:0:0:0:
223,212,45574,6,0,P|184:208|152:184,1,80,8|0,0:0|0:0,0:0:0:0:
72,139,45890,2,0,P|94:107|131:91,1,80,4|0,0:0|0:0,0:0:0:0:
208,36,46206,2,0,P|224:71|220:111,1,80,4|0,0:0|0:0,0:0:0:0:
292,232,46522,6,0,L|376:220,1,80,8|0,0:0|0:0,0:0:0:0:
480,92,46837,2,0,L|396:104,1,80,4|0,0:0|0:0,0:0:0:0:
276,196,47153,1,4,0:0:0:0:
308,36,47311,1,0,0:0:0:0:
195,135,47469,2,0,P|156:131|120:148,1,80,8|0,0:0|0:0,0:0:0:0:
16,312,47785,2,0,P|70:331|122:304,1,120,8|0,0:0|0:0,0:0:0:0:
140,272,48101,6,0,L|156:360,1,80,8|0,0:0|0:0,0:0:0:0:
224,228,48416,2,0,P|200:192|164:180,1,80,4|0,0:0|0:0,0:0:0:0:
284,312,48732,2,0,L|404:304,1,120,4|0,0:0|0:0,0:0:0:0:
440,300,49048,2,0,P|448:256|440:216,1,80,8|0,0:0|0:0,0:0:0:0:
267,80,49364,6,0,P|251:137|262:195,1,120,8|0,0:0|0:0,0:0:0:0:
276,220,49679,2,0,L|364:212,1,80,4|0,0:0|0:0,0:0:0:0:
488,112,49995,2,0,L|400:120,1,80,4|0,0:0|0:0,0:0:0:0:
200,280,50311,1,8,0:0:0:0:
216,136,50469,1,0,0:0:0:0:
136,196,50627,6,0,P|96:192|60:208,1,80,8|0,0:0|0:0,0:0:0:0:
200,280,50943,2,0,P|240:284|276:268,1,80,4|0,0:0|0:0,0:0:0:0:
316,188,51258,1,4,0:0:0:0:
304,360,51416,1,0,0:0:0:0:
400,240,51574,6,0,L|384:320,1,80,8|0,0:0|0:0,0:0:0:0:
480,184,51890,2,0,L|472:100,1,80,4|0,0:0|0:0,0:0:0:0:
344,24,52206,1,4,0:0:0:0:
236,48,52364,1,0,0:0:0:0:
296,200,52522,2,0,L|304:116,1,80,8|0,0:0|0:0,0:0:0:0:
208,152,52837,1,8,0:0:0:0:
392,172,52995,1,0,0:0:0:0:
211,248,53153,6,0,P|153:238|116:193,1,120,8|0,0:0|0:0,0:0:0:0:
112,164,53469,2,0,L|92:252,1,80,4|0,0:0|0:0,0:0:0:0:
288,368,53785,2,0,L|316:240,1,120,4|0,0:0|0:0,0:0:0:0:
328,212,54101,2,0,P|332:260|348:300,1,80,8|0,0:0|0:0,0:0:0:0:
416,236,54416,5,8,0:0:0:0:
240,248,54574,2,0,L|152:236,1,80,2|0,0:0|0:0,0:0:0:0:
100,176,54890,1,0,0:0:0:0:
76,207,54968,1,0,0:0:0:0:
69,246,55047,1,8,0:0:0:0:
80,284,55126,1,0,0:0:0:0:
108,313,55205,1,8,0:0:0:0:
208,348,55364,1,4,0:0:0:0:
248,216,55522,1,4,0:0:0:0:
320,272,55679,6,0,P|376:288|429:263,1,120.000004577637,6|0,0:0|0:0,0:0:0:0:
496,196,56153,1,0,0:0:0:0:
496,196,56311,2,0,P|496:164|488:132,1,60.0000022888184,10|0,0:2|0:0,0:0:0:0:
404,48,56627,2,0,P|397:77|397:107,1,60.0000022888184,2|0,0:0|0:0,0:0:0:0:
296,116,56943,6,0,L|224:108,1,60.0000022888184,2|8,0:0|0:0,0:0:0:0:
112,192,57258,2,0,L|236:204,2,120.000004577637,0|10|0,0:0|0:0|0:0,0:0:0:0:
36,248,58048,1,2,0:0:0:0:
56,116,58206,6,0,L|64:56,1,60.0000022888184,2|8,0:0|0:0,0:0:0:0:
164,20,58522,2,0,L|172:80,1,60.0000022888184,0|2,0:0|0:0,0:0:0:0:
256,128,58837,1,8,0:0:0:0:
124,168,58995,1,2,0:0:0:0:
320,192,59153,2,0,P|344:160|348:132,1,60.0000022888184,10|0,0:0|0:0,0:0:0:0:
424,48,59469,6,0,L|440:168,1,120.000004577637,2|2,0:0|0:2,0:0:0:0:
504,232,59943,1,2,3:2:0:0:
320,280,60101,2,0,P|288:280|256:268,1,60.0000022888184,0|2,0:0|3:0,0:0:0:0:
184,220,60416,2,0,L|164:280,1,60.0000022888184,8|0,0:0|0:0,0:0:0:0:
268,175,60732,6,0,P|291:122|274:66,1,120.000004577637,6|0,0:2|0:0,0:0:0:0:
208,120,61206,1,0,0:0:0:0:
332,228,61364,2,0,L|400:216,1,60.0000022888184,8|0,0:0|0:0,0:0:0:0:
496,148,61679,2,0,L|428:136,1,60.0000022888184,2|0,0:0|0:0,0:0:0:0:
396,52,61995,5,2,0:0:0:0:
284,160,62153,1,8,0:0:0:0:
224,56,62311,2,0,L|292:52,1,60.0000022888184,0|2,0:0|0:0,0:0:0:0:
380,28,62627,1,8,2:3:0:0:
344,228,62785,1,0,0:0:0:0:
432,192,62943,2,0,P|432:156|420:124,1,60.0000022888184,12|0,0:0|0:0,0:0:0:0:
220,104,63258,6,0,B|176:80|176:80|64:92,1,160,2|8,0:1|0:0,0:0:0:0:
144,176,63732,1,0,0:0:0:0:
312,132,63890,2,0,P|320:92|304:52,1,80,2|10,0:0|0:3,0:0:0:0:
224,16,64206,1,0,0:0:0:0:
256,208,64364,1,2,0:0:0:0:
392,180,64522,6,0,L|476:168,1,80,2|0,0:0|0:0,0:0:0:0:
271,296,64837,2,0,P|200:284|164:204,1,160,8|2,0:0|0:0,0:0:0:0:
320,112,65311,1,8,0:0:0:0:
320,112,65469,2,0,L|304:192,1,80,8|2,0:0|0:0,0:0:0:0:
428,360,65785,6,0,B|420:312|420:312|432:256|432:256|420:200,1,160,8|8,0:0|0:0,0:0:0:0:
400,116,66258,1,0,0:0:0:0:
332,256,66416,2,0,P|288:256|252:236,1,80,8|0,0:0|0:0,0:0:0:0:
176,184,66732,2,0,L|156:264,1,80,8|0,0:0|0:0,0:0:0:0:
264,136,67048,2,0,L|252:48,1,80,2|8,0:0|0:0,0:0:0:0:
272,36,67285,1,8,0:0:0:0:
272,36,67364,2,0,L|328:44,4,40,8|8|8|8|8,0:0|0:0|0:0|0:0|0:0,0:0:0:0:
384,160,67837,5,0,0:0:0:0:
464,196,67995,2,0,P|472:152|460:108,1,80,0|0,0:0|0:0,0:0:0:0:
336,36,68311,6,0,L|244:44,1,80,6|0,0:2|0:0,0:0:0:0:
144,148,68627,2,0,L|52:136,1,80,10|0,0:2|0:0,0:0:0:0:
240,228,68943,2,0,L|332:216,1,80,2|0,0:2|0:0,0:0:0:0:
380,144,69258,1,10,0:2:0:0:
392,284,69416,1,6,0:3:0:0:
195,303,69574,6,0,P|164:279|151:242,1,80,2|2,0:2|0:0,0:0:0:0:
280,148,69890,2,0,P|311:172|324:209,1,80,8|2,0:0|0:2,0:0:0:0:
288,304,70206,1,2,1:2:0:0:
280,148,70364,1,2,0:2:0:0:
428,220,70522,2,0,L|512:208,1,80,10|0,0:2|0:0,0:0:0:0:
456,128,70837,5,2,1:2:0:0:
480,304,70995,1,2,0:2:0:0:
332,228,71153,2,0,P|288:228|252:208,1,80,8|2,0:0|0:2,0:0:0:0:
336,32,71469,2,0,L|320:124,1,80,2|0,0:2|0:0,0:0:0:0:
440,152,71785,1,10,0:2:0:0:
223,176,71943,6,0,P|146:183|91:129,1,160,6|2,0:2|0:0,0:0:0:0:
188,0,72416,2,0,P|192:39|183:78,1,80,8|2,0:0|0:2,0:0:0:0:
312,160,72732,2,0,P|303:120|307:81,1,80,2|2,1:2|0:2,0:0:0:0:
396,24,73048,2,0,L|488:32,1,80,8|6,0:0|0:2,0:0:0:0:
432,120,73364,5,0,0:0:0:0:
284,176,73522,1,2,0:2:0:0:
484,260,73679,2,0,L|496:176,1,80,8|0,0:0|0:0,0:0:0:0:
380,280,73995,2,0,L|391:359,1,80,2|2,1:2|0:2,0:0:0:0:
416,160,74311,1,8,0:0:0:0:
279,268,74469,6,0,P|205:286|146:235,1,160,6|2,0:2|0:2,0:0:0:0:
240,100,74943,2,0,P|244:140|232:184,1,80,8|0,0:0|0:0,0:0:0:0:
128,108,75258,2,0,P|118:69|122:29,1,80,2|2,1:2|1:2,0:0:0:0:
312,28,75574,1,8,0:0:0:0:
312,28,75890,6,0,L|472:44,1,160,6|8,0:2|0:2,0:0:0:0:
500,144,76364,2,0,L|416:136,1,80,2|0,0:2|1:0,0:0:0:0:
280,208,76679,2,0,L|364:216,1,80,2|0,0:2|0:0,0:0:0:0:
231,128,76995,6,0,P|190:194|210:269,1,160,2|2,0:2|0:0,0:0:0:0:
296,304,77469,1,2,0:0:0:0:
320,88,77627,2,0,L|152:68,1,160,4|2,0:1|0:0,0:0:0:0:
64,20,78101,1,2,0:0:0:0:
12,112,78258,1,0,0:0:0:0:
12,112,78337,1,0,0:0:0:0:
12,112,78416,6,0,P|20:152|4:200,1,80,6|0,0:2|0:0,0:0:0:0:
116,276,78732,2,0,P|106:237|114:198,1,80,10|0,0:2|0:0,0:0:0:0:
196,136,79048,2,0,L|288:152,1,80,2|0,0:2|0:0,0:0:0:0:
416,84,79364,1,10,0:2:0:0:
336,220,79522,1,6,0:2:0:0:
496,120,79679,6,0,P|504:80|492:36,1,80,0|2,0:0|0:0,0:0:0:0:
300,144,79995,1,8,0:0:0:0:
384,292,80153,2,0,L|464:280,1,80,2|0,0:2|0:0,0:0:0:0:
316,356,80469,1,2,0:2:0:0:
316,356,80627,2,0,L|224:344,1,80,10|0,0:2|0:0,0:0:0:0:
135,223,80943,6,0,P|61:207|8:262,1,160,2|8,1:2|0:0,0:0:0:0:
84,284,81416,1,2,0:2:0:0:
216,248,81574,2,0,P|216:200|192:164,1,80,2|2,1:0|0:2,0:0:0:0:
128,136,81890,1,10,0:2:0:0:
164,316,82048,6,0,L|328:300,1,160,6|2,0:2|0:0,0:0:0:0:
404,344,82522,2,0,P|420:304|416:268,1,80,8|2,0:0|0:2,0:0:0:0:
464,120,82837,2,0,P|460:159|476:195,2,80,0|0|8,1:0|0:0|0:0,0:0:0:0:
400,40,83311,6,0,B|344:56|344:56|232:40,1,160,6|2,0:2|0:2,0:0:0:0:
148,92,83785,2,0,P|152:132|144:172,1,80,8|0,0:0|0:0,0:0:0:0:
76,232,84101,2,0,L|-16:216,1,80,2|2,1:2|0:2,0:0:0:0:
136,304,84416,1,8,0:0:0:0:
216,188,84574,6,0,P|292:176|344:232,1,160,6|2,0:2|0:2,0:0:0:0:
416,296,85048,2,0,P|432:256|432:216,1,80,8|0,0:0|0:0,0:0:0:0:
392,132,85364,1,2,1:2:0:0:
512,240,85522,1,2,1:2:0:0:
324,192,85679,1,8,0:0:0:0:
480,156,85837,1,0,0:0:0:0:
384,328,85995,5,2,0:0:0:0:
304,212,86153,1,8,0:0:0:0:
224,340,86311,2,0,L|136:328,1,80,0|2,0:0|0:0,0:0:0:0:
40,192,86627,2,0,L|200:216,1,160,8|2,0:0|0:0,0:0:0:0:
264,140,87101,1,8,0:0:0:0:
352,268,87258,6,0,L|344:320,2,40,2|2|8,0:0|0:0|0:0,0:0:0:0:
432,208,87574,1,8,0:0:0:0:
344,84,87732,1,8,0:0:0:0:
344,84,87811,1,8,0:0:0:0:
344,84,87890,1,4,0:0:0:0:
496,144,88048,1,8,0:0:0:0:
304,164,88206,2,0,P|264:136|252:96,1,80,8|0,0:0|0:0,0:0:0:0:
432,20,88522,6,0,L|428:88,1,60.0000022888184,4|0,0:2|0:0,0:0:0:0:
480,196,88837,2,0,L|483:255,1,60.0000022888184,0|2,0:0|0:2,0:0:0:0:
416,328,89153,2,0,P|352:336|304:304,1,120.000004577637,8|2,0:0|0:2,0:0:0:0:
272,224,89627,1,8,0:0:0:0:
272,224,89785,6,0,L|288:160,1,60.0000022888184,2|2,0:1|0:2,0:0:0:0:
368,84,90101,2,0,L|380:152,1,60.0000022888184,8|0,0:0|0:0,0:0:0:0:
188,168,90416,1,4,0:0:0:0:
272,224,90574,1,0,0:0:0:0:
184,268,90732,2,0,L|112:260,1,60.0000022888184,8|0,0:0|0:0,0:0:0:0:
72,184,91048,5,4,0:1:0:0:
256,192,91206,12,0,92627,0:0:0:0:
48,168,92943,5,8,0:0:0:0:
252,136,93101,1,8,0:0:0:0:
252,136,93574,6,0,L|260:88,2,40,4|0|0,1:0|1:0|1:0,0:0:0:0:
168,192,93890,2,0,P|176:232|172:284,1,80,10|0,0:2|0:0,0:0:0:0:
276,360,94206,2,0,P|276:320|284:280,1,80,10|0,0:2|0:0,0:0:0:0:
364,216,94522,2,0,L|448:224,1,80,10|2,0:2|0:2,0:0:0:0:
508,128,94837,6,0,L|380:116,1,120,0|0,0:0|0:0,0:0:0:0:
360,112,95153,2,0,P|356:72|368:32,1,80,10|0,0:2|0:0,0:0:0:0:
264,128,95469,2,0,P|274:166|270:205,1,80,10|2,0:2|0:2,0:0:0:0:
200,268,95785,1,10,0:2:0:0:
200,268,96101,6,0,L|148:256,2,40,4|0|0,1:0|1:0|1:0,0:0:0:0:
272,344,96416,2,0,L|356:332,1,80,10|0,0:2|0:0,0:0:0:0:
472,212,96732,2,0,L|388:200,1,80,10|0,0:2|0:0,0:0:0:0:
304,80,97048,2,0,L|184:96,1,120,10|0,0:2|0:0,0:0:0:0:
156,96,97364,2,0,P|168:133|168:173,1,80,10|0,0:2|0:0,0:0:0:0:
35,275,97679,2,0,P|31:236|40:197,1,80,10|0,0:2|0:0,0:0:0:0:
216,240,97995,2,0,L|308:232,1,80,10|0,0:2|0:0,0:0:0:0:
416,96,98311,2,0,L|324:104,1,80,10|2,0:2|0:2,0:0:0:0:
220,28,98627,6,0,L|232:68,2,40,0|0|0,1:0|1:0|1:0,0:0:0:0:
136,88,98943,2,0,L|112:168,1,80,10|0,0:2|0:0,0:0:0:0:
232,248,99258,2,0,L|209:171,1,80,10|0,0:2|0:0,0:0:0:0:
56,248,99574,2,0,L|136:260,1,80,10|2,0:2|0:2,0:0:0:0:
300,172,99890,5,8,0:0:0:0:
252,344,100048,1,0,0:0:0:0:
388,192,100206,2,0,P|388:148|368:112,1,80,10|0,0:2|0:0,0:0:0:0:
324,260,100522,1,10,0:2:0:0:
472,216,100679,1,2,0:2:0:0:
324,260,100837,2,0,L|240:248,1,80,10|0,0:2|0:0,0:0:0:0:
184,160,101153,6,0,L|136:168,2,40,0|0|0,1:0|1:0|1:0,0:0:0:0:
264,104,101469,2,0,P|272:64|264:24,1,80,2|8,0:0|0:0,0:0:0:0:
364,104,101785,2,0,P|356:143|364:182,1,80,2|2,0:0|0:0,0:0:0:0:
436,256,102101,2,0,L|516:240,1,80,8|0,0:0|0:0,0:0:0:0:
356,320,102416,6,0,L|368:376,2,53.3333333333333,8|8|8,0:0|0:0|0:0,0:0:0:0:
280,260,102732,2,0,L|291:207,2,53.3333333333333,8|8|8,0:0|0:0|0:0,0:0:0:0:
260,356,103048,2,0,L|200:344,2,53.3333333333333,8|8|8,0:0|0:0|0:0,0:0:0:0:
140,276,103364,2,0,L|80:284,2,53.3333333333333,8|4|0,0:0|0:0|0:0,0:0:0:0:
212,208,103679,6,0,P|232:152|212:96,1,120.000004577637,4|2,0:1|0:2,0:0:0:0:
152,152,104153,1,0,0:0:0:0:
268,268,104311,2,0,L|328:256,1,60.0000022888184,10|0,0:2|0:0,0:0:0:0:
376,156,104627,2,0,L|316:168,1,60.0000022888184,2|2,0:2|0:2,0:0:0:0:
248,112,104943,1,0,1:0:0:0:
376,156,105101,1,10,0:2:0:0:
340,20,105258,2,0,L|328:92,1,60.0000022888184,8|0,0:0|0:0,0:0:0:0:
188,184,105574,5,10,0:2:0:0:
376,156,105732,1,0,0:0:0:0:
264,252,105890,1,4,0:0:0:0:
244,60,106048,1,2,0:1:0:0:
256,192,106206,12,0,113785,0:0:0:0:
