osu file format v14

[General]
AudioFilename: audio.mp3
AudioLeadIn: 0
PreviewTime: 67758
Countdown: 0
SampleSet: None
StackLeniency: 0.5
Mode: 0
LetterboxInBreaks: 0
WidescreenStoryboard: 0

[Editor]
Bookmarks: 35153
DistanceSpacing: 1
BeatDivisor: 4
GridSize: 4
TimelineZoom: 2.1

[Metadata]
Title:Zen Zen Zense (movie ver.)
TitleUnicode:前前前世 (movie ver.)
Artist:RADWIMPS
ArtistUnicode:RADWIMPS
Creator:Monstrata
Version:Extra: Taki
Source:君の名は。
Tags:your name taki mitsuha kimi no na wa Sotarks Haruto HabiHolic Akitoshi Kalibe Kocari Battle Haruto_Aizawa Haruto-
BeatmapID:1091249
BeatmapSetID:513590

[Difficulty]
HPDrainRate:6
CircleSize:4
OverallDifficulty:8.7
ApproachRate:9.4
SliderMultiplier:1.76
SliderTickRate:1

[Events]
//Background and Video events
0,0,"thumb-1920-737491.jpg",0,0
//Break Periods
//Storyboard Layer 0 (Background)
//Storyboard Layer 1 (Fail)
//Storyboard Layer 2 (Pass)
//Storyboard Layer 3 (Foreground)
//Storyboard Sound Samples

[TimingPoints]
101,315.789473684211,4,3,1,50,1,0
101,-133.333333333333,4,3,1,50,0,0
1679,-133.333333333333,4,3,1,30,0,0
2627,-133.333333333333,4,3,1,50,0,0
4206,-133.333333333333,4,3,1,30,0,0
5153,-133.333333333333,4,3,1,50,0,0
6732,-133.333333333333,4,3,1,30,0,0
7679,-133.333333333333,4,3,1,50,0,0
8943,-133.333333333333,4,3,1,25,0,0
9153,-133.333333333333,4,3,1,35,0,0
9364,-133.333333333333,4,3,1,45,0,0
9574,-133.333333333333,4,3,1,55,0,0
9785,-133.333333333333,4,3,1,65,0,0
9995,-133.333333333333,4,3,1,75,0,0
10206,-100,4,3,1,55,0,0
20311,-100,4,2,1,60,0,0
41469,-100,4,2,1,90,0,0
41627,-100,4,2,1,60,0,0
42732,-100,4,2,1,90,0,0
42890,-100,4,2,1,60,0,0
44943,-100,4,2,1,80,0,0
45101,-100,4,3,0,65,0,0
45258,-100,4,2,1,75,0,0
45574,-100,4,3,1,60,0,0
55206,-100,4,3,0,60,0,0
55364,-100,4,3,0,55,0,0
55522,-100,4,3,0,75,0,0
55679,-133.333333333333,4,2,1,55,0,0
62627,-133.333333333333,4,3,0,55,0,0
62785,-133.333333333333,4,2,1,55,0,0
63258,-114.285714285714,4,3,1,55,0,0
66101,-114.285714285714,4,3,1,65,0,0
66416,-114.285714285714,4,3,1,75,0,0
66732,-114.285714285714,4,3,1,85,0,0
67206,-114.285714285714,4,3,1,45,0,0
67285,-114.285714285714,4,3,1,48,0,0
67364,-114.285714285714,4,3,1,51,0,0
67443,-114.285714285714,4,3,1,54,0,0
67522,-114.285714285714,4,3,1,57,0,0
67601,-114.285714285714,4,3,1,60,0,0
67679,-114.285714285714,4,3,1,70,0,0
68311,-100,4,3,1,85,0,1
68548,-100,4,3,1,5,0,1
68627,-100,4,3,1,85,0,1
68864,-100,4,3,1,5,0,1
68943,-100,4,3,1,85,0,1
69179,-100,4,3,1,5,0,1
69258,-100,4,3,1,85,0,1
78653,-100,4,2,1,5,0,1
78732,-100,4,3,1,85,0,1
78969,-100,4,2,1,5,0,1
79048,-100,4,3,1,85,0,1
79285,-100,4,2,1,5,0,1
79364,-100,4,3,1,85,0,1
87890,-100,4,3,0,70,0,1
88206,-100,4,3,0,85,0,1
88522,-133.333333333333,4,3,1,70,0,1
90416,-133.333333333333,4,3,0,70,0,1
90732,-133.333333333333,4,3,0,80,0,1
91048,-133.333333333333,4,3,1,70,0,1
92785,-133.333333333333,4,2,1,5,0,1
92943,-133.333333333333,4,3,1,85,0,1
93574,-100,4,3,1,55,0,0
102416,-100,4,3,0,55,0,0
102522,-100,4,3,1,55,0,0
103153,-100,4,3,0,55,0,0
103679,-100,4,3,1,55,0,0
105258,-100,4,3,0,55,0,0
105416,-100,4,3,1,55,0,0
106048,-184.91124260355,4,3,1,95,0,0
106206,-184.91124260355,4,2,1,35,0,0
107469,-184.91124260355,4,2,1,5,0,0

[Colours]
Combo1 : 172,89,255
Combo2 : 55,255,255
Combo3 : 255,128,255
Combo4 : 254,168,73

[HitObjects]
271,202,101,6,0,L|267:269,1,66.0000025177003,6|0,0:2|0:0,0:0:0:0:
217,337,416,1,0,1:0:0:0:
149,286,574,2,0,P|205:253|268:268,1,132.000005035401,2|0,0:2|0:0,0:0:0:0:
301,346,1048,1,0,1:0:0:0:
415,352,1206,6,0,P|447:296|429:234,1,132.000005035401,2|0,0:2|0:0,0:0:0:0:
343,129,1679,2,0,L|354:194,1,66.0000025177003,4|0,0:3|0:0,0:0:0:0:
256,120,1995,2,0,L|267:185,1,66.0000025177003,4|0,0:0|0:0,0:0:0:0:
169,111,2311,2,0,L|180:176,1,66.0000025177003,4|0,0:0|0:0,0:0:0:0:
220,39,2627,6,0,P|161:22|90:76,1,132.000005035401,2|0,0:0|1:0,3:0:0:0:
129,248,3101,2,0,P|188:265|259:211,1,132.000005035401,2|0,3:2|3:0,3:0:0:0:
180,176,3574,1,0,1:0:0:0:
57,197,3732,6,0,B|39:232|39:232|55:349,1,132.000005035401,2|0,3:2|3:0,3:0:0:0:
129,248,4206,2,0,L|137:313,1,66.0000025177003,4|0,3:0|3:0,3:0:0:0:
231,236,4522,2,0,L|223:302,1,66.0000025177003,4|0,3:0|3:0,3:0:0:0:
317,225,4837,2,0,L|326:291,1,66.0000025177003,4|0,3:0|3:0,3:0:0:0:
427,147,5153,6,0,L|410:278,1,132.000005035401,2|0,0:0|1:0,0:0:0:0:
297,129,5627,2,0,L|427:146,1,132.000005035401,2|0,0:2|0:0,0:0:0:0:
439,61,6101,1,0,1:0:0:0:
288,63,6258,6,0,L|309:221,1,132.000005035401,2|0,0:2|0:0,0:0:0:0:
188,271,6732,2,0,L|254:263,1,66.0000025177003,4|0,0:0|0:0,0:0:0:0:
212,117,7048,2,0,L|221:183,1,66.0000025177003,4|0,0:0|0:0,0:0:0:0:
70,206,7364,2,0,L|136:198,1,66.0000025177003,4|0,0:0|0:0,0:0:0:0:
214,31,7679,6,0,P|154:54|126:112,1,132.000005035401,2|0,0:0|1:0,0:0:0:0:
237,233,8153,2,0,P|248:170|212:117,1,132.000005035401,2|0,0:2|0:0,0:0:0:0:
163,275,8627,2,0,P|183:300|214:315,1,66.0000025177003,0|0,1:0|0:0,0:0:0:0:
401,162,8943,6,0,L|409:228,1,44.0000016784669,2|0,0:2|2:0,0:0:0:0:
294,299,9153,2,0,L|360:291,1,44.0000016784669,2|0,0:2|2:0,0:0:0:0:
407,135,9364,6,0,L|415:201,1,44.0000016784669,2|0,0:2|2:0,0:0:0:0:
300,272,9574,2,0,L|366:264,1,44.0000016784669,2|0,0:2|2:0,0:0:0:0:
413,108,9785,6,0,L|421:174,1,44.0000016784669,2|0,0:2|2:0,0:0:0:0:
306,245,9995,2,0,L|372:237,1,44.0000016784669,2|0,0:2|2:0,0:0:0:0:
428,64,10206,6,0,L|412:193,1,88,8|0,0:0|0:0,0:0:0:0:
330,17,10522,2,0,L|340:104,1,88,10|2,0:2|0:0,0:0:0:0:
242,151,10837,1,10,0:2:0:0:
252,63,10994,1,0,0:0:0:0:
159,181,11153,2,0,L|169:268,1,88,10|0,0:2|0:0,0:0:0:0:
103,329,11469,6,0,P|137:354|181:358,1,88,10|2,0:2|0:0,0:0:0:0:
248,241,11785,2,0,P|204:244|169:270,1,88,10|2,0:2|0:0,0:0:0:0:
322,292,12101,1,10,0:2:0:0:
255,153,12258,1,0,0:0:0:0:
408,164,12416,2,0,P|417:206|404:248,1,88,10|0,0:2|0:0,0:0:0:0:
248,241,12732,5,0,1:0:0:0:
248,241,12811,1,0,1:2:0:0:
248,241,12890,1,0,1:0:0:0:
334,114,13048,2,0,P|366:84|408:74,1,88,10|2,0:2|0:0,0:0:0:0:
261,65,13364,2,0,L|254:152,1,88,10|0,0:2|0:0,0:0:0:0:
169,279,13679,2,0,L|248:240,1,88,10|0,0:2|0:0,0:0:0:0:
92,233,13995,6,0,P|79:274|88:317,2,88,10|2|10,0:2|0:0|0:2,0:0:0:0:
164,182,14469,1,2,0:0:0:0:
88,46,14627,2,0,P|78:88|91:130,1,88,10|0,0:2|0:0,0:0:0:0:
256,93,14943,1,10,0:2:0:0:
168,84,15100,1,2,0:2:0:0:
252,192,15258,5,0,1:0:0:0:
252,192,15337,1,0,1:0:0:0:
252,192,15416,1,0,1:0:0:0:
415,140,15574,2,0,L|327:147,1,88,10|2,0:2|0:0,0:0:0:0:
296,268,15890,2,0,L|383:260,1,88,10|0,0:2|0:0,0:0:0:0:
371,64,16206,2,0,L|283:71,1,88,10|0,0:2|0:0,0:0:0:0:
340,344,16522,6,0,L|427:336,1,88,10|2,0:2|0:0,0:0:0:0:
328,148,16837,1,10,0:2:0:0:
236,252,16995,1,2,0:0:0:0:
432,240,17153,2,0,L|454:155,1,88,10|0,0:2|0:0,0:0:0:0:
305,63,17469,2,0,L|327:147,1,88,10|0,0:2|0:0,0:0:0:0:
367,0,17785,5,0,0:0:0:0:
367,0,17864,1,0,0:0:0:0:
367,0,17943,1,0,0:0:0:0:
243,126,18101,2,0,L|265:210,1,88,10|2,0:2|0:0,0:0:0:0:
305,63,18416,1,10,0:2:0:0:
157,103,18574,1,2,0:2:0:0:
204,275,18732,1,6,0:2:0:0:
243,126,18890,1,0,0:0:0:0:
118,252,19048,6,0,P|116:290|148:344,1,88,2|0,0:0|0:0,0:0:0:0:
290,298,19364,2,0,P|290:253|267:209,1,88,4|0,0:1|0:0,0:0:0:0:
204,275,19679,1,0,1:0:0:0:
313,383,19837,1,0,0:0:0:0:
330,376,19915,1,0,0:0:0:0:
345,366,19994,1,0,0:0:0:0:
358,353,20073,1,0,0:0:0:0:
368,338,20152,1,0,0:0:0:0:
375,321,20231,1,0,0:0:0:0:
378,303,20311,6,0,B|395:108,1,176,2|0,1:2|1:2,0:0:0:0:
400,39,20785,1,0,0:0:0:0:
217,111,20943,2,0,B|305:119,1,88,2|0,1:2|0:0,0:0:0:0:
185,208,21258,2,0,B|273:201,1,88,2|2,1:2|0:0,0:0:0:0:
130,138,21574,5,0,1:0:0:0:
114,263,21732,1,2,0:0:0:0:
286,285,21890,1,2,1:2:0:0:
185,208,22048,1,0,0:0:0:0:
79,345,22206,2,0,P|127:351|179:324,1,88,2|0,1:2|0:0,0:0:0:0:
194,369,22443,1,2,0:0:0:0:
194,369,22522,2,0,P|235:354|278:361,1,88,0|0,1:0|0:0,0:0:0:0:
366,242,22837,6,0,L|354:330,1,88,2|0,1:2|0:0,0:0:0:0:
273,197,23153,2,0,L|286:285,1,88,2|0,1:2|0:0,0:0:0:0:
342,142,23469,1,2,1:2:0:0:
190,165,23627,2,0,P|194:238|215:265,1,88,2|0,0:0|1:0,0:0:0:0:
124,354,23943,6,0,P|129:311|114:271,1,88,2|0,0:0|1:0,0:0:0:0:
41,322,24258,1,2,0:0:0:0:
215,336,24416,2,0,L|333:323,1,88,2|0,1:2|0:0,0:0:0:0:
298,151,24732,2,0,L|285:269,1,88,2|0,1:2|0:0,0:0:0:0:
200,248,25048,2,0,L|287:238,1,88,2|0,1:2|0:0,0:0:0:0:
308,64,25364,5,6,1:2:0:0:
211,160,25522,1,0,0:2:0:0:
394,249,25679,1,2,1:2:0:0:
298,151,25837,1,0,0:2:0:0:
344,332,25995,1,2,1:2:0:0:
395,152,26153,1,2,0:2:0:0:
297,248,26311,1,2,1:2:0:0:
347,67,26469,1,2,0:2:0:0:
394,249,26627,5,2,1:2:0:0:
298,151,26785,1,0,0:2:0:0:
330,370,26943,1,2,1:2:0:0:
175,212,27101,1,0,0:2:0:0:
195,347,27258,1,2,1:2:0:0:
297,248,27416,2,0,L|384:255,1,88,2|0,0:0|1:0,0:0:0:0:
298,151,27732,1,2,0:0:0:0:
195,347,27890,6,0,L|79:337,1,88,6|0,1:2|0:0,0:0:0:0:
19,331,28206,1,2,1:2:0:0:
34,155,28364,2,0,L|26:243,1,88,2|0,0:0|1:0,0:0:0:0:
107,339,28679,1,2,0:0:0:0:
207,193,28837,2,0,L|120:186,1,88,2|0,1:2|0:0,0:0:0:0:
273,115,29153,5,2,1:2:0:0:
294,200,29310,1,2,0:0:0:0:
414,126,29469,1,0,1:2:0:0:
381,207,29627,1,2,0:0:0:0:
346,69,29785,2,0,P|381:42|424:37,1,88,2|0,1:2|0:0,0:0:0:0:
464,197,30101,2,0,P|424:213|381:207,1,88,2|0,1:2|0:0,0:0:0:0:
243,169,30416,6,0,L|432:120,1,176,2|0,1:0|1:0,0:0:0:0:
267,85,30890,1,0,0:0:0:0:
133,230,31048,2,0,L|219:253,1,88,2|0,1:2|0:0,0:0:0:0:
104,145,31364,2,0,P|67:169|48:208,1,88,2|2,1:2|0:0,0:0:0:0:
110,315,31680,5,0,1:0:0:0:
133,230,31837,1,2,0:0:0:0:
25,292,31995,1,2,1:2:0:0:
48,207,32152,1,0,0:0:0:0:
110,315,32311,2,0,L|195:337,1,88,2|0,1:2|0:0,0:0:0:0:
239,337,32548,1,2,0:0:0:0:
239,337,32627,2,0,L|324:314,1,88,0|2,1:0|0:0,0:0:0:0:
304,228,32943,6,0,L|218:250,2,88,2|0|2,1:2|0:0|1:2,0:0:0:0:
387,254,33416,1,0,0:0:0:0:
426,109,33574,2,0,P|389:131|367:169,1,88,2|0,1:2|0:0,0:0:0:0:
451,195,33890,1,2,1:2:0:0:
489,46,34048,6,0,P|451:24|407:23,1,88,2|0,0:0|1:0,0:0:0:0:
334,73,34364,1,2,2:0:0:0:
178,144,34522,2,0,P|215:122|259:121,1,88,2|0,1:2|0:0,0:0:0:0:
347,257,34837,2,0,L|333:171,1,88,2|0,1:2|0:0,0:0:0:0:
192,230,35153,2,0,L|206:317,1,88,2|0,1:2|0:0,0:0:0:0:
362,344,35469,5,6,1:2:0:0:
415,201,35627,1,0,0:0:0:0:
288,285,35785,1,2,1:2:0:0:
372,117,35943,1,0,0:0:0:0:
440,291,36101,1,2,1:2:0:0:
321,196,36259,1,2,0:0:0:0:
255,374,36416,1,2,1:2:0:0:
227,211,36574,1,2,0:0:0:0:
349,359,36732,6,0,L|462:342,1,88,2|0,1:2|0:0,0:0:0:0:
261,122,37048,1,2,1:2:0:0:
193,300,37207,1,2,0:0:0:0:
381,269,37364,2,0,L|494:252,1,88,2|0,1:2|0:0,0:0:0:0:
293,32,37679,1,2,1:2:0:0:
225,210,37838,1,2,0:0:0:0:
413,179,37995,6,0,L|526:162,1,88,4|0,1:1|0:0,0:0:0:0:
261,122,38311,1,2,1:2:0:0:
381,269,38469,2,0,L|494:252,1,88,2|0,0:0|1:0,0:0:0:0:
225,210,38785,1,2,0:0:0:0:
349,359,38943,1,2,1:2:0:0:
321,196,39101,1,2,0:0:0:0:
129,224,39258,5,0,1:2:0:0:
261,122,39416,1,2,0:0:0:0:
193,300,39574,1,0,1:2:0:0:
165,136,39732,1,2,0:0:0:0:
97,314,39890,2,0,P|122:366|162:392,1,88,2|0,1:2|0:0,0:0:0:0:
277,293,40206,2,0,P|219:288|176:310,1,88,2|0,1:2|0:0,0:0:0:0:
338,368,40522,5,6,1:2:0:0:
311,202,40679,1,0,0:0:0:0:
243,384,40837,1,2,1:2:0:0:
216,218,40995,1,0,0:0:0:0:
373,277,41153,1,2,1:2:0:0:
249,127,41311,1,0,0:0:0:0:
183,309,41469,1,2,1:0:0:0:
153,143,41627,1,0,0:0:0:0:
277,293,41785,6,0,L|378:276,1,88,2|0,1:2|0:0,0:0:0:0:
216,218,42101,1,2,1:2:0:0:
183,309,42258,1,2,0:0:0:0:
35,220,42416,2,0,L|122:234,1,88,2|0,1:2|0:0,0:0:0:0:
153,143,42732,1,2,1:0:0:0:
216,218,42890,1,0,0:0:0:0:
333,112,43048,6,0,L|247:127,1,88,4|0,1:3|0:0,0:0:0:0:
216,218,43364,2,0,L|302:203,1,88,0|0,1:0|0:0,0:0:0:0:
363,21,43679,2,0,L|277:36,1,88,0|0,1:0|0:0,0:0:0:0:
246,127,43995,1,0,1:0:0:0:
389,188,44153,6,0,L|475:173,1,88,8|0,0:3|0:0,0:0:0:0:
455,320,44469,1,0,1:0:0:0:
455,320,44548,1,0,1:0:0:0:
455,320,44627,6,0,L|446:265,1,44,2|0,3:0|0:0,0:0:0:0:
389,188,44785,2,0,L|379:242,1,44,2|0,3:0|0:0,0:0:0:0:
324,317,44943,2,0,L|368:309,1,44,2|0,2:3|2:0,0:0:0:0:
309,155,45101,2,0,L|254:164,1,44,8|0,2:3|2:0,0:0:0:0:
192,316,45258,2,0,L|212:200,1,88,8|0,3:0|0:0,0:0:0:0:
192,143,45574,6,0,L|207:230,1,88,8|0,0:0|0:0,0:0:0:0:
325,28,45890,1,4,0:0:0:0:
110,113,46048,1,0,0:0:0:0:
291,256,46206,1,4,0:0:0:0:
177,56,46364,1,0,0:0:0:0:
60,254,46522,6,0,P|108:320|136:330,1,88,8|0,0:0|0:0,0:0:0:0:
259,86,46837,1,4,0:0:0:0:
146,239,46995,1,0,0:0:0:0:
352,347,47153,1,4,0:0:0:0:
275,173,47311,1,0,0:0:0:0:
160,347,47469,1,8,0:0:0:0:
191,143,47627,1,0,0:0:0:0:
352,347,47785,2,0,L|469:327,1,88,8|0,0:0|0:0,0:0:0:0:
345,71,48101,6,0,P|301:65|258:85,1,88,8|0,0:0|0:0,0:0:0:0:
283,233,48416,2,0,P|327:239|370:219,1,88,4|0,0:0|0:0,0:0:0:0:
431,57,48732,2,0,L|344:71,1,88,4|0,0:0|0:0,0:0:0:0:
88,215,49048,1,8,0:0:0:0:
174,53,49205,1,0,0:0:0:0:
290,259,49364,6,0,L|377:245,1,88,8|0,0:0|0:0,0:0:0:0:
159,315,49679,2,0,L|245:329,1,88,4|0,0:0|0:0,0:0:0:0:
88,215,49995,1,4,0:0:0:0:
102,382,50153,1,0,0:0:0:0:
174,229,50311,2,0,P|167:173|130:134,1,88,8|0,0:0|0:0,0:0:0:0:
256,33,50627,6,0,P|233:70|231:114,1,88,8|0,0:0|0:0,0:0:0:0:
391,313,50943,1,4,0:0:0:0:
317,100,51101,1,0,0:0:0:0:
219,341,51258,1,4,0:0:0:0:
231,114,51416,1,0,0:0:0:0:
305,327,51574,6,0,L|416:308,1,88,8|0,0:0|0:0,0:0:0:0:
142,130,51889,1,4,0:0:0:0:
131,357,52048,1,0,0:0:0:0:
231,114,52206,1,4,0:0:0:0:
219,341,52364,1,0,0:0:0:0:
56,144,52522,1,8,0:0:0:0:
131,357,52679,1,0,0:0:0:0:
285,181,52837,1,8,0:0:0:0:
76,289,52995,1,0,0:0:0:0:
338,247,53153,6,0,L|449:228,1,88,8|0,0:0|0:0,0:0:0:0:
231,114,53469,2,0,L|342:133,1,88,4|0,0:0|0:0,0:0:0:0:
124,247,53785,2,0,L|235:228,1,88,4|0,0:0|0:0,0:0:0:0:
17,114,54101,1,8,0:0:0:0:
93,329,54258,1,0,0:0:0:0:
145,100,54416,5,8,0:0:0:0:
38,262,54574,2,0,L|149:243,1,88,2|0,0:0|0:0,0:0:0:0:
227,188,54890,1,0,0:0:0:0:
227,188,54969,1,0,0:0:0:0:
227,188,55048,2,0,L|184:181,1,44,8|0,0:0|0:0,0:0:0:0:
67,85,55206,2,0,L|110:77,1,44,8|0,0:0|0:0,0:0:0:0:
206,50,55364,2,0,L|198:94,1,44,4|0,0:0|0:0,0:0:0:0:
102,208,55522,2,0,L|94:164,1,44,4|0,0:0|0:0,0:0:0:0:
285,121,55679,6,0,P|316:187|284:257,1,132.000005035401,6|0,0:0|0:0,0:0:0:0:
227,188,56153,1,0,0:0:0:0:
391,231,56311,2,0,L|403:166,1,66.0000025177003,10|0,0:2|0:0,0:0:0:0:
299,240,56627,2,0,L|313:327,1,66.0000025177003,2|0,0:0|0:0,0:0:0:0:
227,188,56943,5,2,0:0:0:0:
111,269,57101,2,0,L|177:258,2,66.0000025177003,8|0|0,0:0|0:0|0:0,0:0:0:0:
99,148,57574,2,0,P|127:206|111:268,1,132.000005035401,10|0,0:0|0:0,0:0:0:0:
44,214,58048,1,2,0:0:0:0:
33,92,58206,5,2,0:0:0:0:
155,81,58364,2,0,L|229:74,2,66.0000025177003,8|0|2,0:0|0:0|0:0,0:0:0:0:
190,230,58837,2,0,L|255:223,1,66.0000025177003,8|2,0:0|0:0,0:0:0:0:
65,184,59153,2,0,L|0:178,1,66.0000025177003,10|0,0:0|0:0,0:0:0:0:
132,290,59469,5,2,0:0:0:0:
208,378,59627,2,0,L|215:313,1,66.0000025177003,8|2,0:0|0:2,0:0:0:0:
304,378,59943,2,0,L|297:313,1,66.0000025177003,2|0,3:2|0:0,0:0:0:0:
380,290,60258,1,2,3:0:0:0:
256,240,60416,2,0,L|256:174,1,66.0000025177003,8|0,0:0|0:0,0:0:0:0:
170,89,60732,6,0,P|196:147|256:174,1,132.000005035401,6|0,0:2|0:0,0:0:0:0:
256,87,61206,1,0,0:0:0:0:
126,16,61364,2,0,P|101:38|88:68,1,66.0000025177003,8|0,0:0|0:0,0:0:0:0:
26,128,61679,2,0,P|50:149|63:179,1,66.0000025177003,2|0,0:0|0:0,0:0:0:0:
46,316,61995,5,2,0:0:0:0:
106,254,62153,2,0,L|183:247,1,66.0000025177003,8|0,0:0|0:0,0:0:0:0:
153,384,62469,1,2,0:0:0:0:
213,322,62627,2,0,L|290:315,1,66.0000025177003,8|0,2:3|0:0,0:0:0:0:
406,254,62943,2,0,L|329:247,1,66.0000025177003,12|0,0:0|0:0,0:0:0:0:
277,102,63258,6,0,L|284:179,1,77.0000007343292,2|0,0:1|0:0,0:0:0:0:
189,238,63574,2,0,L|196:161,1,77.0000007343292,8|0,0:0|0:0,0:0:0:0:
127,104,63889,1,2,0:0:0:0:
48,145,64048,2,0,P|72:175|108:190,1,77.0000007343292,10|0,0:3|0:0,0:0:0:0:
206,63,64364,1,2,0:0:0:0:
116,27,64522,6,0,L|126:103,1,77.0000007343292,2|0,0:0|0:0,0:0:0:0:
206,237,64837,2,0,L|195:160,1,77.0000007343292,8|0,0:0|0:0,0:0:0:0:
153,308,65153,1,2,0:0:0:0:
277,290,65311,2,0,L|353:279,1,77.0000007343292,8|8,0:0|0:0,0:0:0:0:
288,201,65627,1,2,0:0:0:0:
224,361,65785,6,0,L|147:350,1,77.0000007343292,8|0,0:0|0:0,0:0:0:0:
81,202,66101,2,0,L|92:279,1,77.0000007343292,8|0,0:0|0:0,0:0:0:0:
298,124,66416,2,0,L|287:200,1,77.0000007343292,8|0,0:0|0:0,0:0:0:0:
81,45,66732,2,0,L|91:121,1,77.0000007343292,8|0,0:0|0:0,0:0:0:0:
287,42,67048,5,2,0:0:0:0:
188,161,67206,1,8,0:0:0:0:
182,179,67284,1,8,0:0:0:0:
181,198,67363,1,8,0:0:0:0:
185,217,67442,1,8,0:0:0:0:
189,235,67521,1,8,0:0:0:0:
188,255,67600,1,8,0:0:0:0:
183,273,67679,1,8,0:0:0:0:
183,273,68311,6,0,L|330:248,1,132,6|0,0:2|2:0,0:0:0:0:
239,131,68627,2,0,L|193:254,1,132,10|0,0:2|2:0,0:0:0:0:
118,134,68943,2,0,L|249:112,1,132,2|0,0:2|2:0,0:0:0:0:
136,47,69258,1,10,0:2:0:0:
100,221,69416,1,6,0:3:0:0:
31,116,69574,5,2,0:2:0:0:
187,239,69732,1,2,0:0:0:0:
118,134,69890,1,8,0:0:0:0:
82,308,70048,2,0,L|194:332,1,88,2|2,0:2|1:2,0:0:0:0:
205,152,70364,1,2,0:2:0:0:
100,221,70522,1,10,0:2:0:0:
136,47,70679,1,0,0:0:0:0:
313,253,70837,5,2,1:2:0:0:
391,100,70995,2,0,P|396:35|378:3,1,88,2|8,0:2|0:0,0:0:0:0:
205,152,71311,1,2,0:2:0:0:
370,185,71469,1,2,0:2:0:0:
228,235,71627,1,0,0:0:0:0:
259,85,71785,1,10,0:2:0:0:
169,344,71943,6,0,L|253:317,1,88,6|0,0:2|0:0,0:0:0:0:
286,169,72258,1,2,0:0:0:0:
124,135,72416,1,8,0:0:0:0:
313,253,72574,1,2,1:2:0:0:
259,85,72732,1,2,0:2:0:0:
185,257,72890,1,2,0:2:0:0:
178,68,73048,1,8,0:0:0:0:
103,238,73206,6,0,P|142:257|186:257,1,88,2|4,0:2|0:0,0:0:0:0:
285,168,73522,1,2,0:2:0:0:
159,173,73679,1,8,0:0:0:0:
259,85,73837,1,0,0:0:0:0:
312,252,73995,1,2,1:2:0:0:
345,100,74153,1,2,0:2:0:0:
225,233,74311,1,8,0:0:0:0:
457,204,74469,6,0,L|371:186,1,88,6|0,0:2|0:0,0:0:0:0:
225,233,74785,1,2,0:2:0:0:
333,358,74943,1,8,0:0:0:0:
285,168,75101,1,0,0:0:0:0:
165,298,75258,1,2,1:2:0:0:
259,85,75416,1,2,1:2:0:0:
352,272,75574,2,0,L|370:186,1,88,8|0,0:0|0:0,0:0:0:0:
198,149,75890,6,0,P|243:203|197:320,1,176,6|8,0:2|0:2,0:0:0:0:
69,227,76364,2,0,L|157:235,1,88,2|0,0:2|1:0,0:0:0:0:
326,55,76679,2,0,L|238:62,1,88,2|0,0:2|0:0,0:0:0:0:
150,69,76995,1,2,0:2:0:0:
222,300,77153,5,2,0:2:0:0:
198,149,77311,1,2,0:0:0:0:
172,372,77469,1,10,0:0:0:0:
374,161,77627,2,0,P|416:152|485:187,1,88,4|0,0:1|0:0,0:0:0:0:
413,241,77943,1,2,0:0:0:0:
286,155,78101,1,10,0:0:0:0:
222,300,78258,1,0,0:0:0:0:
48,135,78416,6,0,P|112:147|181:124,1,132,6|0,0:2|0:0,0:0:0:0:
209,292,78732,2,0,P|144:279|82:297,1,132,10|0,0:2|0:0,0:0:0:0:
159,155,79048,2,0,L|83:299,1,132,2|0,0:2|0:0,0:0:0:0:
21,226,79364,1,10,0:2:0:0:
235,200,79522,6,0,L|350:209,1,88,6|0,0:2|0:0,0:0:0:0:
371,133,79837,1,2,0:0:0:0:
194,123,79995,2,0,P|161:152|147:193,1,88,8|2,0:0|0:2,0:0:0:0:
225,348,80311,2,0,P|215:305|186:272,1,88,0|2,0:0|0:2,0:0:0:0:
13,261,80627,2,0,P|54:274|97:265,1,88,10|0,0:2|0:0,0:0:0:0:
281,114,80943,6,0,L|193:122,1,88,2|0,1:2|0:0,0:0:0:0:
187,273,81258,1,8,0:0:0:0:
412,183,81416,2,0,L|325:192,1,88,2|2,0:2|1:0,0:0:0:0:
232,351,81732,1,2,0:2:0:0:
369,270,81890,1,10,0:2:0:0:
153,192,82048,6,0,P|103:254|105:302,1,88,6|0,0:2|0:0,0:0:0:0:
323,352,82364,1,2,0:0:0:0:
235,200,82522,1,8,0:0:0:0:
395,96,82679,2,0,L|382:183,1,88,2|0,0:2|1:0,0:0:0:0:
187,273,82995,1,0,0:0:0:0:
281,124,83153,1,8,0:0:0:0:
369,270,83311,6,0,P|411:267|456:230,1,88,6|0,0:2|0:0,0:0:0:0:
194,126,83627,1,2,0:2:0:0:
323,352,83785,1,8,0:0:0:0:
281,124,83943,1,0,0:0:0:0:
149,350,84101,1,2,1:2:0:0:
108,128,84258,1,2,0:2:0:0:
236,351,84416,1,8,0:0:0:0:
366,125,84574,6,0,P|323:114|281:125,1,88,6|0,0:2|0:0,0:0:0:0:
410,353,84890,1,2,0:2:0:0:
452,123,85048,1,8,0:0:0:0:
279,278,85206,1,0,0:0:0:0:
499,348,85364,1,2,1:2:0:0:
366,125,85522,1,2,1:2:0:0:
323,352,85679,1,8,0:0:0:0:
497,201,85837,1,0,0:0:0:0:
238,201,85995,5,2,0:0:0:0:
410,353,86153,2,0,P|445:314|453:270,1,88,8|0,0:0|0:0,0:0:0:0:
221,101,86469,5,2,0:0:0:0:
293,318,86627,2,0,P|342:301|371:267,1,88,8|0,0:0|0:0,0:0:0:0:
256,5,86943,5,2,0:0:0:0:
293,230,87101,1,8,0:0:0:0:
470,86,87258,5,2,0:0:0:0:
470,86,87337,1,2,0:0:0:0:
470,86,87416,2,0,L|454:13,1,44,8|0,0:0|0:0,0:0:0:0:
369,264,87574,2,0,L|412:255,1,44,8|0,0:0|0:0,0:0:0:0:
512,197,87732,1,8,0:0:0:0:
512,197,87811,1,8,0:0:0:0:
512,197,87890,2,0,L|439:181,1,44,4|0,0:0|0:0,0:0:0:0:
397,128,88048,2,0,L|388:171,1,44,8|0,0:0|0:0,0:0:0:0:
473,377,88206,2,0,L|492:291,1,88,8|0,0:0|0:0,0:0:0:0:
284,203,88522,6,0,L|292:334,1,132.000005035401,4|0,0:2|0:0,0:0:0:0:
209,312,88995,1,2,0:2:0:0:
198,160,89153,2,0,L|203:226,1,66.0000025177003,8|0,0:0|0:0,0:0:0:0:
125,289,89469,1,2,0:2:0:0:
114,137,89627,2,0,L|118:202,1,66.0000025177003,8|2,0:0|0:1,0:0:0:0:
41,266,89943,1,2,0:2:0:0:
29,112,90101,6,0,P|41:82|66:61,1,66.0000025177003,8|0,0:0|0:0,0:0:0:0:
179,132,90416,2,0,L|114:137,1,66.0000025177003,4|0,0:0|0:0,0:0:0:0:
231,63,90732,2,0,L|296:67,1,66.0000025177003,8|0,0:0|0:0,0:0:0:0:
364,225,91048,5,4,0:1:0:0:
256,192,91127,12,0,92785,0:0:0:0:
146,216,92943,5,8,0:0:0:0:
397,152,93101,1,8,0:0:0:0:
67,251,93574,5,0,1:0:0:0:
67,251,93653,1,0,1:0:0:0:
67,251,93732,1,0,1:0:0:0:
157,128,93890,2,0,L|146:215,1,88,10|0,0:2|0:0,0:0:0:0:
236,92,94206,2,0,L|225:179,1,88,10|0,0:2|0:0,0:0:0:0:
86,75,94522,1,10,0:2:0:0:
246,4,94679,6,0,P|293:24|300:151,1,176,2|0,0:2|0:0,0:0:0:0:
214,263,95153,2,0,P|209:219|224:178,1,88,10|0,0:2|0:0,0:0:0:0:
295,231,95469,1,10,0:2:0:0:
202,348,95627,1,2,0:2:0:0:
85,255,95785,2,0,L|96:168,1,88,10|0,0:2|0:0,0:0:0:0:
25,113,96101,5,0,1:0:0:0:
25,113,96179,1,0,1:0:0:0:
25,113,96258,1,0,1:0:0:0:
0,271,96416,2,0,L|86:254,1,88,10|0,0:2|0:0,0:0:0:0:
182,184,96732,2,0,L|95:167,1,88,10|0,0:2|0:0,0:0:0:0:
41,348,97048,2,0,L|128:332,1,88,10|0,0:2|0:0,0:0:0:0:
268,200,97364,6,0,P|246:255|266:316,1,88,10|0,0:2|0:0,0:0:0:0:
416,231,97679,2,0,P|417:274|398:314,1,88,10|0,0:2|0:0,0:0:0:0:
332,88,97995,2,0,P|331:131|350:170,1,88,10|0,0:2|0:0,0:0:0:0:
481,57,98311,2,0,P|500:96|499:139,1,88,10|2,0:2|0:2,0:0:0:0:
399,22,98627,5,0,1:0:0:0:
399,22,98706,1,0,1:0:0:0:
399,22,98785,1,0,1:0:0:0:
246,81,98943,2,0,B|276:92|276:92|331:87,1,88,10|0,0:2|0:0,0:0:0:0:
214,163,99258,2,0,B|184:152|184:152|128:156,1,88,10|0,0:2|0:0,0:0:0:0:
245,245,99574,1,10,0:2:0:0:
448,223,99732,6,0,P|384:166|300:175,1,176,2|0,0:2|0:0,0:0:0:0:
157,252,100206,2,0,L|245:245,1,88,10|0,0:2|0:0,0:0:0:0:
253,100,100522,2,0,L|165:107,1,88,10|2,0:2|0:2,0:0:0:0:
20,167,100837,2,0,L|108:175,1,88,10|0,0:2|0:0,0:0:0:0:
130,26,101153,5,0,1:0:0:0:
130,26,101232,1,0,1:0:0:0:
130,26,101311,1,0,1:0:0:0:
77,96,101469,1,2,0:0:0:0:
195,186,101627,2,0,P|190:143|165:107,1,88,8|2,0:0|0:0,0:0:0:0:
108,175,101943,1,2,0:0:0:0:
229,268,102101,2,0,P|264:242|282:202,1,88,8|0,0:0|0:0,0:0:0:0:
279,57,102416,6,0,L|270:115,2,58.6666666666667,8|8|8,0:0|0:0|0:0,0:0:0:0:
181,10,102732,2,0,L|189:68,2,58.6666666666667,8|8|8,0:0|0:0|0:0,0:0:0:0:
100,82,103048,6,0,L|124:135,1,58.6666666666667,8|8,0:0|0:0,0:0:0:0:
68,202,103258,1,8,0:0:0:0:
68,202,103364,2,0,L|122:222,1,58.6666666666667,8|4,0:0|0:0,0:0:0:0:
130,309,103573,1,4,0:0:0:0:
130,308,103679,6,0,P|169:289|212:291,1,88,4|0,0:1|0:0,0:0:0:0:
359,368,103995,2,0,P|316:370|277:351,1,88,2|0,0:2|0:0,0:0:0:0:
310,200,104311,2,0,L|334:284,1,88,10|0,0:2|0:0,0:0:0:0:
420,304,104627,1,2,0:2:0:0:
449,157,104785,6,0,P|412:181|393:220,1,88,2|0,0:2|1:0,0:0:0:0:
480,240,105101,1,10,0:2:0:0:
512,94,105258,2,0,P|474:71|431:70,1,88,8|0,0:0|0:0,0:0:0:0:
310,200,105574,1,10,0:2:0:0:
420,304,105732,1,0,0:0:0:0:
370,136,105890,1,4,0:0:0:0:
332,363,106048,6,0,B|302:345|302:305|302:305|298:161|526:193|422:389|302:305|302:305|218:241|98:277|98:277|10:357|122:445|214:325|98:277|98:277|22:201|94:137|94:137|150:145|174:97|174:97|214:-15|66:-47|58:105|174:97|174:97|260:87|274:125|274:125|321:219|191:241|182:125|275:125|275:125|356:107|399:154|399:154|432:90|486:156|567:63|463:-55|392:34|392:34|329:-30|280:42|290:61|296:69,1,2332,2|0,0:1|0:0,0:0:0:0:
