osu file format v14

[General]
AudioFilename: audio.mp3
AudioLeadIn: 0
PreviewTime: 67758
Countdown: 0
SampleSet: None
StackLeniency: 0.5
Mode: 0
LetterboxInBreaks: 0
WidescreenStoryboard: 1

[Editor]
Bookmarks: 35153
DistanceSpacing: 1.3
BeatDivisor: 4
GridSize: 4
TimelineZoom: 2.1

[Metadata]
Title:Zen Zen Zense (movie ver.)
TitleUnicode:前前前世 (movie ver.)
Artist:RADWIMPS
ArtistUnicode:RADWIMPS
Creator:Monstrata
Version:Extra: Mitsuha
Source:君の名は。
Tags:your name taki mitsuha kimi no na wa Sotarks Haruto HabiHolic Akitoshi Kalibe Kocari Battle Haruto_Aizawa Haruto-
BeatmapID:1092090
BeatmapSetID:513590

[Difficulty]
HPDrainRate:6
CircleSize:4
OverallDifficulty:8.7
ApproachRate:9.4
SliderMultiplier:1.76
SliderTickRate:1

[Events]
//Background and Video events
0,0,"thumb-1920-737491.jpg",0,0
//Break Periods
//Storyboard Layer 0 (Background)
//Storyboard Layer 1 (Fail)
//Storyboard Layer 2 (Pass)
//Storyboard Layer 3 (Foreground)
//Storyboard Sound Samples

[TimingPoints]
101,315.789473684211,4,3,1,50,1,0
101,-133.333333333333,4,3,1,50,0,0
1679,-133.333333333333,4,3,1,30,0,0
2627,-133.333333333333,4,3,1,50,0,0
4206,-133.333333333333,4,3,1,30,0,0
5153,-133.333333333333,4,3,1,50,0,0
6732,-133.333333333333,4,3,1,30,0,0
7679,-133.333333333333,4,3,1,50,0,0
8943,-133.333333333333,4,3,1,25,0,0
9153,-133.333333333333,4,3,1,35,0,0
9364,-133.333333333333,4,3,1,45,0,0
9574,-133.333333333333,4,3,1,55,0,0
9785,-133.333333333333,4,3,1,65,0,0
9995,-133.333333333333,4,3,1,75,0,0
10206,-100,4,3,1,55,0,0
20311,-100,4,2,1,60,0,0
41469,-100,4,2,1,90,0,0
41627,-100,4,2,1,60,0,0
42732,-100,4,2,1,90,0,0
42890,-100,4,2,1,60,0,0
44943,-100,4,2,1,80,0,0
45101,-100,4,3,0,65,0,0
45258,-100,4,2,1,75,0,0
45574,-100,4,3,1,60,0,0
55206,-100,4,3,0,60,0,0
55364,-100,4,3,0,55,0,0
55522,-100,4,3,0,75,0,0
55679,-133.333333333333,4,2,1,55,0,0
62627,-133.333333333333,4,3,0,55,0,0
62785,-133.333333333333,4,2,1,55,0,0
63258,-114.285714285714,4,3,1,55,0,0
66101,-114.285714285714,4,3,1,65,0,0
66416,-114.285714285714,4,3,1,75,0,0
66732,-114.285714285714,4,3,1,85,0,0
67206,-114.285714285714,4,3,1,45,0,0
67285,-114.285714285714,4,3,1,48,0,0
67364,-114.285714285714,4,3,1,51,0,0
67443,-114.285714285714,4,3,1,54,0,0
67522,-114.285714285714,4,3,1,57,0,0
67601,-114.285714285714,4,3,1,60,0,0
67679,-114.285714285714,4,3,1,70,0,0
68311,-100,4,3,1,85,0,1
68548,-100,4,3,1,5,0,1
68627,-100,4,3,1,85,0,1
68864,-100,4,3,1,5,0,1
68943,-100,4,3,1,85,0,1
69179,-100,4,3,1,5,0,1
69258,-100,4,3,1,85,0,1
78653,-100,4,2,1,5,0,1
78732,-100,4,3,1,85,0,1
78969,-100,4,2,1,5,0,1
79048,-100,4,3,1,85,0,1
79285,-100,4,2,1,5,0,1
79364,-100,4,3,1,85,0,1
87890,-100,4,3,0,70,0,1
88206,-100,4,3,0,85,0,1
88522,-133.333333333333,4,3,1,70,0,1
90416,-133.333333333333,4,3,0,70,0,1
90732,-133.333333333333,4,3,0,80,0,1
91048,-133.333333333333,4,3,1,70,0,1
92785,-133.333333333333,4,2,1,5,0,1
92943,-133.333333333333,4,3,1,85,0,1
93574,-100,4,3,1,55,0,0
102416,-100,4,3,0,55,0,0
102522,-100,4,3,1,55,0,0
103153,-100,4,3,0,55,0,0
103679,-100,4,3,1,55,0,0
105258,-100,4,3,0,55,0,0
105416,-100,4,3,1,55,0,0
106048,-184.91124260355,4,3,1,95,0,0
106206,-184.91124260355,4,2,1,35,0,0
107469,-184.91124260355,4,2,1,5,0,0

[Colours]
Combo1 : 172,89,255
Combo2 : 55,255,255
Combo3 : 255,128,255
Combo4 : 254,168,73

[HitObjects]
241,202,101,6,0,L|245:269,1,66.0000025177003,6|0,0:2|0:0,0:0:0:0:
295,337,416,1,0,1:0:0:0:
363,286,574,2,0,P|307:253|244:268,1,132.000005035401,2|0,0:2|0:0,0:0:0:0:
211,347,1048,1,0,1:0:0:0:
136,314,1206,6,0,P|200:313|245:267,1,132.000005035401,2|0,0:2|0:0,0:0:0:0:
85,241,1679,2,0,L|20:252,1,66.0000025177003,4|0,0:3|0:0,0:0:0:0:
100,155,1995,2,0,L|35:166,1,66.0000025177003,4|0,0:0|0:0,0:0:0:0:
115,69,2311,2,0,L|50:80,1,66.0000025177003,4|0,0:0|0:0,0:0:0:0:
235,53,2627,6,0,B|171:35|171:35|94:81,1,132.000005035401,2|0,0:0|1:0,0:0:0:0:
144,262,3101,2,0,B|208:278|208:278|284:231,1,132.000005035401,2|0,3:2|3:0,0:0:0:0:
195,190,3574,1,0,1:0:0:0:
57,197,3732,6,0,P|88:253|74:316,1,132.000005035401,2|0,3:2|3:0,0:0:0:0:
150,356,4206,2,0,P|181:346|214:348,1,66.0000025177003,4|0,3:0|3:0,0:0:0:0:
195,228,4522,2,0,P|224:243|246:268,1,66.0000025177003,4|0,3:0|3:0,0:0:0:0:
317,169,4837,2,0,P|327:200|324:233,1,66.0000025177003,4|0,3:0|3:0,0:0:0:0:
471,164,5153,6,0,P|417:200|404:263,1,132.000005035401,2|0,0:0|1:0,0:0:0:0:
372,97,5627,2,0,P|407:150|470:163,1,132.000005035401,2|0,0:2|0:0,0:0:0:0:
455,78,6101,1,0,1:0:0:0:
295,50,6258,6,0,B|283:95|283:95|312:199,1,132.000005035401,2|0,0:2|0:0,0:0:0:0:
437,234,6732,2,0,L|372:231,1,66.0000025177003,4|0,0:0|0:0,0:0:0:0:
252,295,7048,2,0,L|318:299,1,66.0000025177003,4|0,0:0|0:0,0:0:0:0:
405,382,7364,2,0,L|402:317,1,66.0000025177003,4|0,0:0|0:0,0:0:0:0:
305,178,7679,6,0,P|288:241|317:298,1,132.000005035401,2|0,0:0|1:0,0:0:0:0:
359,110,8153,2,0,P|388:171|361:241,1,132.000005035401,2|0,0:2|0:0,0:0:0:0:
239,186,8627,2,0,L|305:178,1,66.0000025177003,0|0,1:0|0:0,0:0:0:0:
139,98,8943,6,0,L|147:164,1,44.0000016784669,2|0,0:2|2:0,0:0:0:0:
32,235,9153,2,0,L|98:227,1,44.0000016784669,2|0,0:2|2:0,0:0:0:0:
145,71,9364,6,0,L|153:137,1,44.0000016784669,2|0,0:2|2:0,0:0:0:0:
38,208,9574,2,0,L|104:200,1,44.0000016784669,2|0,0:2|2:0,0:0:0:0:
151,44,9785,6,0,L|159:110,1,44.0000016784669,2|0,0:2|2:0,0:0:0:0:
44,181,9995,2,0,L|110:173,1,44.0000016784669,2|0,0:2|2:0,0:0:0:0:
166,0,10206,6,0,L|150:129,1,88,8|0,0:0|0:0,0:0:0:0:
340,20,10522,2,0,L|253:10,1,88,10|2,0:2|0:0,0:0:0:0:
318,194,10837,1,10,0:2:0:0:
241,96,10994,1,0,0:0:0:0:
144,196,11153,2,0,L|231:185,1,88,10|0,0:2|0:0,0:0:0:0:
397,156,11469,6,0,P|369:122|329:107,1,88,10|2,0:2|0:0,0:0:0:0:
269,267,11785,2,0,P|309:282|352:275,1,88,10|2,0:2|0:0,0:0:0:0:
241,96,12101,1,10,0:2:0:0:
318,194,12258,1,0,0:0:0:0:
397,52,12416,2,0,L|328:106,1,88,10|0,0:2|0:0,0:0:0:0:
231,185,12732,5,0,1:0:0:0:
231,185,12812,1,0,1:2:0:0:
231,185,12891,1,0,1:0:0:0:
80,164,13048,2,0,P|115:138|159:132,1,88,10|2,0:2|0:0,0:0:0:0:
218,278,13364,2,0,P|182:303|139:310,1,88,10|0,0:2|0:0,0:0:0:0:
231,185,13679,2,0,L|318:191,1,88,10|0,0:2|0:0,0:0:0:0:
237,11,13995,6,8,P|227:54|241:96,2,88,10|2|10,0:2|0:0|0:2,0:0:0:0:
316,50,14469,1,2,0:0:0:0:
231,185,14627,2,0,L|143:178,1,88,10|0,0:2|0:0,0:0:0:0:
269,264,14943,1,10,0:2:0:0:
317,137,15101,1,2,0:2:0:0:
355,216,15258,5,0,1:0:0:0:
355,216,15337,1,0,1:0:0:0:
355,216,15416,1,0,1:0:0:0:
367,65,15574,2,0,P|336:52|253:75,1,88,10|2,0:2|0:0,0:0:0:0:
143,134,15890,2,0,P|184:120|228:126,1,88,10|0,0:2|0:0,0:0:0:0:
354,216,16206,2,0,L|317:137,1,88,10|0,0:2|0:0,0:0:0:0:
155,285,16522,6,0,L|192:205,1,88,10|2,0:2|0:0,0:0:0:0:
296,356,16837,1,10,0:2:0:0:
270,245,16995,1,2,0:0:0:0:
104,217,17153,2,0,P|121:258|155:285,1,88,10|0,0:2|0:0,0:0:0:0:
225,122,17469,2,0,P|181:115|141:131,1,88,10|0,0:2|0:0,0:0:0:0:
233,323,17785,5,0,0:0:0:0:
233,323,17864,1,0,0:0:0:0:
233,323,17943,1,0,0:0:0:0:
191,205,18101,2,0,L|296:211,1,88,10|2,0:2|0:0,0:0:0:0:
224,51,18416,1,10,0:2:0:0:
99,176,18574,1,2,0:2:0:0:
250,131,18732,1,6,0:2:0:0:
73,96,18890,1,0,0:0:0:0:
37,240,19048,6,0,B|33:284|33:284|60:329,1,88,2|0,0:0|0:0,0:0:0:0:
190,204,19364,2,0,B|213:242|213:242|209:286,1,88,4|0,0:1|0:0,0:0:0:0:
123,263,19679,1,0,1:0:0:0:
232,371,19837,1,0,0:0:0:0:
249,364,19915,1,0,0:0:0:0:
264,354,19994,1,0,0:0:0:0:
277,341,20073,1,0,0:0:0:0:
287,326,20152,1,0,0:0:0:0:
294,309,20231,1,0,0:0:0:0:
297,291,20311,6,0,B|314:96,1,176,2|0,1:2|1:2,0:0:0:0:
319,27,20785,1,0,0:0:0:0:
136,99,20943,2,0,B|224:107,1,88,2|0,1:2|0:0,0:0:0:0:
226,244,21258,2,0,B|170:177,1,88,2|2,1:2|0:0,0:0:0:0:
173,315,21574,5,0,1:0:0:0:
261,323,21731,1,2,0:0:0:0:
335,179,21890,1,2,1:2:0:0:
328,267,22047,1,0,0:0:0:0:
284,96,22206,2,0,P|332:102|384:75,1,88,2|0,1:2|0:0,0:0:0:0:
399,120,22443,1,2,0:0:0:0:
399,120,22522,2,0,P|440:105|483:112,1,88,0|0,1:0|0:0,0:0:0:0:
437,281,22837,6,0,L|449:193,1,88,2|0,1:2|0:0,0:0:0:0:
348,273,23153,2,0,L|361:361,1,88,2|0,1:2|0:0,0:0:0:0:
336,186,23469,1,2,1:2:0:0:
252,154,23627,2,0,P|249:200|277:254,1,88,2|0,0:0|1:0,0:0:0:0:
405,130,23943,6,0,P|367:103|306:100,1,88,2|0,0:0|1:0,0:0:0:0:
336,186,24258,1,2,0:0:0:0:
487,161,24416,2,0,L|496:73,1,88,2|0,1:2|0:0,0:0:0:0:
414,217,24732,2,0,L|424:304,1,88,2|0,1:2|0:0,0:0:0:0:
272,320,25048,2,0,P|316:274|367:270,1,88,2|0,1:2|0:0,0:0:0:0:
504,339,25364,5,6,1:2:0:0:
414,217,25522,1,0,0:2:0:0:
354,356,25679,1,2,1:2:0:0:
334,182,25837,1,0,0:2:0:0:
424,304,25995,1,2,1:2:0:0:
404,130,26153,1,2,0:2:0:0:
344,269,26311,1,2,1:2:0:0:
253,147,26469,1,2,0:2:0:0:
273,321,26627,5,2,1:2:0:0:
334,182,26785,1,0,0:2:0:0:
424,304,26943,1,2,1:2:0:0:
404,130,27101,1,0,0:2:0:0:
263,234,27258,1,2,1:2:0:0:
414,217,27416,2,0,L|527:204,1,88,2|0,0:0|1:0,0:0:0:0:
324,95,27732,1,2,0:0:0:0:
273,321,27890,6,0,L|157:311,1,88,6|0,1:2|0:0,0:0:0:0:
46,376,28206,1,2,1:2:0:0:
60,224,28364,2,0,L|109:329,1,88,2|0,0:0|1:0,0:0:0:0:
134,384,28679,1,2,0:0:0:0:
234,238,28837,2,0,L|147:231,1,88,2|0,1:2|0:0,0:0:0:0:
301,160,29153,5,2,1:2:0:0:
322,246,29311,1,2,0:0:0:0:
444,172,29469,1,0,1:2:0:0:
377,113,29627,1,2,0:0:0:0:
410,254,29785,2,0,P|450:261|506:237,1,88,2|0,1:2|0:0,0:0:0:0:
360,327,30101,2,0,P|320:320|264:344,1,88,2|0,1:2|0:0,0:0:0:0:
227,185,30416,6,0,B|257:153|257:153|344:143|344:143|403:86,1,176,2|0,1:0|1:0,0:0:0:0:
301,63,30890,1,0,0:0:0:0:
302,234,31048,2,0,L|389:224,1,88,2|0,1:2|0:0,0:0:0:0:
452,161,31364,2,0,L|389:223,1,88,2|2,1:2|0:0,0:0:0:0:
279,319,31680,5,0,1:0:0:0:
302,234,31837,1,2,0:0:0:0:
194,296,31995,1,2,1:2:0:0:
217,211,32152,1,0,0:0:0:0:
279,319,32311,2,0,L|364:341,1,88,2|0,1:2|0:0,0:0:0:0:
408,341,32548,1,2,0:0:0:0:
408,341,32627,2,0,L|493:318,1,88,0|2,1:0|0:0,0:0:0:0:
386,166,32943,6,0,L|387:254,2,88,2|0|2,1:2|0:0|1:2,0:0:0:0:
386,79,33416,1,0,0:0:0:0:
269,198,33574,2,0,L|225:274,1,88,2|0,1:2|0:0,0:0:0:0:
312,122,33890,1,2,1:2:0:0:
151,166,34048,6,0,L|75:210,1,88,2|0,0:0|1:0,0:0:0:0:
226,122,34364,1,2,2:0:0:0:
73,34,34522,2,0,L|74:122,1,88,2|0,1:2|0:0,0:0:0:0:
194,241,34837,2,0,P|220:276|226:320,1,88,2|0,1:2|0:0,0:0:0:0:
80,379,35153,2,0,P|55:343|48:300,1,88,2|0,1:2|0:0,0:0:0:0:
161,157,35469,5,6,1:2:0:0:
138,311,35627,1,0,0:0:0:0:
250,171,35785,1,2,1:2:0:0:
105,228,35943,1,0,0:0:0:0:
217,86,36101,1,2,1:2:0:0:
283,253,36258,1,2,0:0:0:0:
395,111,36416,1,2,1:2:0:0:
250,171,36574,1,2,0:0:0:0:
316,335,36732,6,0,P|358:297|370:257,1,88,2|0,1:2|0:0,0:0:0:0:
307,99,37048,1,2,1:2:0:0:
194,241,37206,1,2,0:0:0:0:
132,71,37364,2,0,P|150:31|185:5,1,88,2|0,1:2|0:0,0:0:0:0:
283,253,37679,1,2,1:2:0:0:
217,86,37837,1,2,0:0:0:0:
228,324,37995,6,0,P|292:342|327:329,1,88,4|0,1:1|0:0,0:0:0:0:
250,171,38311,1,2,1:2:0:0:
110,227,38469,2,0,P|174:245|209:232,1,88,2|0,0:0|1:0,0:0:0:0:
132,74,38785,1,2,0:0:0:0:
23,210,38943,1,2,1:2:0:0:
161,157,39101,1,2,0:0:0:0:
228,324,39258,5,0,1:2:0:0:
250,171,39416,1,2,0:0:0:0:
110,227,39574,1,0,1:2:0:0:
217,86,39732,1,2,0:0:0:0:
283,253,39890,2,0,L|381:266,1,88,2|0,1:2|0:0,0:0:0:0:
394,86,40206,2,0,L|295:99,1,88,2|0,1:2|0:0,0:0:0:0:
457,277,40522,5,6,1:2:0:0:
382,177,40679,1,0,0:0:0:0:
270,340,40837,1,2,1:2:0:0:
296,166,40995,1,0,0:0:0:0:
357,352,41153,1,2,1:2:0:0:
283,253,41311,1,0,0:0:0:0:
183,328,41469,1,2,1:0:0:0:
210,155,41627,1,0,0:0:0:0:
270,340,41785,6,0,P|309:338|359:296,1,88,2|0,1:2|0:0,0:0:0:0:
197,242,42101,1,2,1:2:0:0:
183,328,42258,1,2,0:0:0:0:
283,253,42416,2,0,P|281:214|239:164,1,88,2|0,1:2|0:0,0:0:0:0:
115,272,42732,1,2,1:0:0:0:
183,328,42890,1,0,0:0:0:0:
129,186,43048,6,0,L|85:68,1,88,4|0,1:3|0:0,0:0:0:0:
197,242,43364,2,0,L|217:118,1,88,0|0,1:0|0:0,0:0:0:0:
227,324,43679,2,0,L|306:226,1,88,0|0,1:0|0:0,0:0:0:0:
115,272,43995,1,0,1:0:0:0:
298,168,44153,6,0,P|350:198|373:248,1,88,8|0,0:3|0:0,0:0:0:0:
227,324,44469,1,0,1:0:0:0:
227,324,44548,1,0,1:0:0:0:
227,324,44627,6,0,L|218:269,1,44,2|0,3:0|0:0,0:0:0:0:
161,192,44785,2,0,L|151:246,1,44,2|0,3:0|0:0,0:0:0:0:
148,357,44943,2,0,L|138:302,1,44,2|0,2:3|2:0,0:0:0:0:
246,157,45101,2,0,L|236:211,1,44,8|0,2:3|2:0,0:0:0:0:
313,345,45258,2,0,L|293:229,1,88,8|0,3:0|0:0,0:0:0:0:
231,70,45574,6,0,L|246:157,1,88,8|0,0:0|0:0,0:0:0:0:
379,42,45890,1,4,0:0:0:0:
148,39,46047,1,0,0:0:0:0:
261,241,46206,1,4,0:0:0:0:
231,70,46364,1,0,0:0:0:0:
192,297,46522,6,0,P|232:325|283:328,1,88,8|0,0:0|0:0,0:0:0:0:
312,99,46837,1,4,0:0:0:0:
95,177,46995,1,0,0:0:0:0:
261,241,47153,1,4,0:0:0:0:
231,70,47311,1,0,0:0:0:0:
109,265,47469,1,8,0:0:0:0:
148,39,47627,1,0,0:0:0:0:
192,297,47785,2,0,L|309:277,1,88,8|0,0:0|0:0,0:0:0:0:
317,56,48101,6,0,L|230:70,1,88,8|0,0:0|0:0,0:0:0:0:
76,113,48416,2,0,L|162:127,1,88,4|0,0:0|0:0,0:0:0:0:
333,143,48732,2,0,L|246:157,1,88,4|0,0:0|0:0,0:0:0:0:
60,200,49048,1,8,0:0:0:0:
148,39,49205,1,0,0:0:0:0:
262,244,49364,6,0,L|349:230,1,88,8|0,0:0|0:0,0:0:0:0:
159,142,49679,2,0,L|245:156,1,88,4|0,0:0|0:0,0:0:0:0:
43,300,49995,1,4,0:0:0:0:
73,128,50153,1,0,0:0:0:0:
129,315,50311,2,0,L|215:329,1,88,8|0,0:0|0:0,0:0:0:0:
332,141,50627,6,0,L|246:155,1,88,8|0,0:0|0:0,0:0:0:0:
355,291,50943,1,4,0:0:0:0:
363,58,51100,1,0,0:0:0:0:
213,236,51258,1,4,0:0:0:0:
418,126,51416,1,0,0:0:0:0:
410,358,51574,6,0,P|353:376|305:364,1,88,8|0,0:0|0:0,0:0:0:0:
246,151,51890,1,4,0:0:0:0:
157,381,52048,1,0,0:0:0:0:
53,156,52206,1,4,0:0:0:0:
251,340,52364,1,0,0:0:0:0:
147,114,52522,1,8,0:0:0:0:
59,345,52679,1,0,0:0:0:0:
288,242,52837,1,8,0:0:0:0:
16,251,52995,1,0,0:0:0:0:
228,59,53153,6,0,L|338:68,1,88,8|0,0:0|0:0,0:0:0:0:
381,251,53469,2,0,L|389:164,1,88,4|0,0:0|0:0,0:0:0:0:
133,139,53785,2,0,L|243:148,1,88,4|0,0:0|0:0,0:0:0:0:
285,331,54101,1,8,0:0:0:0:
220,146,54258,1,0,0:0:0:0:
109,315,54416,5,8,0:0:0:0:
46,155,54574,2,0,L|148:135,1,88,2|0,0:0|0:0,0:0:0:0:
292,241,54890,1,0,0:0:0:0:
292,241,54969,1,0,0:0:0:0:
292,241,55048,2,0,L|249:234,1,44,8|0,0:0|0:0,0:0:0:0:
271,103,55206,2,0,L|263:147,1,44,8|0,0:0|0:0,0:0:0:0:
167,261,55364,2,0,L|159:217,1,44,4|0,0:0|0:0,0:0:0:0:
132,138,55522,2,0,L|175:130,1,44,4|0,0:0|0:0,0:0:0:0:
350,174,55679,6,0,P|381:240|349:310,1,132.000005035401,6|0,0:0|0:0,0:0:0:0:
292,241,56153,1,0,0:0:0:0:
361,108,56311,2,0,L|346:195,1,66.0000025177003,10|0,0:2|0:0,0:0:0:0:
262,64,56627,2,0,L|274:130,1,66.0000025177003,2|0,0:0|0:0,0:0:0:0:
220,197,56943,5,2,0:0:0:0:
104,278,57101,2,0,L|170:267,2,66.0000025177003,8|0|0,0:0|0:0|0:0,0:0:0:0:
92,157,57574,2,0,P|120:215|104:277,1,132.000005035401,10|0,0:0|0:0,0:0:0:0:
37,223,58048,1,2,0:0:0:0:
26,101,58206,5,2,0:0:0:0:
148,90,58364,2,0,P|184:95|222:83,2,66.0000025177003,8|0|2,0:0|0:0|0:0,0:0:0:0:
37,223,58837,2,0,P|69:215|101:220,1,66.0000025177003,8|2,0:0|0:0,0:0:0:0:
250,235,59153,2,0,P|217:242|185:237,1,66.0000025177003,10|0,0:0|0:0,0:0:0:0:
129,302,59469,5,2,0:0:0:0:
162,380,59627,2,0,P|184:355|213:340,1,66.0000025177003,8|2,0:0|0:2,0:0:0:0:
349,380,59943,2,0,P|327:355|298:340,1,66.0000025177003,2|0,3:2|0:0,0:0:0:0:
383,302,60258,1,2,3:0:0:0:
477,232,60416,2,0,L|468:298,1,66.0000025177003,8|0,0:0|0:0,0:0:0:0:
392,147,60732,6,0,P|418:205|478:232,1,132.000005035401,6|0,0:2|0:0,0:0:0:0:
478,145,61206,1,0,0:0:0:0:
348,74,61364,2,0,P|323:96|310:126,1,66.0000025177003,8|0,0:0|0:0,0:0:0:0:
248,186,61679,2,0,P|272:207|285:237,1,66.0000025177003,2|0,0:0|0:0,0:0:0:0:
122,253,61995,5,2,0:0:0:0:
182,191,62153,2,0,L|259:184,1,66.0000025177003,8|0,0:0|0:0,0:0:0:0:
182,315,62469,1,2,0:0:0:0:
122,253,62627,2,0,L|45:246,1,66.0000025177003,8|0,2:3|0:0,0:0:0:0:
56,382,62943,2,0,L|122:377,1,66.0000025177003,12|0,0:0|0:0,0:0:0:0:
267,289,63258,6,0,L|274:366,1,77.0000007343292,2|0,0:1|0:0,0:0:0:0:
355,277,63574,2,0,L|362:200,1,77.0000007343292,8|0,0:0|0:0,0:0:0:0:
292,105,63890,1,2,0:0:0:0:
213,149,64049,2,0,P|236:178|272:194,1,77.0000007343292,10|0,0:3|0:0,0:0:0:0:
217,57,64364,1,2,0:0:0:0:
136,159,64522,6,0,L|212:149,1,77.0000007343292,2|0,0:0|0:0,0:0:0:0:
293,46,64837,2,0,L|216:57,1,77.0000007343292,8|0,0:0|0:0,0:0:0:0:
165,242,65153,1,2,0:0:0:0:
289,224,65311,2,0,L|365:213,1,77.0000007343292,8|8,0:0|0:0,0:0:0:0:
212,148,65627,1,2,0:0:0:0:
149,361,65785,6,0,L|226:372,1,77.0000007343292,8|0,0:0|0:0,0:0:0:0:
83,213,66101,2,0,L|94:290,1,77.0000007343292,8|0,0:0|0:0,0:0:0:0:
300,135,66416,2,0,L|289:211,1,77.0000007343292,8|0,0:0|0:0,0:0:0:0:
83,56,66732,2,0,L|93:132,1,77.0000007343292,8|0,0:0|0:0,0:0:0:0:
289,53,67048,5,2,0:0:0:0:
190,172,67206,1,8,0:0:0:0:
184,190,67284,1,8,0:0:0:0:
183,209,67363,1,8,0:0:0:0:
187,228,67442,1,8,0:0:0:0:
191,246,67521,1,8,0:0:0:0:
190,266,67600,1,8,0:0:0:0:
185,284,67679,1,8,0:0:0:0:
185,284,68311,6,0,L|332:259,1,132,6|0,0:2|2:0,0:0:0:0:
241,142,68627,2,0,L|195:265,1,132,10|0,0:2|2:0,0:0:0:0:
120,145,68943,2,0,L|251:123,1,132,2|0,0:2|2:0,0:0:0:0:
138,58,69258,1,10,0:2:0:0:
102,232,69416,1,6,0:3:0:0:
55,88,69574,5,2,0:2:0:0:
44,301,69732,1,2,0:0:0:0:
120,145,69890,1,8,0:0:0:0:
129,316,70048,2,0,P|165:335|220:334,1,88,2|2,0:2|1:2,0:0:0:0:
207,163,70364,1,2,0:2:0:0:
102,232,70522,1,10,0:2:0:0:
179,78,70679,1,0,0:0:0:0:
189,250,70837,5,2,1:2:0:0:
333,156,70995,2,0,L|359:57,1,88,2|8,0:2|0:0,0:0:0:0:
207,163,71311,1,2,0:2:0:0:
351,243,71469,1,2,0:2:0:0:
189,250,71627,1,0,0:0:0:0:
266,96,71785,1,10,0:2:0:0:
272,307,71943,6,0,L|371:333,1,88,6|0,0:2|0:0,0:0:0:0:
333,156,72258,1,2,0:0:0:0:
188,249,72416,1,8,0:0:0:0:
351,243,72574,1,2,0:2:0:0:
266,96,72732,1,2,1:2:0:0:
273,222,72890,1,2,0:2:0:0:
351,67,73048,1,8,0:0:0:0:
177,78,73206,6,0,P|141:101|120:140,1,88,2|4,0:2|0:0,0:0:0:0:
254,308,73521,1,2,0:2:0:0:
207,163,73679,1,8,0:0:0:0:
170,334,73837,1,0,0:0:0:0:
120,140,73995,1,2,1:2:0:0:
273,222,74153,1,2,0:2:0:0:
267,48,74311,1,8,0:0:0:0:
188,249,74469,6,0,L|90:281,1,88,6|0,0:2|0:0,0:0:0:0:
120,140,74785,1,2,0:2:0:0:
254,308,74943,1,8,0:0:0:0:
292,136,75101,1,0,0:0:0:0:
170,334,75258,1,2,1:2:0:0:
207,163,75416,1,2,1:2:0:0:
318,367,75574,2,0,P|373:360|411:326,1,88,8|0,0:0|0:0,0:0:0:0:
313,130,75890,6,0,P|358:184|312:301,1,176,6|8,0:2|0:2,0:0:0:0:
184,208,76364,2,0,L|272:216,1,88,2|0,0:2|1:0,0:0:0:0:
441,36,76679,2,0,L|353:43,1,88,2|0,0:2|0:0,0:0:0:0:
265,50,76995,1,2,0:2:0:0:
403,115,77153,5,2,0:2:0:0:
208,169,77311,1,2,0:0:0:0:
427,244,77469,1,10,0:0:0:0:
151,288,77627,2,0,P|109:297|40:262,1,88,4|0,0:1|0:0,0:0:0:0:
155,98,77943,1,2,0:0:0:0:
261,240,78101,1,10,0:0:0:0:
226,45,78258,1,0,0:0:0:0:
190,292,78416,6,0,P|254:281|314:306,1,132,6|0,0:2|0:0,0:0:0:0:
283,157,78732,2,0,L|207:265,1,132,10|0,0:2|0:0,0:0:0:0:
175,116,79048,2,0,P|235:141|300:130,1,132,2|0,0:2|0:0,0:0:0:0:
246,37,79364,1,10,0:2:0:0:
88,109,79522,6,0,L|203:118,1,88,6|0,0:2|0:0,0:0:0:0:
51,30,79837,1,2,0:0:0:0:
126,189,79995,2,0,L|175:293,1,88,8|2,0:0|0:2,0:0:0:0:
300,201,80311,2,0,L|213:195,1,88,0|2,0:0|0:2,0:0:0:0:
201,345,80627,2,0,L|250:272,1,88,10|0,0:2|0:0,0:0:0:0:
219,45,80943,6,0,P|187:74|174:116,1,88,2|0,1:2|0:0,0:0:0:0:
300,201,81258,1,8,0:0:0:0:
395,54,81416,2,0,P|353:41|310:50,1,88,2|2,0:2|1:0,0:0:0:0:
212,194,81732,1,2,0:2:0:0:
349,127,81890,1,10,0:2:0:0:
174,116,82048,6,0,P|128:181|133:229,1,88,6|0,0:2|0:0,0:0:0:0:
300,346,82364,1,2,0:0:0:0:
212,194,82522,1,8,0:0:0:0:
372,90,82679,2,0,L|359:177,1,88,2|0,0:2|1:0,0:0:0:0:
164,267,82995,1,0,0:0:0:0:
258,118,83153,1,8,0:0:0:0:
346,264,83311,6,0,P|388:261|433:224,1,88,6|0,0:2|0:0,0:0:0:0:
169,119,83627,1,2,0:2:0:0:
123,347,83785,1,8,0:0:0:0:
80,121,83943,1,0,0:0:0:0:
212,348,84101,1,2,1:2:0:0:
258,118,84258,1,2,0:2:0:0:
79,269,84416,1,8,0:0:0:0:
300,345,84574,6,0,P|331:316|345:272,1,88,6|0,0:2|0:0,0:0:0:0:
169,119,84890,1,2,0:2:0:0:
212,348,85048,1,8,0:0:0:0:
386,196,85206,1,0,0:0:0:0:
164,267,85364,1,2,1:2:0:0:
342,113,85522,1,2,1:2:0:0:
386,344,85679,1,8,0:0:0:0:
433,114,85837,1,0,0:0:0:0:
210,193,85995,5,2,0:0:0:0:
386,344,86153,2,0,P|421:305|429:261,1,88,8|0,0:0|0:0,0:0:0:0:
302,193,86469,5,2,0:0:0:0:
126,344,86627,2,0,P|91:305|83:261,1,88,8|0,0:0|0:0,0:0:0:0:
256,112,86943,5,2,0:0:0:0:
256,338,87101,1,8,0:0:0:0:
360,173,87258,5,2,0:0:0:0:
360,173,87337,1,2,0:0:0:0:
360,173,87416,2,0,L|344:100,1,44,8|0,0:0|0:0,0:0:0:0:
342,266,87574,2,0,L|385:257,1,44,8|0,0:0|0:0,0:0:0:0:
485,199,87732,1,8,0:0:0:0:
485,199,87811,1,8,0:0:0:0:
485,199,87890,2,0,L|412:183,1,44,4|0,0:0|0:0,0:0:0:0:
434,70,88048,2,0,L|425:113,1,44,8|0,0:0|0:0,0:0:0:0:
468,280,88206,2,0,L|449:366,1,88,8|0,0:0|0:0,0:0:0:0:
284,203,88522,6,0,B|299:250|299:250|281:336,1,132.000005035401,4|0,0:2|0:0,0:0:0:0:
203,365,88995,1,2,0:2:0:0:
189,216,89153,2,0,L|209:279,1,66.0000025177003,8|0,0:0|0:0,0:0:0:0:
116,370,89469,1,2,0:2:0:0:
102,221,89627,2,0,L|121:283,1,66.0000025177003,8|2,0:0|0:1,0:0:0:0:
29,375,89943,1,2,0:2:0:0:
17,195,90101,6,0,P|29:165|54:144,1,66.0000025177003,8|0,0:0|0:0,0:0:0:0:
167,215,90416,2,0,L|102:220,1,66.0000025177003,4|0,0:0|0:0,0:0:0:0:
219,146,90732,2,0,L|284:150,1,66.0000025177003,8|0,0:0|0:0,0:0:0:0:
352,308,91048,5,4,0:1:0:0:
256,192,91127,12,0,92785,0:0:0:0:
397,152,92943,5,8,0:0:0:0:
146,216,93101,1,8,0:0:0:0:
373,237,93574,5,0,1:0:0:0:
373,237,93653,1,0,1:0:0:0:
373,237,93732,1,0,1:0:0:0:
229,192,93890,2,0,P|249:230|286:253,1,88,10|0,0:2|0:0,0:0:0:0:
397,152,94206,2,8,P|353:150|314:170,1,88,10|0,0:2|0:0,0:0:0:0:
373,237,94522,1,10,0:2:0:0:
483,131,94679,6,8,B|472:93|440:76|440:76|314:71,1,176,2|0,0:2|0:0,0:0:0:0:
198,148,95153,2,8,L|286:145,1,88,10|0,0:2|0:0,0:0:0:0:
194,60,95469,1,10,0:2:0:0:
111,152,95627,1,2,0:2:0:0:
202,236,95785,2,8,L|198:148,1,88,10|0,0:2|0:0,0:0:0:0:
126,282,96101,5,0,1:0:0:0:
126,282,96179,1,0,1:0:0:0:
126,282,96258,1,0,1:0:0:0:
279,276,96416,2,8,P|320:265|358:213,1,88,10|0,0:2|0:0,0:0:0:0:
401,77,96732,2,8,P|390:119|403:161,1,88,10|0,0:2|0:0,0:0:0:0:
512,282,97048,2,8,P|480:251|438:241,1,88,10|0,0:2|0:0,0:0:0:0:
351,349,97364,6,0,L|437:330,1,88,10|0,0:2|0:0,0:0:0:0:
488,141,97679,2,0,L|402:160,1,88,10|0,0:2|0:0,0:0:0:0:
205,264,97995,2,0,L|291:284,1,88,10|0,0:2|0:0,0:0:0:0:
342,95,98311,2,8,L|256:114,1,88,10|2,0:2|0:2,0:0:0:0:
376,244,98627,5,0,1:0:0:0:
376,244,98706,1,0,1:0:0:0:
376,244,98785,1,0,1:0:0:0:
427,76,98943,2,8,P|411:40|340:6,1,88,10|0,0:2|0:0,0:0:0:0:
257,114,99258,2,8,P|273:150|344:184,1,88,10|0,0:2|0:0,0:0:0:0:
342,95,99574,1,10,0:2:0:0:
186,39,99732,6,0,P|224:115|195:195,1,176,2|0,0:2|0:0,0:0:0:0:
186,340,100206,2,0,L|274:333,1,88,10|0,0:2|0:0,0:0:0:0:
282,188,100522,2,0,L|194:195,1,88,10|2,0:2|0:2,0:0:0:0:
49,255,100837,2,0,L|137:263,1,88,10|0,0:2|0:0,0:0:0:0:
159,114,101153,5,0,1:0:0:0:
159,114,101232,1,0,1:0:0:0:
159,114,101311,1,0,1:0:0:0:
106,184,101469,1,2,0:0:0:0:
224,274,101627,2,0,P|219:231|194:195,1,88,8|2,0:0|0:0,0:0:0:0:
137,263,101943,1,2,0:0:0:0:
258,356,102101,2,0,P|293:330|311:290,1,88,8|0,0:0|0:0,0:0:0:0:
285,147,102416,6,0,P|282:176|292:203,2,58.6666666666667,8|8|8,0:0|0:0|0:0,0:0:0:0:
419,139,102732,2,0,P|391:145|369:164,2,58.6666666666667,8|8|8,0:0|0:0|0:0,0:0:0:0:
469,264,103048,6,8,P|453:239|429:223,1,58.6666666666667,8|8,0:0|0:0,0:0:0:0:
364,350,103258,1,8,0:0:0:0:
364,350,103364,2,0,P|382:327|390:299,1,58.6666666666667,8|4,0:0|0:0,0:0:0:0:
226,258,103574,1,4,0:0:0:0:
226,258,103679,6,8,P|263:282|306:287,1,88,4|0,0:1|0:0,0:0:0:0:
357,148,103995,2,8,P|318:167|292:202,1,88,2|0,0:2|0:0,0:0:0:0:
386,315,104311,2,8,P|389:272|371:232,1,88,10|0,0:2|0:0,0:0:0:0:
317,372,104627,1,2,0:2:0:0:
470,347,104785,6,8,L|488:229,1,88,2|0,0:2|1:0,0:0:0:0:
442,181,105101,1,10,0:2:0:0:
400,101,105258,2,0,P|450:92|499:112,1,88,8|0,0:0|0:0,0:0:0:0:
370,231,105574,1,10,0:2:0:0:
272,140,105732,1,0,0:0:0:0:
275,234,105890,1,4,0:0:0:0:
296,70,106048,6,0,B|290:60|280:42|329:-30|392:34|392:34|463:-55|567:63|486:156|432:90|399:154|399:154|356:107|275:125|275:125|182:125|191:241|321:219|274:125|274:125|260:87|174:97|174:97|58:105|66:-47|214:-15|174:97|174:97|150:145|94:137|94:137|22:201|98:277|98:277|214:325|122:445|10:357|98:277|98:277|218:241|302:305|302:305|422:389|526:193|298:161|302:305|302:305|302:345|332:363,1,2331.92963757504,2|0,0:1|0:0,0:0:0:0:
