osu file format v14

[General]
AudioFilename: audio.mp3
AudioLeadIn: 0
PreviewTime: 45416
Countdown: 0
SampleSet: Normal
StackLeniency: 0.7
Mode: 1
LetterboxInBreaks: 0
WidescreenStoryboard: 0

[Editor]
Bookmarks: 106206
DistanceSpacing: 1.2
BeatDivisor: 4
GridSize: 16
TimelineZoom: 1

[Metadata]
Title:Zen Zen Zense
TitleUnicode:前前前世
Artist:RADWIMPS
ArtistUnicode:RADWIMPS
Creator:donkat
Version:Muzukashii
Source:君の名は。
Tags:your name kimi no na wa Raphalge
BeatmapID:1242894
BeatmapSetID:586934

[Difficulty]
HPDrainRate:5
CircleSize:2
OverallDifficulty:4
ApproachRate:5
SliderMultiplier:1.4
SliderTickRate:1

[Events]
//Background and Video events
0,0,"737490.jpg",0,100
//Break Periods
//Storyboard Layer 0 (Background)
//Storyboard Layer 1 (Fail)
//Storyboard Layer 2 (Pass)
//Storyboard Layer 3 (Foreground)
//Storyboard Sound Samples

[TimingPoints]
101,315.789473684211,4,1,0,100,1,0
8785,-111.111111111111,4,1,0,100,0,0
10206,-100,4,1,0,100,0,1
20311,-111.111111111111,4,1,0,100,0,0
45574,-100,4,1,0,100,0,0
55679,-111.111111111111,4,1,0,100,0,0
65785,-105.263157894737,4,1,0,100,0,0
68311,-100,4,1,0,100,0,1
93574,-100,4,1,0,100,0,0

[HitObjects]
256,192,101,5,0,0:0:0:0:
256,192,416,1,8,0:0:0:0:
256,192,495,1,8,0:0:0:0:
256,192,574,1,8,0:0:0:0:
256,192,732,1,0,0:0:0:0:
256,192,1048,1,8,0:0:0:0:
256,192,1206,1,0,0:0:0:0:
256,192,1522,1,0,0:0:0:0:
256,192,1679,1,8,0:0:0:0:
256,192,1995,1,8,0:0:0:0:
256,192,2311,1,8,0:0:0:0:
256,192,2627,1,0,0:0:0:0:
256,192,2943,1,8,0:0:0:0:
256,192,3022,1,8,0:0:0:0:
256,192,3101,1,8,0:0:0:0:
256,192,3258,1,0,0:0:0:0:
256,192,3574,1,8,0:0:0:0:
256,192,3732,1,0,0:0:0:0:
256,192,4048,1,0,0:0:0:0:
256,192,4206,1,8,0:0:0:0:
256,192,4522,1,0,0:0:0:0:
256,192,4837,1,8,0:0:0:0:
256,192,5153,1,0,0:0:0:0:
256,192,5469,1,8,0:0:0:0:
256,192,5548,1,8,0:0:0:0:
256,192,5627,1,8,0:0:0:0:
256,192,5785,1,8,0:0:0:0:
256,192,5943,1,0,0:0:0:0:
256,192,6101,1,8,0:0:0:0:
256,192,6258,1,0,0:0:0:0:
256,192,6732,1,8,0:0:0:0:
256,192,7048,1,8,0:0:0:0:
256,192,7364,1,0,0:0:0:0:
256,192,7679,1,8,0:0:0:0:
256,192,7758,1,8,0:0:0:0:
256,192,7837,1,8,0:0:0:0:
256,192,7995,1,0,0:0:0:0:
256,192,8074,1,0,0:0:0:0:
256,192,8153,1,0,0:0:0:0:
256,192,8311,1,0,0:0:0:0:
256,192,8469,1,8,0:0:0:0:
256,192,8627,1,0,0:0:0:0:
256,192,8837,1,12,0:0:0:0:
256,192,9153,1,12,0:0:0:0:
256,192,9364,1,12,0:0:0:0:
256,192,9574,1,12,0:0:0:0:
256,192,9785,1,12,0:0:0:0:
256,192,9995,1,12,0:0:0:0:
256,192,10206,1,4,0:0:0:0:
256,192,10522,1,0,0:0:0:0:
256,192,10837,1,8,0:0:0:0:
256,192,11153,1,8,0:0:0:0:
256,192,11469,1,8,0:0:0:0:
256,192,11548,1,8,0:0:0:0:
256,192,11627,1,8,0:0:0:0:
256,192,11785,1,0,0:0:0:0:
256,192,12101,1,8,0:0:0:0:
256,192,12258,1,8,0:0:0:0:
256,192,12416,1,0,0:0:0:0:
256,192,12732,1,0,0:0:0:0:
256,192,12811,1,0,0:0:0:0:
256,192,12890,1,0,0:0:0:0:
256,192,13048,1,8,0:0:0:0:
256,192,13364,1,8,0:0:0:0:
256,192,13679,1,0,0:0:0:0:
256,192,13995,1,0,0:0:0:0:
256,192,14153,1,0,0:0:0:0:
256,192,14311,1,0,0:0:0:0:
256,192,14627,1,8,0:0:0:0:
256,192,14943,1,8,0:0:0:0:
256,192,15258,1,0,0:0:0:0:
256,192,15337,1,0,0:0:0:0:
256,192,15416,1,0,0:0:0:0:
256,192,15574,1,0,0:0:0:0:
256,192,15890,1,8,0:0:0:0:
256,192,16206,1,8,0:0:0:0:
256,192,16522,1,8,0:0:0:0:
256,192,16679,1,8,0:0:0:0:
256,192,16837,1,0,0:0:0:0:
256,192,17153,1,8,0:0:0:0:
256,192,17311,1,0,0:0:0:0:
256,192,17469,1,0,0:0:0:0:
256,192,17785,1,8,0:0:0:0:
256,192,17864,1,8,0:0:0:0:
256,192,17943,1,8,0:0:0:0:
256,192,18101,1,8,0:0:0:0:
256,192,18258,1,0,0:0:0:0:
256,192,18416,1,0,0:0:0:0:
256,192,18732,1,0,0:0:0:0:
256,192,19048,12,0,19995,0:0:0:0:
256,192,20311,5,0,0:0:0:0:
256,192,20627,1,0,0:0:0:0:
256,192,20943,1,0,0:0:0:0:
256,192,21258,1,0,0:0:0:0:
256,192,21574,1,0,0:0:0:0:
256,192,21732,1,8,0:0:0:0:
256,192,21890,1,0,0:0:0:0:
256,192,22206,1,0,0:0:0:0:
256,192,22364,1,8,0:0:0:0:
256,192,22522,1,0,0:0:0:0:
256,192,22837,1,0,0:0:0:0:
256,192,23153,1,0,0:0:0:0:
256,192,23469,1,0,0:0:0:0:
256,192,23785,1,0,0:0:0:0:
256,192,24101,1,0,0:0:0:0:
256,192,24258,1,8,0:0:0:0:
256,192,24416,1,0,0:0:0:0:
256,192,24732,1,8,0:0:0:0:
256,192,25048,1,0,0:0:0:0:
256,192,25364,1,8,0:0:0:0:
256,192,25522,1,0,0:0:0:0:
256,192,25679,1,0,0:0:0:0:
256,192,25837,1,8,0:0:0:0:
256,192,25995,1,0,0:0:0:0:
256,192,26311,1,0,0:0:0:0:
256,192,26627,1,0,0:0:0:0:
256,192,26785,1,0,0:0:0:0:
256,192,26943,1,8,0:0:0:0:
256,192,27101,1,8,0:0:0:0:
256,192,27258,1,0,0:0:0:0:
256,192,27574,1,0,0:0:0:0:
256,192,27890,1,8,0:0:0:0:
256,192,28206,1,0,0:0:0:0:
256,192,28522,1,0,0:0:0:0:
256,192,28837,1,0,0:0:0:0:
256,192,29153,1,0,0:0:0:0:
256,192,29469,1,0,0:0:0:0:
256,192,29785,1,0,0:0:0:0:
256,192,29943,1,8,0:0:0:0:
256,192,30101,1,0,0:0:0:0:
256,192,30416,1,4,0:0:0:0:
256,192,30732,1,8,0:0:0:0:
256,192,31048,1,8,0:0:0:0:
256,192,31364,1,8,0:0:0:0:
256,192,31679,1,0,0:0:0:0:
256,192,31837,1,0,0:0:0:0:
256,192,31995,1,8,0:0:0:0:
256,192,32311,1,8,0:0:0:0:
256,192,32627,1,0,0:0:0:0:
256,192,32943,1,0,0:0:0:0:
256,192,33258,1,0,0:0:0:0:
256,192,33574,1,0,0:0:0:0:
256,192,33890,1,0,0:0:0:0:
256,192,34206,1,0,0:0:0:0:
256,192,34364,1,8,0:0:0:0:
256,192,34522,1,0,0:0:0:0:
256,192,34837,1,0,0:0:0:0:
256,192,35153,1,8,0:0:0:0:
256,192,35469,1,0,0:0:0:0:
256,192,35627,1,8,0:0:0:0:
256,192,35785,1,0,0:0:0:0:
256,192,35943,1,8,0:0:0:0:
256,192,36101,1,0,0:0:0:0:
256,192,36416,1,8,0:0:0:0:
256,192,36732,1,0,0:0:0:0:
256,192,36890,1,8,0:0:0:0:
256,192,37048,1,0,0:0:0:0:
256,192,37206,1,8,0:0:0:0:
256,192,37364,1,8,0:0:0:0:
256,192,37679,1,0,0:0:0:0:
256,192,37995,1,4,0:0:0:0:
256,192,38311,1,0,0:0:0:0:
256,192,38469,1,8,0:0:0:0:
256,192,38785,1,0,0:0:0:0:
256,192,38943,1,8,0:0:0:0:
256,192,39258,1,8,0:0:0:0:
256,192,39416,1,0,0:0:0:0:
256,192,39732,1,8,0:0:0:0:
256,192,39890,1,8,0:0:0:0:
256,192,40206,1,0,0:0:0:0:
256,192,40522,1,4,0:0:0:0:
256,192,40837,1,8,0:0:0:0:
256,192,41153,1,8,0:0:0:0:
256,192,41311,1,0,0:0:0:0:
256,192,41469,1,8,0:0:0:0:
256,192,41785,1,4,0:0:0:0:
256,192,42101,1,0,0:0:0:0:
256,192,42416,1,8,0:0:0:0:
256,192,42574,1,0,0:0:0:0:
256,192,42732,1,8,0:0:0:0:
256,192,43048,1,0,0:0:0:0:
256,192,43206,1,0,0:0:0:0:
256,192,43364,1,8,0:0:0:0:
256,192,43522,1,0,0:0:0:0:
256,192,43837,1,8,0:0:0:0:
256,192,43995,1,8,0:0:0:0:
256,192,44153,1,8,0:0:0:0:
256,192,44469,1,8,0:0:0:0:
256,192,44548,1,8,0:0:0:0:
256,192,44627,1,8,0:0:0:0:
256,192,44785,1,0,0:0:0:0:
256,192,44943,1,0,0:0:0:0:
256,192,45101,1,8,0:0:0:0:
256,192,45258,1,8,0:0:0:0:
256,192,45416,1,0,0:0:0:0:
256,192,45495,1,0,0:0:0:0:
256,192,45574,1,0,0:0:0:0:
256,192,45890,1,0,0:0:0:0:
256,192,46206,1,8,0:0:0:0:
256,192,46522,1,8,0:0:0:0:
256,192,46837,1,0,0:0:0:0:
256,192,47153,1,0,0:0:0:0:
256,192,47469,1,8,0:0:0:0:
256,192,47627,1,0,0:0:0:0:
256,192,47785,1,0,0:0:0:0:
256,192,48101,2,0,P|368:144|352:256,1,279.99999332428
208,192,49048,1,0,0:0:0:0:
208,192,49206,1,0,0:0:0:0:
208,192,49679,1,8,0:0:0:0:
208,192,49995,1,8,0:0:0:0:
208,192,50153,1,0,0:0:0:0:
208,192,50311,1,8,0:0:0:0:
208,192,50627,1,0,0:0:0:0:
208,192,50943,1,0,0:0:0:0:
208,192,51258,1,8,0:0:0:0:
208,192,51574,1,0,0:0:0:0:
208,192,51890,1,0,0:0:0:0:
208,192,52206,1,8,0:0:0:0:
208,192,52522,1,8,0:0:0:0:
208,192,52679,1,8,0:0:0:0:
208,192,52837,1,0,0:0:0:0:
208,192,53153,2,0,P|336:160|304:272,1,279.99999332428
192,160,54101,1,0,0:0:0:0:
192,160,54258,1,0,0:0:0:0:
192,160,54574,1,8,0:0:0:0:
192,160,54653,1,8,0:0:0:0:
192,160,54732,1,8,0:0:0:0:
192,160,54890,1,0,0:0:0:0:
192,160,55048,1,8,0:0:0:0:
192,160,55206,1,0,0:0:0:0:
192,160,55364,1,8,0:0:0:0:
192,160,55443,1,8,0:0:0:0:
192,160,55522,1,8,0:0:0:0:
192,160,55679,1,4,0:0:0:0:
192,160,56153,1,0,0:0:0:0:
192,160,56311,1,8,0:0:0:0:
192,160,56627,1,0,0:0:0:0:
192,160,56785,1,0,0:0:0:0:
192,160,57101,1,0,0:0:0:0:
192,160,57258,1,0,0:0:0:0:
192,160,57416,1,0,0:0:0:0:
192,160,57574,1,8,0:0:0:0:
192,160,58206,1,0,0:0:0:0:
192,160,58679,1,0,0:0:0:0:
192,160,58837,1,8,0:0:0:0:
192,160,59153,1,0,0:0:0:0:
192,160,59311,1,0,0:0:0:0:
192,160,59627,1,8,0:0:0:0:
192,160,59785,1,0,0:0:0:0:
192,160,60101,1,8,0:0:0:0:
192,160,60179,1,8,0:0:0:0:
192,160,60258,1,8,0:0:0:0:
192,160,60416,1,8,0:0:0:0:
192,160,60732,1,0,0:0:0:0:
192,160,61206,1,0,0:0:0:0:
192,160,61364,1,8,0:0:0:0:
192,160,61679,1,0,0:0:0:0:
192,160,61837,1,0,0:0:0:0:
192,160,62311,1,0,0:0:0:0:
192,160,62627,1,0,0:0:0:0:
192,160,62943,1,12,0:0:0:0:
192,160,63258,1,4,0:0:0:0:
192,160,63574,1,8,0:0:0:0:
192,160,63732,1,0,0:0:0:0:
192,160,64048,1,8,0:0:0:0:
192,160,64206,1,8,0:0:0:0:
192,160,64364,1,0,0:0:0:0:
192,160,64522,1,0,0:0:0:0:
192,160,64837,1,8,0:0:0:0:
192,160,64995,1,0,0:0:0:0:
192,160,65311,1,0,0:0:0:0:
192,160,65469,1,8,0:0:0:0:
192,160,65785,1,0,0:0:0:0:
192,160,65943,1,0,0:0:0:0:
192,160,66101,1,8,0:0:0:0:
192,160,66258,1,8,0:0:0:0:
192,160,66416,1,0,0:0:0:0:
192,160,66495,1,0,0:0:0:0:
192,160,66574,1,0,0:0:0:0:
192,160,66732,1,8,0:0:0:0:
192,160,66890,1,8,0:0:0:0:
192,160,67048,1,0,0:0:0:0:
192,160,67127,1,0,0:0:0:0:
192,160,67206,1,0,0:0:0:0:
192,160,67364,1,0,0:0:0:0:
192,160,67443,1,0,0:0:0:0:
192,160,67522,1,0,0:0:0:0:
192,160,67679,1,8,0:0:0:0:
192,160,68311,1,4,0:0:0:0:
192,160,68627,1,8,0:0:0:0:
192,160,68943,1,8,0:0:0:0:
192,160,69258,1,0,0:0:0:0:
192,160,69337,1,0,0:0:0:0:
192,160,69416,1,0,0:0:0:0:
192,160,69732,1,0,0:0:0:0:
192,160,69890,1,8,0:0:0:0:
192,160,70206,1,0,0:0:0:0:
192,160,70364,1,0,0:0:0:0:
192,160,70522,1,8,0:0:0:0:
192,160,70837,1,0,0:0:0:0:
192,160,71153,1,8,0:0:0:0:
192,160,71469,1,0,0:0:0:0:
192,160,71785,1,8,0:0:0:0:
192,160,71943,1,0,0:0:0:0:
192,160,72258,1,0,0:0:0:0:
192,160,72416,1,8,0:0:0:0:
192,160,72732,1,0,0:0:0:0:
192,160,72890,1,0,0:0:0:0:
192,160,73048,1,8,0:0:0:0:
192,160,73364,1,0,0:0:0:0:
192,160,73679,1,8,0:0:0:0:
192,160,73995,1,0,0:0:0:0:
192,160,74153,1,0,0:0:0:0:
192,160,74311,1,8,0:0:0:0:
192,160,74469,1,0,0:0:0:0:
192,160,74785,1,0,0:0:0:0:
192,160,74943,1,8,0:0:0:0:
192,160,75258,1,0,0:0:0:0:
192,160,75416,1,0,0:0:0:0:
192,160,75574,1,8,0:0:0:0:
192,160,75890,1,8,0:0:0:0:
192,160,76206,1,0,0:0:0:0:
192,160,76522,1,8,0:0:0:0:
192,160,76679,1,8,0:0:0:0:
192,160,76837,1,0,0:0:0:0:
192,160,76995,1,4,0:0:0:0:
192,160,77311,1,0,0:0:0:0:
192,160,77469,1,8,0:0:0:0:
192,160,77627,1,12,0:0:0:0:
192,160,77943,1,0,0:0:0:0:
192,160,78101,1,8,0:0:0:0:
192,160,78179,1,8,0:0:0:0:
192,160,78258,1,8,0:0:0:0:
192,160,78416,1,4,0:0:0:0:
192,160,78732,1,8,0:0:0:0:
192,160,79048,1,8,0:0:0:0:
192,160,79364,1,8,0:0:0:0:
192,160,79522,1,0,0:0:0:0:
192,160,79837,1,0,0:0:0:0:
192,160,79995,1,8,0:0:0:0:
192,160,80311,1,0,0:0:0:0:
192,160,80469,1,8,0:0:0:0:
192,160,80627,1,8,0:0:0:0:
192,160,80943,1,0,0:0:0:0:
192,160,81258,1,8,0:0:0:0:
192,160,81416,1,0,0:0:0:0:
192,160,81732,1,0,0:0:0:0:
192,160,81890,1,8,0:0:0:0:
192,160,82048,1,4,0:0:0:0:
192,160,82364,1,0,0:0:0:0:
192,160,82522,1,8,0:0:0:0:
192,160,82679,1,4,0:0:0:0:
192,160,82995,1,0,0:0:0:0:
192,160,83153,1,0,0:0:0:0:
192,160,83469,1,0,0:0:0:0:
192,160,83785,1,8,0:0:0:0:
192,160,84101,1,0,0:0:0:0:
192,160,84258,1,0,0:0:0:0:
192,160,84416,1,8,0:0:0:0:
192,160,84574,1,0,0:0:0:0:
192,160,84890,1,0,0:0:0:0:
192,160,85048,1,8,0:0:0:0:
192,160,85206,1,8,0:0:0:0:
192,160,85364,1,0,0:0:0:0:
192,160,85679,1,8,0:0:0:0:
192,160,85995,1,0,0:0:0:0:
192,160,86153,1,0,0:0:0:0:
192,160,86311,1,8,0:0:0:0:
192,160,86627,1,0,0:0:0:0:
192,160,86785,1,8,0:0:0:0:
192,160,87101,1,0,0:0:0:0:
192,160,87258,1,8,0:0:0:0:
192,160,87574,1,8,0:0:0:0:
192,160,87732,1,0,0:0:0:0:
192,160,87811,1,0,0:0:0:0:
192,160,87890,1,0,0:0:0:0:
192,160,88048,1,8,0:0:0:0:
192,160,88206,1,0,0:0:0:0:
192,160,88285,1,0,0:0:0:0:
192,160,88364,1,0,0:0:0:0:
192,160,88522,1,4,0:0:0:0:
192,160,88995,1,0,0:0:0:0:
192,160,89153,1,8,0:0:0:0:
192,160,89469,1,8,0:0:0:0:
192,160,89627,1,0,0:0:0:0:
192,160,89785,1,0,0:0:0:0:
192,160,90101,1,0,0:0:0:0:
192,160,90416,1,8,0:0:0:0:
192,160,90732,1,0,0:0:0:0:
192,160,91048,1,4,0:0:0:0:
256,192,92943,1,12,0:0:0:0:
256,192,93101,1,12,0:0:0:0:
256,192,93574,1,0,0:0:0:0:
256,192,93653,1,0,0:0:0:0:
256,192,93732,1,0,0:0:0:0:
256,192,93890,1,8,0:0:0:0:
256,192,94206,1,8,0:0:0:0:
256,192,94522,1,8,0:0:0:0:
256,192,94679,1,0,0:0:0:0:
256,192,94995,1,0,0:0:0:0:
256,192,95153,1,8,0:0:0:0:
256,192,95469,1,8,0:0:0:0:
256,192,95627,1,0,0:0:0:0:
256,192,95785,1,8,0:0:0:0:
256,192,96101,1,0,0:0:0:0:
256,192,96179,1,0,0:0:0:0:
256,192,96258,1,0,0:0:0:0:
256,192,96416,1,8,0:0:0:0:
256,192,96732,1,8,0:0:0:0:
256,192,97048,1,8,0:0:0:0:
256,192,97364,1,0,0:0:0:0:
256,192,97679,1,8,0:0:0:0:
256,192,97995,1,8,0:0:0:0:
256,192,98311,1,8,0:0:0:0:
256,192,98627,1,0,0:0:0:0:
256,192,98706,1,0,0:0:0:0:
256,192,98785,1,0,0:0:0:0:
256,192,98943,1,8,0:0:0:0:
256,192,99258,1,0,0:0:0:0:
256,192,99416,1,0,0:0:0:0:
256,192,99574,1,8,0:0:0:0:
256,192,99732,1,0,0:0:0:0:
256,192,100048,1,0,0:0:0:0:
256,192,100206,1,8,0:0:0:0:
256,192,100522,1,8,0:0:0:0:
256,192,100837,1,0,0:0:0:0:
256,192,101153,1,8,0:0:0:0:
256,192,101232,1,8,0:0:0:0:
256,192,101311,1,8,0:0:0:0:
256,192,101469,1,8,0:0:0:0:
256,192,101627,1,0,0:0:0:0:
256,192,101943,1,0,0:0:0:0:
256,192,102101,1,0,0:0:0:0:
256,192,102416,1,0,0:0:0:0:
256,192,102574,1,8,0:0:0:0:
256,192,102732,1,0,0:0:0:0:
256,192,103048,1,8,0:0:0:0:
256,192,103127,1,8,0:0:0:0:
256,192,103364,1,8,0:0:0:0:
256,192,103443,1,8,0:0:0:0:
256,192,103679,1,4,0:0:0:0:
256,192,104311,1,8,0:0:0:0:
256,192,104785,1,0,0:0:0:0:
256,192,105258,1,0,0:0:0:0:
256,192,105574,1,8,0:0:0:0:
256,192,105890,1,0,0:0:0:0:
256,192,106048,1,4,0:0:0:0:
