osu file format v14

[General]
AudioFilename: audio.mp3
AudioLeadIn: 0
PreviewTime: 151104
Countdown: 1
SampleSet: None
StackLeniency: 0.7
Mode: 3
LetterboxInBreaks: 0
SpecialStyle: 0
WidescreenStoryboard: 1

[Editor]
DistanceSpacing: 0.8
BeatDivisor: 4
GridSize: 8
TimelineZoom: 3.5

[Metadata]
Title:Zen Zen Zense
TitleUnicode:前前前世
Artist:RADWIMPS
ArtistUnicode:RADWIMPS
Creator:Niima
Version:Suisei
Source:君の名は
Tags:君の名は Kimi_No_Na_Wa Your_Name
BeatmapID:1130039
BeatmapSetID:533010

[Difficulty]
HPDrainRate:7
CircleSize:7
OverallDifficulty:0
ApproachRate:5
SliderMultiplier:1.4
SliderTickRate:1

[Events]
//Background and Video events
0,0,"thumb-1920-687986.jpg",0,0
//Break Periods
//Storyboard Layer 0 (Background)
//Storyboard Layer 1 (Fail)
//Storyboard Layer 2 (Pass)
//Storyboard Layer 3 (Foreground)
//Storyboard Sound Samples

[TimingPoints]
78,315.789473684211,4,2,1,0,1,0
8920,63.1578947368421,4,2,1,0,1,0
8972,3157.89473684211,4,2,1,0,1,0
9130,63.1578947368421,4,2,1,0,1,0
9183,3157.89473684211,4,2,1,0,1,0
9341,63.1578947368421,4,2,1,0,1,0
9393,3157.89473684211,4,2,1,0,1,0
9551,63.1578947368421,4,2,1,0,1,0
9604,3157.89473684211,4,2,1,0,1,0
9762,63.1578947368421,4,2,1,0,1,0
9814,3157.89473684211,4,2,1,0,1,0
9972,63.1578947368421,4,2,1,0,1,0
10025,3157.89473684211,4,2,1,0,1,0
10183,315.789473684211,4,2,1,0,1,0
231235,-10,4,2,1,0,0,0
231261,-133.333333333333,4,2,1,0,0,0
231262,-200,4,2,1,0,0,0
231288,-400,4,2,1,0,0,0
231446,-10,4,2,1,0,0,0
231472,-133.333333333333,4,2,1,0,0,0
231473,-200,4,2,1,0,0,0
231498,-400,4,2,1,0,0,0
231656,-10,4,2,1,0,0,0
231683,-133.333333333333,4,2,1,0,0,0
231684,-200,4,2,1,0,0,0
231709,-400,4,2,1,0,0,0
231867,-10,4,2,1,0,0,0
231893,-133.333333333333,4,2,1,0,0,0
231894,-200,4,2,1,0,0,0
231919,-400,4,2,1,0,0,0
232077,-10,4,2,1,0,0,0
232104,-133.333333333333,4,2,1,0,0,0
232105,-200,4,2,1,0,0,0
232130,-400,4,2,1,0,0,0
232288,-10,4,2,1,0,0,0
232314,-133.333333333333,4,2,1,0,0,0
232315,-200,4,2,1,0,0,0
232340,-400,4,2,1,0,0,0
232814,-10,4,2,1,0,0,0
232893,-400,4,2,1,0,0,0
233051,-66.6666666666667,4,2,1,0,0,0
233130,-100,4,2,1,0,0,0
257761,-66.6666666666667,4,2,1,0,0,0
257840,-200,4,2,1,0,0,0
257919,-66.6666666666667,4,2,1,0,0,0
257998,-200,4,2,1,0,0,0
258314,-66.6666666666667,4,2,1,0,0,0
258393,-100,4,2,1,0,0,0

[HitObjects]
182,192,78,128,0,156:0:0:0:0:
36,192,78,1,0,0:0:0:0:
256,192,156,128,0,235:0:0:0:0:
329,192,235,128,0,393:0:0:0:0:
475,192,235,128,0,393:0:0:0:0:
109,192,393,128,0,551:0:0:0:0:
36,192,393,1,0,0:0:0:0:
182,192,393,1,0,0:0:0:0:
402,192,551,128,0,709:0:0:0:0:
475,192,551,1,0,0:0:0:0:
256,192,551,128,0,2604:0:0:0:0:
182,192,709,1,0,0:0:0:0:
109,192,709,1,0,0:0:0:0:
402,192,1025,1,0,0:0:0:0:
329,192,1025,128,0,1183:0:0:0:0:
182,192,1183,1,0,0:0:0:0:
109,192,1183,128,0,1656:0:0:0:0:
329,192,1341,1,0,0:0:0:0:
402,192,1341,1,0,0:0:0:0:
475,192,1499,128,0,1656:0:0:0:0:
182,192,1656,128,0,1814:0:0:0:0:
329,192,1656,1,0,0:0:0:0:
402,192,1656,1,0,0:0:0:0:
36,192,1656,1,0,0:0:0:0:
329,192,1814,128,0,1972:0:0:0:0:
36,192,1972,128,0,2130:0:0:0:0:
109,192,1972,1,0,0:0:0:0:
182,192,1972,1,0,0:0:0:0:
475,192,1972,1,0,0:0:0:0:
475,192,2130,128,0,2288:0:0:0:0:
329,192,2288,128,0,2604:0:0:0:0:
402,192,2288,1,0,0:0:0:0:
36,192,2288,1,0,0:0:0:0:
182,192,2604,128,0,2683:0:0:0:0:
109,192,2604,1,0,0:0:0:0:
36,192,2604,1,0,0:0:0:0:
256,192,2683,128,0,2762:0:0:0:0:
329,192,2762,128,0,2920:0:0:0:0:
475,192,2762,128,0,2920:0:0:0:0:
402,192,2920,128,0,3078:0:0:0:0:
182,192,2920,128,0,3078:0:0:0:0:
36,192,2920,1,0,0:0:0:0:
256,192,3078,128,0,5130:0:0:0:0:
109,192,3235,128,0,3551:0:0:0:0:
475,192,3235,1,0,0:0:0:0:
329,192,3235,128,0,3551:0:0:0:0:
36,192,3551,1,0,0:0:0:0:
182,192,3551,128,0,3630:0:0:0:0:
475,192,3551,128,0,3630:0:0:0:0:
182,192,3709,128,0,3867:0:0:0:0:
475,192,3709,128,0,3867:0:0:0:0:
329,192,3867,1,0,0:0:0:0:
36,192,3867,1,0,0:0:0:0:
109,192,3867,128,0,3946:0:0:0:0:
402,192,3867,128,0,3946:0:0:0:0:
109,192,4025,128,0,4183:0:0:0:0:
402,192,4025,128,0,4183:0:0:0:0:
329,192,4183,128,0,4262:0:0:0:0:
36,192,4183,128,0,4262:0:0:0:0:
182,192,4183,1,0,0:0:0:0:
475,192,4183,1,0,0:0:0:0:
36,192,4341,128,0,4499:0:0:0:0:
329,192,4341,128,0,4499:0:0:0:0:
109,192,4499,1,0,0:0:0:0:
402,192,4499,1,0,0:0:0:0:
182,192,4499,128,0,4656:0:0:0:0:
475,192,4499,128,0,4656:0:0:0:0:
402,192,4656,128,0,4814:0:0:0:0:
109,192,4656,128,0,4814:0:0:0:0:
36,192,4656,1,0,0:0:0:0:
329,192,4656,1,0,0:0:0:0:
329,192,4814,128,0,5130:0:0:0:0:
36,192,4814,128,0,5130:0:0:0:0:
182,192,4814,128,0,5130:0:0:0:0:
475,192,4814,128,0,5130:0:0:0:0:
109,192,5130,128,0,5209:0:0:0:0:
402,192,5130,128,0,5209:0:0:0:0:
329,192,5209,128,0,5288:0:0:0:0:
182,192,5209,128,0,5288:0:0:0:0:
256,192,5288,128,0,5446:0:0:0:0:
182,192,5446,128,0,5604:0:0:0:0:
329,192,5446,128,0,5604:0:0:0:0:
109,192,5446,1,0,0:0:0:0:
402,192,5446,1,0,0:0:0:0:
109,192,5604,128,0,7656:0:0:0:0:
402,192,5604,128,0,7656:0:0:0:0:
182,192,5762,1,0,0:0:0:0:
36,192,5762,128,0,6078:0:0:0:0:
475,192,5762,128,0,5920:0:0:0:0:
329,192,5762,1,0,0:0:0:0:
182,192,5920,1,0,0:0:0:0:
256,192,5999,1,0,0:0:0:0:
329,192,6078,1,0,0:0:0:0:
475,192,6078,128,0,6235:0:0:0:0:
329,192,6235,1,0,0:0:0:0:
36,192,6235,128,0,6551:0:0:0:0:
256,192,6314,1,0,0:0:0:0:
182,192,6393,1,0,0:0:0:0:
475,192,6551,128,0,6709:0:0:0:0:
329,192,6551,1,0,0:0:0:0:
256,192,6630,1,0,0:0:0:0:
36,192,6709,128,0,6867:0:0:0:0:
182,192,6709,1,0,0:0:0:0:
329,192,6867,128,0,7025:0:0:0:0:
475,192,6867,1,0,0:0:0:0:
256,192,6946,1,0,0:0:0:0:
182,192,7025,128,0,7656:0:0:0:0:
36,192,7025,1,0,0:0:0:0:
256,192,7183,128,0,7656:0:0:0:0:
475,192,7183,1,0,0:0:0:0:
329,192,7262,1,0,0:0:0:0:
329,192,7341,128,0,7656:0:0:0:0:
36,192,7341,1,0,0:0:0:0:
475,192,7499,1,0,0:0:0:0:
36,192,7578,1,0,0:0:0:0:
475,192,7656,1,0,0:0:0:0:
36,192,7656,1,0,0:0:0:0:
402,192,7735,1,0,0:0:0:0:
109,192,7735,1,0,0:0:0:0:
329,192,7814,128,0,7972:0:0:0:0:
182,192,7814,128,0,7972:0:0:0:0:
402,192,7972,128,0,8130:0:0:0:0:
109,192,7972,128,0,8130:0:0:0:0:
36,192,8130,1,0,0:0:0:0:
475,192,8130,1,0,0:0:0:0:
402,192,8288,1,0,0:0:0:0:
109,192,8288,1,0,0:0:0:0:
182,192,8446,128,0,8604:0:0:0:0:
329,192,8446,128,0,8604:0:0:0:0:
109,192,8604,128,0,8762:0:0:0:0:
402,192,8604,128,0,8762:0:0:0:0:
475,192,8762,128,0,8920:0:0:0:0:
36,192,8762,128,0,8920:0:0:0:0:
256,192,8920,1,0,0:0:0:0:
182,192,8920,1,0,0:0:0:0:
329,192,8920,1,0,0:0:0:0:
109,192,8920,1,0,0:0:0:0:
402,192,8920,1,0,0:0:0:0:
109,192,9130,1,0,0:0:0:0:
402,192,9130,1,0,0:0:0:0:
402,192,9341,1,0,0:0:0:0:
109,192,9341,1,0,0:0:0:0:
109,192,9551,1,0,0:0:0:0:
402,192,9551,1,0,0:0:0:0:
182,192,9551,1,0,0:0:0:0:
256,192,9551,1,0,0:0:0:0:
329,192,9551,1,0,0:0:0:0:
109,192,9762,1,0,0:0:0:0:
402,192,9762,1,0,0:0:0:0:
109,192,9972,1,0,0:0:0:0:
402,192,9972,1,0,0:0:0:0:
402,192,10183,1,0,0:0:0:0:
109,192,10183,1,0,0:0:0:0:
182,192,10183,1,0,0:0:0:0:
256,192,10183,1,0,0:0:0:0:
329,192,10183,1,0,0:0:0:0:
36,192,10183,128,0,10340:0:0:0:0:
475,192,10340,128,0,10498:0:0:0:0:
109,192,10498,128,0,10656:0:0:0:0:
182,192,10498,1,0,0:0:0:0:
329,192,10498,1,0,0:0:0:0:
402,192,10498,1,0,0:0:0:0:
256,192,10498,1,0,0:0:0:0:
36,192,10498,128,0,10656:0:0:0:0:
475,192,10656,128,0,10814:0:0:0:0:
109,192,10814,1,0,0:0:0:0:
182,192,10814,128,0,10972:0:0:0:0:
256,192,10814,1,0,0:0:0:0:
402,192,10814,1,0,0:0:0:0:
329,192,10814,1,0,0:0:0:0:
36,192,10814,128,0,10972:0:0:0:0:
475,192,10972,128,0,11130:0:0:0:0:
256,192,11130,128,0,11288:0:0:0:0:
182,192,11130,1,0,0:0:0:0:
109,192,11130,1,0,0:0:0:0:
329,192,11130,1,0,0:0:0:0:
402,192,11130,1,0,0:0:0:0:
36,192,11130,128,0,11288:0:0:0:0:
475,192,11288,128,0,11446:0:0:0:0:
109,192,11446,128,0,11604:0:0:0:0:
329,192,11446,128,0,11604:0:0:0:0:
256,192,11446,1,0,0:0:0:0:
182,192,11446,1,0,0:0:0:0:
402,192,11446,1,0,0:0:0:0:
475,192,11604,128,0,11761:0:0:0:0:
402,192,11761,128,0,11919:0:0:0:0:
329,192,11761,1,0,0:0:0:0:
256,192,11761,1,0,0:0:0:0:
182,192,11761,128,0,11919:0:0:0:0:
109,192,11761,1,0,0:0:0:0:
36,192,11919,128,0,12077:0:0:0:0:
256,192,12077,128,0,12235:0:0:0:0:
475,192,12077,128,0,12235:0:0:0:0:
402,192,12077,1,0,0:0:0:0:
329,192,12077,1,0,0:0:0:0:
182,192,12077,1,0,0:0:0:0:
109,192,12077,1,0,0:0:0:0:
36,192,12235,128,0,12393:0:0:0:0:
182,192,12393,128,0,12551:0:0:0:0:
402,192,12393,128,0,12551:0:0:0:0:
109,192,12393,1,0,0:0:0:0:
256,192,12393,1,0,0:0:0:0:
329,192,12393,1,0,0:0:0:0:
475,192,12551,128,0,12709:0:0:0:0:
329,192,12709,128,0,12788:0:0:0:0:
182,192,12709,128,0,12788:0:0:0:0:
36,192,12709,1,0,0:0:0:0:
109,192,12788,128,0,12867:0:0:0:0:
402,192,12788,128,0,12867:0:0:0:0:
36,192,12867,128,0,13025:0:0:0:0:
475,192,12867,128,0,13025:0:0:0:0:
182,192,13025,1,0,0:0:0:0:
256,192,13025,1,0,0:0:0:0:
329,192,13025,1,0,0:0:0:0:
109,192,13025,128,0,13183:0:0:0:0:
402,192,13025,128,0,13183:0:0:0:0:
36,192,13183,128,0,13340:0:0:0:0:
109,192,13340,1,0,0:0:0:0:
256,192,13340,1,0,0:0:0:0:
402,192,13340,1,0,0:0:0:0:
182,192,13340,128,0,13498:0:0:0:0:
329,192,13340,128,0,13498:0:0:0:0:
475,192,13498,128,0,13656:0:0:0:0:
182,192,13656,1,0,0:0:0:0:
109,192,13656,1,0,0:0:0:0:
329,192,13656,1,0,0:0:0:0:
402,192,13656,1,0,0:0:0:0:
256,192,13656,128,0,13814:0:0:0:0:
109,192,13814,128,0,13972:0:0:0:0:
475,192,13972,1,0,0:0:0:0:
36,192,13972,1,0,0:0:0:0:
256,192,13972,1,0,0:0:0:0:
182,192,13972,128,0,14130:0:0:0:0:
329,192,13972,128,0,14130:0:0:0:0:
402,192,13972,1,0,0:0:0:0:
256,192,14130,128,0,14288:0:0:0:0:
109,192,14288,1,0,0:0:0:0:
402,192,14288,1,0,0:0:0:0:
182,192,14288,128,0,14446:0:0:0:0:
329,192,14288,128,0,14446:0:0:0:0:
475,192,14288,1,0,0:0:0:0:
36,192,14446,128,0,14604:0:0:0:0:
182,192,14604,1,0,0:0:0:0:
329,192,14604,1,0,0:0:0:0:
109,192,14604,1,0,0:0:0:0:
402,192,14604,1,0,0:0:0:0:
256,192,14604,128,0,14761:0:0:0:0:
475,192,14604,1,0,0:0:0:0:
475,192,14761,128,0,14919:0:0:0:0:
182,192,14919,1,0,0:0:0:0:
36,192,14919,1,0,0:0:0:0:
329,192,14919,1,0,0:0:0:0:
109,192,14919,128,0,15077:0:0:0:0:
402,192,14919,128,0,15077:0:0:0:0:
256,192,14919,1,0,0:0:0:0:
256,192,15077,128,0,15235:0:0:0:0:
109,192,15235,1,0,0:0:0:0:
182,192,15235,1,0,0:0:0:0:
329,192,15235,1,0,0:0:0:0:
402,192,15235,1,0,0:0:0:0:
475,192,15235,128,0,15393:0:0:0:0:
36,192,15235,1,0,0:0:0:0:
36,192,15393,128,0,15551:0:0:0:0:
109,192,15551,1,0,0:0:0:0:
182,192,15551,1,0,0:0:0:0:
256,192,15551,1,0,0:0:0:0:
329,192,15551,1,0,0:0:0:0:
402,192,15551,128,0,15709:0:0:0:0:
475,192,15551,128,0,15709:0:0:0:0:
36,192,15709,128,0,15867:0:0:0:0:
109,192,15867,1,0,0:0:0:0:
182,192,15867,1,0,0:0:0:0:
256,192,15867,1,0,0:0:0:0:
329,192,15867,128,0,16025:0:0:0:0:
475,192,15867,128,0,16025:0:0:0:0:
402,192,15867,1,0,0:0:0:0:
36,192,16025,128,0,16183:0:0:0:0:
256,192,16183,128,0,16340:0:0:0:0:
475,192,16183,128,0,16340:0:0:0:0:
402,192,16183,128,0,16340:0:0:0:0:
329,192,16183,1,0,0:0:0:0:
182,192,16183,1,0,0:0:0:0:
109,192,16183,1,0,0:0:0:0:
36,192,16340,128,0,16498:0:0:0:0:
182,192,16498,128,0,16656:0:0:0:0:
329,192,16498,128,0,16656:0:0:0:0:
475,192,16498,128,0,16656:0:0:0:0:
402,192,16498,1,0,0:0:0:0:
256,192,16498,1,0,0:0:0:0:
109,192,16498,1,0,0:0:0:0:
36,192,16656,128,0,16814:0:0:0:0:
109,192,16814,128,0,16972:0:0:0:0:
256,192,16814,128,0,16972:0:0:0:0:
402,192,16814,128,0,16972:0:0:0:0:
182,192,16814,1,0,0:0:0:0:
329,192,16814,1,0,0:0:0:0:
475,192,16972,128,0,17130:0:0:0:0:
182,192,17130,128,0,17288:0:0:0:0:
36,192,17130,128,0,17288:0:0:0:0:
329,192,17130,128,0,17288:0:0:0:0:
256,192,17130,1,0,0:0:0:0:
109,192,17130,1,0,0:0:0:0:
402,192,17130,1,0,0:0:0:0:
475,192,17288,128,0,17446:0:0:0:0:
109,192,17446,128,0,17604:0:0:0:0:
256,192,17446,128,0,17604:0:0:0:0:
402,192,17446,128,0,17604:0:0:0:0:
329,192,17446,1,0,0:0:0:0:
182,192,17446,1,0,0:0:0:0:
36,192,17604,128,0,17761:0:0:0:0:
329,192,17761,128,0,17840:0:0:0:0:
475,192,17761,128,0,17840:0:0:0:0:
182,192,17761,1,0,0:0:0:0:
402,192,17840,128,0,17919:0:0:0:0:
256,192,17840,128,0,17919:0:0:0:0:
329,192,17919,128,0,17998:0:0:0:0:
182,192,17919,128,0,17998:0:0:0:0:
256,192,17998,128,0,18077:0:0:0:0:
109,192,17998,128,0,18077:0:0:0:0:
182,192,18077,128,0,18235:0:0:0:0:
36,192,18077,128,0,18235:0:0:0:0:
329,192,18077,1,0,0:0:0:0:
329,192,18235,128,0,18393:0:0:0:0:
475,192,18235,128,0,18393:0:0:0:0:
182,192,18393,1,0,0:0:0:0:
109,192,18393,128,0,18867:0:0:0:0:
36,192,18393,128,0,18867:0:0:0:0:
256,192,18551,128,0,18709:0:0:0:0:
329,192,18709,1,0,0:0:0:0:
402,192,18709,128,0,20288:0:0:0:0:
475,192,18709,128,0,20288:0:0:0:0:
256,192,18867,128,0,20288:0:0:0:0:
109,192,19025,128,0,20288:0:0:0:0:
36,192,19025,128,0,20288:0:0:0:0:
182,192,19025,1,0,0:0:0:0:
329,192,19025,1,0,0:0:0:0:
182,192,19183,1,0,0:0:0:0:
329,192,19340,1,0,0:0:0:0:
182,192,19340,1,0,0:0:0:0:
329,192,19656,1,0,0:0:0:0:
182,192,19814,1,0,0:0:0:0:
329,192,19893,1,0,0:0:0:0:
182,192,19972,1,0,0:0:0:0:
329,192,20051,1,0,0:0:0:0:
182,192,20130,1,0,0:0:0:0:
329,192,20209,1,0,0:0:0:0:
182,192,20288,1,0,0:0:0:0:
402,192,20446,128,0,20604:0:0:0:0:
109,192,20446,1,0,0:0:0:0:
182,192,20604,1,0,0:0:0:0:
329,192,20604,128,0,20683:0:0:0:0:
329,192,20761,128,0,20919:0:0:0:0:
109,192,20761,1,0,0:0:0:0:
182,192,20919,1,0,0:0:0:0:
402,192,20919,128,0,20998:0:0:0:0:
402,192,21077,128,0,21235:0:0:0:0:
109,192,21077,1,0,0:0:0:0:
182,192,21235,1,0,0:0:0:0:
329,192,21235,128,0,21314:0:0:0:0:
329,192,21393,128,0,21551:0:0:0:0:
109,192,21393,1,0,0:0:0:0:
182,192,21551,1,0,0:0:0:0:
475,192,21551,128,0,21630:0:0:0:0:
475,192,21709,128,0,21867:0:0:0:0:
109,192,21709,1,0,0:0:0:0:
182,192,21867,1,0,0:0:0:0:
402,192,21867,128,0,21946:0:0:0:0:
402,192,22025,128,0,22183:0:0:0:0:
109,192,22025,1,0,0:0:0:0:
182,192,22183,1,0,0:0:0:0:
475,192,22183,128,0,22261:0:0:0:0:
475,192,22340,128,0,22498:0:0:0:0:
109,192,22340,1,0,0:0:0:0:
182,192,22498,1,0,0:0:0:0:
329,192,22498,128,0,22577:0:0:0:0:
329,192,22656,128,0,22814:0:0:0:0:
109,192,22656,1,0,0:0:0:0:
109,192,22814,1,0,0:0:0:0:
402,192,22814,128,0,22893:0:0:0:0:
402,192,22972,128,0,23130:0:0:0:0:
182,192,22972,1,0,0:0:0:0:
109,192,23130,1,0,0:0:0:0:
329,192,23130,128,0,23209:0:0:0:0:
329,192,23288,128,0,23446:0:0:0:0:
182,192,23288,1,0,0:0:0:0:
109,192,23446,1,0,0:0:0:0:
475,192,23446,128,0,23525:0:0:0:0:
475,192,23604,128,0,23761:0:0:0:0:
182,192,23604,1,0,0:0:0:0:
109,192,23761,1,0,0:0:0:0:
402,192,23761,128,0,23840:0:0:0:0:
402,192,23919,128,0,24077:0:0:0:0:
182,192,23919,1,0,0:0:0:0:
109,192,24077,1,0,0:0:0:0:
329,192,24077,128,0,24156:0:0:0:0:
329,192,24235,128,0,24393:0:0:0:0:
182,192,24235,1,0,0:0:0:0:
109,192,24393,1,0,0:0:0:0:
475,192,24393,128,0,24472:0:0:0:0:
475,192,24551,128,0,24709:0:0:0:0:
182,192,24551,1,0,0:0:0:0:
109,192,24709,1,0,0:0:0:0:
402,192,24709,128,0,24788:0:0:0:0:
256,192,24788,1,0,0:0:0:0:
402,192,24867,128,0,25025:0:0:0:0:
329,192,24867,128,0,24946:0:0:0:0:
36,192,24867,1,0,0:0:0:0:
182,192,24946,1,0,0:0:0:0:
109,192,25025,1,0,0:0:0:0:
256,192,25025,128,0,25104:0:0:0:0:
402,192,25104,1,0,0:0:0:0:
256,192,25183,128,0,25340:0:0:0:0:
182,192,25183,128,0,25261:0:0:0:0:
329,192,25183,1,0,0:0:0:0:
475,192,25261,1,0,0:0:0:0:
109,192,25340,128,0,25498:0:0:0:0:
182,192,25340,1,0,0:0:0:0:
36,192,25340,1,0,0:0:0:0:
182,192,25498,128,0,25656:0:0:0:0:
256,192,25498,1,0,0:0:0:0:
256,192,25656,128,0,25814:0:0:0:0:
329,192,25656,1,0,0:0:0:0:
36,192,25656,1,0,0:0:0:0:
329,192,25814,128,0,25972:0:0:0:0:
402,192,25814,1,0,0:0:0:0:
475,192,25972,128,0,26130:0:0:0:0:
402,192,25972,1,0,0:0:0:0:
36,192,25972,1,0,0:0:0:0:
402,192,26130,128,0,26288:0:0:0:0:
329,192,26130,1,0,0:0:0:0:
329,192,26288,128,0,26446:0:0:0:0:
256,192,26288,1,0,0:0:0:0:
36,192,26288,1,0,0:0:0:0:
256,192,26446,128,0,26604:0:0:0:0:
182,192,26446,1,0,0:0:0:0:
109,192,26604,128,0,26761:0:0:0:0:
36,192,26604,1,0,0:0:0:0:
182,192,26604,1,0,0:0:0:0:
182,192,26761,128,0,26919:0:0:0:0:
256,192,26761,1,0,0:0:0:0:
402,192,26919,128,0,27077:0:0:0:0:
329,192,26919,1,0,0:0:0:0:
475,192,26919,1,0,0:0:0:0:
329,192,27077,128,0,27235:0:0:0:0:
256,192,27077,1,0,0:0:0:0:
109,192,27235,128,0,27393:0:0:0:0:
36,192,27235,1,0,0:0:0:0:
182,192,27235,1,0,0:0:0:0:
182,192,27393,128,0,27551:0:0:0:0:
256,192,27393,1,0,0:0:0:0:
402,192,27551,128,0,27709:0:0:0:0:
329,192,27551,1,0,0:0:0:0:
475,192,27551,1,0,0:0:0:0:
329,192,27709,128,0,27867:0:0:0:0:
256,192,27709,1,0,0:0:0:0:
36,192,27867,128,0,28025:0:0:0:0:
182,192,27867,1,0,0:0:0:0:
109,192,28025,128,0,28183:0:0:0:0:
256,192,28025,1,0,0:0:0:0:
475,192,28183,128,0,28340:0:0:0:0:
329,192,28183,1,0,0:0:0:0:
402,192,28340,128,0,28498:0:0:0:0:
256,192,28340,1,0,0:0:0:0:
36,192,28498,128,0,28656:0:0:0:0:
182,192,28498,1,0,0:0:0:0:
109,192,28656,128,0,28814:0:0:0:0:
256,192,28656,1,0,0:0:0:0:
475,192,28814,128,0,28972:0:0:0:0:
329,192,28814,1,0,0:0:0:0:
402,192,28972,128,0,29130:0:0:0:0:
256,192,28972,1,0,0:0:0:0:
36,192,29130,128,0,29288:0:0:0:0:
182,192,29130,1,0,0:0:0:0:
109,192,29288,128,0,29446:0:0:0:0:
256,192,29288,1,0,0:0:0:0:
475,192,29446,128,0,29604:0:0:0:0:
329,192,29446,1,0,0:0:0:0:
402,192,29604,128,0,29761:0:0:0:0:
256,192,29604,1,0,0:0:0:0:
109,192,29761,128,0,29919:0:0:0:0:
182,192,29761,1,0,0:0:0:0:
182,192,29919,128,0,30077:0:0:0:0:
256,192,29919,1,0,0:0:0:0:
402,192,30077,128,0,30235:0:0:0:0:
329,192,30077,1,0,0:0:0:0:
329,192,30235,128,0,30393:0:0:0:0:
256,192,30235,1,0,0:0:0:0:
256,192,30393,128,0,31656:0:0:0:0:
109,192,30393,1,0,0:0:0:0:
402,192,30551,128,0,31025:0:0:0:0:
182,192,30551,1,0,0:0:0:0:
475,192,30709,128,0,31025:0:0:0:0:
109,192,30709,1,0,0:0:0:0:
36,192,30867,1,0,0:0:0:0:
109,192,31025,1,0,0:0:0:0:
182,192,31183,1,0,0:0:0:0:
475,192,31340,128,0,31656:0:0:0:0:
109,192,31340,1,0,0:0:0:0:
36,192,31498,1,0,0:0:0:0:
109,192,31656,1,0,0:0:0:0:
182,192,31814,1,0,0:0:0:0:
475,192,31972,128,0,32130:0:0:0:0:
182,192,31972,1,0,0:0:0:0:
256,192,32130,1,0,0:0:0:0:
475,192,32288,128,0,32367:0:0:0:0:
182,192,32288,1,0,0:0:0:0:
475,192,32446,128,0,32604:0:0:0:0:
329,192,32446,1,0,0:0:0:0:
402,192,32604,128,0,32761:0:0:0:0:
182,192,32604,1,0,0:0:0:0:
329,192,32761,128,0,32919:0:0:0:0:
109,192,32761,1,0,0:0:0:0:
36,192,32919,128,0,32998:0:0:0:0:
182,192,32919,1,0,0:0:0:0:
36,192,33077,128,0,33235:0:0:0:0:
256,192,33077,1,0,0:0:0:0:
109,192,33235,128,0,33393:0:0:0:0:
256,192,33235,1,0,0:0:0:0:
182,192,33393,128,0,33551:0:0:0:0:
402,192,33393,1,0,0:0:0:0:
36,192,33551,128,0,33709:0:0:0:0:
329,192,33551,1,0,0:0:0:0:
109,192,33709,128,0,33867:0:0:0:0:
475,192,33709,1,0,0:0:0:0:
182,192,33867,128,0,34025:0:0:0:0:
256,192,33867,1,0,0:0:0:0:
36,192,34025,128,0,34183:0:0:0:0:
329,192,34025,1,0,0:0:0:0:
109,192,34183,128,0,34340:0:0:0:0:
329,192,34183,1,0,0:0:0:0:
182,192,34340,128,0,34498:0:0:0:0:
475,192,34340,1,0,0:0:0:0:
329,192,34419,1,0,0:0:0:0:
36,192,34498,128,0,34656:0:0:0:0:
256,192,34498,1,0,0:0:0:0:
109,192,34656,128,0,34814:0:0:0:0:
402,192,34656,1,0,0:0:0:0:
182,192,34814,128,0,34972:0:0:0:0:
329,192,34814,1,0,0:0:0:0:
109,192,34972,128,0,35051:0:0:0:0:
402,192,34972,1,0,0:0:0:0:
109,192,35130,128,0,35288:0:0:0:0:
256,192,35130,1,0,0:0:0:0:
475,192,35130,1,0,0:0:0:0:
36,192,35288,128,0,35367:0:0:0:0:
402,192,35288,1,0,0:0:0:0:
36,192,35446,128,0,36393:0:0:0:0:
329,192,35446,1,0,0:0:0:0:
256,192,35446,1,0,0:0:0:0:
182,192,35446,1,0,0:0:0:0:
109,192,35446,128,0,35604:0:0:0:0:
475,192,35604,128,0,35761:0:0:0:0:
402,192,35604,128,0,35761:0:0:0:0:
256,192,35761,1,0,0:0:0:0:
329,192,35761,1,0,0:0:0:0:
182,192,35761,128,0,35919:0:0:0:0:
475,192,35919,128,0,36077:0:0:0:0:
109,192,35919,128,0,36077:0:0:0:0:
329,192,36077,1,0,0:0:0:0:
182,192,36077,1,0,0:0:0:0:
256,192,36077,128,0,36235:0:0:0:0:
475,192,36235,128,0,36393:0:0:0:0:
402,192,36235,128,0,36393:0:0:0:0:
256,192,36393,1,0,0:0:0:0:
182,192,36393,1,0,0:0:0:0:
329,192,36393,128,0,36551:0:0:0:0:
109,192,36393,128,0,36551:0:0:0:0:
36,192,36551,128,0,36709:0:0:0:0:
475,192,36709,128,0,37656:0:0:0:0:
329,192,36709,1,0,0:0:0:0:
256,192,36709,1,0,0:0:0:0:
182,192,36709,1,0,0:0:0:0:
402,192,36709,128,0,36867:0:0:0:0:
109,192,36709,128,0,36867:0:0:0:0:
36,192,36867,128,0,37025:0:0:0:0:
256,192,37025,1,0,0:0:0:0:
182,192,37025,1,0,0:0:0:0:
329,192,37025,128,0,37183:0:0:0:0:
402,192,37025,128,0,37183:0:0:0:0:
36,192,37183,128,0,37340:0:0:0:0:
109,192,37183,128,0,37340:0:0:0:0:
182,192,37340,1,0,0:0:0:0:
329,192,37340,1,0,0:0:0:0:
256,192,37340,128,0,37498:0:0:0:0:
402,192,37340,128,0,37498:0:0:0:0:
36,192,37498,128,0,37656:0:0:0:0:
109,192,37498,128,0,37656:0:0:0:0:
329,192,37656,1,0,0:0:0:0:
256,192,37656,1,0,0:0:0:0:
182,192,37656,128,0,37814:0:0:0:0:
402,192,37656,128,0,37814:0:0:0:0:
475,192,37814,128,0,37972:0:0:0:0:
36,192,37814,128,0,37972:0:0:0:0:
182,192,37972,128,0,38051:0:0:0:0:
256,192,37972,1,0,0:0:0:0:
109,192,37972,1,0,0:0:0:0:
402,192,37972,1,0,0:0:0:0:
329,192,37972,128,0,38130:0:0:0:0:
182,192,38130,128,0,38288:0:0:0:0:
402,192,38130,128,0,38288:0:0:0:0:
109,192,38288,128,0,38446:0:0:0:0:
475,192,38288,128,0,38604:0:0:0:0:
36,192,38446,128,0,38604:0:0:0:0:
256,192,38604,128,0,38761:0:0:0:0:
329,192,38604,128,0,38761:0:0:0:0:
182,192,38761,128,0,38919:0:0:0:0:
402,192,38761,128,0,38919:0:0:0:0:
109,192,38919,128,0,39077:0:0:0:0:
475,192,38919,128,0,39235:0:0:0:0:
329,192,39077,128,0,39235:0:0:0:0:
256,192,39235,128,0,39393:0:0:0:0:
402,192,39235,128,0,39393:0:0:0:0:
109,192,39235,128,0,39393:0:0:0:0:
182,192,39393,128,0,39551:0:0:0:0:
329,192,39393,128,0,39551:0:0:0:0:
36,192,39393,128,0,39551:0:0:0:0:
402,192,39551,128,0,39709:0:0:0:0:
475,192,39551,128,0,39867:0:0:0:0:
109,192,39551,128,0,39709:0:0:0:0:
329,192,39709,128,0,39867:0:0:0:0:
182,192,39709,128,0,39867:0:0:0:0:
256,192,39867,128,0,40025:0:0:0:0:
109,192,39867,128,0,40025:0:0:0:0:
402,192,39867,128,0,40025:0:0:0:0:
475,192,40025,128,0,40183:0:0:0:0:
36,192,40025,128,0,40183:0:0:0:0:
182,192,40025,128,0,40183:0:0:0:0:
402,192,40183,128,0,40340:0:0:0:0:
256,192,40183,128,0,40498:0:0:0:0:
109,192,40183,128,0,40340:0:0:0:0:
329,192,40340,128,0,40498:0:0:0:0:
182,192,40340,128,0,40498:0:0:0:0:
36,192,40498,1,0,0:0:0:0:
109,192,40498,1,0,0:0:0:0:
182,192,40577,1,0,0:0:0:0:
256,192,40656,1,0,0:0:0:0:
329,192,40735,1,0,0:0:0:0:
182,192,40814,1,0,0:0:0:0:
109,192,40814,1,0,0:0:0:0:
256,192,40893,1,0,0:0:0:0:
402,192,40972,1,0,0:0:0:0:
329,192,40972,1,0,0:0:0:0:
256,192,41051,1,0,0:0:0:0:
182,192,41130,1,0,0:0:0:0:
109,192,41130,1,0,0:0:0:0:
402,192,41130,1,0,0:0:0:0:
475,192,41130,1,0,0:0:0:0:
329,192,41209,1,0,0:0:0:0:
256,192,41288,1,0,0:0:0:0:
182,192,41367,1,0,0:0:0:0:
329,192,41446,1,0,0:0:0:0:
402,192,41446,1,0,0:0:0:0:
256,192,41525,1,0,0:0:0:0:
182,192,41604,1,0,0:0:0:0:
109,192,41604,1,0,0:0:0:0:
256,192,41683,1,0,0:0:0:0:
329,192,41761,1,0,0:0:0:0:
402,192,41761,1,0,0:0:0:0:
36,192,41761,1,0,0:0:0:0:
109,192,41761,1,0,0:0:0:0:
182,192,41840,1,0,0:0:0:0:
256,192,41919,1,0,0:0:0:0:
329,192,41998,1,0,0:0:0:0:
109,192,42077,1,0,0:0:0:0:
182,192,42077,1,0,0:0:0:0:
256,192,42156,1,0,0:0:0:0:
329,192,42235,1,0,0:0:0:0:
402,192,42235,1,0,0:0:0:0:
256,192,42314,1,0,0:0:0:0:
182,192,42393,1,0,0:0:0:0:
109,192,42393,1,0,0:0:0:0:
402,192,42393,1,0,0:0:0:0:
475,192,42393,1,0,0:0:0:0:
329,192,42472,1,0,0:0:0:0:
256,192,42551,1,0,0:0:0:0:
182,192,42630,1,0,0:0:0:0:
329,192,42709,1,0,0:0:0:0:
402,192,42709,1,0,0:0:0:0:
256,192,42788,1,0,0:0:0:0:
182,192,42867,1,0,0:0:0:0:
109,192,42946,1,0,0:0:0:0:
256,192,43025,1,0,0:0:0:0:
36,192,43025,1,0,0:0:0:0:
402,192,43025,1,0,0:0:0:0:
475,192,43025,1,0,0:0:0:0:
329,192,43183,1,0,0:0:0:0:
256,192,43340,1,0,0:0:0:0:
402,192,43340,1,0,0:0:0:0:
475,192,43340,1,0,0:0:0:0:
329,192,43498,1,0,0:0:0:0:
256,192,43656,1,0,0:0:0:0:
402,192,43656,1,0,0:0:0:0:
475,192,43656,1,0,0:0:0:0:
182,192,43814,1,0,0:0:0:0:
256,192,43972,1,0,0:0:0:0:
402,192,43972,1,0,0:0:0:0:
475,192,43972,1,0,0:0:0:0:
182,192,44130,1,0,0:0:0:0:
329,192,44130,1,0,0:0:0:0:
109,192,44130,1,0,0:0:0:0:
36,192,44130,1,0,0:0:0:0:
109,192,44288,1,0,0:0:0:0:
256,192,44288,1,0,0:0:0:0:
402,192,44288,1,0,0:0:0:0:
475,192,44288,1,0,0:0:0:0:
182,192,44446,1,0,0:0:0:0:
329,192,44446,1,0,0:0:0:0:
475,192,44465,1,0,0:0:0:0:
36,192,44465,1,0,0:0:0:0:
256,192,44604,1,0,0:0:0:0:
109,192,44604,1,0,0:0:0:0:
36,192,44604,1,0,0:0:0:0:
402,192,44604,1,0,0:0:0:0:
182,192,44761,1,0,0:0:0:0:
329,192,44761,1,0,0:0:0:0:
109,192,44781,1,0,0:0:0:0:
402,192,44781,1,0,0:0:0:0:
256,192,44919,1,0,0:0:0:0:
36,192,44919,1,0,0:0:0:0:
402,192,44919,1,0,0:0:0:0:
475,192,44919,1,0,0:0:0:0:
109,192,45077,1,0,0:0:0:0:
256,192,45077,1,0,0:0:0:0:
402,192,45077,1,0,0:0:0:0:
182,192,45097,1,0,0:0:0:0:
329,192,45097,1,0,0:0:0:0:
36,192,45235,1,0,0:0:0:0:
109,192,45235,1,0,0:0:0:0:
182,192,45235,1,0,0:0:0:0:
402,192,45235,1,0,0:0:0:0:
475,192,45235,1,0,0:0:0:0:
329,192,45235,1,0,0:0:0:0:
256,192,45235,1,0,0:0:0:0:
256,192,45551,128,0,45867:0:0:0:0:
329,192,45551,1,0,0:0:0:0:
182,192,45551,1,0,0:0:0:0:
109,192,45551,1,0,0:0:0:0:
36,192,45551,1,0,0:0:0:0:
402,192,45630,1,0,0:0:0:0:
475,192,45709,1,0,0:0:0:0:
182,192,45709,1,0,0:0:0:0:
329,192,45867,128,0,46025:0:0:0:0:
182,192,45867,1,0,0:0:0:0:
109,192,45867,1,0,0:0:0:0:
36,192,45867,1,0,0:0:0:0:
402,192,46025,128,0,46183:0:0:0:0:
109,192,46025,1,0,0:0:0:0:
256,192,46183,128,0,46498:0:0:0:0:
475,192,46183,128,0,46340:0:0:0:0:
36,192,46183,1,0,0:0:0:0:
109,192,46183,1,0,0:0:0:0:
182,192,46183,1,0,0:0:0:0:
402,192,46340,128,0,46498:0:0:0:0:
36,192,46340,1,0,0:0:0:0:
329,192,46498,128,0,46656:0:0:0:0:
36,192,46498,128,0,46814:0:0:0:0:
109,192,46498,1,0,0:0:0:0:
182,192,46498,1,0,0:0:0:0:
402,192,46656,128,0,46814:0:0:0:0:
182,192,46656,1,0,0:0:0:0:
475,192,46814,128,0,47446:0:0:0:0:
109,192,46814,128,0,46972:0:0:0:0:
256,192,46814,1,0,0:0:0:0:
182,192,46814,1,0,0:0:0:0:
36,192,46972,128,0,47130:0:0:0:0:
256,192,46972,1,0,0:0:0:0:
182,192,47130,128,0,47288:0:0:0:0:
256,192,47130,1,0,0:0:0:0:
329,192,47130,1,0,0:0:0:0:
109,192,47288,128,0,47446:0:0:0:0:
329,192,47288,1,0,0:0:0:0:
256,192,47446,128,0,48077:0:0:0:0:
36,192,47446,128,0,47604:0:0:0:0:
329,192,47446,1,0,0:0:0:0:
402,192,47446,1,0,0:0:0:0:
109,192,47604,128,0,47761:0:0:0:0:
402,192,47604,1,0,0:0:0:0:
182,192,47761,128,0,47919:0:0:0:0:
402,192,47761,1,0,0:0:0:0:
475,192,47761,1,0,0:0:0:0:
109,192,47919,128,0,48077:0:0:0:0:
475,192,47919,1,0,0:0:0:0:
329,192,48077,128,0,48156:0:0:0:0:
36,192,48077,128,0,48156:0:0:0:0:
402,192,48077,128,0,48156:0:0:0:0:
475,192,48077,128,0,48156:0:0:0:0:
182,192,48077,1,0,0:0:0:0:
182,192,48235,128,0,48314:0:0:0:0:
109,192,48235,128,0,48314:0:0:0:0:
36,192,48235,128,0,48314:0:0:0:0:
402,192,48235,128,0,48314:0:0:0:0:
475,192,48235,128,0,48314:0:0:0:0:
36,192,48393,128,0,48472:0:0:0:0:
475,192,48393,128,0,48472:0:0:0:0:
329,192,48393,128,0,48472:0:0:0:0:
109,192,48393,128,0,48472:0:0:0:0:
402,192,48393,1,0,0:0:0:0:
402,192,48551,128,0,48630:0:0:0:0:
475,192,48551,128,0,48630:0:0:0:0:
182,192,48551,128,0,48630:0:0:0:0:
36,192,48551,128,0,48630:0:0:0:0:
182,192,48709,128,0,48867:0:0:0:0:
109,192,48709,128,0,48867:0:0:0:0:
36,192,48709,128,0,48867:0:0:0:0:
329,192,48709,128,0,48867:0:0:0:0:
402,192,48709,128,0,48867:0:0:0:0:
475,192,48709,128,0,48867:0:0:0:0:
256,192,48709,1,0,0:0:0:0:
256,192,48867,1,0,0:0:0:0:
182,192,49025,128,0,49735:0:0:0:0:
109,192,49025,128,0,49419:0:0:0:0:
36,192,49025,128,0,50051:0:0:0:0:
329,192,49025,128,0,49577:0:0:0:0:
402,192,49025,128,0,49261:0:0:0:0:
475,192,49025,128,0,50209:0:0:0:0:
256,192,49183,128,0,50367:0:0:0:0:
402,192,49340,128,0,49893:0:0:0:0:
109,192,49498,128,0,50525:0:0:0:0:
329,192,49656,128,0,50525:0:0:0:0:
182,192,49814,128,0,50525:0:0:0:0:
402,192,49972,128,0,50525:0:0:0:0:
36,192,50130,128,0,50525:0:0:0:0:
475,192,50288,128,0,50525:0:0:0:0:
256,192,50446,128,0,50525:0:0:0:0:
256,192,50604,128,0,50919:0:0:0:0:
182,192,50604,1,0,0:0:0:0:
329,192,50604,1,0,0:0:0:0:
402,192,50604,1,0,0:0:0:0:
109,192,50683,1,0,0:0:0:0:
36,192,50761,1,0,0:0:0:0:
329,192,50761,1,0,0:0:0:0:
109,192,50840,1,0,0:0:0:0:
182,192,50919,128,0,51077:0:0:0:0:
329,192,50919,1,0,0:0:0:0:
402,192,50919,1,0,0:0:0:0:
109,192,51077,128,0,51235:0:0:0:0:
402,192,51077,1,0,0:0:0:0:
256,192,51235,128,0,51551:0:0:0:0:
36,192,51235,128,0,51393:0:0:0:0:
475,192,51235,1,0,0:0:0:0:
402,192,51235,1,0,0:0:0:0:
109,192,51393,128,0,51551:0:0:0:0:
475,192,51393,1,0,0:0:0:0:
475,192,51551,128,0,51867:0:0:0:0:
402,192,51551,1,0,0:0:0:0:
329,192,51551,1,0,0:0:0:0:
36,192,51551,1,0,0:0:0:0:
182,192,51551,1,0,0:0:0:0:
182,192,51709,128,0,51867:0:0:0:0:
329,192,51709,1,0,0:0:0:0:
36,192,51867,128,0,52498:0:0:0:0:
402,192,51867,128,0,52025:0:0:0:0:
256,192,51867,1,0,0:0:0:0:
329,192,51867,1,0,0:0:0:0:
109,192,51867,1,0,0:0:0:0:
475,192,52025,128,0,52183:0:0:0:0:
256,192,52025,1,0,0:0:0:0:
329,192,52183,128,0,52340:0:0:0:0:
256,192,52183,1,0,0:0:0:0:
182,192,52183,1,0,0:0:0:0:
109,192,52183,1,0,0:0:0:0:
402,192,52340,128,0,52498:0:0:0:0:
182,192,52340,1,0,0:0:0:0:
256,192,52498,128,0,53130:0:0:0:0:
475,192,52498,128,0,52656:0:0:0:0:
182,192,52498,1,0,0:0:0:0:
109,192,52498,1,0,0:0:0:0:
329,192,52498,1,0,0:0:0:0:
402,192,52656,128,0,52814:0:0:0:0:
109,192,52656,1,0,0:0:0:0:
329,192,52814,128,0,52972:0:0:0:0:
109,192,52814,1,0,0:0:0:0:
36,192,52814,1,0,0:0:0:0:
182,192,52814,1,0,0:0:0:0:
402,192,52972,128,0,53130:0:0:0:0:
36,192,52972,1,0,0:0:0:0:
182,192,53130,128,0,53209:0:0:0:0:
475,192,53130,128,0,53209:0:0:0:0:
109,192,53130,128,0,53209:0:0:0:0:
36,192,53130,128,0,53209:0:0:0:0:
329,192,53130,1,0,0:0:0:0:
329,192,53288,128,0,53367:0:0:0:0:
402,192,53288,128,0,53367:0:0:0:0:
475,192,53288,128,0,53367:0:0:0:0:
109,192,53288,128,0,53367:0:0:0:0:
36,192,53288,128,0,53367:0:0:0:0:
182,192,53288,1,0,0:0:0:0:
475,192,53446,128,0,53525:0:0:0:0:
36,192,53446,128,0,53525:0:0:0:0:
182,192,53446,128,0,53525:0:0:0:0:
402,192,53446,128,0,53525:0:0:0:0:
329,192,53446,1,0,0:0:0:0:
109,192,53604,128,0,53683:0:0:0:0:
36,192,53604,128,0,53683:0:0:0:0:
329,192,53604,128,0,53683:0:0:0:0:
475,192,53604,128,0,53683:0:0:0:0:
182,192,53604,1,0,0:0:0:0:
329,192,53761,128,0,53919:0:0:0:0:
402,192,53761,128,0,53919:0:0:0:0:
475,192,53761,128,0,53919:0:0:0:0:
182,192,53761,128,0,53919:0:0:0:0:
109,192,53761,128,0,53919:0:0:0:0:
36,192,53761,128,0,53919:0:0:0:0:
256,192,53761,128,0,53919:0:0:0:0:
36,192,54077,128,0,54393:0:0:0:0:
475,192,54077,128,0,54393:0:0:0:0:
182,192,54077,1,0,0:0:0:0:
109,192,54077,1,0,0:0:0:0:
256,192,54077,1,0,0:0:0:0:
329,192,54077,1,0,0:0:0:0:
402,192,54077,1,0,0:0:0:0:
256,192,54235,1,0,0:0:0:0:
109,192,54393,128,0,54551:0:0:0:0:
402,192,54393,128,0,54551:0:0:0:0:
182,192,54393,1,0,0:0:0:0:
329,192,54393,1,0,0:0:0:0:
329,192,54551,128,0,54709:0:0:0:0:
182,192,54551,128,0,54709:0:0:0:0:
36,192,54709,1,0,0:0:0:0:
475,192,54709,1,0,0:0:0:0:
475,192,54867,128,0,55025:0:0:0:0:
36,192,54867,128,0,55025:0:0:0:0:
329,192,54867,1,0,0:0:0:0:
402,192,54867,1,0,0:0:0:0:
256,192,54946,1,0,0:0:0:0:
109,192,55025,1,0,0:0:0:0:
182,192,55025,1,0,0:0:0:0:
109,192,55183,1,0,0:0:0:0:
36,192,55183,1,0,0:0:0:0:
182,192,55183,1,0,0:0:0:0:
182,192,55340,1,0,0:0:0:0:
256,192,55340,1,0,0:0:0:0:
329,192,55340,1,0,0:0:0:0:
329,192,55498,1,0,0:0:0:0:
402,192,55498,1,0,0:0:0:0:
475,192,55498,1,0,0:0:0:0:
109,192,55656,128,0,55735:0:0:0:0:
256,192,55656,1,0,0:0:0:0:
402,192,55656,1,0,0:0:0:0:
475,192,55656,1,0,0:0:0:0:
182,192,55735,128,0,55814:0:0:0:0:
256,192,55814,128,0,55893:0:0:0:0:
329,192,55893,128,0,55972:0:0:0:0:
182,192,55972,128,0,56051:0:0:0:0:
36,192,55972,1,0,0:0:0:0:
256,192,56051,128,0,56130:0:0:0:0:
329,192,56130,128,0,56209:0:0:0:0:
109,192,56130,1,0,0:0:0:0:
402,192,56209,128,0,56288:0:0:0:0:
475,192,56288,128,0,56840:0:0:0:0:
256,192,56288,1,0,0:0:0:0:
182,192,56288,1,0,0:0:0:0:
36,192,56288,1,0,0:0:0:0:
402,192,56367,128,0,56761:0:0:0:0:
329,192,56446,128,0,56683:0:0:0:0:
256,192,56525,128,0,56604:0:0:0:0:
182,192,56604,128,0,56683:0:0:0:0:
256,192,56683,128,0,56761:0:0:0:0:
329,192,56761,128,0,56840:0:0:0:0:
36,192,56761,1,0,0:0:0:0:
109,192,56840,1,0,0:0:0:0:
402,192,56840,128,0,56919:0:0:0:0:
475,192,56919,128,0,56998:0:0:0:0:
182,192,56919,1,0,0:0:0:0:
402,192,56998,128,0,57077:0:0:0:0:
109,192,56998,1,0,0:0:0:0:
329,192,57077,128,0,57156:0:0:0:0:
36,192,57077,1,0,0:0:0:0:
256,192,57156,128,0,57235:0:0:0:0:
182,192,57156,1,0,0:0:0:0:
402,192,57235,128,0,57314:0:0:0:0:
109,192,57235,1,0,0:0:0:0:
329,192,57314,128,0,57393:0:0:0:0:
36,192,57314,1,0,0:0:0:0:
256,192,57393,128,0,57472:0:0:0:0:
109,192,57393,1,0,0:0:0:0:
182,192,57472,128,0,57551:0:0:0:0:
329,192,57472,1,0,0:0:0:0:
109,192,57551,128,0,57788:0:0:0:0:
256,192,57551,1,0,0:0:0:0:
182,192,57630,128,0,57788:0:0:0:0:
329,192,57630,1,0,0:0:0:0:
256,192,57709,128,0,57867:0:0:0:0:
402,192,57709,1,0,0:0:0:0:
329,192,57788,128,0,57867:0:0:0:0:
475,192,57788,1,0,0:0:0:0:
402,192,57867,128,0,58104:0:0:0:0:
109,192,57867,1,0,0:0:0:0:
36,192,57867,1,0,0:0:0:0:
182,192,57946,1,0,0:0:0:0:
329,192,57946,128,0,58104:0:0:0:0:
256,192,58025,128,0,58183:0:0:0:0:
109,192,58025,1,0,0:0:0:0:
182,192,58104,128,0,58183:0:0:0:0:
36,192,58104,1,0,0:0:0:0:
475,192,58183,1,0,0:0:0:0:
402,192,58183,128,0,58261:0:0:0:0:
329,192,58261,128,0,58340:0:0:0:0:
256,192,58340,128,0,58419:0:0:0:0:
109,192,58340,1,0,0:0:0:0:
36,192,58340,1,0,0:0:0:0:
182,192,58419,128,0,58498:0:0:0:0:
329,192,58498,128,0,58577:0:0:0:0:
402,192,58498,1,0,0:0:0:0:
475,192,58498,1,0,0:0:0:0:
256,192,58577,128,0,58656:0:0:0:0:
182,192,58656,128,0,58735:0:0:0:0:
402,192,58656,1,0,0:0:0:0:
109,192,58735,128,0,58814:0:0:0:0:
36,192,58814,128,0,59367:0:0:0:0:
329,192,58814,1,0,0:0:0:0:
402,192,58814,1,0,0:0:0:0:
475,192,58814,1,0,0:0:0:0:
109,192,58893,128,0,59288:0:0:0:0:
182,192,58972,128,0,59209:0:0:0:0:
256,192,59051,128,0,59130:0:0:0:0:
329,192,59130,128,0,59209:0:0:0:0:
402,192,59130,1,0,0:0:0:0:
475,192,59130,1,0,0:0:0:0:
256,192,59209,128,0,59288:0:0:0:0:
182,192,59288,128,0,59367:0:0:0:0:
402,192,59288,1,0,0:0:0:0:
109,192,59367,128,0,59446:0:0:0:0:
256,192,59446,1,0,0:0:0:0:
36,192,59446,128,0,59525:0:0:0:0:
329,192,59525,1,0,0:0:0:0:
109,192,59525,128,0,59604:0:0:0:0:
402,192,59604,1,0,0:0:0:0:
182,192,59604,128,0,59683:0:0:0:0:
475,192,59683,1,0,0:0:0:0:
256,192,59683,128,0,59761:0:0:0:0:
109,192,59761,128,0,59840:0:0:0:0:
329,192,59761,1,0,0:0:0:0:
182,192,59840,128,0,59919:0:0:0:0:
402,192,59840,1,0,0:0:0:0:
256,192,59919,128,0,59998:0:0:0:0:
475,192,59919,1,0,0:0:0:0:
329,192,59998,128,0,60077:0:0:0:0:
109,192,59998,1,0,0:0:0:0:
402,192,60077,128,0,60314:0:0:0:0:
182,192,60077,1,0,0:0:0:0:
329,192,60156,128,0,60314:0:0:0:0:
109,192,60156,1,0,0:0:0:0:
256,192,60235,128,0,60393:0:0:0:0:
36,192,60235,1,0,0:0:0:0:
182,192,60314,128,0,60393:0:0:0:0:
109,192,60393,128,0,60630:0:0:0:0:
329,192,60393,1,0,0:0:0:0:
475,192,60393,1,0,0:0:0:0:
182,192,60472,128,0,60630:0:0:0:0:
402,192,60472,1,0,0:0:0:0:
256,192,60551,128,0,60709:0:0:0:0:
475,192,60551,1,0,0:0:0:0:
329,192,60630,128,0,60709:0:0:0:0:
36,192,60709,128,0,62051:0:0:0:0:
109,192,60709,128,0,60946:0:0:0:0:
402,192,60709,1,0,0:0:0:0:
182,192,60788,128,0,60946:0:0:0:0:
256,192,60867,128,0,61025:0:0:0:0:
329,192,60946,128,0,61104:0:0:0:0:
109,192,61025,128,0,62051:0:0:0:0:
182,192,61025,128,0,61498:0:0:0:0:
402,192,61025,1,0,0:0:0:0:
256,192,61104,128,0,61183:0:0:0:0:
329,192,61183,128,0,61340:0:0:0:0:
256,192,61261,128,0,61419:0:0:0:0:
402,192,61340,128,0,61577:0:0:0:0:
475,192,61340,128,0,61893:0:0:0:0:
329,192,61419,128,0,61577:0:0:0:0:
256,192,61498,128,0,61656:0:0:0:0:
182,192,61577,128,0,61735:0:0:0:0:
329,192,61656,128,0,61893:0:0:0:0:
402,192,61656,128,0,61893:0:0:0:0:
256,192,61735,128,0,61814:0:0:0:0:
182,192,61814,128,0,62446:0:0:0:0:
256,192,61893,128,0,61972:0:0:0:0:
402,192,61972,128,0,62209:0:0:0:0:
475,192,61972,128,0,62209:0:0:0:0:
329,192,61972,1,0,0:0:0:0:
256,192,62051,128,0,62130:0:0:0:0:
36,192,62130,128,0,62525:0:0:0:0:
109,192,62130,128,0,62525:0:0:0:0:
256,192,62209,128,0,62367:0:0:0:0:
402,192,62288,128,0,62604:0:0:0:0:
475,192,62288,1,0,0:0:0:0:
329,192,62367,128,0,62683:0:0:0:0:
256,192,62446,128,0,62761:0:0:0:0:
182,192,62525,128,0,62840:0:0:0:0:
109,192,62604,128,0,63235:0:0:0:0:
36,192,62604,128,0,63235:0:0:0:0:
475,192,62604,1,0,0:0:0:0:
402,192,62683,1,0,0:0:0:0:
329,192,62761,1,0,0:0:0:0:
256,192,62840,1,0,0:0:0:0:
402,192,62919,128,0,63235:0:0:0:0:
475,192,62919,128,0,63235:0:0:0:0:
329,192,62919,1,0,0:0:0:0:
182,192,62919,1,0,0:0:0:0:
329,192,63235,1,0,0:0:0:0:
256,192,63235,1,0,0:0:0:0:
182,192,63314,1,0,0:0:0:0:
109,192,63393,1,0,0:0:0:0:
36,192,63472,1,0,0:0:0:0:
182,192,63551,1,0,0:0:0:0:
109,192,63551,1,0,0:0:0:0:
256,192,63551,1,0,0:0:0:0:
402,192,63630,1,0,0:0:0:0:
329,192,63709,1,0,0:0:0:0:
256,192,63788,1,0,0:0:0:0:
329,192,63867,1,0,0:0:0:0:
109,192,63867,1,0,0:0:0:0:
36,192,63867,1,0,0:0:0:0:
475,192,63867,1,0,0:0:0:0:
182,192,63946,1,0,0:0:0:0:
329,192,64025,1,0,0:0:0:0:
402,192,64025,1,0,0:0:0:0:
182,192,64104,1,0,0:0:0:0:
329,192,64183,1,0,0:0:0:0:
475,192,64183,1,0,0:0:0:0:
109,192,64261,1,0,0:0:0:0:
329,192,64340,1,0,0:0:0:0:
256,192,64340,1,0,0:0:0:0:
109,192,64419,1,0,0:0:0:0:
475,192,64498,1,0,0:0:0:0:
329,192,64498,1,0,0:0:0:0:
36,192,64498,1,0,0:0:0:0:
256,192,64577,1,0,0:0:0:0:
182,192,64656,1,0,0:0:0:0:
402,192,64656,1,0,0:0:0:0:
109,192,64735,1,0,0:0:0:0:
329,192,64814,1,0,0:0:0:0:
475,192,64814,1,0,0:0:0:0:
256,192,64814,1,0,0:0:0:0:
182,192,64893,1,0,0:0:0:0:
109,192,64972,1,0,0:0:0:0:
36,192,65051,1,0,0:0:0:0:
475,192,65130,1,0,0:0:0:0:
402,192,65130,1,0,0:0:0:0:
182,192,65130,1,0,0:0:0:0:
256,192,65209,1,0,0:0:0:0:
329,192,65288,1,0,0:0:0:0:
402,192,65288,1,0,0:0:0:0:
109,192,65288,1,0,0:0:0:0:
182,192,65367,1,0,0:0:0:0:
475,192,65446,1,0,0:0:0:0:
256,192,65446,1,0,0:0:0:0:
329,192,65446,1,0,0:0:0:0:
36,192,65446,1,0,0:0:0:0:
109,192,65525,1,0,0:0:0:0:
402,192,65525,1,0,0:0:0:0:
182,192,65604,1,0,0:0:0:0:
329,192,65604,1,0,0:0:0:0:
256,192,65683,1,0,0:0:0:0:
329,192,65761,1,0,0:0:0:0:
475,192,65761,128,0,66314:0:0:0:0:
182,192,65761,128,0,65919:0:0:0:0:
109,192,65761,128,0,66077:0:0:0:0:
402,192,65761,128,0,65840:0:0:0:0:
256,192,65840,128,0,65998:0:0:0:0:
402,192,65919,128,0,66314:0:0:0:0:
329,192,65919,128,0,65998:0:0:0:0:
182,192,65998,128,0,66156:0:0:0:0:
329,192,66077,128,0,66472:0:0:0:0:
256,192,66077,128,0,66156:0:0:0:0:
36,192,66077,128,0,66235:0:0:0:0:
109,192,66156,128,0,66314:0:0:0:0:
256,192,66235,128,0,66393:0:0:0:0:
182,192,66235,128,0,66314:0:0:0:0:
36,192,66314,128,0,67025:0:0:0:0:
402,192,66393,128,0,66472:0:0:0:0:
475,192,66393,128,0,66630:0:0:0:0:
182,192,66393,128,0,66551:0:0:0:0:
109,192,66393,128,0,66709:0:0:0:0:
256,192,66472,128,0,66630:0:0:0:0:
402,192,66551,128,0,66946:0:0:0:0:
329,192,66551,128,0,66630:0:0:0:0:
182,192,66630,128,0,66788:0:0:0:0:
475,192,66709,128,0,66946:0:0:0:0:
329,192,66709,128,0,66867:0:0:0:0:
256,192,66709,128,0,66788:0:0:0:0:
109,192,66788,128,0,66946:0:0:0:0:
182,192,66867,128,0,66946:0:0:0:0:
256,192,66867,128,0,67025:0:0:0:0:
329,192,66946,128,0,67025:0:0:0:0:
109,192,67025,1,0,0:0:0:0:
182,192,67025,1,0,0:0:0:0:
475,192,67025,1,0,0:0:0:0:
402,192,67025,1,0,0:0:0:0:
256,192,67104,1,0,0:0:0:0:
36,192,67104,1,0,0:0:0:0:
182,192,67183,1,0,0:0:0:0:
329,192,67183,1,0,0:0:0:0:
402,192,67183,1,0,0:0:0:0:
475,192,67183,1,0,0:0:0:0:
109,192,67261,1,0,0:0:0:0:
256,192,67261,1,0,0:0:0:0:
182,192,67340,1,0,0:0:0:0:
36,192,67340,1,0,0:0:0:0:
402,192,67340,1,0,0:0:0:0:
475,192,67340,1,0,0:0:0:0:
329,192,67419,1,0,0:0:0:0:
109,192,67419,1,0,0:0:0:0:
256,192,67498,1,0,0:0:0:0:
36,192,67498,1,0,0:0:0:0:
402,192,67498,1,0,0:0:0:0:
475,192,67498,1,0,0:0:0:0:
329,192,67577,1,0,0:0:0:0:
182,192,67577,1,0,0:0:0:0:
109,192,67656,1,0,0:0:0:0:
36,192,67656,1,0,0:0:0:0:
256,192,67656,1,0,0:0:0:0:
402,192,67656,1,0,0:0:0:0:
475,192,67656,1,0,0:0:0:0:
182,192,67814,1,0,0:0:0:0:
256,192,67972,1,0,0:0:0:0:
329,192,68130,1,0,0:0:0:0:
475,192,68288,128,0,68347:0:0:0:0:
36,192,68288,1,0,0:0:0:0:
402,192,68308,128,0,68367:0:0:0:0:
329,192,68327,128,0,68386:0:0:0:0:
109,192,68327,1,0,0:0:0:0:
256,192,68347,128,0,68406:0:0:0:0:
182,192,68367,128,0,68426:0:0:0:0:
36,192,68446,1,0,0:0:0:0:
182,192,68525,1,0,0:0:0:0:
36,192,68604,128,0,68663:0:0:0:0:
475,192,68604,1,0,0:0:0:0:
109,192,68623,128,0,68683:0:0:0:0:
182,192,68643,128,0,68702:0:0:0:0:
402,192,68643,1,0,0:0:0:0:
256,192,68663,128,0,68722:0:0:0:0:
329,192,68683,128,0,68742:0:0:0:0:
475,192,68761,1,0,0:0:0:0:
329,192,68840,1,0,0:0:0:0:
475,192,68919,128,0,68979:0:0:0:0:
36,192,68919,1,0,0:0:0:0:
402,192,68939,128,0,68998:0:0:0:0:
329,192,68959,128,0,69018:0:0:0:0:
109,192,68959,1,0,0:0:0:0:
256,192,68979,128,0,69038:0:0:0:0:
182,192,68998,128,0,69058:0:0:0:0:
36,192,69077,1,0,0:0:0:0:
182,192,69156,1,0,0:0:0:0:
109,192,69235,128,0,69314:0:0:0:0:
329,192,69235,1,0,0:0:0:0:
402,192,69235,1,0,0:0:0:0:
475,192,69235,1,0,0:0:0:0:
256,192,69235,128,0,69314:0:0:0:0:
36,192,69314,128,0,69393:0:0:0:0:
256,192,69393,128,0,69472:0:0:0:0:
329,192,69393,128,0,70025:0:0:0:0:
402,192,69393,128,0,69630:0:0:0:0:
109,192,69393,128,0,69472:0:0:0:0:
182,192,69472,128,0,69551:0:0:0:0:
36,192,69551,128,0,69630:0:0:0:0:
256,192,69551,128,0,69630:0:0:0:0:
475,192,69551,1,0,0:0:0:0:
109,192,69630,128,0,69709:0:0:0:0:
182,192,69709,128,0,69788:0:0:0:0:
402,192,69709,1,0,0:0:0:0:
36,192,69709,128,0,69788:0:0:0:0:
475,192,69709,1,0,0:0:0:0:
256,192,69788,128,0,69867:0:0:0:0:
475,192,69867,128,0,69946:0:0:0:0:
109,192,69867,128,0,70183:0:0:0:0:
36,192,69867,128,0,69946:0:0:0:0:
182,192,69867,128,0,69946:0:0:0:0:
402,192,69946,128,0,70025:0:0:0:0:
256,192,70025,128,0,70104:0:0:0:0:
36,192,70025,128,0,70104:0:0:0:0:
329,192,70104,128,0,70183:0:0:0:0:
475,192,70104,128,0,70183:0:0:0:0:
402,192,70183,128,0,70261:0:0:0:0:
182,192,70183,128,0,70340:0:0:0:0:
256,192,70183,128,0,70261:0:0:0:0:
475,192,70261,128,0,70340:0:0:0:0:
36,192,70261,128,0,70340:0:0:0:0:
329,192,70340,128,0,70419:0:0:0:0:
109,192,70340,128,0,70498:0:0:0:0:
402,192,70340,128,0,70419:0:0:0:0:
256,192,70419,128,0,70498:0:0:0:0:
182,192,70498,128,0,70577:0:0:0:0:
475,192,70498,128,0,70577:0:0:0:0:
36,192,70498,128,0,70814:0:0:0:0:
329,192,70498,128,0,70577:0:0:0:0:
402,192,70577,128,0,70656:0:0:0:0:
109,192,70577,128,0,70656:0:0:0:0:
329,192,70656,128,0,70735:0:0:0:0:
182,192,70656,128,0,70735:0:0:0:0:
475,192,70656,128,0,70735:0:0:0:0:
256,192,70735,128,0,70814:0:0:0:0:
109,192,70814,128,0,70873:0:0:0:0:
475,192,70814,128,0,70873:0:0:0:0:
402,192,70834,128,0,70893:0:0:0:0:
182,192,70834,128,0,70893:0:0:0:0:
36,192,70840,128,0,70893:0:0:0:0:
329,192,70854,128,0,70913:0:0:0:0:
256,192,70873,128,0,70933:0:0:0:0:
402,192,70972,128,0,71031:0:0:0:0:
36,192,70972,128,0,71031:0:0:0:0:
109,192,70992,128,0,71051:0:0:0:0:
329,192,70992,128,0,71051:0:0:0:0:
475,192,70998,128,0,71051:0:0:0:0:
182,192,71011,128,0,71071:0:0:0:0:
256,192,71031,128,0,71090:0:0:0:0:
109,192,71130,128,0,71189:0:0:0:0:
475,192,71130,128,0,71189:0:0:0:0:
402,192,71150,128,0,71209:0:0:0:0:
182,192,71150,128,0,71209:0:0:0:0:
36,192,71156,128,0,71209:0:0:0:0:
256,192,71169,128,0,71229:0:0:0:0:
329,192,71189,128,0,71248:0:0:0:0:
36,192,71288,128,0,71347:0:0:0:0:
402,192,71288,128,0,71347:0:0:0:0:
329,192,71308,128,0,71367:0:0:0:0:
109,192,71308,128,0,71367:0:0:0:0:
475,192,71314,128,0,71367:0:0:0:0:
256,192,71327,128,0,71386:0:0:0:0:
182,192,71347,128,0,71406:0:0:0:0:
109,192,71446,128,0,71505:0:0:0:0:
475,192,71446,128,0,71505:0:0:0:0:
402,192,71465,128,0,71525:0:0:0:0:
182,192,71465,128,0,71525:0:0:0:0:
36,192,71472,128,0,71525:0:0:0:0:
329,192,71485,128,0,71544:0:0:0:0:
256,192,71505,128,0,71564:0:0:0:0:
36,192,71604,128,0,71663:0:0:0:0:
402,192,71604,128,0,71663:0:0:0:0:
329,192,71623,128,0,71683:0:0:0:0:
109,192,71623,128,0,71683:0:0:0:0:
475,192,71630,128,0,71683:0:0:0:0:
182,192,71643,128,0,71702:0:0:0:0:
256,192,71663,128,0,71722:0:0:0:0:
36,192,71761,128,0,71821:0:0:0:0:
475,192,71761,128,0,71821:0:0:0:0:
109,192,71781,128,0,71840:0:0:0:0:
402,192,71781,128,0,71840:0:0:0:0:
182,192,71788,128,0,71867:0:0:0:0:
329,192,71788,128,0,71867:0:0:0:0:
256,192,71801,128,0,71880:0:0:0:0:
109,192,71919,128,0,71979:0:0:0:0:
36,192,71919,128,0,71959:0:0:0:0:
402,192,71919,128,0,71979:0:0:0:0:
475,192,71919,128,0,71959:0:0:0:0:
182,192,71939,128,0,71998:0:0:0:0:
329,192,71939,128,0,71998:0:0:0:0:
256,192,71946,128,0,72025:0:0:0:0:
475,192,72077,128,0,72156:0:0:0:0:
182,192,72077,128,0,72235:0:0:0:0:
109,192,72077,128,0,72235:0:0:0:0:
402,192,72156,128,0,72235:0:0:0:0:
256,192,72235,128,0,72314:0:0:0:0:
36,192,72235,128,0,72393:0:0:0:0:
329,192,72314,128,0,72393:0:0:0:0:
402,192,72393,128,0,72472:0:0:0:0:
182,192,72393,128,0,72551:0:0:0:0:
256,192,72393,128,0,72551:0:0:0:0:
475,192,72472,128,0,72551:0:0:0:0:
329,192,72551,128,0,72630:0:0:0:0:
109,192,72551,128,0,72709:0:0:0:0:
256,192,72630,128,0,72709:0:0:0:0:
182,192,72709,128,0,72788:0:0:0:0:
36,192,72709,128,0,72867:0:0:0:0:
475,192,72709,128,0,72867:0:0:0:0:
402,192,72709,128,0,72867:0:0:0:0:
109,192,72788,128,0,72867:0:0:0:0:
329,192,72788,128,0,72867:0:0:0:0:
256,192,72867,128,0,72946:0:0:0:0:
182,192,72867,128,0,73025:0:0:0:0:
402,192,72946,128,0,73025:0:0:0:0:
109,192,73025,128,0,73104:0:0:0:0:
36,192,73025,128,0,73183:0:0:0:0:
475,192,73025,128,0,73183:0:0:0:0:
329,192,73025,128,0,73104:0:0:0:0:
182,192,73104,128,0,73183:0:0:0:0:
402,192,73104,128,0,73183:0:0:0:0:
256,192,73183,128,0,73261:0:0:0:0:
109,192,73183,128,0,73340:0:0:0:0:
329,192,73261,128,0,73340:0:0:0:0:
402,192,73340,128,0,73893:0:0:0:0:
475,192,73340,1,0,0:0:0:0:
182,192,73340,128,0,73419:0:0:0:0:
329,192,73419,128,0,73814:0:0:0:0:
109,192,73419,128,0,73498:0:0:0:0:
256,192,73498,128,0,73735:0:0:0:0:
36,192,73498,128,0,73577:0:0:0:0:
182,192,73577,128,0,73656:0:0:0:0:
109,192,73656,128,0,73735:0:0:0:0:
475,192,73656,128,0,74051:0:0:0:0:
182,192,73735,128,0,73814:0:0:0:0:
256,192,73814,128,0,73893:0:0:0:0:
329,192,73893,128,0,73972:0:0:0:0:
109,192,73972,128,0,74209:0:0:0:0:
402,192,73972,128,0,74051:0:0:0:0:
36,192,73972,1,0,0:0:0:0:
182,192,74051,128,0,74130:0:0:0:0:
256,192,74130,128,0,74209:0:0:0:0:
402,192,74130,128,0,74367:0:0:0:0:
475,192,74130,1,0,0:0:0:0:
329,192,74209,128,0,74525:0:0:0:0:
256,192,74288,128,0,74525:0:0:0:0:
109,192,74288,1,0,0:0:0:0:
36,192,74288,1,0,0:0:0:0:
182,192,74367,128,0,74525:0:0:0:0:
402,192,74446,1,0,0:0:0:0:
475,192,74446,1,0,0:0:0:0:
109,192,74446,128,0,74525:0:0:0:0:
36,192,74525,128,0,74604:0:0:0:0:
109,192,74604,128,0,74683:0:0:0:0:
329,192,74604,128,0,74761:0:0:0:0:
475,192,74604,128,0,74761:0:0:0:0:
182,192,74683,128,0,74761:0:0:0:0:
402,192,74761,128,0,74919:0:0:0:0:
36,192,74761,128,0,74840:0:0:0:0:
256,192,74761,128,0,74840:0:0:0:0:
109,192,74840,128,0,74919:0:0:0:0:
256,192,74919,128,0,74998:0:0:0:0:
329,192,74919,128,0,75077:0:0:0:0:
475,192,74919,128,0,75077:0:0:0:0:
182,192,74998,128,0,75077:0:0:0:0:
109,192,75077,128,0,75156:0:0:0:0:
402,192,75077,128,0,75235:0:0:0:0:
36,192,75156,128,0,75235:0:0:0:0:
182,192,75235,128,0,75314:0:0:0:0:
329,192,75235,128,0,75393:0:0:0:0:
256,192,75314,128,0,75393:0:0:0:0:
402,192,75314,128,0,75393:0:0:0:0:
109,192,75393,128,0,75472:0:0:0:0:
475,192,75393,128,0,75551:0:0:0:0:
36,192,75472,128,0,75551:0:0:0:0:
182,192,75472,128,0,75551:0:0:0:0:
256,192,75551,128,0,75630:0:0:0:0:
402,192,75551,128,0,75709:0:0:0:0:
329,192,75551,128,0,75867:0:0:0:0:
182,192,75630,128,0,75709:0:0:0:0:
109,192,75709,128,0,75788:0:0:0:0:
475,192,75709,128,0,75867:0:0:0:0:
256,192,75788,128,0,75867:0:0:0:0:
36,192,75867,128,0,75946:0:0:0:0:
402,192,75867,128,0,76183:0:0:0:0:
182,192,75867,128,0,75946:0:0:0:0:
109,192,75946,128,0,76025:0:0:0:0:
256,192,75946,128,0,76025:0:0:0:0:
182,192,76025,128,0,76104:0:0:0:0:
329,192,76025,128,0,76104:0:0:0:0:
256,192,76104,128,0,76183:0:0:0:0:
109,192,76104,128,0,76419:0:0:0:0:
475,192,76183,128,0,76261:0:0:0:0:
36,192,76183,128,0,76261:0:0:0:0:
402,192,76261,128,0,76340:0:0:0:0:
182,192,76261,128,0,76340:0:0:0:0:
329,192,76340,128,0,76419:0:0:0:0:
475,192,76340,128,0,76419:0:0:0:0:
256,192,76419,128,0,76498:0:0:0:0:
36,192,76419,128,0,76498:0:0:0:0:
109,192,76498,128,0,76577:0:0:0:0:
402,192,76498,128,0,76577:0:0:0:0:
182,192,76577,128,0,76656:0:0:0:0:
329,192,76577,128,0,76656:0:0:0:0:
402,192,76656,128,0,76735:0:0:0:0:
109,192,76656,128,0,76735:0:0:0:0:
36,192,76735,128,0,76814:0:0:0:0:
475,192,76735,128,0,76814:0:0:0:0:
109,192,76814,128,0,76893:0:0:0:0:
402,192,76814,128,0,76893:0:0:0:0:
182,192,76893,128,0,76972:0:0:0:0:
329,192,76893,128,0,76972:0:0:0:0:
256,192,76972,128,0,77209:0:0:0:0:
109,192,76972,128,0,77209:0:0:0:0:
36,192,76972,128,0,77209:0:0:0:0:
402,192,76972,128,0,77209:0:0:0:0:
475,192,76972,128,0,77209:0:0:0:0:
109,192,77288,128,0,77367:0:0:0:0:
402,192,77288,128,0,77367:0:0:0:0:
256,192,77288,128,0,77367:0:0:0:0:
182,192,77367,128,0,77446:0:0:0:0:
329,192,77367,128,0,77446:0:0:0:0:
475,192,77446,128,0,77525:0:0:0:0:
36,192,77446,128,0,77525:0:0:0:0:
109,192,77446,128,0,77525:0:0:0:0:
402,192,77446,128,0,77525:0:0:0:0:
256,192,77446,128,0,77525:0:0:0:0:
182,192,77604,1,0,0:0:0:0:
329,192,77604,1,0,0:0:0:0:
109,192,77604,1,0,0:0:0:0:
36,192,77604,1,0,0:0:0:0:
402,192,77604,1,0,0:0:0:0:
475,192,77604,1,0,0:0:0:0:
256,192,77604,1,0,0:0:0:0:
182,192,77919,128,0,77998:0:0:0:0:
36,192,77919,128,0,77998:0:0:0:0:
329,192,77998,128,0,78077:0:0:0:0:
475,192,77998,128,0,78077:0:0:0:0:
182,192,78077,128,0,78156:0:0:0:0:
109,192,78077,128,0,78156:0:0:0:0:
36,192,78077,1,0,0:0:0:0:
329,192,78156,128,0,78235:0:0:0:0:
402,192,78156,128,0,78235:0:0:0:0:
475,192,78156,1,0,0:0:0:0:
182,192,78235,128,0,78314:0:0:0:0:
109,192,78235,1,0,0:0:0:0:
329,192,78314,128,0,78393:0:0:0:0:
36,192,78393,128,0,78452:0:0:0:0:
475,192,78393,1,0,0:0:0:0:
109,192,78413,128,0,78472:0:0:0:0:
182,192,78433,128,0,78492:0:0:0:0:
402,192,78433,1,0,0:0:0:0:
256,192,78452,128,0,78511:0:0:0:0:
329,192,78472,128,0,78531:0:0:0:0:
475,192,78551,1,0,0:0:0:0:
329,192,78630,1,0,0:0:0:0:
475,192,78709,128,0,78768:0:0:0:0:
36,192,78709,1,0,0:0:0:0:
402,192,78729,128,0,78788:0:0:0:0:
329,192,78748,128,0,78808:0:0:0:0:
109,192,78748,1,0,0:0:0:0:
256,192,78768,128,0,78827:0:0:0:0:
182,192,78788,128,0,78847:0:0:0:0:
36,192,78867,1,0,0:0:0:0:
182,192,78946,1,0,0:0:0:0:
36,192,79025,128,0,79084:0:0:0:0:
475,192,79025,1,0,0:0:0:0:
109,192,79044,128,0,79104:0:0:0:0:
182,192,79064,128,0,79123:0:0:0:0:
402,192,79064,1,0,0:0:0:0:
256,192,79084,128,0,79143:0:0:0:0:
329,192,79104,128,0,79163:0:0:0:0:
475,192,79183,1,0,0:0:0:0:
329,192,79261,1,0,0:0:0:0:
182,192,79340,128,0,79419:0:0:0:0:
109,192,79340,128,0,79419:0:0:0:0:
256,192,79340,128,0,79419:0:0:0:0:
36,192,79340,128,0,79419:0:0:0:0:
402,192,79419,1,0,0:0:0:0:
475,192,79419,1,0,0:0:0:0:
182,192,79498,128,0,79577:0:0:0:0:
256,192,79498,1,0,0:0:0:0:
329,192,79498,128,0,79577:0:0:0:0:
109,192,79577,1,0,0:0:0:0:
36,192,79577,1,0,0:0:0:0:
256,192,79656,128,0,79735:0:0:0:0:
329,192,79656,128,0,79735:0:0:0:0:
402,192,79656,128,0,79735:0:0:0:0:
475,192,79656,128,0,79735:0:0:0:0:
182,192,79735,128,0,79814:0:0:0:0:
109,192,79735,128,0,79814:0:0:0:0:
329,192,79814,128,0,79893:0:0:0:0:
402,192,79814,128,0,79893:0:0:0:0:
475,192,79814,128,0,79893:0:0:0:0:
36,192,79814,128,0,79893:0:0:0:0:
256,192,79893,128,0,79972:0:0:0:0:
182,192,79893,128,0,79972:0:0:0:0:
109,192,79972,128,0,80051:0:0:0:0:
36,192,79972,128,0,80051:0:0:0:0:
402,192,79972,128,0,80051:0:0:0:0:
475,192,79972,128,0,80051:0:0:0:0:
329,192,79972,1,0,0:0:0:0:
256,192,80051,128,0,80130:0:0:0:0:
109,192,80130,128,0,80209:0:0:0:0:
402,192,80130,128,0,80209:0:0:0:0:
475,192,80130,128,0,80209:0:0:0:0:
182,192,80130,128,0,80209:0:0:0:0:
329,192,80209,128,0,80288:0:0:0:0:
256,192,80209,128,0,80288:0:0:0:0:
36,192,80288,128,0,80367:0:0:0:0:
475,192,80288,128,0,80367:0:0:0:0:
109,192,80288,128,0,80367:0:0:0:0:
182,192,80288,128,0,80367:0:0:0:0:
329,192,80367,128,0,80446:0:0:0:0:
402,192,80367,128,0,80446:0:0:0:0:
256,192,80446,128,0,80525:0:0:0:0:
182,192,80446,128,0,80525:0:0:0:0:
109,192,80446,128,0,80525:0:0:0:0:
36,192,80446,128,0,80525:0:0:0:0:
402,192,80525,128,0,80604:0:0:0:0:
475,192,80525,128,0,80604:0:0:0:0:
182,192,80604,1,0,0:0:0:0:
256,192,80604,128,0,80683:0:0:0:0:
329,192,80604,128,0,80683:0:0:0:0:
109,192,80604,128,0,80683:0:0:0:0:
36,192,80683,128,0,80761:0:0:0:0:
402,192,80683,128,0,80761:0:0:0:0:
109,192,80761,128,0,80840:0:0:0:0:
475,192,80761,128,0,80840:0:0:0:0:
402,192,80840,128,0,80919:0:0:0:0:
182,192,80840,128,0,80919:0:0:0:0:
256,192,80919,128,0,80972:0:0:0:0:
329,192,80919,128,0,80972:0:0:0:0:
182,192,80972,128,0,81025:0:0:0:0:
402,192,80972,128,0,81025:0:0:0:0:
109,192,81025,128,0,81077:0:0:0:0:
475,192,81025,128,0,81077:0:0:0:0:
36,192,81077,128,0,81130:0:0:0:0:
402,192,81077,128,0,81130:0:0:0:0:
329,192,81130,128,0,81183:0:0:0:0:
109,192,81130,128,0,81183:0:0:0:0:
182,192,81183,128,0,81235:0:0:0:0:
256,192,81183,128,0,81235:0:0:0:0:
402,192,81235,128,0,81314:0:0:0:0:
475,192,81235,128,0,81314:0:0:0:0:
36,192,81235,128,0,81314:0:0:0:0:
329,192,81314,128,0,81393:0:0:0:0:
109,192,81314,128,0,81393:0:0:0:0:
256,192,81393,128,0,81472:0:0:0:0:
475,192,81393,128,0,81472:0:0:0:0:
402,192,81393,128,0,81472:0:0:0:0:
182,192,81472,128,0,81551:0:0:0:0:
36,192,81472,128,0,81551:0:0:0:0:
329,192,81551,128,0,81630:0:0:0:0:
256,192,81551,128,0,81630:0:0:0:0:
109,192,81551,128,0,81630:0:0:0:0:
475,192,81630,128,0,81709:0:0:0:0:
182,192,81630,128,0,81709:0:0:0:0:
36,192,81709,128,0,81788:0:0:0:0:
329,192,81709,128,0,81788:0:0:0:0:
402,192,81709,128,0,81788:0:0:0:0:
109,192,81788,128,0,81867:0:0:0:0:
256,192,81867,128,0,81906:0:0:0:0:
182,192,81867,128,0,81946:0:0:0:0:
475,192,81867,128,0,81946:0:0:0:0:
402,192,81867,128,0,82104:0:0:0:0:
36,192,81867,1,0,0:0:0:0:
329,192,81946,128,0,81985:0:0:0:0:
109,192,82025,128,0,82064:0:0:0:0:
36,192,82025,128,0,82261:0:0:0:0:
256,192,82025,128,0,82104:0:0:0:0:
182,192,82104,128,0,82143:0:0:0:0:
329,192,82183,128,0,82261:0:0:0:0:
475,192,82183,1,0,0:0:0:0:
402,192,82183,128,0,82419:0:0:0:0:
256,192,82183,128,0,82222:0:0:0:0:
182,192,82261,128,0,82301:0:0:0:0:
256,192,82340,1,0,0:0:0:0:
109,192,82340,128,0,82577:0:0:0:0:
475,192,82340,128,0,82419:0:0:0:0:
36,192,82340,128,0,82380:0:0:0:0:
182,192,82419,128,0,82498:0:0:0:0:
329,192,82419,128,0,82459:0:0:0:0:
256,192,82498,1,0,0:0:0:0:
402,192,82498,128,0,82577:0:0:0:0:
475,192,82498,128,0,82577:0:0:0:0:
36,192,82498,128,0,82538:0:0:0:0:
182,192,82577,128,0,82656:0:0:0:0:
402,192,82656,128,0,82735:0:0:0:0:
109,192,82656,1,0,0:0:0:0:
475,192,82656,128,0,83130:0:0:0:0:
329,192,82656,128,0,82696:0:0:0:0:
256,192,82735,128,0,82775:0:0:0:0:
36,192,82735,128,0,82854:0:0:0:0:
329,192,82814,128,0,82893:0:0:0:0:
402,192,82814,1,0,0:0:0:0:
109,192,82814,128,0,82854:0:0:0:0:
182,192,82893,128,0,82933:0:0:0:0:
402,192,82972,128,0,83209:0:0:0:0:
36,192,82972,128,0,83051:0:0:0:0:
256,192,82972,128,0,83011:0:0:0:0:
329,192,82972,128,0,83051:0:0:0:0:
109,192,83051,128,0,83090:0:0:0:0:
329,192,83130,128,0,83288:0:0:0:0:
182,192,83130,128,0,83169:0:0:0:0:
475,192,83209,1,0,0:0:0:0:
109,192,83209,128,0,83288:0:0:0:0:
256,192,83209,128,0,83248:0:0:0:0:
182,192,83288,128,0,83327:0:0:0:0:
402,192,83288,128,0,83367:0:0:0:0:
109,192,83367,128,0,83406:0:0:0:0:
329,192,83367,128,0,83446:0:0:0:0:
256,192,83446,1,0,0:0:0:0:
402,192,83446,1,0,0:0:0:0:
36,192,83446,1,0,0:0:0:0:
182,192,83446,128,0,83840:0:0:0:0:
109,192,83525,1,0,0:0:0:0:
329,192,83525,1,0,0:0:0:0:
256,192,83604,1,0,0:0:0:0:
475,192,83604,1,0,0:0:0:0:
329,192,83683,1,0,0:0:0:0:
36,192,83683,1,0,0:0:0:0:
402,192,83761,128,0,84156:0:0:0:0:
109,192,83761,1,0,0:0:0:0:
475,192,83761,1,0,0:0:0:0:
329,192,83840,1,0,0:0:0:0:
256,192,83840,1,0,0:0:0:0:
36,192,83919,1,0,0:0:0:0:
475,192,83919,1,0,0:0:0:0:
182,192,83919,1,0,0:0:0:0:
256,192,83998,1,0,0:0:0:0:
109,192,84077,128,0,84472:0:0:0:0:
329,192,84077,1,0,0:0:0:0:
36,192,84077,1,0,0:0:0:0:
475,192,84077,1,0,0:0:0:0:
182,192,84156,1,0,0:0:0:0:
256,192,84235,1,0,0:0:0:0:
329,192,84235,1,0,0:0:0:0:
475,192,84235,1,0,0:0:0:0:
36,192,84314,1,0,0:0:0:0:
402,192,84314,1,0,0:0:0:0:
475,192,84393,128,0,84788:0:0:0:0:
182,192,84393,1,0,0:0:0:0:
256,192,84393,1,0,0:0:0:0:
402,192,84472,1,0,0:0:0:0:
36,192,84551,128,0,85104:0:0:0:0:
256,192,84551,1,0,0:0:0:0:
109,192,84551,1,0,0:0:0:0:
329,192,84551,1,0,0:0:0:0:
182,192,84630,1,0,0:0:0:0:
402,192,84630,1,0,0:0:0:0:
329,192,84709,1,0,0:0:0:0:
109,192,84709,1,0,0:0:0:0:
256,192,84788,1,0,0:0:0:0:
402,192,84788,1,0,0:0:0:0:
182,192,84867,1,0,0:0:0:0:
329,192,84867,1,0,0:0:0:0:
475,192,84946,1,0,0:0:0:0:
256,192,84946,1,0,0:0:0:0:
109,192,84946,1,0,0:0:0:0:
402,192,85025,128,0,85419:0:0:0:0:
329,192,85025,1,0,0:0:0:0:
182,192,85025,1,0,0:0:0:0:
256,192,85104,1,0,0:0:0:0:
475,192,85104,1,0,0:0:0:0:
109,192,85183,1,0,0:0:0:0:
329,192,85183,1,0,0:0:0:0:
182,192,85261,1,0,0:0:0:0:
256,192,85340,128,0,85735:0:0:0:0:
36,192,85340,1,0,0:0:0:0:
475,192,85340,1,0,0:0:0:0:
109,192,85419,1,0,0:0:0:0:
329,192,85419,1,0,0:0:0:0:
402,192,85498,1,0,0:0:0:0:
182,192,85498,1,0,0:0:0:0:
475,192,85577,1,0,0:0:0:0:
36,192,85577,1,0,0:0:0:0:
109,192,85656,128,0,86051:0:0:0:0:
182,192,85656,1,0,0:0:0:0:
402,192,85656,1,0,0:0:0:0:
329,192,85735,1,0,0:0:0:0:
475,192,85814,1,0,0:0:0:0:
256,192,85814,1,0,0:0:0:0:
36,192,85814,1,0,0:0:0:0:
402,192,85893,1,0,0:0:0:0:
182,192,85972,1,0,0:0:0:0:
475,192,85972,1,0,0:0:0:0:
329,192,85972,1,0,0:0:0:0:
36,192,85972,128,0,86367:0:0:0:0:
256,192,86051,1,0,0:0:0:0:
402,192,86130,1,0,0:0:0:0:
182,192,86130,1,0,0:0:0:0:
109,192,86209,1,0,0:0:0:0:
475,192,86209,1,0,0:0:0:0:
256,192,86209,1,0,0:0:0:0:
329,192,86288,128,0,86683:0:0:0:0:
182,192,86288,1,0,0:0:0:0:
402,192,86288,1,0,0:0:0:0:
256,192,86367,1,0,0:0:0:0:
475,192,86446,1,0,0:0:0:0:
182,192,86446,1,0,0:0:0:0:
36,192,86446,1,0,0:0:0:0:
109,192,86525,1,0,0:0:0:0:
256,192,86525,1,0,0:0:0:0:
402,192,86604,128,0,86998:0:0:0:0:
182,192,86604,1,0,0:0:0:0:
475,192,86604,1,0,0:0:0:0:
256,192,86683,1,0,0:0:0:0:
36,192,86683,1,0,0:0:0:0:
109,192,86761,1,0,0:0:0:0:
329,192,86761,1,0,0:0:0:0:
182,192,86840,1,0,0:0:0:0:
256,192,86840,1,0,0:0:0:0:
475,192,86919,128,0,86998:0:0:0:0:
109,192,86919,1,0,0:0:0:0:
329,192,86919,1,0,0:0:0:0:
36,192,86998,1,0,0:0:0:0:
256,192,86998,1,0,0:0:0:0:
475,192,87077,128,0,87867:0:0:0:0:
329,192,87077,1,0,0:0:0:0:
182,192,87077,1,0,0:0:0:0:
402,192,87077,1,0,0:0:0:0:
256,192,87156,1,0,0:0:0:0:
109,192,87156,1,0,0:0:0:0:
402,192,87235,1,0,0:0:0:0:
182,192,87235,1,0,0:0:0:0:
36,192,87235,1,0,0:0:0:0:
329,192,87314,1,0,0:0:0:0:
256,192,87314,1,0,0:0:0:0:
109,192,87393,1,0,0:0:0:0:
402,192,87393,1,0,0:0:0:0:
182,192,87472,1,0,0:0:0:0:
329,192,87472,1,0,0:0:0:0:
36,192,87551,1,0,0:0:0:0:
402,192,87551,1,0,0:0:0:0:
256,192,87551,1,0,0:0:0:0:
109,192,87630,1,0,0:0:0:0:
329,192,87630,1,0,0:0:0:0:
256,192,87709,1,0,0:0:0:0:
182,192,87709,1,0,0:0:0:0:
402,192,87788,1,0,0:0:0:0:
109,192,87788,1,0,0:0:0:0:
329,192,87867,1,0,0:0:0:0:
256,192,87867,1,0,0:0:0:0:
182,192,87867,1,0,0:0:0:0:
256,192,87972,1,0,0:0:0:0:
182,192,87972,1,0,0:0:0:0:
109,192,87972,1,0,0:0:0:0:
329,192,88077,1,0,0:0:0:0:
402,192,88077,1,0,0:0:0:0:
475,192,88077,1,0,0:0:0:0:
329,192,88183,1,0,0:0:0:0:
256,192,88183,1,0,0:0:0:0:
402,192,88183,1,0,0:0:0:0:
36,192,88288,1,0,0:0:0:0:
109,192,88288,1,0,0:0:0:0:
182,192,88288,1,0,0:0:0:0:
109,192,88393,1,0,0:0:0:0:
256,192,88393,1,0,0:0:0:0:
182,192,88393,1,0,0:0:0:0:
475,192,88498,1,0,0:0:0:0:
402,192,88498,1,0,0:0:0:0:
182,192,88498,128,0,88577:0:0:0:0:
109,192,88498,128,0,88577:0:0:0:0:
36,192,88498,128,0,88577:0:0:0:0:
256,192,88551,128,0,88761:0:0:0:0:
329,192,88604,128,0,88709:0:0:0:0:
402,192,88656,128,0,88814:0:0:0:0:
182,192,88656,128,0,88814:0:0:0:0:
475,192,88709,128,0,88867:0:0:0:0:
109,192,88709,128,0,88867:0:0:0:0:
36,192,88761,128,0,88919:0:0:0:0:
329,192,88814,128,0,88946:0:0:0:0:
256,192,88867,128,0,88998:0:0:0:0:
402,192,88893,128,0,88919:0:0:0:0:
182,192,88919,128,0,89051:0:0:0:0:
475,192,88972,128,0,89235:0:0:0:0:
109,192,88972,128,0,89090:0:0:0:0:
402,192,89025,128,0,89183:0:0:0:0:
329,192,89077,128,0,89183:0:0:0:0:
256,192,89130,128,0,89235:0:0:0:0:
36,192,89130,128,0,89367:0:0:0:0:
109,192,89169,128,0,89327:0:0:0:0:
182,192,89209,128,0,89288:0:0:0:0:
329,192,89248,128,0,89525:0:0:0:0:
402,192,89288,128,0,89604:0:0:0:0:
475,192,89340,128,0,89656:0:0:0:0:
256,192,89367,128,0,89446:0:0:0:0:
182,192,89406,128,0,89485:0:0:0:0:
109,192,89446,128,0,89544:0:0:0:0:
36,192,89498,128,0,89604:0:0:0:0:
256,192,89551,128,0,89656:0:0:0:0:
182,192,89604,128,0,89709:0:0:0:0:
329,192,89656,128,0,89761:0:0:0:0:
109,192,89656,128,0,89761:0:0:0:0:
36,192,89709,128,0,89814:0:0:0:0:
402,192,89761,128,0,89814:0:0:0:0:
256,192,89761,128,0,89814:0:0:0:0:
475,192,89761,128,0,89814:0:0:0:0:
109,192,89893,128,0,89972:0:0:0:0:
182,192,89919,128,0,89972:0:0:0:0:
329,192,89919,128,0,89972:0:0:0:0:
256,192,89919,128,0,89972:0:0:0:0:
36,192,89919,128,0,89972:0:0:0:0:
402,192,89919,128,0,89998:0:0:0:0:
182,192,90058,128,0,90156:0:0:0:0:
109,192,90077,128,0,90156:0:0:0:0:
256,192,90077,128,0,90156:0:0:0:0:
329,192,90077,128,0,90156:0:0:0:0:
402,192,90077,128,0,90156:0:0:0:0:
475,192,90097,128,0,90196:0:0:0:0:
109,192,90215,128,0,90314:0:0:0:0:
36,192,90235,128,0,90314:0:0:0:0:
182,192,90235,128,0,90314:0:0:0:0:
256,192,90235,128,0,90314:0:0:0:0:
329,192,90235,128,0,90314:0:0:0:0:
402,192,90255,128,0,90334:0:0:0:0:
256,192,90373,128,0,90472:0:0:0:0:
329,192,90393,128,0,90472:0:0:0:0:
109,192,90393,128,0,90472:0:0:0:0:
182,192,90393,128,0,90472:0:0:0:0:
36,192,90393,128,0,90472:0:0:0:0:
475,192,90393,128,0,90472:0:0:0:0:
402,192,90413,128,0,90492:0:0:0:0:
182,192,90531,128,0,90610:0:0:0:0:
256,192,90551,128,0,90630:0:0:0:0:
329,192,90551,128,0,90630:0:0:0:0:
402,192,90551,128,0,90630:0:0:0:0:
109,192,90551,128,0,90630:0:0:0:0:
475,192,90551,128,0,90650:0:0:0:0:
402,192,90689,128,0,90768:0:0:0:0:
182,192,90709,128,0,90788:0:0:0:0:
109,192,90709,128,0,90788:0:0:0:0:
329,192,90709,128,0,90788:0:0:0:0:
475,192,90709,128,0,90788:0:0:0:0:
36,192,90709,128,0,90788:0:0:0:0:
256,192,90729,128,0,90808:0:0:0:0:
329,192,90847,128,0,90946:0:0:0:0:
182,192,90867,128,0,90946:0:0:0:0:
475,192,90867,128,0,90946:0:0:0:0:
256,192,90867,128,0,90946:0:0:0:0:
402,192,90867,128,0,90946:0:0:0:0:
36,192,90886,128,0,90965:0:0:0:0:
36,192,91025,128,0,92051:0:0:0:0:
109,192,91025,128,0,92051:0:0:0:0:
182,192,91025,128,0,92051:0:0:0:0:
256,192,91025,128,0,92051:0:0:0:0:
329,192,91025,128,0,92051:0:0:0:0:
402,192,91025,128,0,92051:0:0:0:0:
475,192,91025,128,0,92051:0:0:0:0:
109,192,92130,1,0,0:0:0:0:
36,192,92130,1,0,0:0:0:0:
182,192,92130,1,0,0:0:0:0:
329,192,92130,1,0,0:0:0:0:
402,192,92130,1,0,0:0:0:0:
475,192,92130,1,0,0:0:0:0:
36,192,92209,1,0,0:0:0:0:
109,192,92209,1,0,0:0:0:0:
182,192,92209,1,0,0:0:0:0:
402,192,92209,1,0,0:0:0:0:
329,192,92209,1,0,0:0:0:0:
475,192,92209,1,0,0:0:0:0:
475,192,92288,1,0,0:0:0:0:
402,192,92288,1,0,0:0:0:0:
329,192,92288,1,0,0:0:0:0:
182,192,92288,1,0,0:0:0:0:
109,192,92288,1,0,0:0:0:0:
36,192,92288,1,0,0:0:0:0:
182,192,92498,1,0,0:0:0:0:
109,192,92498,1,0,0:0:0:0:
329,192,92498,1,0,0:0:0:0:
402,192,92498,1,0,0:0:0:0:
182,192,92761,1,0,0:0:0:0:
109,192,92761,1,0,0:0:0:0:
329,192,92761,1,0,0:0:0:0:
402,192,92761,1,0,0:0:0:0:
109,192,92840,1,0,0:0:0:0:
182,192,92840,1,0,0:0:0:0:
329,192,92840,1,0,0:0:0:0:
402,192,92840,1,0,0:0:0:0:
402,192,92919,1,0,0:0:0:0:
329,192,92919,1,0,0:0:0:0:
182,192,92919,1,0,0:0:0:0:
109,192,92919,1,0,0:0:0:0:
256,192,93077,128,0,93156:0:0:0:0:
256,192,93235,1,0,0:0:0:0:
109,192,93551,128,0,93630:0:0:0:0:
329,192,93551,1,0,0:0:0:0:
402,192,93551,1,0,0:0:0:0:
475,192,93551,1,0,0:0:0:0:
36,192,93709,128,0,93788:0:0:0:0:
182,192,93867,128,0,93946:0:0:0:0:
475,192,93867,1,0,0:0:0:0:
402,192,93867,1,0,0:0:0:0:
329,192,93867,1,0,0:0:0:0:
36,192,94025,128,0,94104:0:0:0:0:
256,192,94183,128,0,94261:0:0:0:0:
329,192,94183,1,0,0:0:0:0:
402,192,94183,1,0,0:0:0:0:
475,192,94183,1,0,0:0:0:0:
36,192,94340,128,0,94419:0:0:0:0:
475,192,94340,1,0,0:0:0:0:
402,192,94419,1,0,0:0:0:0:
329,192,94498,128,0,94577:0:0:0:0:
256,192,94498,1,0,0:0:0:0:
182,192,94498,1,0,0:0:0:0:
109,192,94498,1,0,0:0:0:0:
36,192,94656,128,0,94735:0:0:0:0:
475,192,94656,1,0,0:0:0:0:
329,192,94735,1,0,0:0:0:0:
402,192,94814,128,0,94893:0:0:0:0:
256,192,94814,1,0,0:0:0:0:
182,192,94814,1,0,0:0:0:0:
109,192,94814,1,0,0:0:0:0:
475,192,94972,128,0,95051:0:0:0:0:
329,192,95130,128,0,95209:0:0:0:0:
182,192,95130,1,0,0:0:0:0:
109,192,95130,1,0,0:0:0:0:
36,192,95130,1,0,0:0:0:0:
475,192,95288,128,0,95367:0:0:0:0:
329,192,95288,1,0,0:0:0:0:
256,192,95446,128,0,95525:0:0:0:0:
182,192,95446,1,0,0:0:0:0:
109,192,95446,1,0,0:0:0:0:
36,192,95446,1,0,0:0:0:0:
475,192,95604,128,0,95683:0:0:0:0:
256,192,95604,1,0,0:0:0:0:
182,192,95761,128,0,95840:0:0:0:0:
109,192,95761,1,0,0:0:0:0:
36,192,95761,1,0,0:0:0:0:
256,192,95761,1,0,0:0:0:0:
475,192,95919,128,0,95998:0:0:0:0:
109,192,96077,128,0,96156:0:0:0:0:
329,192,96077,1,0,0:0:0:0:
402,192,96077,1,0,0:0:0:0:
475,192,96077,1,0,0:0:0:0:
182,192,96156,128,0,96235:0:0:0:0:
256,192,96235,128,0,96314:0:0:0:0:
402,192,96235,1,0,0:0:0:0:
36,192,96393,128,0,96472:0:0:0:0:
329,192,96393,1,0,0:0:0:0:
402,192,96393,1,0,0:0:0:0:
475,192,96393,1,0,0:0:0:0:
329,192,96551,128,0,96630:0:0:0:0:
109,192,96709,128,0,96788:0:0:0:0:
329,192,96709,1,0,0:0:0:0:
256,192,96709,1,0,0:0:0:0:
182,192,96709,1,0,0:0:0:0:
402,192,96867,128,0,96946:0:0:0:0:
109,192,96946,1,0,0:0:0:0:
182,192,97025,128,0,97104:0:0:0:0:
256,192,97025,1,0,0:0:0:0:
329,192,97025,1,0,0:0:0:0:
402,192,97025,1,0,0:0:0:0:
475,192,97183,128,0,97261:0:0:0:0:
182,192,97183,1,0,0:0:0:0:
109,192,97340,128,0,97419:0:0:0:0:
329,192,97340,1,0,0:0:0:0:
402,192,97340,1,0,0:0:0:0:
475,192,97340,1,0,0:0:0:0:
402,192,97498,128,0,97577:0:0:0:0:
182,192,97577,1,0,0:0:0:0:
36,192,97656,128,0,97735:0:0:0:0:
329,192,97656,1,0,0:0:0:0:
402,192,97656,1,0,0:0:0:0:
475,192,97656,1,0,0:0:0:0:
256,192,97735,1,0,0:0:0:0:
329,192,97814,128,0,97893:0:0:0:0:
36,192,97814,1,0,0:0:0:0:
182,192,97893,1,0,0:0:0:0:
36,192,97972,128,0,98051:0:0:0:0:
329,192,97972,1,0,0:0:0:0:
402,192,97972,1,0,0:0:0:0:
475,192,97972,1,0,0:0:0:0:
109,192,98051,1,0,0:0:0:0:
256,192,98130,128,0,98209:0:0:0:0:
36,192,98130,1,0,0:0:0:0:
402,192,98209,1,0,0:0:0:0:
475,192,98288,128,0,98367:0:0:0:0:
256,192,98288,1,0,0:0:0:0:
182,192,98288,1,0,0:0:0:0:
329,192,98288,1,0,0:0:0:0:
109,192,98367,1,0,0:0:0:0:
256,192,98446,128,0,98525:0:0:0:0:
475,192,98446,1,0,0:0:0:0:
109,192,98525,1,0,0:0:0:0:
36,192,98604,128,0,98683:0:0:0:0:
256,192,98604,1,0,0:0:0:0:
329,192,98604,1,0,0:0:0:0:
402,192,98604,1,0,0:0:0:0:
182,192,98683,128,0,98761:0:0:0:0:
329,192,98761,128,0,98840:0:0:0:0:
109,192,98761,128,0,99077:0:0:0:0:
475,192,98840,128,0,98919:0:0:0:0:
36,192,98919,128,0,98998:0:0:0:0:
256,192,98919,128,0,99156:0:0:0:0:
329,192,98998,128,0,99235:0:0:0:0:
182,192,99077,128,0,99156:0:0:0:0:
402,192,99077,128,0,99156:0:0:0:0:
475,192,99156,1,0,0:0:0:0:
36,192,99235,128,0,99314:0:0:0:0:
402,192,99235,1,0,0:0:0:0:
329,192,99314,1,0,0:0:0:0:
256,192,99393,128,0,99472:0:0:0:0:
109,192,99393,128,0,99630:0:0:0:0:
182,192,99472,128,0,99551:0:0:0:0:
36,192,99551,128,0,99630:0:0:0:0:
402,192,99551,128,0,99788:0:0:0:0:
475,192,99551,128,0,99630:0:0:0:0:
329,192,99630,128,0,99709:0:0:0:0:
475,192,99709,128,0,99788:0:0:0:0:
256,192,99709,128,0,99788:0:0:0:0:
182,192,99709,128,0,100025:0:0:0:0:
109,192,99788,128,0,99946:0:0:0:0:
256,192,99867,128,0,99946:0:0:0:0:
36,192,99867,1,0,0:0:0:0:
402,192,99867,1,0,0:0:0:0:
475,192,99867,1,0,0:0:0:0:
329,192,99946,1,0,0:0:0:0:
475,192,100025,128,0,100104:0:0:0:0:
402,192,100025,128,0,100261:0:0:0:0:
109,192,100025,1,0,0:0:0:0:
36,192,100025,1,0,0:0:0:0:
256,192,100104,128,0,100183:0:0:0:0:
329,192,100183,128,0,100261:0:0:0:0:
36,192,100183,128,0,100498:0:0:0:0:
109,192,100183,1,0,0:0:0:0:
256,192,100261,1,0,0:0:0:0:
182,192,100261,128,0,100419:0:0:0:0:
475,192,100340,128,0,100419:0:0:0:0:
329,192,100340,1,0,0:0:0:0:
256,192,100419,1,0,0:0:0:0:
402,192,100498,128,0,100577:0:0:0:0:
182,192,100498,1,0,0:0:0:0:
475,192,100498,128,0,100893:0:0:0:0:
36,192,100577,1,0,0:0:0:0:
256,192,100656,128,0,100735:0:0:0:0:
329,192,100656,128,0,101051:0:0:0:0:
109,192,100656,1,0,0:0:0:0:
402,192,100735,1,0,0:0:0:0:
109,192,100814,128,0,100893:0:0:0:0:
182,192,100814,128,0,101130:0:0:0:0:
256,192,100814,1,0,0:0:0:0:
36,192,100893,1,0,0:0:0:0:
475,192,100972,1,0,0:0:0:0:
256,192,101051,1,0,0:0:0:0:
109,192,101130,128,0,101288:0:0:0:0:
475,192,101130,128,0,101169:0:0:0:0:
182,192,101209,128,0,101367:0:0:0:0:
402,192,101209,128,0,101248:0:0:0:0:
329,192,101288,128,0,101327:0:0:0:0:
256,192,101288,128,0,101446:0:0:0:0:
36,192,101288,128,0,101327:0:0:0:0:
475,192,101367,128,0,101761:0:0:0:0:
109,192,101367,128,0,101406:0:0:0:0:
402,192,101367,128,0,101406:0:0:0:0:
182,192,101446,128,0,101525:0:0:0:0:
329,192,101446,128,0,101485:0:0:0:0:
109,192,101525,128,0,101564:0:0:0:0:
402,192,101525,128,0,101840:0:0:0:0:
36,192,101604,128,0,101643:0:0:0:0:
182,192,101604,128,0,101643:0:0:0:0:
256,192,101604,128,0,101643:0:0:0:0:
109,192,101683,128,0,101761:0:0:0:0:
329,192,101683,128,0,101840:0:0:0:0:
36,192,101761,128,0,101998:0:0:0:0:
182,192,101761,128,0,101801:0:0:0:0:
109,192,101840,128,0,101919:0:0:0:0:
256,192,101840,128,0,101880:0:0:0:0:
182,192,101919,128,0,101998:0:0:0:0:
475,192,101919,128,0,102156:0:0:0:0:
329,192,101919,128,0,101959:0:0:0:0:
402,192,101998,128,0,102077:0:0:0:0:
329,192,102077,128,0,102314:0:0:0:0:
256,192,102077,128,0,102472:0:0:0:0:
182,192,102077,128,0,102235:0:0:0:0:
109,192,102077,128,0,102235:0:0:0:0:
36,192,102077,128,0,102117:0:0:0:0:
36,192,102156,128,0,102551:0:0:0:0:
402,192,102235,128,0,102314:0:0:0:0:
109,192,102314,128,0,102709:0:0:0:0:
182,192,102314,128,0,102393:0:0:0:0:
475,192,102393,128,0,102472:0:0:0:0:
329,192,102393,128,0,102433:0:0:0:0:
402,192,102393,128,0,102433:0:0:0:0:
182,192,102472,128,0,102788:0:0:0:0:
256,192,102551,128,0,102946:0:0:0:0:
329,192,102551,128,0,102946:0:0:0:0:
402,192,102551,128,0,102590:0:0:0:0:
475,192,102551,128,0,102788:0:0:0:0:
36,192,102630,128,0,102709:0:0:0:0:
402,192,102709,128,0,102946:0:0:0:0:
109,192,102788,128,0,102867:0:0:0:0:
475,192,102867,128,0,102946:0:0:0:0:
36,192,102867,1,0,0:0:0:0:
182,192,102867,1,0,0:0:0:0:
182,192,102946,128,0,103025:0:0:0:0:
329,192,103025,128,0,103104:0:0:0:0:
402,192,103025,1,0,0:0:0:0:
475,192,103025,1,0,0:0:0:0:
182,192,103183,128,0,103222:0:0:0:0:
256,192,103183,128,0,103222:0:0:0:0:
329,192,103183,128,0,103222:0:0:0:0:
109,192,103340,128,0,103380:0:0:0:0:
182,192,103340,128,0,103380:0:0:0:0:
329,192,103340,128,0,103380:0:0:0:0:
402,192,103340,128,0,103380:0:0:0:0:
36,192,103498,128,0,103538:0:0:0:0:
109,192,103498,128,0,103538:0:0:0:0:
402,192,103498,128,0,103538:0:0:0:0:
475,192,103498,128,0,103538:0:0:0:0:
402,192,103656,1,0,0:0:0:0:
475,192,103656,1,0,0:0:0:0:
109,192,103656,128,0,104288:0:0:0:0:
36,192,103656,128,0,103972:0:0:0:0:
402,192,103972,1,0,0:0:0:0:
475,192,103972,1,0,0:0:0:0:
36,192,104288,128,0,105551:0:0:0:0:
402,192,104288,1,0,0:0:0:0:
475,192,104288,1,0,0:0:0:0:
109,192,104604,128,0,104840:0:0:0:0:
402,192,104604,1,0,0:0:0:0:
475,192,104604,1,0,0:0:0:0:
182,192,104761,128,0,104840:0:0:0:0:
256,192,104840,128,0,104919:0:0:0:0:
182,192,104919,128,0,105551:0:0:0:0:
402,192,104919,1,0,0:0:0:0:
475,192,104919,1,0,0:0:0:0:
402,192,105235,1,0,0:0:0:0:
475,192,105235,1,0,0:0:0:0:
109,192,105393,128,0,105551:0:0:0:0:
256,192,105472,128,0,105551:0:0:0:0:
475,192,105551,1,0,0:0:0:0:
402,192,105551,1,0,0:0:0:0:
329,192,105551,128,0,105867:0:0:0:0:
402,192,105867,1,0,0:0:0:0:
475,192,105867,1,0,0:0:0:0:
182,192,106025,128,0,106183:0:0:0:0:
256,192,106025,1,0,0:0:0:0:
109,192,106025,1,0,0:0:0:0:
329,192,106104,128,0,106183:0:0:0:0:
402,192,106183,128,0,108709:0:0:0:0:
109,192,106183,1,0,0:0:0:0:
36,192,106183,1,0,0:0:0:0:
109,192,106498,1,0,0:0:0:0:
36,192,106498,1,0,0:0:0:0:
475,192,106814,128,0,108709:0:0:0:0:
109,192,106814,1,0,0:0:0:0:
36,192,106814,1,0,0:0:0:0:
329,192,106814,1,0,0:0:0:0:
256,192,106814,1,0,0:0:0:0:
182,192,106972,1,0,0:0:0:0:
109,192,107130,1,0,0:0:0:0:
36,192,107130,1,0,0:0:0:0:
182,192,107288,1,0,0:0:0:0:
329,192,107288,1,0,0:0:0:0:
109,192,107446,1,0,0:0:0:0:
36,192,107446,1,0,0:0:0:0:
256,192,107604,1,0,0:0:0:0:
109,192,107761,1,0,0:0:0:0:
36,192,107761,1,0,0:0:0:0:
256,192,107761,1,0,0:0:0:0:
329,192,107761,1,0,0:0:0:0:
182,192,107919,1,0,0:0:0:0:
329,192,108077,128,0,108630:0:0:0:0:
109,192,108077,1,0,0:0:0:0:
36,192,108077,1,0,0:0:0:0:
182,192,108077,1,0,0:0:0:0:
256,192,108077,1,0,0:0:0:0:
182,192,108235,1,0,0:0:0:0:
256,192,108393,128,0,108630:0:0:0:0:
109,192,108393,1,0,0:0:0:0:
36,192,108393,1,0,0:0:0:0:
182,192,108393,1,0,0:0:0:0:
109,192,108551,1,0,0:0:0:0:
109,192,108709,128,0,109104:0:0:0:0:
256,192,108709,1,0,0:0:0:0:
329,192,108709,1,0,0:0:0:0:
36,192,108709,1,0,0:0:0:0:
329,192,108867,1,0,0:0:0:0:
402,192,108867,1,0,0:0:0:0:
329,192,109025,128,0,109419:0:0:0:0:
402,192,109025,1,0,0:0:0:0:
475,192,109025,1,0,0:0:0:0:
36,192,109025,1,0,0:0:0:0:
109,192,109183,1,0,0:0:0:0:
36,192,109183,1,0,0:0:0:0:
36,192,109340,128,0,109735:0:0:0:0:
182,192,109340,1,0,0:0:0:0:
109,192,109340,1,0,0:0:0:0:
475,192,109340,1,0,0:0:0:0:
402,192,109498,1,0,0:0:0:0:
475,192,109498,1,0,0:0:0:0:
182,192,109577,1,0,0:0:0:0:
402,192,109656,128,0,110051:0:0:0:0:
256,192,109656,1,0,0:0:0:0:
329,192,109656,1,0,0:0:0:0:
182,192,109814,1,0,0:0:0:0:
256,192,109814,1,0,0:0:0:0:
36,192,109814,1,0,0:0:0:0:
182,192,109972,128,0,110367:0:0:0:0:
109,192,109972,1,0,0:0:0:0:
36,192,109972,1,0,0:0:0:0:
475,192,109972,1,0,0:0:0:0:
402,192,110130,1,0,0:0:0:0:
475,192,110130,1,0,0:0:0:0:
475,192,110288,128,0,110683:0:0:0:0:
329,192,110288,1,0,0:0:0:0:
402,192,110288,1,0,0:0:0:0:
109,192,110288,1,0,0:0:0:0:
256,192,110446,128,0,110525:0:0:0:0:
182,192,110446,1,0,0:0:0:0:
329,192,110446,1,0,0:0:0:0:
256,192,110604,128,0,111156:0:0:0:0:
182,192,110604,1,0,0:0:0:0:
109,192,110604,1,0,0:0:0:0:
402,192,110604,1,0,0:0:0:0:
109,192,110761,1,0,0:0:0:0:
36,192,110761,1,0,0:0:0:0:
475,192,110761,1,0,0:0:0:0:
402,192,110919,128,0,111472:0:0:0:0:
329,192,110919,1,0,0:0:0:0:
475,192,110919,1,0,0:0:0:0:
182,192,110919,1,0,0:0:0:0:
36,192,110919,1,0,0:0:0:0:
109,192,111077,1,0,0:0:0:0:
109,192,111235,128,0,111788:0:0:0:0:
182,192,111235,1,0,0:0:0:0:
256,192,111235,1,0,0:0:0:0:
256,192,111393,1,0,0:0:0:0:
402,192,111551,128,0,111946:0:0:0:0:
256,192,111551,1,0,0:0:0:0:
329,192,111551,1,0,0:0:0:0:
329,192,111709,1,0,0:0:0:0:
109,192,111867,128,0,112261:0:0:0:0:
256,192,111867,1,0,0:0:0:0:
182,192,111867,1,0,0:0:0:0:
182,192,112025,1,0,0:0:0:0:
402,192,112025,1,0,0:0:0:0:
402,192,112183,128,0,112577:0:0:0:0:
329,192,112183,1,0,0:0:0:0:
256,192,112183,1,0,0:0:0:0:
109,192,112340,1,0,0:0:0:0:
256,192,112340,1,0,0:0:0:0:
109,192,112498,128,0,112814:0:0:0:0:
182,192,112498,1,0,0:0:0:0:
256,192,112498,1,0,0:0:0:0:
402,192,112656,1,0,0:0:0:0:
402,192,112814,128,0,113209:0:0:0:0:
329,192,112814,1,0,0:0:0:0:
256,192,112814,1,0,0:0:0:0:
109,192,112972,1,0,0:0:0:0:
109,192,113130,128,0,113525:0:0:0:0:
182,192,113130,1,0,0:0:0:0:
256,192,113130,1,0,0:0:0:0:
402,192,113288,1,0,0:0:0:0:
402,192,113446,128,0,113761:0:0:0:0:
475,192,113446,1,0,0:0:0:0:
329,192,113446,1,0,0:0:0:0:
109,192,113604,1,0,0:0:0:0:
182,192,113761,1,0,0:0:0:0:
36,192,113761,1,0,0:0:0:0:
256,192,113761,128,0,114117:0:0:0:0:
329,192,113840,128,0,114038:0:0:0:0:
402,192,113919,128,0,113959:0:0:0:0:
475,192,113998,1,0,0:0:0:0:
182,192,114077,1,0,0:0:0:0:
36,192,114077,1,0,0:0:0:0:
402,192,114077,128,0,114433:0:0:0:0:
329,192,114156,128,0,114354:0:0:0:0:
256,192,114235,128,0,114275:0:0:0:0:
182,192,114314,1,0,0:0:0:0:
36,192,114393,1,0,0:0:0:0:
475,192,114393,1,0,0:0:0:0:
256,192,114393,128,0,114748:0:0:0:0:
329,192,114472,128,0,114669:0:0:0:0:
402,192,114551,128,0,114590:0:0:0:0:
475,192,114630,1,0,0:0:0:0:
402,192,114709,128,0,115064:0:0:0:0:
182,192,114709,1,0,0:0:0:0:
36,192,114709,1,0,0:0:0:0:
329,192,114788,128,0,114985:0:0:0:0:
256,192,114867,128,0,114906:0:0:0:0:
182,192,114946,1,0,0:0:0:0:
109,192,115025,128,0,115380:0:0:0:0:
475,192,115025,1,0,0:0:0:0:
329,192,115025,1,0,0:0:0:0:
182,192,115104,128,0,115301:0:0:0:0:
256,192,115183,128,0,115222:0:0:0:0:
402,192,115183,1,0,0:0:0:0:
329,192,115261,1,0,0:0:0:0:
256,192,115340,128,0,115696:0:0:0:0:
475,192,115340,1,0,0:0:0:0:
182,192,115419,128,0,115617:0:0:0:0:
109,192,115498,128,0,115538:0:0:0:0:
402,192,115498,1,0,0:0:0:0:
36,192,115577,1,0,0:0:0:0:
109,192,115656,128,0,116011:0:0:0:0:
329,192,115656,1,0,0:0:0:0:
475,192,115656,1,0,0:0:0:0:
182,192,115735,128,0,115933:0:0:0:0:
256,192,115814,128,0,115854:0:0:0:0:
402,192,115814,1,0,0:0:0:0:
329,192,115893,1,0,0:0:0:0:
256,192,115972,128,0,116327:0:0:0:0:
402,192,115972,1,0,0:0:0:0:
475,192,115972,1,0,0:0:0:0:
182,192,116051,128,0,116248:0:0:0:0:
109,192,116130,128,0,116169:0:0:0:0:
36,192,116209,1,0,0:0:0:0:
329,192,116288,128,0,116643:0:0:0:0:
182,192,116288,1,0,0:0:0:0:
475,192,116288,1,0,0:0:0:0:
256,192,116367,128,0,116564:0:0:0:0:
182,192,116446,128,0,116485:0:0:0:0:
109,192,116525,1,0,0:0:0:0:
182,192,116604,128,0,116959:0:0:0:0:
402,192,116604,1,0,0:0:0:0:
36,192,116604,1,0,0:0:0:0:
256,192,116683,128,0,116880:0:0:0:0:
329,192,116761,128,0,116801:0:0:0:0:
402,192,116840,1,0,0:0:0:0:
329,192,116919,128,0,117275:0:0:0:0:
109,192,116919,1,0,0:0:0:0:
475,192,116919,1,0,0:0:0:0:
256,192,116998,128,0,117196:0:0:0:0:
182,192,117077,128,0,117117:0:0:0:0:
109,192,117156,1,0,0:0:0:0:
182,192,117235,128,0,117590:0:0:0:0:
402,192,117235,1,0,0:0:0:0:
475,192,117235,1,0,0:0:0:0:
256,192,117314,128,0,117511:0:0:0:0:
329,192,117393,128,0,117433:0:0:0:0:
402,192,117472,1,0,0:0:0:0:
475,192,117551,128,0,117906:0:0:0:0:
36,192,117551,1,0,0:0:0:0:
109,192,117551,1,0,0:0:0:0:
402,192,117630,128,0,117827:0:0:0:0:
329,192,117709,128,0,117748:0:0:0:0:
182,192,117709,1,0,0:0:0:0:
256,192,117788,1,0,0:0:0:0:
182,192,117867,128,0,118222:0:0:0:0:
36,192,117867,1,0,0:0:0:0:
256,192,117946,128,0,118143:0:0:0:0:
329,192,118025,128,0,118064:0:0:0:0:
475,192,118025,1,0,0:0:0:0:
402,192,118104,1,0,0:0:0:0:
329,192,118183,128,0,118538:0:0:0:0:
109,192,118183,1,0,0:0:0:0:
36,192,118183,1,0,0:0:0:0:
256,192,118261,128,0,118459:0:0:0:0:
182,192,118340,128,0,118380:0:0:0:0:
109,192,118419,1,0,0:0:0:0:
36,192,118498,128,0,118854:0:0:0:0:
402,192,118498,1,0,0:0:0:0:
475,192,118498,1,0,0:0:0:0:
182,192,118498,1,0,0:0:0:0:
109,192,118577,128,0,118775:0:0:0:0:
256,192,118577,1,0,0:0:0:0:
182,192,118656,128,0,118696:0:0:0:0:
329,192,118656,1,0,0:0:0:0:
256,192,118735,1,0,0:0:0:0:
402,192,118735,1,0,0:0:0:0:
475,192,118814,1,0,0:0:0:0:
329,192,118814,128,0,118972:0:0:0:0:
182,192,118893,1,0,0:0:0:0:
256,192,118972,128,0,119130:0:0:0:0:
402,192,118972,1,0,0:0:0:0:
109,192,119051,1,0,0:0:0:0:
182,192,119130,128,0,119288:0:0:0:0:
329,192,119130,1,0,0:0:0:0:
36,192,119209,1,0,0:0:0:0:
256,192,119288,128,0,119446:0:0:0:0:
402,192,119288,1,0,0:0:0:0:
109,192,119367,1,0,0:0:0:0:
329,192,119446,128,0,119564:0:0:0:0:
475,192,119446,1,0,0:0:0:0:
182,192,119525,1,0,0:0:0:0:
402,192,119604,128,0,119722:0:0:0:0:
329,192,119604,1,0,0:0:0:0:
256,192,119683,1,0,0:0:0:0:
475,192,119761,128,0,119880:0:0:0:0:
402,192,119761,1,0,0:0:0:0:
182,192,119840,1,0,0:0:0:0:
329,192,119919,128,0,120038:0:0:0:0:
402,192,119919,1,0,0:0:0:0:
109,192,119998,1,0,0:0:0:0:
256,192,120077,128,0,120196:0:0:0:0:
329,192,120077,1,0,0:0:0:0:
36,192,120156,1,0,0:0:0:0:
182,192,120235,128,0,120354:0:0:0:0:
256,192,120235,1,0,0:0:0:0:
475,192,120314,1,0,0:0:0:0:
256,192,120393,128,0,120511:0:0:0:0:
182,192,120393,1,0,0:0:0:0:
402,192,120472,1,0,0:0:0:0:
182,192,120551,128,0,120669:0:0:0:0:
256,192,120551,1,0,0:0:0:0:
329,192,120630,1,0,0:0:0:0:
109,192,120709,128,0,120827:0:0:0:0:
182,192,120709,1,0,0:0:0:0:
402,192,120788,1,0,0:0:0:0:
182,192,120867,128,0,120985:0:0:0:0:
109,192,120867,1,0,0:0:0:0:
475,192,120946,1,0,0:0:0:0:
256,192,121025,128,0,121183:0:0:0:0:
182,192,121025,1,0,0:0:0:0:
36,192,121104,1,0,0:0:0:0:
329,192,121183,128,0,121340:0:0:0:0:
402,192,121183,1,0,0:0:0:0:
109,192,121261,1,0,0:0:0:0:
475,192,121340,1,0,0:0:0:0:
182,192,121340,128,0,121735:0:0:0:0:
402,192,121419,1,0,0:0:0:0:
256,192,121419,128,0,121656:0:0:0:0:
329,192,121498,128,0,121735:0:0:0:0:
36,192,121498,1,0,0:0:0:0:
402,192,121577,128,0,121656:0:0:0:0:
109,192,121577,1,0,0:0:0:0:
475,192,121656,1,0,0:0:0:0:
36,192,121656,128,0,121893:0:0:0:0:
402,192,121735,1,0,0:0:0:0:
109,192,121735,128,0,121972:0:0:0:0:
329,192,121814,1,0,0:0:0:0:
182,192,121814,128,0,121893:0:0:0:0:
256,192,121893,128,0,122051:0:0:0:0:
475,192,121893,1,0,0:0:0:0:
182,192,121972,128,0,122051:0:0:0:0:
402,192,121972,128,0,122840:0:0:0:0:
36,192,121972,1,0,0:0:0:0:
329,192,122051,128,0,122130:0:0:0:0:
109,192,122051,1,0,0:0:0:0:
475,192,122130,128,0,122840:0:0:0:0:
182,192,122130,1,0,0:0:0:0:
329,192,122209,128,0,122761:0:0:0:0:
109,192,122209,1,0,0:0:0:0:
36,192,122288,1,0,0:0:0:0:
256,192,122288,128,0,122683:0:0:0:0:
182,192,122367,128,0,122604:0:0:0:0:
109,192,122446,128,0,122525:0:0:0:0:
36,192,122525,128,0,122683:0:0:0:0:
109,192,122604,128,0,123235:0:0:0:0:
182,192,122683,128,0,123077:0:0:0:0:
256,192,122761,128,0,122998:0:0:0:0:
36,192,122761,1,0,0:0:0:0:
329,192,122840,128,0,122919:0:0:0:0:
402,192,122919,128,0,123551:0:0:0:0:
475,192,122919,128,0,123472:0:0:0:0:
36,192,122919,128,0,123156:0:0:0:0:
329,192,122998,128,0,123551:0:0:0:0:
256,192,123077,128,0,123393:0:0:0:0:
182,192,123156,128,0,123314:0:0:0:0:
36,192,123235,128,0,123709:0:0:0:0:
109,192,123314,128,0,123709:0:0:0:0:
182,192,123393,128,0,123630:0:0:0:0:
256,192,123472,128,0,123630:0:0:0:0:
475,192,123551,1,0,0:0:0:0:
329,192,123630,1,0,0:0:0:0:
182,192,123709,1,0,0:0:0:0:
36,192,123788,1,0,0:0:0:0:
329,192,123867,128,0,124025:0:0:0:0:
402,192,123867,1,0,0:0:0:0:
475,192,123867,1,0,0:0:0:0:
109,192,123867,1,0,0:0:0:0:
182,192,123946,1,0,0:0:0:0:
256,192,124025,128,0,124183:0:0:0:0:
36,192,124025,1,0,0:0:0:0:
109,192,124104,1,0,0:0:0:0:
182,192,124183,128,0,124340:0:0:0:0:
475,192,124183,1,0,0:0:0:0:
402,192,124183,1,0,0:0:0:0:
36,192,124261,1,0,0:0:0:0:
402,192,124340,128,0,124498:0:0:0:0:
256,192,124340,1,0,0:0:0:0:
475,192,124419,1,0,0:0:0:0:
109,192,124498,128,0,124617:0:0:0:0:
36,192,124498,1,0,0:0:0:0:
256,192,124498,1,0,0:0:0:0:
402,192,124577,1,0,0:0:0:0:
182,192,124656,128,0,124775:0:0:0:0:
109,192,124656,1,0,0:0:0:0:
329,192,124735,1,0,0:0:0:0:
256,192,124814,128,0,124933:0:0:0:0:
182,192,124814,1,0,0:0:0:0:
475,192,124814,1,0,0:0:0:0:
402,192,124893,1,0,0:0:0:0:
329,192,124972,128,0,125090:0:0:0:0:
256,192,124972,1,0,0:0:0:0:
109,192,124972,1,0,0:0:0:0:
475,192,125051,1,0,0:0:0:0:
182,192,125130,128,0,125248:0:0:0:0:
329,192,125130,1,0,0:0:0:0:
402,192,125130,1,0,0:0:0:0:
36,192,125209,1,0,0:0:0:0:
256,192,125288,128,0,125406:0:0:0:0:
182,192,125288,1,0,0:0:0:0:
475,192,125288,1,0,0:0:0:0:
109,192,125367,1,0,0:0:0:0:
329,192,125446,128,0,125564:0:0:0:0:
256,192,125446,1,0,0:0:0:0:
475,192,125446,1,0,0:0:0:0:
402,192,125446,1,0,0:0:0:0:
182,192,125525,1,0,0:0:0:0:
402,192,125604,128,0,125761:0:0:0:0:
329,192,125604,1,0,0:0:0:0:
109,192,125604,1,0,0:0:0:0:
256,192,125683,1,0,0:0:0:0:
329,192,125761,128,0,125919:0:0:0:0:
475,192,125761,1,0,0:0:0:0:
36,192,125761,1,0,0:0:0:0:
109,192,125761,1,0,0:0:0:0:
182,192,125840,1,0,0:0:0:0:
256,192,125919,128,0,126077:0:0:0:0:
402,192,125919,1,0,0:0:0:0:
475,192,125919,1,0,0:0:0:0:
109,192,125998,1,0,0:0:0:0:
182,192,126077,128,0,126235:0:0:0:0:
329,192,126077,1,0,0:0:0:0:
402,192,126077,1,0,0:0:0:0:
36,192,126156,1,0,0:0:0:0:
109,192,126235,128,0,126393:0:0:0:0:
256,192,126235,1,0,0:0:0:0:
402,192,126235,1,0,0:0:0:0:
475,192,126314,1,0,0:0:0:0:
182,192,126393,128,0,126788:0:0:0:0:
329,192,126393,128,0,126788:0:0:0:0:
109,192,126630,1,0,0:0:0:0:
256,192,126630,1,0,0:0:0:0:
402,192,126630,1,0,0:0:0:0:
256,192,126709,1,0,0:0:0:0:
109,192,126709,128,0,127025:0:0:0:0:
402,192,126709,128,0,127025:0:0:0:0:
36,192,126867,128,0,127183:0:0:0:0:
475,192,126867,128,0,127183:0:0:0:0:
182,192,126867,1,0,0:0:0:0:
256,192,126867,1,0,0:0:0:0:
329,192,126867,1,0,0:0:0:0:
109,192,127183,1,0,0:0:0:0:
182,192,127183,1,0,0:0:0:0:
329,192,127183,1,0,0:0:0:0:
402,192,127183,1,0,0:0:0:0:
109,192,127340,1,0,0:0:0:0:
36,192,127340,1,0,0:0:0:0:
402,192,127340,1,0,0:0:0:0:
475,192,127340,1,0,0:0:0:0:
182,192,127656,128,0,127709:0:0:0:0:
475,192,127656,128,0,127709:0:0:0:0:
402,192,127709,128,0,127761:0:0:0:0:
109,192,127709,128,0,127761:0:0:0:0:
36,192,127761,128,0,127814:0:0:0:0:
329,192,127761,128,0,127814:0:0:0:0:
256,192,127814,128,0,127867:0:0:0:0:
475,192,127814,128,0,127867:0:0:0:0:
402,192,127867,128,0,127919:0:0:0:0:
182,192,127867,128,0,127919:0:0:0:0:
329,192,127919,128,0,127972:0:0:0:0:
109,192,127919,128,0,127972:0:0:0:0:
36,192,127972,128,0,128051:0:0:0:0:
256,192,127972,128,0,128051:0:0:0:0:
109,192,128051,128,0,128130:0:0:0:0:
329,192,128051,128,0,128130:0:0:0:0:
182,192,128130,128,0,128209:0:0:0:0:
402,192,128130,128,0,128209:0:0:0:0:
256,192,128209,128,0,128288:0:0:0:0:
475,192,128209,128,0,128288:0:0:0:0:
36,192,128288,128,0,128367:0:0:0:0:
109,192,128327,128,0,128406:0:0:0:0:
182,192,128367,128,0,128446:0:0:0:0:
256,192,128406,128,0,128485:0:0:0:0:
475,192,128446,128,0,128525:0:0:0:0:
402,192,128485,128,0,128564:0:0:0:0:
329,192,128525,128,0,128604:0:0:0:0:
256,192,128564,128,0,128643:0:0:0:0:
182,192,128604,128,0,128709:0:0:0:0:
109,192,128656,128,0,128761:0:0:0:0:
475,192,128683,128,0,128761:0:0:0:0:
36,192,128709,128,0,128814:0:0:0:0:
402,192,128722,128,0,128801:0:0:0:0:
329,192,128761,128,0,128840:0:0:0:0:
256,192,128801,128,0,128860:0:0:0:0:
182,192,128840,128,0,128919:0:0:0:0:
36,192,128919,128,0,128979:0:0:0:0:
256,192,128919,128,0,129472:0:0:0:0:
329,192,128919,128,0,129156:0:0:0:0:
109,192,128939,128,0,128998:0:0:0:0:
182,192,128959,128,0,129018:0:0:0:0:
402,192,128998,128,0,129314:0:0:0:0:
36,192,129077,128,0,129136:0:0:0:0:
475,192,129077,128,0,129472:0:0:0:0:
109,192,129097,128,0,129156:0:0:0:0:
182,192,129117,128,0,129176:0:0:0:0:
36,192,129235,128,0,129294:0:0:0:0:
329,192,129235,128,0,129788:0:0:0:0:
109,192,129255,128,0,129314:0:0:0:0:
182,192,129275,128,0,129334:0:0:0:0:
36,192,129393,128,0,129452:0:0:0:0:
402,192,129393,128,0,129630:0:0:0:0:
109,192,129413,128,0,129472:0:0:0:0:
182,192,129433,128,0,129492:0:0:0:0:
182,192,129551,128,0,129610:0:0:0:0:
256,192,129551,128,0,129808:0:0:0:0:
475,192,129551,128,0,130104:0:0:0:0:
109,192,129571,128,0,129630:0:0:0:0:
36,192,129590,128,0,129650:0:0:0:0:
402,192,129709,128,0,129946:0:0:0:0:
182,192,129709,128,0,129768:0:0:0:0:
109,192,129729,128,0,129788:0:0:0:0:
36,192,129748,128,0,129808:0:0:0:0:
256,192,129867,128,0,129926:0:0:0:0:
329,192,129867,128,0,130104:0:0:0:0:
36,192,129867,128,0,130261:0:0:0:0:
182,192,129886,128,0,129946:0:0:0:0:
109,192,129906,128,0,129965:0:0:0:0:
256,192,130025,128,0,130084:0:0:0:0:
402,192,130025,128,0,130419:0:0:0:0:
182,192,130044,128,0,130104:0:0:0:0:
109,192,130064,128,0,130123:0:0:0:0:
475,192,130183,128,0,130735:0:0:0:0:
329,192,130183,128,0,130242:0:0:0:0:
109,192,130183,128,0,130577:0:0:0:0:
256,192,130202,128,0,130261:0:0:0:0:
182,192,130222,128,0,130281:0:0:0:0:
329,192,130340,128,0,130400:0:0:0:0:
36,192,130340,128,0,130735:0:0:0:0:
256,192,130360,128,0,130419:0:0:0:0:
182,192,130380,128,0,130439:0:0:0:0:
402,192,130498,128,0,130558:0:0:0:0:
182,192,130498,128,0,131051:0:0:0:0:
329,192,130518,128,0,130577:0:0:0:0:
256,192,130538,128,0,130597:0:0:0:0:
402,192,130656,128,0,130715:0:0:0:0:
109,192,130656,128,0,130893:0:0:0:0:
329,192,130676,128,0,130735:0:0:0:0:
256,192,130696,128,0,130755:0:0:0:0:
475,192,130814,128,0,130873:0:0:0:0:
256,192,130814,128,0,131998:0:0:0:0:
36,192,130814,128,0,131367:0:0:0:0:
402,192,130834,128,0,130893:0:0:0:0:
329,192,130854,128,0,130913:0:0:0:0:
475,192,130972,128,0,131031:0:0:0:0:
109,192,130972,128,0,131209:0:0:0:0:
402,192,130992,128,0,131051:0:0:0:0:
329,192,131011,128,0,131071:0:0:0:0:
329,192,131130,128,0,131189:0:0:0:0:
182,192,131130,128,0,131683:0:0:0:0:
402,192,131150,128,0,131209:0:0:0:0:
475,192,131169,128,0,131229:0:0:0:0:
329,192,131288,128,0,131347:0:0:0:0:
109,192,131288,128,0,131525:0:0:0:0:
402,192,131308,128,0,131367:0:0:0:0:
475,192,131327,128,0,131386:0:0:0:0:
475,192,131446,128,0,131505:0:0:0:0:
36,192,131446,128,0,131998:0:0:0:0:
402,192,131465,128,0,131525:0:0:0:0:
329,192,131485,128,0,131544:0:0:0:0:
475,192,131604,128,0,131663:0:0:0:0:
109,192,131604,128,0,131840:0:0:0:0:
402,192,131623,128,0,131683:0:0:0:0:
329,192,131643,128,0,131702:0:0:0:0:
182,192,131761,128,0,132314:0:0:0:0:
475,192,131761,128,0,131821:0:0:0:0:
402,192,131781,128,0,131840:0:0:0:0:
329,192,131801,128,0,131860:0:0:0:0:
109,192,131919,128,0,132156:0:0:0:0:
475,192,131919,128,0,131979:0:0:0:0:
402,192,131939,128,0,131998:0:0:0:0:
329,192,131959,128,0,132018:0:0:0:0:
36,192,132077,128,0,132630:0:0:0:0:
256,192,132077,128,0,132334:0:0:0:0:
329,192,132077,128,0,132136:0:0:0:0:
402,192,132097,128,0,132156:0:0:0:0:
475,192,132117,128,0,132176:0:0:0:0:
329,192,132235,128,0,132294:0:0:0:0:
109,192,132235,128,0,132472:0:0:0:0:
402,192,132255,128,0,132314:0:0:0:0:
475,192,132275,128,0,132334:0:0:0:0:
475,192,132393,128,0,132788:0:0:0:0:
182,192,132393,128,0,132630:0:0:0:0:
256,192,132393,128,0,132452:0:0:0:0:
329,192,132413,128,0,132472:0:0:0:0:
402,192,132433,128,0,132492:0:0:0:0:
109,192,132551,128,0,132946:0:0:0:0:
256,192,132551,128,0,132610:0:0:0:0:
329,192,132571,128,0,132630:0:0:0:0:
402,192,132590,128,0,132650:0:0:0:0:
402,192,132709,128,0,133104:0:0:0:0:
182,192,132709,128,0,132768:0:0:0:0:
36,192,132709,128,0,133261:0:0:0:0:
256,192,132729,128,0,132788:0:0:0:0:
329,192,132748,128,0,132808:0:0:0:0:
475,192,132867,128,0,133261:0:0:0:0:
182,192,132867,128,0,132926:0:0:0:0:
256,192,132886,128,0,132946:0:0:0:0:
329,192,132906,128,0,132965:0:0:0:0:
329,192,133025,128,0,133577:0:0:0:0:
109,192,133025,128,0,133084:0:0:0:0:
182,192,133044,128,0,133104:0:0:0:0:
256,192,133064,128,0,133123:0:0:0:0:
402,192,133183,128,0,133419:0:0:0:0:
109,192,133183,128,0,133242:0:0:0:0:
182,192,133202,128,0,133261:0:0:0:0:
256,192,133222,128,0,133281:0:0:0:0:
475,192,133340,128,0,133893:0:0:0:0:
256,192,133340,128,0,133893:0:0:0:0:
36,192,133340,128,0,133400:0:0:0:0:
109,192,133360,128,0,133419:0:0:0:0:
182,192,133380,128,0,133439:0:0:0:0:
402,192,133498,128,0,133893:0:0:0:0:
36,192,133498,128,0,133558:0:0:0:0:
109,192,133518,128,0,133577:0:0:0:0:
182,192,133538,128,0,133597:0:0:0:0:
329,192,133656,128,0,133893:0:0:0:0:
182,192,133656,128,0,133715:0:0:0:0:
109,192,133676,128,0,133735:0:0:0:0:
36,192,133696,128,0,133755:0:0:0:0:
182,192,133814,128,0,133873:0:0:0:0:
109,192,133834,128,0,133893:0:0:0:0:
36,192,133854,128,0,133913:0:0:0:0:
36,192,133972,128,0,134031:0:0:0:0:
475,192,133972,128,0,134130:0:0:0:0:
109,192,133992,128,0,134051:0:0:0:0:
182,192,134011,128,0,134071:0:0:0:0:
402,192,134025,128,0,134183:0:0:0:0:
329,192,134077,128,0,134235:0:0:0:0:
256,192,134130,128,0,134288:0:0:0:0:
36,192,134130,128,0,134189:0:0:0:0:
109,192,134150,128,0,134209:0:0:0:0:
182,192,134169,128,0,134229:0:0:0:0:
475,192,134288,128,0,134347:0:0:0:0:
36,192,134288,128,0,134446:0:0:0:0:
402,192,134308,128,0,134367:0:0:0:0:
329,192,134327,128,0,134386:0:0:0:0:
109,192,134340,128,0,134498:0:0:0:0:
182,192,134393,128,0,134551:0:0:0:0:
475,192,134446,128,0,134505:0:0:0:0:
256,192,134446,128,0,134551:0:0:0:0:
402,192,134465,128,0,134525:0:0:0:0:
329,192,134485,128,0,134544:0:0:0:0:
256,192,134604,128,0,134663:0:0:0:0:
36,192,134604,128,0,134656:0:0:0:0:
475,192,134604,128,0,134656:0:0:0:0:
402,192,134604,128,0,134656:0:0:0:0:
109,192,134604,128,0,134656:0:0:0:0:
329,192,134623,128,0,134683:0:0:0:0:
182,192,134623,128,0,134683:0:0:0:0:
256,192,134919,128,0,134979:0:0:0:0:
329,192,134919,128,0,135314:0:0:0:0:
36,192,134919,128,0,135314:0:0:0:0:
402,192,134919,128,0,135314:0:0:0:0:
475,192,134919,128,0,135788:0:0:0:0:
182,192,134939,128,0,134998:0:0:0:0:
109,192,134959,128,0,135018:0:0:0:0:
256,192,135077,128,0,135136:0:0:0:0:
182,192,135097,128,0,135156:0:0:0:0:
109,192,135117,128,0,135176:0:0:0:0:
256,192,135235,128,0,135294:0:0:0:0:
182,192,135255,128,0,135314:0:0:0:0:
109,192,135275,128,0,135334:0:0:0:0:
329,192,135393,128,0,135452:0:0:0:0:
36,192,135393,128,0,135630:0:0:0:0:
402,192,135393,128,0,135472:0:0:0:0:
109,192,135393,128,0,135472:0:0:0:0:
256,192,135413,128,0,135472:0:0:0:0:
182,192,135433,128,0,135946:0:0:0:0:
402,192,135551,128,0,135610:0:0:0:0:
109,192,135551,128,0,135788:0:0:0:0:
329,192,135571,128,0,135630:0:0:0:0:
256,192,135590,128,0,135650:0:0:0:0:
402,192,135709,128,0,135768:0:0:0:0:
36,192,135709,128,0,136301:0:0:0:0:
329,192,135729,128,0,135788:0:0:0:0:
256,192,135748,128,0,135808:0:0:0:0:
475,192,135867,128,0,135926:0:0:0:0:
109,192,135867,128,0,136281:0:0:0:0:
256,192,135867,128,0,136104:0:0:0:0:
402,192,135886,128,0,135946:0:0:0:0:
329,192,135906,128,0,135965:0:0:0:0:
475,192,136025,128,0,136084:0:0:0:0:
182,192,136025,128,0,136261:0:0:0:0:
402,192,136044,128,0,136104:0:0:0:0:
329,192,136064,128,0,136123:0:0:0:0:
256,192,136183,128,0,136242:0:0:0:0:
475,192,136183,128,0,136419:0:0:0:0:
329,192,136202,128,0,136261:0:0:0:0:
402,192,136222,128,0,136281:0:0:0:0:
256,192,136340,128,0,136400:0:0:0:0:
36,192,136340,128,0,136735:0:0:0:0:
329,192,136340,128,0,136459:0:0:0:0:
402,192,136340,128,0,136419:0:0:0:0:
182,192,136360,128,0,136715:0:0:0:0:
109,192,136380,128,0,137031:0:0:0:0:
475,192,136498,128,0,137248:0:0:0:0:
256,192,136498,128,0,136617:0:0:0:0:
402,192,136518,128,0,136577:0:0:0:0:
329,192,136538,128,0,136597:0:0:0:0:
402,192,136656,128,0,136715:0:0:0:0:
329,192,136676,128,0,136735:0:0:0:0:
256,192,136696,128,0,136755:0:0:0:0:
182,192,136814,128,0,136873:0:0:0:0:
36,192,136814,128,0,137090:0:0:0:0:
402,192,136814,128,0,137229:0:0:0:0:
256,192,136834,128,0,136893:0:0:0:0:
329,192,136854,128,0,137189:0:0:0:0:
182,192,136972,128,0,137031:0:0:0:0:
256,192,136992,128,0,137051:0:0:0:0:
36,192,137130,128,0,137189:0:0:0:0:
256,192,137130,128,0,137288:0:0:0:0:
109,192,137150,128,0,137209:0:0:0:0:
182,192,137169,128,0,137229:0:0:0:0:
329,192,137288,128,0,137347:0:0:0:0:
402,192,137308,128,0,137367:0:0:0:0:
475,192,137327,128,0,137386:0:0:0:0:
109,192,137446,1,0,0:0:0:0:
182,192,137446,1,0,0:0:0:0:
402,192,137446,1,0,0:0:0:0:
329,192,137446,1,0,0:0:0:0:
256,192,137446,128,0,137604:0:0:0:0:
182,192,137604,128,0,138393:0:0:0:0:
329,192,137604,128,0,138393:0:0:0:0:
36,192,137761,1,0,0:0:0:0:
475,192,137761,1,0,0:0:0:0:
109,192,137867,1,0,0:0:0:0:
402,192,137867,1,0,0:0:0:0:
36,192,137972,1,0,0:0:0:0:
475,192,137972,1,0,0:0:0:0:
256,192,138077,1,0,0:0:0:0:
109,192,138077,1,0,0:0:0:0:
402,192,138183,1,0,0:0:0:0:
36,192,138183,1,0,0:0:0:0:
475,192,138288,1,0,0:0:0:0:
256,192,138288,1,0,0:0:0:0:
109,192,138393,128,0,138709:0:0:0:0:
402,192,138393,128,0,138709:0:0:0:0:
36,192,138393,1,0,0:0:0:0:
475,192,138393,1,0,0:0:0:0:
182,192,138498,1,0,0:0:0:0:
329,192,138498,1,0,0:0:0:0:
256,192,138604,1,0,0:0:0:0:
475,192,138604,1,0,0:0:0:0:
36,192,138709,128,0,139025:0:0:0:0:
475,192,138709,128,0,139025:0:0:0:0:
182,192,138709,1,0,0:0:0:0:
329,192,138709,1,0,0:0:0:0:
256,192,138788,1,0,0:0:0:0:
402,192,138867,1,0,0:0:0:0:
109,192,138867,1,0,0:0:0:0:
256,192,138946,1,0,0:0:0:0:
182,192,139025,1,0,0:0:0:0:
109,192,139025,1,0,0:0:0:0:
329,192,139025,1,0,0:0:0:0:
402,192,139025,1,0,0:0:0:0:
256,192,139340,1,0,0:0:0:0:
329,192,139498,1,0,0:0:0:0:
182,192,139498,1,0,0:0:0:0:
182,192,139656,1,0,0:0:0:0:
109,192,139656,1,0,0:0:0:0:
329,192,139656,1,0,0:0:0:0:
402,192,139656,1,0,0:0:0:0:
109,192,139972,1,0,0:0:0:0:
402,192,139972,1,0,0:0:0:0:
256,192,140130,1,0,0:0:0:0:
109,192,140288,1,0,0:0:0:0:
402,192,140288,1,0,0:0:0:0:
36,192,140446,1,0,0:0:0:0:
475,192,140446,1,0,0:0:0:0:
256,192,140446,1,0,0:0:0:0:
402,192,140604,1,0,0:0:0:0:
109,192,140604,1,0,0:0:0:0:
182,192,140604,1,0,0:0:0:0:
329,192,140604,1,0,0:0:0:0:
182,192,140761,1,0,0:0:0:0:
329,192,140761,1,0,0:0:0:0:
109,192,140919,1,0,0:0:0:0:
402,192,140919,1,0,0:0:0:0:
475,192,140919,1,0,0:0:0:0:
36,192,140919,1,0,0:0:0:0:
256,192,141235,1,0,0:0:0:0:
109,192,141551,1,0,0:0:0:0:
182,192,141551,1,0,0:0:0:0:
329,192,141551,1,0,0:0:0:0:
402,192,141551,1,0,0:0:0:0:
109,192,141709,1,0,0:0:0:0:
402,192,141709,1,0,0:0:0:0:
329,192,141867,1,0,0:0:0:0:
182,192,141867,1,0,0:0:0:0:
36,192,142025,1,0,0:0:0:0:
475,192,142025,1,0,0:0:0:0:
402,192,142183,1,0,0:0:0:0:
109,192,142183,1,0,0:0:0:0:
256,192,142183,1,0,0:0:0:0:
182,192,142340,1,0,0:0:0:0:
329,192,142340,1,0,0:0:0:0:
109,192,142498,1,0,0:0:0:0:
402,192,142498,1,0,0:0:0:0:
256,192,142498,1,0,0:0:0:0:
182,192,142656,1,0,0:0:0:0:
329,192,142656,1,0,0:0:0:0:
475,192,142814,128,0,143130:0:0:0:0:
256,192,142814,1,0,0:0:0:0:
402,192,142814,1,0,0:0:0:0:
329,192,142972,1,0,0:0:0:0:
402,192,143130,128,0,143446:0:0:0:0:
182,192,143130,1,0,0:0:0:0:
256,192,143130,1,0,0:0:0:0:
256,192,143288,1,0,0:0:0:0:
329,192,143446,128,0,143761:0:0:0:0:
109,192,143446,1,0,0:0:0:0:
182,192,143446,1,0,0:0:0:0:
256,192,143604,1,0,0:0:0:0:
182,192,143761,1,0,0:0:0:0:
36,192,143761,1,0,0:0:0:0:
475,192,143761,1,0,0:0:0:0:
256,192,143919,1,0,0:0:0:0:
402,192,143919,1,0,0:0:0:0:
329,192,143998,1,0,0:0:0:0:
182,192,143998,1,0,0:0:0:0:
36,192,144077,128,0,144788:0:0:0:0:
256,192,144077,1,0,0:0:0:0:
109,192,144077,1,0,0:0:0:0:
402,192,144077,1,0,0:0:0:0:
475,192,144077,1,0,0:0:0:0:
329,192,144235,1,0,0:0:0:0:
182,192,144235,1,0,0:0:0:0:
256,192,144393,1,0,0:0:0:0:
402,192,144393,1,0,0:0:0:0:
329,192,144551,1,0,0:0:0:0:
182,192,144551,1,0,0:0:0:0:
109,192,144709,128,0,145419:0:0:0:0:
256,192,144709,1,0,0:0:0:0:
402,192,144709,1,0,0:0:0:0:
475,192,144709,1,0,0:0:0:0:
182,192,144867,1,0,0:0:0:0:
36,192,144867,1,0,0:0:0:0:
329,192,145025,1,0,0:0:0:0:
475,192,145025,1,0,0:0:0:0:
256,192,145183,1,0,0:0:0:0:
36,192,145183,1,0,0:0:0:0:
182,192,145183,1,0,0:0:0:0:
182,192,145340,128,0,145893:0:0:0:0:
329,192,145340,1,0,0:0:0:0:
109,192,145498,1,0,0:0:0:0:
36,192,145498,1,0,0:0:0:0:
329,192,145498,1,0,0:0:0:0:
402,192,145498,1,0,0:0:0:0:
329,192,145656,1,0,0:0:0:0:
475,192,145656,1,0,0:0:0:0:
256,192,145656,1,0,0:0:0:0:
109,192,145814,1,0,0:0:0:0:
402,192,145814,1,0,0:0:0:0:
329,192,145893,1,0,0:0:0:0:
475,192,145893,1,0,0:0:0:0:
182,192,145972,1,0,0:0:0:0:
36,192,145972,1,0,0:0:0:0:
329,192,146130,1,0,0:0:0:0:
475,192,146130,1,0,0:0:0:0:
36,192,146288,1,0,0:0:0:0:
182,192,146288,1,0,0:0:0:0:
329,192,146288,1,0,0:0:0:0:
475,192,146288,1,0,0:0:0:0:
256,192,146288,1,0,0:0:0:0:
329,192,146604,128,0,146761:0:0:0:0:
475,192,146604,128,0,147235:0:0:0:0:
182,192,146604,1,0,0:0:0:0:
402,192,146683,128,0,147156:0:0:0:0:
256,192,146761,128,0,146919:0:0:0:0:
109,192,146761,1,0,0:0:0:0:
329,192,146840,128,0,147314:0:0:0:0:
182,192,146919,128,0,146998:0:0:0:0:
36,192,146919,128,0,147788:0:0:0:0:
109,192,146919,1,0,0:0:0:0:
256,192,146998,128,0,147156:0:0:0:0:
109,192,147077,128,0,147472:0:0:0:0:
182,192,147156,128,0,147630:0:0:0:0:
402,192,147235,128,0,147393:0:0:0:0:
256,192,147235,128,0,147472:0:0:0:0:
475,192,147314,128,0,147393:0:0:0:0:
329,192,147393,128,0,147551:0:0:0:0:
402,192,147472,128,0,147551:0:0:0:0:
256,192,147551,128,0,147709:0:0:0:0:
109,192,147551,128,0,148261:0:0:0:0:
475,192,147551,1,0,0:0:0:0:
329,192,147630,128,0,147709:0:0:0:0:
182,192,147709,128,0,148104:0:0:0:0:
402,192,147709,1,0,0:0:0:0:
475,192,147709,1,0,0:0:0:0:
256,192,147788,128,0,147946:0:0:0:0:
402,192,147867,128,0,147946:0:0:0:0:
36,192,147867,128,0,148735:0:0:0:0:
475,192,147867,128,0,148104:0:0:0:0:
329,192,147867,1,0,0:0:0:0:
329,192,147946,128,0,148104:0:0:0:0:
402,192,148025,128,0,148104:0:0:0:0:
256,192,148104,128,0,148261:0:0:0:0:
329,192,148183,128,0,148419:0:0:0:0:
475,192,148183,128,0,149051:0:0:0:0:
402,192,148183,128,0,148498:0:0:0:0:
182,192,148261,128,0,148735:0:0:0:0:
256,192,148340,128,0,148577:0:0:0:0:
109,192,148419,128,0,148893:0:0:0:0:
329,192,148498,128,0,148577:0:0:0:0:
402,192,148577,128,0,148735:0:0:0:0:
256,192,148656,128,0,148735:0:0:0:0:
329,192,148735,128,0,149051:0:0:0:0:
182,192,148814,128,0,148893:0:0:0:0:
36,192,148814,128,0,149367:0:0:0:0:
256,192,148814,1,0,0:0:0:0:
256,192,148893,128,0,149367:0:0:0:0:
109,192,148972,128,0,149051:0:0:0:0:
182,192,149051,128,0,149130:0:0:0:0:
329,192,149130,128,0,149209:0:0:0:0:
402,192,149130,128,0,149209:0:0:0:0:
475,192,149130,128,0,149367:0:0:0:0:
109,192,149209,128,0,149288:0:0:0:0:
182,192,149209,128,0,149288:0:0:0:0:
402,192,149288,128,0,149446:0:0:0:0:
329,192,149288,128,0,149446:0:0:0:0:
182,192,149367,128,0,149446:0:0:0:0:
109,192,149367,128,0,149446:0:0:0:0:
256,192,149446,128,0,149683:0:0:0:0:
475,192,149446,128,0,149525:0:0:0:0:
36,192,149446,128,0,149525:0:0:0:0:
402,192,149525,128,0,149604:0:0:0:0:
109,192,149525,128,0,149604:0:0:0:0:
182,192,149604,128,0,149683:0:0:0:0:
329,192,149604,128,0,149683:0:0:0:0:
109,192,149683,128,0,149761:0:0:0:0:
402,192,149683,128,0,149761:0:0:0:0:
475,192,149761,128,0,149840:0:0:0:0:
36,192,149761,128,0,149840:0:0:0:0:
256,192,149761,128,0,149998:0:0:0:0:
182,192,149840,128,0,149919:0:0:0:0:
329,192,149840,128,0,149919:0:0:0:0:
109,192,149919,128,0,149998:0:0:0:0:
402,192,149919,128,0,149998:0:0:0:0:
36,192,149998,128,0,150235:0:0:0:0:
475,192,149998,128,0,150235:0:0:0:0:
329,192,150077,128,0,150156:0:0:0:0:
182,192,150077,128,0,150156:0:0:0:0:
402,192,150077,128,0,150156:0:0:0:0:
109,192,150077,128,0,150156:0:0:0:0:
256,192,150156,128,0,150235:0:0:0:0:
109,192,150235,128,0,150314:0:0:0:0:
402,192,150235,128,0,150314:0:0:0:0:
182,192,150314,128,0,150393:0:0:0:0:
329,192,150314,128,0,150393:0:0:0:0:
36,192,150393,128,0,150946:0:0:0:0:
475,192,150393,128,0,150946:0:0:0:0:
256,192,150393,128,0,150472:0:0:0:0:
402,192,150472,128,0,150551:0:0:0:0:
109,192,150472,128,0,150551:0:0:0:0:
182,192,150551,128,0,150630:0:0:0:0:
329,192,150551,128,0,150630:0:0:0:0:
109,192,150630,128,0,150867:0:0:0:0:
402,192,150630,128,0,150867:0:0:0:0:
329,192,150709,128,0,150788:0:0:0:0:
182,192,150709,128,0,150788:0:0:0:0:
256,192,150788,128,0,151104:0:0:0:0:
182,192,150867,128,0,151104:0:0:0:0:
329,192,150867,128,0,151104:0:0:0:0:
109,192,150946,128,0,151104:0:0:0:0:
402,192,150946,128,0,151104:0:0:0:0:
36,192,151025,128,0,151104:0:0:0:0:
475,192,151025,128,0,151104:0:0:0:0:
329,192,151183,1,0,0:0:0:0:
402,192,151183,1,0,0:0:0:0:
256,192,151183,1,0,0:0:0:0:
182,192,151261,1,0,0:0:0:0:
109,192,151261,1,0,0:0:0:0:
36,192,151261,1,0,0:0:0:0:
329,192,151340,1,0,0:0:0:0:
402,192,151340,1,0,0:0:0:0:
475,192,151340,1,0,0:0:0:0:
256,192,151419,1,0,0:0:0:0:
182,192,151419,1,0,0:0:0:0:
109,192,151419,1,0,0:0:0:0:
329,192,151498,1,0,0:0:0:0:
475,192,151498,1,0,0:0:0:0:
402,192,151498,1,0,0:0:0:0:
182,192,151577,1,0,0:0:0:0:
109,192,151577,1,0,0:0:0:0:
36,192,151577,1,0,0:0:0:0:
475,192,151656,128,0,152130:0:0:0:0:
256,192,151656,128,0,151735:0:0:0:0:
329,192,151656,1,0,0:0:0:0:
402,192,151735,128,0,152051:0:0:0:0:
182,192,151735,128,0,151814:0:0:0:0:
36,192,151735,1,0,0:0:0:0:
329,192,151814,128,0,151893:0:0:0:0:
109,192,151814,1,0,0:0:0:0:
256,192,151893,128,0,151972:0:0:0:0:
36,192,151893,1,0,0:0:0:0:
182,192,151972,1,0,0:0:0:0:
329,192,151972,1,0,0:0:0:0:
109,192,151972,128,0,152051:0:0:0:0:
256,192,152051,1,0,0:0:0:0:
36,192,152051,128,0,152130:0:0:0:0:
329,192,152130,1,0,0:0:0:0:
182,192,152130,128,0,152209:0:0:0:0:
402,192,152209,1,0,0:0:0:0:
109,192,152209,128,0,152288:0:0:0:0:
475,192,152288,1,0,0:0:0:0:
329,192,152288,1,0,0:0:0:0:
256,192,152288,128,0,152683:0:0:0:0:
36,192,152288,128,0,152367:0:0:0:0:
182,192,152367,128,0,152604:0:0:0:0:
402,192,152367,1,0,0:0:0:0:
109,192,152446,128,0,152525:0:0:0:0:
329,192,152446,1,0,0:0:0:0:
402,192,152525,1,0,0:0:0:0:
36,192,152525,128,0,152604:0:0:0:0:
475,192,152604,1,0,0:0:0:0:
329,192,152604,1,0,0:0:0:0:
109,192,152604,128,0,152683:0:0:0:0:
402,192,152683,1,0,0:0:0:0:
182,192,152683,128,0,152761:0:0:0:0:
329,192,152761,1,0,0:0:0:0:
256,192,152761,128,0,152840:0:0:0:0:
36,192,152761,1,0,0:0:0:0:
402,192,152840,1,0,0:0:0:0:
109,192,152840,128,0,152919:0:0:0:0:
475,192,152919,1,0,0:0:0:0:
182,192,152919,128,0,152998:0:0:0:0:
256,192,152919,1,0,0:0:0:0:
329,192,152998,128,0,153077:0:0:0:0:
36,192,152998,1,0,0:0:0:0:
402,192,153077,128,0,153156:0:0:0:0:
256,192,153077,1,0,0:0:0:0:
475,192,153156,128,0,153235:0:0:0:0:
182,192,153156,1,0,0:0:0:0:
109,192,153235,128,0,153314:0:0:0:0:
329,192,153235,1,0,0:0:0:0:
256,192,153314,128,0,153393:0:0:0:0:
36,192,153314,1,0,0:0:0:0:
329,192,153393,128,0,153472:0:0:0:0:
475,192,153393,1,0,0:0:0:0:
182,192,153393,1,0,0:0:0:0:
402,192,153472,128,0,153551:0:0:0:0:
256,192,153472,1,0,0:0:0:0:
36,192,153551,128,0,153630:0:0:0:0:
109,192,153551,1,0,0:0:0:0:
475,192,153551,1,0,0:0:0:0:
182,192,153630,128,0,153709:0:0:0:0:
329,192,153630,1,0,0:0:0:0:
256,192,153709,128,0,153788:0:0:0:0:
402,192,153709,1,0,0:0:0:0:
329,192,153788,128,0,153867:0:0:0:0:
36,192,153788,1,0,0:0:0:0:
475,192,153867,128,0,153946:0:0:0:0:
109,192,153867,1,0,0:0:0:0:
182,192,153946,128,0,154025:0:0:0:0:
402,192,153946,1,0,0:0:0:0:
329,192,154025,128,0,154104:0:0:0:0:
256,192,154025,1,0,0:0:0:0:
36,192,154104,128,0,154183:0:0:0:0:
109,192,154104,1,0,0:0:0:0:
256,192,154183,128,0,154301:0:0:0:0:
182,192,154183,1,0,0:0:0:0:
329,192,154222,128,0,154340:0:0:0:0:
402,192,154261,128,0,154380:0:0:0:0:
475,192,154301,128,0,154419:0:0:0:0:
109,192,154340,1,0,0:0:0:0:
182,192,154380,1,0,0:0:0:0:
256,192,154419,1,0,0:0:0:0:
329,192,154459,1,0,0:0:0:0:
182,192,154498,128,0,154617:0:0:0:0:
36,192,154498,1,0,0:0:0:0:
256,192,154538,128,0,154656:0:0:0:0:
402,192,154577,128,0,154696:0:0:0:0:
475,192,154617,128,0,154735:0:0:0:0:
109,192,154656,1,0,0:0:0:0:
182,192,154696,1,0,0:0:0:0:
329,192,154735,1,0,0:0:0:0:
402,192,154775,1,0,0:0:0:0:
256,192,154814,128,0,154933:0:0:0:0:
475,192,154814,1,0,0:0:0:0:
182,192,154854,128,0,154972:0:0:0:0:
109,192,154893,128,0,155011:0:0:0:0:
36,192,154933,128,0,155051:0:0:0:0:
329,192,154972,1,0,0:0:0:0:
256,192,155011,1,0,0:0:0:0:
182,192,155051,1,0,0:0:0:0:
109,192,155090,1,0,0:0:0:0:
256,192,155130,128,0,155248:0:0:0:0:
329,192,155169,128,0,155288:0:0:0:0:
402,192,155209,128,0,155327:0:0:0:0:
475,192,155248,128,0,155367:0:0:0:0:
182,192,155288,1,0,0:0:0:0:
36,192,155288,1,0,0:0:0:0:
256,192,155327,1,0,0:0:0:0:
329,192,155367,1,0,0:0:0:0:
402,192,155406,1,0,0:0:0:0:
475,192,155446,1,0,0:0:0:0:
109,192,155446,128,0,155525:0:0:0:0:
36,192,155446,1,0,0:0:0:0:
256,192,155525,128,0,155604:0:0:0:0:
182,192,155525,1,0,0:0:0:0:
329,192,155604,128,0,155683:0:0:0:0:
109,192,155604,1,0,0:0:0:0:
402,192,155683,128,0,155761:0:0:0:0:
182,192,155683,1,0,0:0:0:0:
36,192,155761,128,0,155840:0:0:0:0:
256,192,155761,1,0,0:0:0:0:
182,192,155840,128,0,155919:0:0:0:0:
475,192,155840,1,0,0:0:0:0:
256,192,155919,128,0,155998:0:0:0:0:
402,192,155919,1,0,0:0:0:0:
329,192,155998,128,0,156077:0:0:0:0:
109,192,155998,1,0,0:0:0:0:
475,192,156077,128,0,156156:0:0:0:0:
36,192,156077,1,0,0:0:0:0:
256,192,156156,128,0,156235:0:0:0:0:
182,192,156156,1,0,0:0:0:0:
402,192,156235,128,0,156314:0:0:0:0:
109,192,156235,1,0,0:0:0:0:
182,192,156314,128,0,156393:0:0:0:0:
329,192,156314,1,0,0:0:0:0:
36,192,156393,128,0,156472:0:0:0:0:
475,192,156393,1,0,0:0:0:0:
256,192,156472,128,0,156551:0:0:0:0:
402,192,156472,1,0,0:0:0:0:
109,192,156551,128,0,156630:0:0:0:0:
182,192,156551,1,0,0:0:0:0:
329,192,156630,128,0,156709:0:0:0:0:
402,192,156630,1,0,0:0:0:0:
475,192,156709,128,0,156788:0:0:0:0:
36,192,156709,128,0,156946:0:0:0:0:
182,192,156709,1,0,0:0:0:0:
256,192,156788,128,0,156867:0:0:0:0:
402,192,156867,128,0,156946:0:0:0:0:
109,192,156867,128,0,157104:0:0:0:0:
182,192,156946,128,0,157025:0:0:0:0:
475,192,156946,128,0,157025:0:0:0:0:
36,192,157025,128,0,157104:0:0:0:0:
329,192,157025,128,0,157183:0:0:0:0:
402,192,157025,1,0,0:0:0:0:
256,192,157104,128,0,157183:0:0:0:0:
475,192,157104,128,0,157183:0:0:0:0:
109,192,157183,128,0,157261:0:0:0:0:
402,192,157183,128,0,157419:0:0:0:0:
329,192,157261,128,0,157340:0:0:0:0:
182,192,157261,128,0,157340:0:0:0:0:
475,192,157340,128,0,157419:0:0:0:0:
36,192,157340,1,0,0:0:0:0:
109,192,157340,128,0,157577:0:0:0:0:
256,192,157419,128,0,157498:0:0:0:0:
329,192,157419,128,0,157498:0:0:0:0:
402,192,157498,128,0,157577:0:0:0:0:
36,192,157498,128,0,157577:0:0:0:0:
182,192,157577,128,0,157656:0:0:0:0:
475,192,157577,128,0,157656:0:0:0:0:
36,192,157656,128,0,157735:0:0:0:0:
402,192,157656,1,0,0:0:0:0:
329,192,157656,128,0,157814:0:0:0:0:
256,192,157735,128,0,157814:0:0:0:0:
182,192,157735,128,0,157972:0:0:0:0:
109,192,157814,128,0,157893:0:0:0:0:
402,192,157814,1,0,0:0:0:0:
329,192,157893,128,0,157972:0:0:0:0:
36,192,157972,128,0,158130:0:0:0:0:
109,192,157972,1,0,0:0:0:0:
475,192,157972,128,0,158209:0:0:0:0:
256,192,158051,128,0,158130:0:0:0:0:
329,192,158051,128,0,158130:0:0:0:0:
109,192,158130,128,0,158209:0:0:0:0:
402,192,158130,128,0,158209:0:0:0:0:
329,192,158209,128,0,158288:0:0:0:0:
36,192,158209,128,0,158288:0:0:0:0:
475,192,158288,128,0,158446:0:0:0:0:
182,192,158288,128,0,158446:0:0:0:0:
402,192,158288,1,0,0:0:0:0:
256,192,158367,128,0,158446:0:0:0:0:
36,192,158367,128,0,158446:0:0:0:0:
402,192,158446,128,0,158525:0:0:0:0:
109,192,158446,128,0,158604:0:0:0:0:
182,192,158525,128,0,158604:0:0:0:0:
329,192,158525,128,0,158604:0:0:0:0:
36,192,158604,128,0,158761:0:0:0:0:
402,192,158604,128,0,158683:0:0:0:0:
256,192,158683,128,0,158761:0:0:0:0:
182,192,158683,128,0,158761:0:0:0:0:
109,192,158761,128,0,158840:0:0:0:0:
475,192,158761,1,0,0:0:0:0:
402,192,158761,128,0,158919:0:0:0:0:
329,192,158840,128,0,158919:0:0:0:0:
36,192,158840,128,0,158919:0:0:0:0:
475,192,158919,128,0,159077:0:0:0:0:
182,192,158919,1,0,0:0:0:0:
109,192,158919,128,0,158998:0:0:0:0:
256,192,158998,128,0,159077:0:0:0:0:
329,192,158998,1,0,0:0:0:0:
402,192,159077,128,0,159156:0:0:0:0:
109,192,159077,1,0,0:0:0:0:
182,192,159156,128,0,159235:0:0:0:0:
256,192,159156,1,0,0:0:0:0:
329,192,159235,128,0,159393:0:0:0:0:
109,192,159235,128,0,159551:0:0:0:0:
256,192,159314,128,0,159630:0:0:0:0:
475,192,159314,128,0,159472:0:0:0:0:
182,192,159393,128,0,159472:0:0:0:0:
402,192,159393,128,0,159709:0:0:0:0:
36,192,159472,128,0,159709:0:0:0:0:
329,192,159472,128,0,159551:0:0:0:0:
182,192,159551,128,0,159867:0:0:0:0:
475,192,159551,128,0,159630:0:0:0:0:
109,192,159630,128,0,159788:0:0:0:0:
329,192,159630,128,0,159788:0:0:0:0:
256,192,159709,128,0,160025:0:0:0:0:
475,192,159709,128,0,159867:0:0:0:0:
36,192,159788,128,0,159946:0:0:0:0:
402,192,159788,128,0,159946:0:0:0:0:
109,192,159867,128,0,160104:0:0:0:0:
329,192,159867,128,0,160104:0:0:0:0:
182,192,159946,128,0,160183:0:0:0:0:
475,192,159946,128,0,160261:0:0:0:0:
402,192,160025,128,0,160183:0:0:0:0:
36,192,160025,128,0,160261:0:0:0:0:
256,192,160104,128,0,160261:0:0:0:0:
109,192,160183,128,0,160261:0:0:0:0:
329,192,160183,128,0,160261:0:0:0:0:
182,192,160261,128,0,160340:0:0:0:0:
402,192,160261,128,0,160340:0:0:0:0:
36,192,160340,128,0,160419:0:0:0:0:
475,192,160340,128,0,160419:0:0:0:0:
109,192,160340,128,0,160419:0:0:0:0:
329,192,160340,128,0,160419:0:0:0:0:
256,192,160340,128,0,160419:0:0:0:0:
182,192,160498,128,0,160656:0:0:0:0:
36,192,160498,128,0,160577:0:0:0:0:
329,192,160498,128,0,160656:0:0:0:0:
475,192,160577,128,0,160735:0:0:0:0:
256,192,160577,128,0,160735:0:0:0:0:
109,192,160656,128,0,160735:0:0:0:0:
402,192,160656,128,0,160735:0:0:0:0:
36,192,160656,128,0,160735:0:0:0:0:
182,192,160735,128,0,160893:0:0:0:0:
329,192,160735,128,0,160893:0:0:0:0:
36,192,160814,128,0,160893:0:0:0:0:
475,192,160814,128,0,160893:0:0:0:0:
256,192,160814,128,0,160893:0:0:0:0:
109,192,160814,128,0,160893:0:0:0:0:
402,192,160814,128,0,160893:0:0:0:0:
109,192,160972,128,0,161051:0:0:0:0:
329,192,160972,128,0,161130:0:0:0:0:
256,192,160972,128,0,161051:0:0:0:0:
182,192,160972,128,0,161209:0:0:0:0:
402,192,161051,128,0,161130:0:0:0:0:
475,192,161130,128,0,161209:0:0:0:0:
109,192,161130,128,0,161288:0:0:0:0:
256,192,161130,128,0,161209:0:0:0:0:
36,192,161130,128,0,161209:0:0:0:0:
402,192,161209,128,0,161367:0:0:0:0:
329,192,161209,128,0,161288:0:0:0:0:
182,192,161288,128,0,161446:0:0:0:0:
475,192,161288,128,0,161367:0:0:0:0:
256,192,161288,128,0,161367:0:0:0:0:
36,192,161288,128,0,161367:0:0:0:0:
109,192,161367,128,0,161525:0:0:0:0:
329,192,161367,128,0,161446:0:0:0:0:
256,192,161446,128,0,161525:0:0:0:0:
475,192,161446,128,0,161525:0:0:0:0:
402,192,161446,128,0,161525:0:0:0:0:
36,192,161446,128,0,161604:0:0:0:0:
182,192,161525,128,0,161604:0:0:0:0:
329,192,161525,128,0,161604:0:0:0:0:
109,192,161604,128,0,161683:0:0:0:0:
256,192,161604,128,0,161683:0:0:0:0:
36,192,161683,128,0,161761:0:0:0:0:
182,192,161683,128,0,161761:0:0:0:0:
475,192,161761,128,0,162235:0:0:0:0:
256,192,161761,128,0,161840:0:0:0:0:
329,192,161761,128,0,161840:0:0:0:0:
402,192,161840,128,0,162156:0:0:0:0:
109,192,161840,128,0,161919:0:0:0:0:
256,192,161919,128,0,161998:0:0:0:0:
182,192,161919,128,0,161998:0:0:0:0:
36,192,161998,128,0,162077:0:0:0:0:
329,192,161998,128,0,162077:0:0:0:0:
109,192,162077,128,0,162156:0:0:0:0:
182,192,162156,128,0,162235:0:0:0:0:
256,192,162156,128,0,162235:0:0:0:0:
329,192,162235,128,0,162314:0:0:0:0:
36,192,162235,128,0,162314:0:0:0:0:
109,192,162314,128,0,162393:0:0:0:0:
402,192,162314,128,0,162393:0:0:0:0:
182,192,162393,1,0,0:0:0:0:
256,192,162393,128,0,162788:0:0:0:0:
475,192,162393,128,0,162472:0:0:0:0:
36,192,162393,128,0,162630:0:0:0:0:
329,192,162472,128,0,162709:0:0:0:0:
109,192,162472,128,0,162551:0:0:0:0:
402,192,162551,128,0,162630:0:0:0:0:
182,192,162551,128,0,162630:0:0:0:0:
475,192,162630,128,0,162709:0:0:0:0:
109,192,162630,128,0,162709:0:0:0:0:
402,192,162709,128,0,162788:0:0:0:0:
36,192,162709,128,0,162867:0:0:0:0:
329,192,162788,128,0,162867:0:0:0:0:
109,192,162788,128,0,162867:0:0:0:0:
256,192,162867,128,0,162946:0:0:0:0:
475,192,162867,128,0,162946:0:0:0:0:
182,192,162867,128,0,162946:0:0:0:0:
402,192,162946,128,0,163025:0:0:0:0:
109,192,162946,128,0,163025:0:0:0:0:
329,192,163025,128,0,163104:0:0:0:0:
36,192,163025,128,0,163104:0:0:0:0:
256,192,163025,128,0,163104:0:0:0:0:
182,192,163104,128,0,163183:0:0:0:0:
475,192,163104,128,0,163183:0:0:0:0:
109,192,163183,128,0,163261:0:0:0:0:
402,192,163183,128,0,163261:0:0:0:0:
256,192,163183,128,0,163261:0:0:0:0:
36,192,163261,128,0,163340:0:0:0:0:
329,192,163261,128,0,163340:0:0:0:0:
402,192,163340,128,0,163419:0:0:0:0:
182,192,163340,128,0,163419:0:0:0:0:
256,192,163419,128,0,163498:0:0:0:0:
475,192,163419,128,0,163498:0:0:0:0:
182,192,163498,128,0,163577:0:0:0:0:
329,192,163498,128,0,163577:0:0:0:0:
36,192,163498,128,0,163577:0:0:0:0:
109,192,163577,128,0,163656:0:0:0:0:
256,192,163577,128,0,163656:0:0:0:0:
475,192,163656,128,0,163735:0:0:0:0:
36,192,163656,128,0,163735:0:0:0:0:
402,192,163656,128,0,163735:0:0:0:0:
329,192,163735,128,0,163814:0:0:0:0:
182,192,163735,128,0,163814:0:0:0:0:
256,192,163814,128,0,163893:0:0:0:0:
109,192,163814,128,0,163893:0:0:0:0:
182,192,163893,128,0,163972:0:0:0:0:
475,192,163893,128,0,163972:0:0:0:0:
36,192,163972,128,0,164051:0:0:0:0:
402,192,163972,128,0,164051:0:0:0:0:
329,192,164051,128,0,164130:0:0:0:0:
109,192,164051,128,0,164130:0:0:0:0:
182,192,164130,128,0,164367:0:0:0:0:
256,192,164130,128,0,164288:0:0:0:0:
109,192,164209,128,0,164446:0:0:0:0:
329,192,164209,128,0,164288:0:0:0:0:
475,192,164288,128,0,164525:0:0:0:0:
402,192,164288,128,0,164367:0:0:0:0:
36,192,164288,128,0,164367:0:0:0:0:
256,192,164367,128,0,164446:0:0:0:0:
182,192,164446,128,0,164525:0:0:0:0:
402,192,164446,128,0,164683:0:0:0:0:
329,192,164525,128,0,164604:0:0:0:0:
109,192,164525,128,0,164604:0:0:0:0:
475,192,164604,128,0,164683:0:0:0:0:
182,192,164604,128,0,164761:0:0:0:0:
36,192,164604,1,0,0:0:0:0:
256,192,164683,128,0,164761:0:0:0:0:
329,192,164683,128,0,164761:0:0:0:0:
402,192,164761,128,0,164840:0:0:0:0:
109,192,164761,128,0,164998:0:0:0:0:
36,192,164761,128,0,164840:0:0:0:0:
329,192,164840,128,0,164919:0:0:0:0:
182,192,164840,128,0,164919:0:0:0:0:
36,192,164919,128,0,165077:0:0:0:0:
475,192,164919,1,0,0:0:0:0:
402,192,164919,128,0,165156:0:0:0:0:
256,192,164998,128,0,165077:0:0:0:0:
182,192,164998,128,0,165077:0:0:0:0:
109,192,165077,128,0,165156:0:0:0:0:
475,192,165077,128,0,165156:0:0:0:0:
329,192,165156,128,0,165235:0:0:0:0:
36,192,165156,128,0,165235:0:0:0:0:
475,192,165235,128,0,165393:0:0:0:0:
182,192,165235,128,0,165393:0:0:0:0:
256,192,165235,128,0,165314:0:0:0:0:
329,192,165314,128,0,165551:0:0:0:0:
109,192,165314,128,0,165551:0:0:0:0:
402,192,165393,128,0,165472:0:0:0:0:
36,192,165393,128,0,165472:0:0:0:0:
256,192,165472,128,0,165551:0:0:0:0:
475,192,165551,128,0,165709:0:0:0:0:
36,192,165551,128,0,165788:0:0:0:0:
182,192,165551,128,0,165630:0:0:0:0:
402,192,165551,128,0,165630:0:0:0:0:
109,192,165630,128,0,165709:0:0:0:0:
329,192,165630,128,0,165788:0:0:0:0:
256,192,165709,128,0,165788:0:0:0:0:
402,192,165709,128,0,165946:0:0:0:0:
182,192,165788,128,0,165867:0:0:0:0:
475,192,165788,128,0,165867:0:0:0:0:
36,192,165867,128,0,166025:0:0:0:0:
329,192,165867,128,0,166025:0:0:0:0:
109,192,165867,128,0,165946:0:0:0:0:
256,192,165946,128,0,166025:0:0:0:0:
475,192,165946,128,0,166025:0:0:0:0:
182,192,165946,128,0,166025:0:0:0:0:
109,192,166025,128,0,166104:0:0:0:0:
402,192,166025,128,0,166183:0:0:0:0:
329,192,166104,128,0,166183:0:0:0:0:
182,192,166104,128,0,166340:0:0:0:0:
475,192,166183,128,0,166340:0:0:0:0:
109,192,166183,128,0,166261:0:0:0:0:
256,192,166261,128,0,166498:0:0:0:0:
329,192,166261,128,0,166419:0:0:0:0:
36,192,166261,128,0,166419:0:0:0:0:
402,192,166340,128,0,166419:0:0:0:0:
109,192,166340,128,0,166577:0:0:0:0:
182,192,166419,128,0,166498:0:0:0:0:
475,192,166419,128,0,166577:0:0:0:0:
36,192,166498,128,0,166656:0:0:0:0:
402,192,166498,128,0,166577:0:0:0:0:
329,192,166498,128,0,166656:0:0:0:0:
256,192,166577,128,0,166656:0:0:0:0:
182,192,166577,128,0,166656:0:0:0:0:
109,192,166656,128,0,166735:0:0:0:0:
402,192,166656,128,0,166735:0:0:0:0:
475,192,166656,128,0,166735:0:0:0:0:
329,192,166735,128,0,166814:0:0:0:0:
256,192,166735,128,0,166814:0:0:0:0:
36,192,166735,128,0,166814:0:0:0:0:
402,192,166814,128,0,167288:0:0:0:0:
182,192,166814,1,0,0:0:0:0:
475,192,166814,1,0,0:0:0:0:
329,192,166893,1,0,0:0:0:0:
109,192,166893,1,0,0:0:0:0:
475,192,166972,1,0,0:0:0:0:
182,192,166972,1,0,0:0:0:0:
36,192,166972,1,0,0:0:0:0:
329,192,167051,1,0,0:0:0:0:
109,192,167051,1,0,0:0:0:0:
256,192,167130,1,0,0:0:0:0:
36,192,167130,1,0,0:0:0:0:
475,192,167130,1,0,0:0:0:0:
182,192,167209,1,0,0:0:0:0:
329,192,167209,1,0,0:0:0:0:
256,192,167288,1,0,0:0:0:0:
109,192,167288,1,0,0:0:0:0:
36,192,167288,1,0,0:0:0:0:
475,192,167288,1,0,0:0:0:0:
329,192,167367,1,0,0:0:0:0:
182,192,167367,1,0,0:0:0:0:
475,192,167446,1,0,0:0:0:0:
36,192,167446,1,0,0:0:0:0:
329,192,167525,1,0,0:0:0:0:
109,192,167525,1,0,0:0:0:0:
182,192,167604,1,0,0:0:0:0:
402,192,167604,1,0,0:0:0:0:
256,192,167683,1,0,0:0:0:0:
475,192,167683,1,0,0:0:0:0:
36,192,167683,1,0,0:0:0:0:
182,192,167761,1,0,0:0:0:0:
402,192,167761,1,0,0:0:0:0:
109,192,167761,1,0,0:0:0:0:
36,192,167840,1,0,0:0:0:0:
329,192,167840,1,0,0:0:0:0:
109,192,167919,1,0,0:0:0:0:
402,192,167919,1,0,0:0:0:0:
256,192,167919,1,0,0:0:0:0:
182,192,167998,1,0,0:0:0:0:
475,192,167998,1,0,0:0:0:0:
256,192,168077,1,0,0:0:0:0:
402,192,168077,1,0,0:0:0:0:
36,192,168077,128,0,168709:0:0:0:0:
109,192,168077,1,0,0:0:0:0:
182,192,168156,1,0,0:0:0:0:
329,192,168156,1,0,0:0:0:0:
109,192,168235,1,0,0:0:0:0:
256,192,168235,1,0,0:0:0:0:
182,192,168314,1,0,0:0:0:0:
329,192,168314,1,0,0:0:0:0:
256,192,168393,1,0,0:0:0:0:
402,192,168393,1,0,0:0:0:0:
329,192,168472,1,0,0:0:0:0:
475,192,168472,1,0,0:0:0:0:
256,192,168551,1,0,0:0:0:0:
402,192,168551,1,0,0:0:0:0:
329,192,168630,1,0,0:0:0:0:
182,192,168630,1,0,0:0:0:0:
402,192,168709,1,0,0:0:0:0:
109,192,168709,1,0,0:0:0:0:
475,192,168709,128,0,168867:0:0:0:0:
256,192,168709,128,0,168788:0:0:0:0:
36,192,168788,128,0,168867:0:0:0:0:
329,192,168867,128,0,168946:0:0:0:0:
182,192,168867,1,0,0:0:0:0:
402,192,168867,1,0,0:0:0:0:
109,192,168946,128,0,169025:0:0:0:0:
182,192,169025,128,0,169104:0:0:0:0:
256,192,169025,1,0,0:0:0:0:
36,192,169025,1,0,0:0:0:0:
329,192,169104,128,0,169183:0:0:0:0:
36,192,169183,128,0,169261:0:0:0:0:
182,192,169183,1,0,0:0:0:0:
402,192,169183,1,0,0:0:0:0:
256,192,169261,128,0,169340:0:0:0:0:
475,192,169340,128,0,170604:0:0:0:0:
109,192,169340,1,0,0:0:0:0:
329,192,169340,1,0,0:0:0:0:
182,192,169419,1,0,0:0:0:0:
402,192,169419,1,0,0:0:0:0:
329,192,169498,1,0,0:0:0:0:
109,192,169498,1,0,0:0:0:0:
256,192,169577,1,0,0:0:0:0:
36,192,169577,1,0,0:0:0:0:
182,192,169656,1,0,0:0:0:0:
402,192,169656,1,0,0:0:0:0:
329,192,169735,1,0,0:0:0:0:
109,192,169735,1,0,0:0:0:0:
256,192,169814,1,0,0:0:0:0:
36,192,169814,1,0,0:0:0:0:
109,192,169893,1,0,0:0:0:0:
329,192,169893,1,0,0:0:0:0:
182,192,169972,1,0,0:0:0:0:
402,192,169972,1,0,0:0:0:0:
109,192,170051,1,0,0:0:0:0:
329,192,170051,1,0,0:0:0:0:
256,192,170130,1,0,0:0:0:0:
36,192,170130,1,0,0:0:0:0:
182,192,170209,1,0,0:0:0:0:
402,192,170209,1,0,0:0:0:0:
329,192,170288,1,0,0:0:0:0:
109,192,170288,1,0,0:0:0:0:
36,192,170288,1,0,0:0:0:0:
256,192,170367,1,0,0:0:0:0:
402,192,170446,1,0,0:0:0:0:
182,192,170446,1,0,0:0:0:0:
109,192,170525,1,0,0:0:0:0:
329,192,170525,1,0,0:0:0:0:
256,192,170604,1,0,0:0:0:0:
36,192,170604,1,0,0:0:0:0:
402,192,170604,1,0,0:0:0:0:
109,192,170683,1,0,0:0:0:0:
182,192,170761,1,0,0:0:0:0:
256,192,170840,1,0,0:0:0:0:
329,192,170919,1,0,0:0:0:0:
182,192,170919,1,0,0:0:0:0:
475,192,170998,1,0,0:0:0:0:
36,192,170998,1,0,0:0:0:0:
329,192,171077,1,0,0:0:0:0:
182,192,171077,1,0,0:0:0:0:
475,192,171156,1,0,0:0:0:0:
36,192,171156,1,0,0:0:0:0:
256,192,171235,1,0,0:0:0:0:
182,192,171235,1,0,0:0:0:0:
109,192,171235,1,0,0:0:0:0:
402,192,171235,1,0,0:0:0:0:
329,192,171235,1,0,0:0:0:0:
109,192,171393,1,0,0:0:0:0:
182,192,171393,1,0,0:0:0:0:
329,192,171393,1,0,0:0:0:0:
402,192,171393,1,0,0:0:0:0:
109,192,171551,1,0,0:0:0:0:
36,192,171551,1,0,0:0:0:0:
402,192,171551,1,0,0:0:0:0:
475,192,171551,1,0,0:0:0:0:
109,192,171709,1,0,0:0:0:0:
182,192,171709,1,0,0:0:0:0:
402,192,171709,1,0,0:0:0:0:
329,192,171709,1,0,0:0:0:0:
36,192,171867,128,0,172235:0:0:0:0:
182,192,171867,128,0,171946:0:0:0:0:
329,192,171867,1,0,0:0:0:0:
402,192,171867,1,0,0:0:0:0:
475,192,171867,1,0,0:0:0:0:
256,192,171946,128,0,172025:0:0:0:0:
329,192,172025,128,0,172104:0:0:0:0:
402,192,172104,128,0,172183:0:0:0:0:
256,192,172183,128,0,172551:0:0:0:0:
182,192,172183,128,0,172261:0:0:0:0:
109,192,172183,1,0,0:0:0:0:
329,192,172183,1,0,0:0:0:0:
475,192,172183,1,0,0:0:0:0:
36,192,172261,128,0,172340:0:0:0:0:
475,192,172340,128,0,172419:0:0:0:0:
329,192,172419,128,0,172498:0:0:0:0:
475,192,172498,128,0,172867:0:0:0:0:
109,192,172498,128,0,172577:0:0:0:0:
182,192,172498,1,0,0:0:0:0:
36,192,172498,1,0,0:0:0:0:
402,192,172498,1,0,0:0:0:0:
256,192,172577,128,0,172656:0:0:0:0:
402,192,172656,128,0,172735:0:0:0:0:
182,192,172735,128,0,172814:0:0:0:0:
109,192,172814,128,0,173183:0:0:0:0:
329,192,172814,128,0,172893:0:0:0:0:
36,192,172814,1,0,0:0:0:0:
256,192,172814,1,0,0:0:0:0:
402,192,172814,1,0,0:0:0:0:
475,192,172893,128,0,172972:0:0:0:0:
256,192,172972,128,0,173051:0:0:0:0:
402,192,173051,128,0,173130:0:0:0:0:
256,192,173130,128,0,173498:0:0:0:0:
182,192,173130,128,0,173209:0:0:0:0:
329,192,173130,1,0,0:0:0:0:
475,192,173130,1,0,0:0:0:0:
36,192,173130,1,0,0:0:0:0:
109,192,173209,128,0,173288:0:0:0:0:
402,192,173288,128,0,173367:0:0:0:0:
329,192,173367,128,0,173446:0:0:0:0:
402,192,173446,128,0,173814:0:0:0:0:
109,192,173446,128,0,173525:0:0:0:0:
182,192,173446,1,0,0:0:0:0:
36,192,173446,1,0,0:0:0:0:
475,192,173446,1,0,0:0:0:0:
256,192,173525,128,0,173604:0:0:0:0:
36,192,173604,128,0,173683:0:0:0:0:
182,192,173683,128,0,173761:0:0:0:0:
329,192,173761,128,0,173840:0:0:0:0:
36,192,173761,128,0,174130:0:0:0:0:
256,192,173761,1,0,0:0:0:0:
109,192,173761,1,0,0:0:0:0:
475,192,173761,1,0,0:0:0:0:
402,192,173840,128,0,173919:0:0:0:0:
256,192,173919,128,0,173998:0:0:0:0:
182,192,173998,128,0,174077:0:0:0:0:
475,192,174077,128,0,174156:0:0:0:0:
109,192,174077,1,0,0:0:0:0:
329,192,174077,128,0,174446:0:0:0:0:
256,192,174077,1,0,0:0:0:0:
402,192,174077,1,0,0:0:0:0:
36,192,174156,128,0,174235:0:0:0:0:
402,192,174235,128,0,174314:0:0:0:0:
109,192,174314,128,0,174393:0:0:0:0:
182,192,174393,128,0,174761:0:0:0:0:
256,192,174393,128,0,174472:0:0:0:0:
475,192,174393,1,0,0:0:0:0:
402,192,174393,1,0,0:0:0:0:
36,192,174393,1,0,0:0:0:0:
329,192,174472,128,0,174551:0:0:0:0:
36,192,174551,128,0,174630:0:0:0:0:
109,192,174630,128,0,174709:0:0:0:0:
475,192,174709,128,0,175077:0:0:0:0:
402,192,174709,128,0,174788:0:0:0:0:
329,192,174709,1,0,0:0:0:0:
256,192,174709,1,0,0:0:0:0:
36,192,174709,1,0,0:0:0:0:
182,192,174788,128,0,174867:0:0:0:0:
329,192,174867,128,0,174946:0:0:0:0:
109,192,174946,128,0,175025:0:0:0:0:
256,192,175025,128,0,175393:0:0:0:0:
182,192,175025,128,0,175104:0:0:0:0:
36,192,175025,1,0,0:0:0:0:
329,192,175025,1,0,0:0:0:0:
402,192,175025,1,0,0:0:0:0:
475,192,175104,128,0,175183:0:0:0:0:
109,192,175183,128,0,175261:0:0:0:0:
182,192,175183,1,0,0:0:0:0:
402,192,175261,128,0,175340:0:0:0:0:
36,192,175340,128,0,175419:0:0:0:0:
109,192,175340,1,0,0:0:0:0:
475,192,175340,1,0,0:0:0:0:
329,192,175419,128,0,175498:0:0:0:0:
256,192,175419,1,0,0:0:0:0:
182,192,175498,128,0,175577:0:0:0:0:
36,192,175498,1,0,0:0:0:0:
402,192,175498,1,0,0:0:0:0:
475,192,175577,128,0,175656:0:0:0:0:
256,192,175577,1,0,0:0:0:0:
109,192,175656,128,0,175735:0:0:0:0:
329,192,175656,1,0,0:0:0:0:
182,192,175656,1,0,0:0:0:0:
402,192,175735,128,0,175814:0:0:0:0:
256,192,175735,1,0,0:0:0:0:
36,192,175814,128,0,175893:0:0:0:0:
109,192,175814,1,0,0:0:0:0:
475,192,175814,1,0,0:0:0:0:
329,192,175893,128,0,175972:0:0:0:0:
256,192,175893,1,0,0:0:0:0:
182,192,175972,128,0,176077:0:0:0:0:
36,192,175972,1,0,0:0:0:0:
402,192,175972,1,0,0:0:0:0:
402,192,176077,128,0,176183:0:0:0:0:
256,192,176077,1,0,0:0:0:0:
475,192,176077,1,0,0:0:0:0:
109,192,176183,128,0,176288:0:0:0:0:
182,192,176183,1,0,0:0:0:0:
329,192,176183,1,0,0:0:0:0:
475,192,176288,128,0,176393:0:0:0:0:
256,192,176288,1,0,0:0:0:0:
36,192,176288,1,0,0:0:0:0:
36,192,176393,128,0,176498:0:0:0:0:
329,192,176393,1,0,0:0:0:0:
182,192,176393,1,0,0:0:0:0:
402,192,176498,128,0,176604:0:0:0:0:
256,192,176498,1,0,0:0:0:0:
109,192,176604,128,0,176683:0:0:0:0:
182,192,176604,1,0,0:0:0:0:
475,192,176604,1,0,0:0:0:0:
329,192,176709,128,0,176788:0:0:0:0:
36,192,176709,1,0,0:0:0:0:
256,192,176709,1,0,0:0:0:0:
182,192,176814,128,0,176867:0:0:0:0:
109,192,176814,1,0,0:0:0:0:
402,192,176814,1,0,0:0:0:0:
256,192,176919,128,0,176959:0:0:0:0:
329,192,176919,1,0,0:0:0:0:
475,192,176919,1,0,0:0:0:0:
182,192,176919,1,0,0:0:0:0:
36,192,176919,1,0,0:0:0:0:
256,192,177235,1,0,0:0:0:0:
256,192,177551,1,0,0:0:0:0:
329,192,177551,1,0,0:0:0:0:
182,192,177551,1,0,0:0:0:0:
256,192,177867,1,0,0:0:0:0:
256,192,178183,1,0,0:0:0:0:
475,192,178340,1,0,0:0:0:0:
36,192,178340,1,0,0:0:0:0:
256,192,178498,1,0,0:0:0:0:
182,192,178814,1,0,0:0:0:0:
256,192,178814,1,0,0:0:0:0:
329,192,178814,1,0,0:0:0:0:
256,192,179130,1,0,0:0:0:0:
256,192,179446,1,0,0:0:0:0:
402,192,179604,1,0,0:0:0:0:
256,192,179761,1,0,0:0:0:0:
256,192,180077,1,0,0:0:0:0:
182,192,180077,1,0,0:0:0:0:
329,192,180077,1,0,0:0:0:0:
256,192,180393,1,0,0:0:0:0:
182,192,180393,1,0,0:0:0:0:
329,192,180393,1,0,0:0:0:0:
256,192,180709,1,0,0:0:0:0:
329,192,180867,1,0,0:0:0:0:
182,192,180867,1,0,0:0:0:0:
256,192,181025,1,0,0:0:0:0:
36,192,181025,1,0,0:0:0:0:
109,192,181183,1,0,0:0:0:0:
256,192,181183,1,0,0:0:0:0:
256,192,181340,1,0,0:0:0:0:
475,192,181340,1,0,0:0:0:0:
109,192,181498,1,0,0:0:0:0:
256,192,181656,1,0,0:0:0:0:
182,192,181656,1,0,0:0:0:0:
329,192,181656,1,0,0:0:0:0:
256,192,181972,1,0,0:0:0:0:
109,192,181972,1,0,0:0:0:0:
256,192,182288,1,0,0:0:0:0:
256,192,182604,1,0,0:0:0:0:
329,192,182604,1,0,0:0:0:0:
182,192,182604,1,0,0:0:0:0:
256,192,182919,1,0,0:0:0:0:
256,192,183235,1,0,0:0:0:0:
475,192,183393,1,0,0:0:0:0:
36,192,183393,1,0,0:0:0:0:
256,192,183551,1,0,0:0:0:0:
182,192,183867,1,0,0:0:0:0:
256,192,183867,1,0,0:0:0:0:
329,192,183867,1,0,0:0:0:0:
256,192,184183,1,0,0:0:0:0:
256,192,184498,1,0,0:0:0:0:
402,192,184656,1,0,0:0:0:0:
256,192,184814,1,0,0:0:0:0:
182,192,185130,1,0,0:0:0:0:
329,192,185130,1,0,0:0:0:0:
256,192,185130,1,0,0:0:0:0:
182,192,185446,1,0,0:0:0:0:
256,192,185446,1,0,0:0:0:0:
329,192,185446,1,0,0:0:0:0:
109,192,185446,1,0,0:0:0:0:
256,192,185761,1,0,0:0:0:0:
182,192,185919,1,0,0:0:0:0:
329,192,185919,1,0,0:0:0:0:
256,192,186077,1,0,0:0:0:0:
36,192,186077,1,0,0:0:0:0:
109,192,186077,1,0,0:0:0:0:
256,192,186235,1,0,0:0:0:0:
475,192,186235,1,0,0:0:0:0:
36,192,186235,1,0,0:0:0:0:
36,192,186393,1,0,0:0:0:0:
475,192,186393,1,0,0:0:0:0:
109,192,186551,1,0,0:0:0:0:
256,192,186551,1,0,0:0:0:0:
182,192,186709,1,0,0:0:0:0:
256,192,186709,1,0,0:0:0:0:
329,192,186709,1,0,0:0:0:0:
256,192,187025,1,0,0:0:0:0:
256,192,187340,1,0,0:0:0:0:
329,192,187656,1,0,0:0:0:0:
256,192,187656,1,0,0:0:0:0:
182,192,187656,1,0,0:0:0:0:
256,192,187972,1,0,0:0:0:0:
256,192,188288,1,0,0:0:0:0:
36,192,188446,1,0,0:0:0:0:
475,192,188446,1,0,0:0:0:0:
256,192,188604,1,0,0:0:0:0:
109,192,188604,1,0,0:0:0:0:
182,192,188919,1,0,0:0:0:0:
256,192,188919,1,0,0:0:0:0:
329,192,188919,1,0,0:0:0:0:
256,192,189235,1,0,0:0:0:0:
256,192,189551,1,0,0:0:0:0:
402,192,189709,1,0,0:0:0:0:
256,192,189867,1,0,0:0:0:0:
182,192,190183,1,0,0:0:0:0:
256,192,190183,1,0,0:0:0:0:
329,192,190183,1,0,0:0:0:0:
329,192,190498,1,0,0:0:0:0:
256,192,190498,1,0,0:0:0:0:
182,192,190498,1,0,0:0:0:0:
109,192,190498,1,0,0:0:0:0:
256,192,190814,1,0,0:0:0:0:
182,192,190972,1,0,0:0:0:0:
329,192,190972,1,0,0:0:0:0:
109,192,190972,1,0,0:0:0:0:
256,192,191130,1,0,0:0:0:0:
36,192,191130,1,0,0:0:0:0:
36,192,191288,1,0,0:0:0:0:
475,192,191288,1,0,0:0:0:0:
256,192,191446,1,0,0:0:0:0:
109,192,191446,1,0,0:0:0:0:
109,192,191604,1,0,0:0:0:0:
475,192,191604,1,0,0:0:0:0:
36,192,191761,1,0,0:0:0:0:
256,192,191761,1,0,0:0:0:0:
329,192,191761,1,0,0:0:0:0:
256,192,192077,1,0,0:0:0:0:
256,192,192393,1,0,0:0:0:0:
256,192,192709,1,0,0:0:0:0:
182,192,192709,1,0,0:0:0:0:
329,192,192709,1,0,0:0:0:0:
256,192,193025,1,0,0:0:0:0:
256,192,193340,1,0,0:0:0:0:
36,192,193498,1,0,0:0:0:0:
475,192,193498,1,0,0:0:0:0:
256,192,193656,1,0,0:0:0:0:
256,192,193972,1,0,0:0:0:0:
182,192,193972,1,0,0:0:0:0:
329,192,193972,1,0,0:0:0:0:
256,192,194288,1,0,0:0:0:0:
256,192,194604,1,0,0:0:0:0:
402,192,194761,1,0,0:0:0:0:
256,192,194919,1,0,0:0:0:0:
329,192,195235,1,0,0:0:0:0:
256,192,195235,1,0,0:0:0:0:
182,192,195235,1,0,0:0:0:0:
182,192,195551,1,0,0:0:0:0:
256,192,195551,1,0,0:0:0:0:
329,192,195551,1,0,0:0:0:0:
109,192,195551,1,0,0:0:0:0:
256,192,195867,1,0,0:0:0:0:
182,192,196025,1,0,0:0:0:0:
329,192,196025,1,0,0:0:0:0:
36,192,196183,1,0,0:0:0:0:
256,192,196183,1,0,0:0:0:0:
109,192,196340,1,0,0:0:0:0:
475,192,196340,1,0,0:0:0:0:
256,192,196498,1,0,0:0:0:0:
36,192,196498,1,0,0:0:0:0:
36,192,196656,1,0,0:0:0:0:
475,192,196656,1,0,0:0:0:0:
256,192,196814,1,0,0:0:0:0:
182,192,196814,1,0,0:0:0:0:
329,192,196814,1,0,0:0:0:0:
256,192,196972,1,0,0:0:0:0:
182,192,197025,1,0,0:0:0:0:
329,192,197025,1,0,0:0:0:0:
109,192,197077,1,0,0:0:0:0:
402,192,197077,1,0,0:0:0:0:
36,192,197130,128,0,198393:0:0:0:0:
475,192,197130,128,0,199577:0:0:0:0:
256,192,197446,128,0,197604:0:0:0:0:
182,192,197498,128,0,197656:0:0:0:0:
329,192,197498,128,0,197656:0:0:0:0:
109,192,197551,128,0,197604:0:0:0:0:
402,192,197551,128,0,197604:0:0:0:0:
182,192,197761,1,0,0:0:0:0:
256,192,197761,1,0,0:0:0:0:
329,192,197761,1,0,0:0:0:0:
256,192,198077,1,0,0:0:0:0:
256,192,198393,1,0,0:0:0:0:
36,192,198551,128,0,198630:0:0:0:0:
109,192,198551,1,0,0:0:0:0:
36,192,198709,128,0,198788:0:0:0:0:
256,192,198709,1,0,0:0:0:0:
36,192,198867,128,0,198946:0:0:0:0:
36,192,199025,128,0,199104:0:0:0:0:
256,192,199025,1,0,0:0:0:0:
182,192,199025,1,0,0:0:0:0:
329,192,199025,1,0,0:0:0:0:
36,192,199183,128,0,199261:0:0:0:0:
36,192,199340,128,0,199419:0:0:0:0:
256,192,199340,1,0,0:0:0:0:
36,192,199498,128,0,199577:0:0:0:0:
475,192,199656,128,0,200840:0:0:0:0:
256,192,199656,1,0,0:0:0:0:
182,192,199656,1,0,0:0:0:0:
329,192,199656,1,0,0:0:0:0:
402,192,199656,1,0,0:0:0:0:
36,192,199656,128,0,199893:0:0:0:0:
36,192,199972,128,0,200840:0:0:0:0:
256,192,199972,128,0,200130:0:0:0:0:
182,192,200025,128,0,200183:0:0:0:0:
329,192,200025,128,0,200183:0:0:0:0:
109,192,200077,128,0,200130:0:0:0:0:
402,192,200077,128,0,200130:0:0:0:0:
256,192,200288,1,0,0:0:0:0:
329,192,200288,1,0,0:0:0:0:
182,192,200288,1,0,0:0:0:0:
402,192,200604,128,0,200683:0:0:0:0:
256,192,200604,1,0,0:0:0:0:
182,192,200604,1,0,0:0:0:0:
329,192,200604,1,0,0:0:0:0:
329,192,200761,128,0,200840:0:0:0:0:
182,192,200919,128,0,202183:0:0:0:0:
109,192,200919,128,0,202183:0:0:0:0:
402,192,200919,1,0,0:0:0:0:
256,192,200919,1,0,0:0:0:0:
475,192,200919,1,0,0:0:0:0:
329,192,200919,1,0,0:0:0:0:
36,192,200919,1,0,0:0:0:0:
329,192,201077,1,0,0:0:0:0:
256,192,201235,1,0,0:0:0:0:
475,192,201235,1,0,0:0:0:0:
36,192,201393,1,0,0:0:0:0:
475,192,201393,1,0,0:0:0:0:
256,192,201551,1,0,0:0:0:0:
36,192,201551,1,0,0:0:0:0:
475,192,201709,1,0,0:0:0:0:
256,192,201867,1,0,0:0:0:0:
329,192,201867,1,0,0:0:0:0:
36,192,201867,1,0,0:0:0:0:
475,192,201867,1,0,0:0:0:0:
402,192,202183,128,0,203367:0:0:0:0:
256,192,202183,1,0,0:0:0:0:
36,192,202183,1,0,0:0:0:0:
329,192,202183,1,0,0:0:0:0:
475,192,202183,1,0,0:0:0:0:
475,192,202498,128,0,202577:0:0:0:0:
182,192,202498,128,0,202656:0:0:0:0:
109,192,202551,128,0,202709:0:0:0:0:
256,192,202551,128,0,202709:0:0:0:0:
36,192,202604,128,0,202656:0:0:0:0:
329,192,202604,128,0,202656:0:0:0:0:
475,192,202656,128,0,202735:0:0:0:0:
475,192,202814,128,0,204630:0:0:0:0:
109,192,202814,1,0,0:0:0:0:
182,192,202814,1,0,0:0:0:0:
256,192,202814,1,0,0:0:0:0:
256,192,203130,1,0,0:0:0:0:
402,192,203446,128,0,203525:0:0:0:0:
256,192,203446,1,0,0:0:0:0:
402,192,203604,128,0,203683:0:0:0:0:
36,192,203604,1,0,0:0:0:0:
402,192,203761,128,0,203840:0:0:0:0:
256,192,203761,1,0,0:0:0:0:
36,192,203761,1,0,0:0:0:0:
402,192,203919,128,0,203998:0:0:0:0:
402,192,204077,128,0,204156:0:0:0:0:
256,192,204077,1,0,0:0:0:0:
182,192,204077,1,0,0:0:0:0:
109,192,204077,1,0,0:0:0:0:
402,192,204235,128,0,204314:0:0:0:0:
402,192,204393,128,0,204472:0:0:0:0:
256,192,204393,1,0,0:0:0:0:
402,192,204551,128,0,204630:0:0:0:0:
36,192,204709,128,0,205893:0:0:0:0:
329,192,204709,128,0,204847:0:0:0:0:
402,192,204761,128,0,204893:0:0:0:0:
256,192,204761,128,0,204893:0:0:0:0:
182,192,204808,128,0,204867:0:0:0:0:
475,192,204808,128,0,204867:0:0:0:0:
109,192,205025,128,0,205104:0:0:0:0:
256,192,205025,128,0,205183:0:0:0:0:
402,192,205025,128,0,205183:0:0:0:0:
329,192,205077,128,0,205235:0:0:0:0:
182,192,205077,128,0,205130:0:0:0:0:
475,192,205077,128,0,205130:0:0:0:0:
109,192,205183,128,0,205261:0:0:0:0:
109,192,205340,128,0,205893:0:0:0:0:
256,192,205340,1,0,0:0:0:0:
329,192,205340,1,0,0:0:0:0:
402,192,205340,1,0,0:0:0:0:
182,192,205656,128,0,205893:0:0:0:0:
256,192,205656,1,0,0:0:0:0:
329,192,205656,1,0,0:0:0:0:
402,192,205656,1,0,0:0:0:0:
329,192,205972,128,0,206288:0:0:0:0:
402,192,205972,128,0,206525:0:0:0:0:
475,192,205972,128,0,206840:0:0:0:0:
256,192,205972,1,0,0:0:0:0:
182,192,205972,1,0,0:0:0:0:
109,192,205972,1,0,0:0:0:0:
36,192,205972,1,0,0:0:0:0:
182,192,206130,1,0,0:0:0:0:
256,192,206209,1,0,0:0:0:0:
182,192,206288,1,0,0:0:0:0:
36,192,206288,1,0,0:0:0:0:
256,192,206446,1,0,0:0:0:0:
329,192,206525,1,0,0:0:0:0:
402,192,206604,1,0,0:0:0:0:
182,192,206604,1,0,0:0:0:0:
329,192,206683,1,0,0:0:0:0:
256,192,206761,1,0,0:0:0:0:
329,192,206840,1,0,0:0:0:0:
475,192,206919,1,0,0:0:0:0:
402,192,206919,1,0,0:0:0:0:
182,192,206919,1,0,0:0:0:0:
109,192,206919,1,0,0:0:0:0:
36,192,206919,1,0,0:0:0:0:
182,192,207235,1,0,0:0:0:0:
256,192,207235,1,0,0:0:0:0:
329,192,207235,1,0,0:0:0:0:
475,192,207235,1,0,0:0:0:0:
36,192,207235,1,0,0:0:0:0:
256,192,207551,128,0,207761:0:0:0:0:
182,192,207604,128,0,207814:0:0:0:0:
329,192,207604,128,0,207814:0:0:0:0:
109,192,207656,128,0,207735:0:0:0:0:
402,192,207656,128,0,207735:0:0:0:0:
36,192,207709,128,0,207788:0:0:0:0:
475,192,207709,128,0,207788:0:0:0:0:
109,192,207788,128,0,207867:0:0:0:0:
402,192,207788,128,0,207867:0:0:0:0:
182,192,207867,128,0,207946:0:0:0:0:
329,192,207867,128,0,207946:0:0:0:0:
256,192,207946,128,0,208025:0:0:0:0:
402,192,208025,128,0,208104:0:0:0:0:
109,192,208025,128,0,208104:0:0:0:0:
256,192,208104,128,0,208183:0:0:0:0:
36,192,208183,128,0,208261:0:0:0:0:
475,192,208183,128,0,208261:0:0:0:0:
256,192,208261,128,0,208340:0:0:0:0:
109,192,208340,128,0,208419:0:0:0:0:
402,192,208340,128,0,208419:0:0:0:0:
256,192,208419,128,0,208498:0:0:0:0:
182,192,208498,128,0,208577:0:0:0:0:
329,192,208498,128,0,208577:0:0:0:0:
256,192,208577,128,0,208656:0:0:0:0:
109,192,208656,128,0,208735:0:0:0:0:
402,192,208656,128,0,208735:0:0:0:0:
256,192,208735,128,0,208814:0:0:0:0:
36,192,208814,128,0,208893:0:0:0:0:
475,192,208814,128,0,208893:0:0:0:0:
256,192,208893,128,0,208972:0:0:0:0:
109,192,208972,128,0,209051:0:0:0:0:
402,192,208972,128,0,209051:0:0:0:0:
256,192,209051,128,0,209130:0:0:0:0:
182,192,209130,128,0,209209:0:0:0:0:
329,192,209130,128,0,209209:0:0:0:0:
256,192,209209,128,0,209288:0:0:0:0:
109,192,209288,128,0,209367:0:0:0:0:
402,192,209288,128,0,209367:0:0:0:0:
256,192,209367,128,0,209446:0:0:0:0:
36,192,209446,128,0,209525:0:0:0:0:
475,192,209446,128,0,209525:0:0:0:0:
109,192,209525,128,0,209604:0:0:0:0:
402,192,209525,128,0,209604:0:0:0:0:
329,192,209604,128,0,209683:0:0:0:0:
182,192,209604,128,0,209683:0:0:0:0:
256,192,209683,128,0,209761:0:0:0:0:
182,192,209761,128,0,209840:0:0:0:0:
329,192,209761,128,0,209840:0:0:0:0:
109,192,209840,128,0,209919:0:0:0:0:
402,192,209840,128,0,209919:0:0:0:0:
36,192,209919,128,0,209998:0:0:0:0:
475,192,209919,128,0,209998:0:0:0:0:
109,192,209998,128,0,210077:0:0:0:0:
402,192,209998,128,0,210077:0:0:0:0:
256,192,210077,128,0,210288:0:0:0:0:
329,192,210130,128,0,210340:0:0:0:0:
182,192,210130,128,0,210340:0:0:0:0:
109,192,210183,128,0,210261:0:0:0:0:
402,192,210183,128,0,210261:0:0:0:0:
475,192,210235,128,0,210314:0:0:0:0:
36,192,210235,128,0,210314:0:0:0:0:
402,192,210314,128,0,210393:0:0:0:0:
109,192,210314,128,0,210393:0:0:0:0:
329,192,210393,128,0,210472:0:0:0:0:
182,192,210393,128,0,210472:0:0:0:0:
256,192,210472,128,0,210551:0:0:0:0:
36,192,210551,128,0,210630:0:0:0:0:
182,192,210551,128,0,210630:0:0:0:0:
109,192,210630,128,0,210709:0:0:0:0:
329,192,210709,128,0,210788:0:0:0:0:
475,192,210709,128,0,210788:0:0:0:0:
402,192,210788,128,0,210867:0:0:0:0:
109,192,210867,128,0,210946:0:0:0:0:
256,192,210867,128,0,210946:0:0:0:0:
182,192,210946,128,0,211025:0:0:0:0:
329,192,211025,128,0,211104:0:0:0:0:
475,192,211025,128,0,211104:0:0:0:0:
402,192,211104,128,0,211183:0:0:0:0:
182,192,211183,128,0,211261:0:0:0:0:
36,192,211183,128,0,211261:0:0:0:0:
109,192,211261,128,0,211340:0:0:0:0:
256,192,211340,128,0,211419:0:0:0:0:
402,192,211340,128,0,211419:0:0:0:0:
329,192,211419,128,0,211498:0:0:0:0:
36,192,211498,128,0,211577:0:0:0:0:
182,192,211498,128,0,211577:0:0:0:0:
256,192,211577,128,0,211656:0:0:0:0:
329,192,211656,128,0,211735:0:0:0:0:
475,192,211656,128,0,211735:0:0:0:0:
256,192,211735,128,0,211814:0:0:0:0:
182,192,211814,128,0,211893:0:0:0:0:
109,192,211814,128,0,211893:0:0:0:0:
256,192,211893,128,0,211972:0:0:0:0:
329,192,211972,128,0,212051:0:0:0:0:
402,192,211972,128,0,212051:0:0:0:0:
475,192,211972,1,0,0:0:0:0:
182,192,212130,128,0,212209:0:0:0:0:
109,192,212130,128,0,212209:0:0:0:0:
329,192,212130,1,0,0:0:0:0:
402,192,212130,1,0,0:0:0:0:
182,192,212288,1,0,0:0:0:0:
109,192,212288,1,0,0:0:0:0:
402,192,212288,1,0,0:0:0:0:
475,192,212288,1,0,0:0:0:0:
329,192,212288,1,0,0:0:0:0:
36,192,212288,1,0,0:0:0:0:
256,192,212604,128,0,212814:0:0:0:0:
182,192,212656,128,0,212867:0:0:0:0:
329,192,212656,128,0,212867:0:0:0:0:
402,192,212709,128,0,212788:0:0:0:0:
109,192,212709,128,0,212788:0:0:0:0:
36,192,212761,128,0,212840:0:0:0:0:
475,192,212761,128,0,212840:0:0:0:0:
109,192,212840,128,0,212919:0:0:0:0:
402,192,212840,128,0,212919:0:0:0:0:
182,192,212919,128,0,212998:0:0:0:0:
329,192,212919,128,0,212998:0:0:0:0:
256,192,212998,128,0,213077:0:0:0:0:
109,192,213077,128,0,213156:0:0:0:0:
402,192,213077,128,0,213156:0:0:0:0:
329,192,213156,128,0,213235:0:0:0:0:
182,192,213156,128,0,213235:0:0:0:0:
36,192,213235,128,0,213314:0:0:0:0:
475,192,213235,128,0,213314:0:0:0:0:
256,192,213314,128,0,213393:0:0:0:0:
109,192,213393,128,0,213472:0:0:0:0:
402,192,213393,128,0,213472:0:0:0:0:
329,192,213472,128,0,213551:0:0:0:0:
182,192,213472,128,0,213551:0:0:0:0:
256,192,213551,128,0,213630:0:0:0:0:
36,192,213630,128,0,213709:0:0:0:0:
475,192,213630,128,0,213709:0:0:0:0:
329,192,213709,128,0,213788:0:0:0:0:
182,192,213709,128,0,213788:0:0:0:0:
109,192,213788,128,0,213867:0:0:0:0:
402,192,213788,128,0,213867:0:0:0:0:
256,192,213867,128,0,213946:0:0:0:0:
182,192,213946,128,0,214025:0:0:0:0:
329,192,213946,128,0,214025:0:0:0:0:
36,192,214025,128,0,214104:0:0:0:0:
475,192,214025,128,0,214104:0:0:0:0:
256,192,214104,128,0,214183:0:0:0:0:
109,192,214183,128,0,214261:0:0:0:0:
402,192,214183,128,0,214261:0:0:0:0:
256,192,214261,128,0,214340:0:0:0:0:
182,192,214340,128,0,214419:0:0:0:0:
329,192,214340,128,0,214419:0:0:0:0:
256,192,214419,128,0,214498:0:0:0:0:
109,192,214498,128,0,214577:0:0:0:0:
402,192,214498,128,0,214577:0:0:0:0:
256,192,214577,128,0,214656:0:0:0:0:
36,192,214656,128,0,214735:0:0:0:0:
475,192,214656,128,0,214735:0:0:0:0:
256,192,214735,128,0,214814:0:0:0:0:
329,192,214814,128,0,214972:0:0:0:0:
36,192,214814,128,0,215130:0:0:0:0:
256,192,214893,128,0,215051:0:0:0:0:
402,192,214893,128,0,215051:0:0:0:0:
182,192,214972,128,0,215051:0:0:0:0:
475,192,214972,128,0,215051:0:0:0:0:
329,192,215051,128,0,215130:0:0:0:0:
182,192,215130,128,0,215288:0:0:0:0:
402,192,215130,128,0,215446:0:0:0:0:
109,192,215209,128,0,215367:0:0:0:0:
256,192,215209,128,0,215367:0:0:0:0:
36,192,215288,128,0,215367:0:0:0:0:
329,192,215288,128,0,215367:0:0:0:0:
182,192,215367,128,0,215446:0:0:0:0:
256,192,215446,128,0,215604:0:0:0:0:
475,192,215446,128,0,215761:0:0:0:0:
182,192,215525,128,0,215683:0:0:0:0:
329,192,215525,128,0,215683:0:0:0:0:
402,192,215604,128,0,215683:0:0:0:0:
109,192,215604,128,0,215683:0:0:0:0:
256,192,215683,128,0,215761:0:0:0:0:
329,192,215761,128,0,215919:0:0:0:0:
109,192,215761,128,0,216077:0:0:0:0:
402,192,215840,128,0,215998:0:0:0:0:
256,192,215840,128,0,215998:0:0:0:0:
182,192,215919,128,0,215998:0:0:0:0:
475,192,215919,128,0,215998:0:0:0:0:
329,192,215998,128,0,216077:0:0:0:0:
256,192,216077,128,0,216235:0:0:0:0:
36,192,216077,128,0,216393:0:0:0:0:
329,192,216156,128,0,216314:0:0:0:0:
182,192,216156,128,0,216314:0:0:0:0:
109,192,216235,128,0,216314:0:0:0:0:
402,192,216235,128,0,216314:0:0:0:0:
256,192,216314,128,0,216393:0:0:0:0:
182,192,216393,128,0,216551:0:0:0:0:
475,192,216393,128,0,216709:0:0:0:0:
109,192,216472,128,0,216630:0:0:0:0:
256,192,216472,128,0,216630:0:0:0:0:
329,192,216551,128,0,216630:0:0:0:0:
36,192,216551,128,0,216630:0:0:0:0:
182,192,216630,128,0,216709:0:0:0:0:
329,192,216709,128,0,216867:0:0:0:0:
109,192,216709,128,0,217025:0:0:0:0:
256,192,216788,128,0,216946:0:0:0:0:
402,192,216788,128,0,216946:0:0:0:0:
475,192,216867,128,0,216946:0:0:0:0:
182,192,216867,128,0,216946:0:0:0:0:
329,192,216946,128,0,217025:0:0:0:0:
256,192,217025,128,0,217183:0:0:0:0:
475,192,217025,128,0,217340:0:0:0:0:
329,192,217104,128,0,217261:0:0:0:0:
182,192,217104,128,0,217261:0:0:0:0:
109,192,217183,128,0,217261:0:0:0:0:
402,192,217183,128,0,217261:0:0:0:0:
256,192,217261,128,0,217340:0:0:0:0:
329,192,217340,128,0,217498:0:0:0:0:
36,192,217340,128,0,217419:0:0:0:0:
109,192,217340,128,0,217419:0:0:0:0:
256,192,217393,128,0,217551:0:0:0:0:
402,192,217393,128,0,217551:0:0:0:0:
182,192,217446,128,0,217498:0:0:0:0:
475,192,217446,128,0,217498:0:0:0:0:
36,192,217498,128,0,217577:0:0:0:0:
109,192,217498,128,0,217577:0:0:0:0:
256,192,217656,128,0,217814:0:0:0:0:
36,192,217656,128,0,217735:0:0:0:0:
475,192,217656,128,0,217735:0:0:0:0:
329,192,217709,128,0,217867:0:0:0:0:
182,192,217709,128,0,217867:0:0:0:0:
402,192,217761,128,0,217814:0:0:0:0:
109,192,217761,128,0,217814:0:0:0:0:
475,192,217814,128,0,217893:0:0:0:0:
36,192,217814,128,0,217893:0:0:0:0:
182,192,217972,128,0,218130:0:0:0:0:
402,192,217972,128,0,218051:0:0:0:0:
475,192,217972,128,0,218051:0:0:0:0:
256,192,218025,128,0,218183:0:0:0:0:
109,192,218025,128,0,218183:0:0:0:0:
329,192,218077,128,0,218130:0:0:0:0:
36,192,218077,128,0,218130:0:0:0:0:
402,192,218130,128,0,218209:0:0:0:0:
475,192,218130,128,0,218209:0:0:0:0:
256,192,218288,128,0,218446:0:0:0:0:
36,192,218288,128,0,218367:0:0:0:0:
475,192,218288,128,0,218367:0:0:0:0:
182,192,218340,128,0,218498:0:0:0:0:
329,192,218340,128,0,218498:0:0:0:0:
109,192,218393,128,0,218446:0:0:0:0:
402,192,218393,128,0,218446:0:0:0:0:
475,192,218446,128,0,218525:0:0:0:0:
36,192,218446,128,0,218525:0:0:0:0:
329,192,218604,128,0,218761:0:0:0:0:
109,192,218604,128,0,218683:0:0:0:0:
36,192,218604,128,0,218683:0:0:0:0:
402,192,218656,128,0,218814:0:0:0:0:
256,192,218656,128,0,218814:0:0:0:0:
475,192,218709,128,0,218761:0:0:0:0:
182,192,218709,128,0,218761:0:0:0:0:
36,192,218761,128,0,218840:0:0:0:0:
109,192,218761,128,0,218840:0:0:0:0:
256,192,218919,128,0,219077:0:0:0:0:
475,192,218919,128,0,218998:0:0:0:0:
36,192,218919,128,0,218998:0:0:0:0:
182,192,218972,128,0,219130:0:0:0:0:
329,192,218972,128,0,219130:0:0:0:0:
109,192,219025,128,0,219077:0:0:0:0:
402,192,219025,128,0,219077:0:0:0:0:
36,192,219077,128,0,219156:0:0:0:0:
475,192,219077,128,0,219156:0:0:0:0:
182,192,219235,128,0,219393:0:0:0:0:
402,192,219235,128,0,219314:0:0:0:0:
475,192,219235,128,0,219314:0:0:0:0:
256,192,219288,128,0,219446:0:0:0:0:
109,192,219288,128,0,219446:0:0:0:0:
329,192,219340,128,0,219393:0:0:0:0:
36,192,219340,128,0,219393:0:0:0:0:
475,192,219393,128,0,219472:0:0:0:0:
402,192,219393,128,0,219472:0:0:0:0:
256,192,219551,128,0,219709:0:0:0:0:
36,192,219551,128,0,219630:0:0:0:0:
475,192,219551,128,0,219630:0:0:0:0:
182,192,219604,128,0,219761:0:0:0:0:
329,192,219604,128,0,219761:0:0:0:0:
109,192,219656,128,0,219709:0:0:0:0:
402,192,219656,128,0,219709:0:0:0:0:
36,192,219709,128,0,219788:0:0:0:0:
475,192,219709,128,0,219788:0:0:0:0:
182,192,219867,128,0,220025:0:0:0:0:
402,192,219867,128,0,219946:0:0:0:0:
475,192,219867,128,0,219946:0:0:0:0:
256,192,219946,128,0,220104:0:0:0:0:
109,192,219946,128,0,220104:0:0:0:0:
329,192,220025,128,0,220104:0:0:0:0:
36,192,220025,128,0,220104:0:0:0:0:
402,192,220104,128,0,220183:0:0:0:0:
182,192,220104,128,0,220183:0:0:0:0:
475,192,220183,128,0,220261:0:0:0:0:
329,192,220183,128,0,220340:0:0:0:0:
109,192,220183,128,0,220261:0:0:0:0:
36,192,220183,128,0,220261:0:0:0:0:
402,192,220261,128,0,220419:0:0:0:0:
256,192,220261,128,0,220419:0:0:0:0:
475,192,220340,128,0,220419:0:0:0:0:
182,192,220340,128,0,220419:0:0:0:0:
329,192,220419,128,0,220498:0:0:0:0:
109,192,220419,128,0,220498:0:0:0:0:
256,192,220498,128,0,220656:0:0:0:0:
475,192,220498,128,0,220577:0:0:0:0:
36,192,220498,128,0,220577:0:0:0:0:
329,192,220577,128,0,220735:0:0:0:0:
182,192,220577,128,0,220735:0:0:0:0:
109,192,220656,128,0,220735:0:0:0:0:
402,192,220656,128,0,220735:0:0:0:0:
256,192,220735,128,0,220814:0:0:0:0:
36,192,220735,128,0,220814:0:0:0:0:
182,192,220814,128,0,220972:0:0:0:0:
402,192,220814,128,0,220893:0:0:0:0:
475,192,220814,128,0,220893:0:0:0:0:
109,192,220893,128,0,221051:0:0:0:0:
256,192,220893,128,0,221051:0:0:0:0:
329,192,220972,128,0,221051:0:0:0:0:
36,192,220972,128,0,221051:0:0:0:0:
182,192,221051,128,0,221130:0:0:0:0:
475,192,221051,128,0,221130:0:0:0:0:
256,192,221130,128,0,221288:0:0:0:0:
36,192,221130,128,0,221209:0:0:0:0:
402,192,221130,128,0,221209:0:0:0:0:
182,192,221209,128,0,221367:0:0:0:0:
329,192,221209,128,0,221367:0:0:0:0:
402,192,221288,128,0,221367:0:0:0:0:
109,192,221288,128,0,221367:0:0:0:0:
256,192,221367,128,0,221446:0:0:0:0:
475,192,221367,128,0,221446:0:0:0:0:
329,192,221446,128,0,221604:0:0:0:0:
36,192,221446,128,0,221525:0:0:0:0:
402,192,221525,128,0,221683:0:0:0:0:
256,192,221525,128,0,221683:0:0:0:0:
109,192,221525,128,0,221604:0:0:0:0:
182,192,221604,128,0,221683:0:0:0:0:
475,192,221604,128,0,221683:0:0:0:0:
329,192,221683,128,0,221761:0:0:0:0:
109,192,221683,128,0,221761:0:0:0:0:
182,192,221761,128,0,221919:0:0:0:0:
402,192,221761,128,0,221840:0:0:0:0:
475,192,221761,128,0,221840:0:0:0:0:
256,192,221840,128,0,221998:0:0:0:0:
109,192,221840,128,0,221998:0:0:0:0:
36,192,221919,128,0,221998:0:0:0:0:
329,192,221919,128,0,221998:0:0:0:0:
182,192,221998,128,0,222077:0:0:0:0:
475,192,221998,128,0,222077:0:0:0:0:
256,192,222077,128,0,222235:0:0:0:0:
36,192,222077,128,0,222156:0:0:0:0:
402,192,222077,128,0,222156:0:0:0:0:
182,192,222156,128,0,222314:0:0:0:0:
329,192,222156,128,0,222314:0:0:0:0:
402,192,222235,128,0,222314:0:0:0:0:
109,192,222235,128,0,222314:0:0:0:0:
256,192,222314,128,0,222393:0:0:0:0:
475,192,222314,128,0,222393:0:0:0:0:
329,192,222393,128,0,222551:0:0:0:0:
36,192,222393,128,0,222472:0:0:0:0:
109,192,222472,128,0,222551:0:0:0:0:
402,192,222472,128,0,222630:0:0:0:0:
256,192,222472,128,0,222630:0:0:0:0:
475,192,222551,128,0,222630:0:0:0:0:
182,192,222551,128,0,222630:0:0:0:0:
329,192,222630,128,0,222709:0:0:0:0:
36,192,222630,128,0,222709:0:0:0:0:
182,192,222709,128,0,222867:0:0:0:0:
475,192,222709,128,0,222788:0:0:0:0:
402,192,222709,128,0,222788:0:0:0:0:
256,192,222788,128,0,222946:0:0:0:0:
109,192,222788,128,0,222946:0:0:0:0:
329,192,222867,128,0,222946:0:0:0:0:
36,192,222867,128,0,222946:0:0:0:0:
475,192,222867,128,0,222946:0:0:0:0:
182,192,222946,128,0,223025:0:0:0:0:
402,192,222946,128,0,223025:0:0:0:0:
256,192,223025,128,0,223183:0:0:0:0:
36,192,223025,128,0,223104:0:0:0:0:
475,192,223025,128,0,223104:0:0:0:0:
329,192,223104,128,0,223261:0:0:0:0:
182,192,223104,128,0,223261:0:0:0:0:
109,192,223183,128,0,223261:0:0:0:0:
402,192,223183,128,0,223261:0:0:0:0:
256,192,223261,128,0,223340:0:0:0:0:
475,192,223261,128,0,223340:0:0:0:0:
36,192,223261,128,0,223340:0:0:0:0:
329,192,223340,128,0,223498:0:0:0:0:
182,192,223340,128,0,223419:0:0:0:0:
256,192,223419,128,0,223577:0:0:0:0:
402,192,223419,128,0,223577:0:0:0:0:
109,192,223419,128,0,223498:0:0:0:0:
475,192,223498,128,0,223577:0:0:0:0:
182,192,223498,128,0,223577:0:0:0:0:
329,192,223577,128,0,223656:0:0:0:0:
36,192,223577,128,0,223656:0:0:0:0:
256,192,223656,128,0,223814:0:0:0:0:
475,192,223656,128,0,223735:0:0:0:0:
109,192,223656,128,0,223735:0:0:0:0:
182,192,223735,128,0,223893:0:0:0:0:
329,192,223735,128,0,223893:0:0:0:0:
402,192,223814,128,0,223893:0:0:0:0:
109,192,223814,128,0,223893:0:0:0:0:
256,192,223893,128,0,223972:0:0:0:0:
36,192,223893,128,0,223972:0:0:0:0:
475,192,223893,128,0,223972:0:0:0:0:
182,192,223972,128,0,224130:0:0:0:0:
402,192,223972,128,0,224051:0:0:0:0:
256,192,224051,128,0,224209:0:0:0:0:
109,192,224051,128,0,224209:0:0:0:0:
475,192,224051,128,0,224130:0:0:0:0:
36,192,224130,128,0,224209:0:0:0:0:
329,192,224130,128,0,224209:0:0:0:0:
182,192,224209,128,0,224288:0:0:0:0:
475,192,224209,128,0,224288:0:0:0:0:
329,192,224288,128,0,224446:0:0:0:0:
109,192,224288,128,0,224367:0:0:0:0:
402,192,224367,128,0,224525:0:0:0:0:
256,192,224367,128,0,224525:0:0:0:0:
36,192,224367,128,0,224446:0:0:0:0:
182,192,224446,128,0,224525:0:0:0:0:
475,192,224446,128,0,224525:0:0:0:0:
329,192,224525,128,0,224604:0:0:0:0:
109,192,224525,128,0,224604:0:0:0:0:
36,192,224604,128,0,224683:0:0:0:0:
256,192,224604,128,0,224761:0:0:0:0:
402,192,224604,128,0,224683:0:0:0:0:
182,192,224683,128,0,224840:0:0:0:0:
329,192,224683,128,0,224840:0:0:0:0:
475,192,224683,128,0,224761:0:0:0:0:
402,192,224761,128,0,224840:0:0:0:0:
109,192,224761,128,0,224840:0:0:0:0:
256,192,224840,128,0,224919:0:0:0:0:
475,192,224840,128,0,224919:0:0:0:0:
329,192,224919,128,0,225077:0:0:0:0:
109,192,224919,128,0,224998:0:0:0:0:
36,192,224919,128,0,224998:0:0:0:0:
256,192,224972,128,0,225130:0:0:0:0:
402,192,224972,128,0,225130:0:0:0:0:
182,192,225025,128,0,225077:0:0:0:0:
475,192,225025,128,0,225077:0:0:0:0:
36,192,225077,128,0,225156:0:0:0:0:
109,192,225156,128,0,225235:0:0:0:0:
329,192,225156,128,0,225196:0:0:0:0:
256,192,225235,128,0,225393:0:0:0:0:
36,192,225235,128,0,225314:0:0:0:0:
475,192,225235,128,0,225314:0:0:0:0:
329,192,225288,128,0,225446:0:0:0:0:
182,192,225288,128,0,225446:0:0:0:0:
402,192,225340,128,0,225393:0:0:0:0:
109,192,225340,128,0,225393:0:0:0:0:
475,192,225393,128,0,225472:0:0:0:0:
36,192,225472,128,0,225551:0:0:0:0:
256,192,225472,128,0,225511:0:0:0:0:
182,192,225551,128,0,225709:0:0:0:0:
402,192,225551,128,0,225630:0:0:0:0:
475,192,225551,128,0,225630:0:0:0:0:
256,192,225604,128,0,225761:0:0:0:0:
109,192,225604,128,0,225761:0:0:0:0:
329,192,225656,128,0,225709:0:0:0:0:
36,192,225656,128,0,225709:0:0:0:0:
475,192,225709,128,0,225788:0:0:0:0:
402,192,225788,128,0,225867:0:0:0:0:
182,192,225788,128,0,225827:0:0:0:0:
256,192,225867,128,0,226025:0:0:0:0:
36,192,225867,128,0,225946:0:0:0:0:
475,192,225867,128,0,225946:0:0:0:0:
182,192,225919,128,0,226077:0:0:0:0:
329,192,225919,128,0,226077:0:0:0:0:
109,192,225972,128,0,226025:0:0:0:0:
402,192,225972,128,0,226025:0:0:0:0:
36,192,226025,128,0,226104:0:0:0:0:
475,192,226104,128,0,226183:0:0:0:0:
256,192,226104,128,0,226143:0:0:0:0:
329,192,226183,128,0,226340:0:0:0:0:
109,192,226183,128,0,226261:0:0:0:0:
36,192,226183,128,0,226261:0:0:0:0:
402,192,226235,128,0,226393:0:0:0:0:
256,192,226235,128,0,226393:0:0:0:0:
475,192,226288,128,0,226340:0:0:0:0:
182,192,226288,128,0,226340:0:0:0:0:
36,192,226340,128,0,226419:0:0:0:0:
109,192,226419,128,0,226498:0:0:0:0:
329,192,226419,128,0,226459:0:0:0:0:
256,192,226498,128,0,226656:0:0:0:0:
475,192,226498,128,0,226577:0:0:0:0:
36,192,226498,128,0,226577:0:0:0:0:
182,192,226551,128,0,226709:0:0:0:0:
329,192,226551,128,0,226709:0:0:0:0:
109,192,226604,128,0,226656:0:0:0:0:
402,192,226604,128,0,226656:0:0:0:0:
475,192,226656,128,0,226735:0:0:0:0:
36,192,226735,128,0,226814:0:0:0:0:
256,192,226735,128,0,226775:0:0:0:0:
182,192,226814,128,0,226972:0:0:0:0:
402,192,226814,128,0,226893:0:0:0:0:
475,192,226814,128,0,226893:0:0:0:0:
256,192,226867,128,0,227025:0:0:0:0:
109,192,226867,128,0,227025:0:0:0:0:
329,192,226919,128,0,226972:0:0:0:0:
36,192,226919,128,0,226972:0:0:0:0:
475,192,226972,128,0,227051:0:0:0:0:
402,192,227051,128,0,227130:0:0:0:0:
182,192,227051,128,0,227090:0:0:0:0:
256,192,227130,128,0,227288:0:0:0:0:
475,192,227130,128,0,227209:0:0:0:0:
36,192,227130,128,0,227209:0:0:0:0:
182,192,227183,128,0,227340:0:0:0:0:
329,192,227183,128,0,227340:0:0:0:0:
109,192,227235,128,0,227288:0:0:0:0:
402,192,227235,128,0,227288:0:0:0:0:
475,192,227288,128,0,227367:0:0:0:0:
36,192,227367,128,0,227446:0:0:0:0:
256,192,227367,128,0,227406:0:0:0:0:
182,192,227446,128,0,227498:0:0:0:0:
475,192,227446,128,0,227498:0:0:0:0:
402,192,227498,128,0,227551:0:0:0:0:
109,192,227498,128,0,227551:0:0:0:0:
329,192,227551,128,0,227604:0:0:0:0:
36,192,227551,128,0,227604:0:0:0:0:
256,192,227604,128,0,227656:0:0:0:0:
182,192,227604,128,0,227656:0:0:0:0:
109,192,227656,128,0,227709:0:0:0:0:
475,192,227656,128,0,227709:0:0:0:0:
402,192,227709,128,0,227761:0:0:0:0:
36,192,227709,128,0,227761:0:0:0:0:
329,192,227761,128,0,227801:0:0:0:0:
256,192,227761,128,0,227801:0:0:0:0:
182,192,227840,128,0,227880:0:0:0:0:
402,192,227840,128,0,227880:0:0:0:0:
109,192,227919,128,0,227972:0:0:0:0:
475,192,227919,128,0,227972:0:0:0:0:
182,192,227972,128,0,228025:0:0:0:0:
402,192,227972,128,0,228025:0:0:0:0:
256,192,228025,128,0,228077:0:0:0:0:
329,192,228025,128,0,228077:0:0:0:0:
36,192,228077,128,0,228130:0:0:0:0:
475,192,228077,128,0,228130:0:0:0:0:
109,192,228130,128,0,228183:0:0:0:0:
402,192,228130,128,0,228183:0:0:0:0:
329,192,228183,128,0,228235:0:0:0:0:
182,192,228183,128,0,228235:0:0:0:0:
475,192,228235,128,0,228288:0:0:0:0:
36,192,228235,128,0,228288:0:0:0:0:
109,192,228288,128,0,228340:0:0:0:0:
402,192,228288,128,0,228340:0:0:0:0:
329,192,228340,128,0,228393:0:0:0:0:
182,192,228340,128,0,228393:0:0:0:0:
109,192,228393,128,0,228656:0:0:0:0:
402,192,228393,128,0,228656:0:0:0:0:
256,192,228393,1,0,0:0:0:0:
475,192,228446,128,0,228709:0:0:0:0:
36,192,228446,128,0,228709:0:0:0:0:
109,192,228709,1,0,0:0:0:0:
182,192,228709,1,0,0:0:0:0:
329,192,228709,1,0,0:0:0:0:
402,192,228709,1,0,0:0:0:0:
256,192,228788,1,0,0:0:0:0:
329,192,228867,1,0,0:0:0:0:
402,192,228867,1,0,0:0:0:0:
182,192,228946,1,0,0:0:0:0:
109,192,228946,1,0,0:0:0:0:
329,192,229025,1,0,0:0:0:0:
402,192,229025,1,0,0:0:0:0:
182,192,229104,1,0,0:0:0:0:
109,192,229104,1,0,0:0:0:0:
329,192,229183,1,0,0:0:0:0:
402,192,229183,1,0,0:0:0:0:
182,192,229261,1,0,0:0:0:0:
109,192,229261,1,0,0:0:0:0:
402,192,229340,1,0,0:0:0:0:
329,192,229340,1,0,0:0:0:0:
475,192,229340,1,0,0:0:0:0:
182,192,229419,1,0,0:0:0:0:
109,192,229419,1,0,0:0:0:0:
36,192,229419,1,0,0:0:0:0:
329,192,229498,1,0,0:0:0:0:
402,192,229498,1,0,0:0:0:0:
475,192,229498,1,0,0:0:0:0:
182,192,229577,1,0,0:0:0:0:
109,192,229577,1,0,0:0:0:0:
36,192,229577,1,0,0:0:0:0:
402,192,229656,1,0,0:0:0:0:
329,192,229656,1,0,0:0:0:0:
475,192,229656,1,0,0:0:0:0:
182,192,229735,1,0,0:0:0:0:
109,192,229735,1,0,0:0:0:0:
36,192,229735,1,0,0:0:0:0:
402,192,229814,1,0,0:0:0:0:
475,192,229814,1,0,0:0:0:0:
329,192,229814,1,0,0:0:0:0:
182,192,229893,1,0,0:0:0:0:
109,192,229893,1,0,0:0:0:0:
36,192,229893,1,0,0:0:0:0:
329,192,229972,1,0,0:0:0:0:
475,192,229972,1,0,0:0:0:0:
402,192,229972,1,0,0:0:0:0:
256,192,230051,1,0,0:0:0:0:
182,192,230130,1,0,0:0:0:0:
109,192,230130,1,0,0:0:0:0:
36,192,230130,1,0,0:0:0:0:
329,192,230209,1,0,0:0:0:0:
402,192,230209,1,0,0:0:0:0:
475,192,230209,1,0,0:0:0:0:
256,192,230288,1,0,0:0:0:0:
182,192,230288,1,0,0:0:0:0:
109,192,230288,1,0,0:0:0:0:
329,192,230367,1,0,0:0:0:0:
402,192,230367,1,0,0:0:0:0:
475,192,230367,1,0,0:0:0:0:
182,192,230446,1,0,0:0:0:0:
109,192,230446,1,0,0:0:0:0:
36,192,230446,1,0,0:0:0:0:
329,192,230525,1,0,0:0:0:0:
402,192,230525,1,0,0:0:0:0:
256,192,230525,1,0,0:0:0:0:
109,192,230604,1,0,0:0:0:0:
36,192,230604,1,0,0:0:0:0:
182,192,230604,1,0,0:0:0:0:
329,192,230683,1,0,0:0:0:0:
402,192,230683,1,0,0:0:0:0:
475,192,230683,1,0,0:0:0:0:
256,192,230761,1,0,0:0:0:0:
182,192,230761,1,0,0:0:0:0:
109,192,230761,1,0,0:0:0:0:
36,192,230761,1,0,0:0:0:0:
329,192,230840,1,0,0:0:0:0:
475,192,230840,1,0,0:0:0:0:
402,192,230840,1,0,0:0:0:0:
182,192,230919,1,0,0:0:0:0:
109,192,230919,1,0,0:0:0:0:
36,192,230919,1,0,0:0:0:0:
256,192,230919,1,0,0:0:0:0:
402,192,230919,1,0,0:0:0:0:
36,192,231235,128,0,231419:0:0:0:0:
109,192,231235,128,0,231419:0:0:0:0:
182,192,231235,128,0,231419:0:0:0:0:
256,192,231235,128,0,231419:0:0:0:0:
329,192,231235,128,0,231419:0:0:0:0:
402,192,231235,128,0,231419:0:0:0:0:
475,192,231235,128,0,231419:0:0:0:0:
475,192,231446,128,0,231630:0:0:0:0:
402,192,231446,128,0,231630:0:0:0:0:
256,192,231446,128,0,231630:0:0:0:0:
182,192,231446,128,0,231630:0:0:0:0:
329,192,231446,128,0,231630:0:0:0:0:
109,192,231446,128,0,231630:0:0:0:0:
36,192,231446,128,0,231630:0:0:0:0:
36,192,231656,128,0,231840:0:0:0:0:
109,192,231656,128,0,231840:0:0:0:0:
182,192,231656,128,0,231840:0:0:0:0:
256,192,231656,128,0,231840:0:0:0:0:
329,192,231656,128,0,231840:0:0:0:0:
402,192,231656,128,0,231840:0:0:0:0:
475,192,231656,128,0,231840:0:0:0:0:
402,192,231867,128,0,232051:0:0:0:0:
475,192,231867,128,0,232051:0:0:0:0:
329,192,231867,128,0,232051:0:0:0:0:
256,192,231867,128,0,232051:0:0:0:0:
182,192,231867,128,0,232051:0:0:0:0:
109,192,231867,128,0,232051:0:0:0:0:
36,192,231867,128,0,232051:0:0:0:0:
329,192,232077,128,0,232261:0:0:0:0:
36,192,232077,128,0,232261:0:0:0:0:
109,192,232077,128,0,232261:0:0:0:0:
182,192,232077,128,0,232261:0:0:0:0:
256,192,232077,128,0,232261:0:0:0:0:
475,192,232077,128,0,232261:0:0:0:0:
402,192,232077,128,0,232261:0:0:0:0:
36,192,232288,1,0,0:0:0:0:
109,192,232288,1,0,0:0:0:0:
182,192,232288,1,0,0:0:0:0:
256,192,232288,1,0,0:0:0:0:
329,192,232288,1,0,0:0:0:0:
402,192,232288,1,0,0:0:0:0:
475,192,232288,1,0,0:0:0:0:
256,192,233130,128,0,233288:0:0:0:0:
36,192,233130,128,0,233209:0:0:0:0:
475,192,233130,128,0,233209:0:0:0:0:
182,192,233183,128,0,233340:0:0:0:0:
329,192,233183,128,0,233340:0:0:0:0:
109,192,233235,128,0,233288:0:0:0:0:
402,192,233235,128,0,233288:0:0:0:0:
475,192,233288,128,0,233367:0:0:0:0:
36,192,233288,128,0,233367:0:0:0:0:
109,192,233367,128,0,233446:0:0:0:0:
402,192,233367,128,0,233446:0:0:0:0:
475,192,233446,128,0,233604:0:0:0:0:
182,192,233446,128,0,233525:0:0:0:0:
256,192,233446,128,0,233525:0:0:0:0:
402,192,233498,128,0,233656:0:0:0:0:
36,192,233525,128,0,233604:0:0:0:0:
109,192,233525,128,0,233604:0:0:0:0:
329,192,233551,128,0,233604:0:0:0:0:
256,192,233604,128,0,233683:0:0:0:0:
182,192,233683,128,0,233761:0:0:0:0:
475,192,233683,128,0,233761:0:0:0:0:
36,192,233761,128,0,233919:0:0:0:0:
256,192,233761,128,0,233840:0:0:0:0:
402,192,233761,128,0,233840:0:0:0:0:
109,192,233814,128,0,233972:0:0:0:0:
329,192,233840,128,0,233919:0:0:0:0:
182,192,233867,128,0,233919:0:0:0:0:
475,192,233919,128,0,233998:0:0:0:0:
256,192,233998,128,0,234077:0:0:0:0:
402,192,233998,128,0,234077:0:0:0:0:
182,192,234077,128,0,234156:0:0:0:0:
329,192,234077,128,0,234156:0:0:0:0:
36,192,234077,1,0,0:0:0:0:
109,192,234156,128,0,234235:0:0:0:0:
256,192,234156,128,0,234235:0:0:0:0:
36,192,234235,128,0,234314:0:0:0:0:
329,192,234235,128,0,234275:0:0:0:0:
109,192,234275,128,0,234354:0:0:0:0:
182,192,234314,128,0,234393:0:0:0:0:
402,192,234314,128,0,234354:0:0:0:0:
256,192,234354,128,0,234433:0:0:0:0:
329,192,234393,128,0,234472:0:0:0:0:
475,192,234393,128,0,234433:0:0:0:0:
182,192,234472,128,0,234511:0:0:0:0:
36,192,234472,128,0,234511:0:0:0:0:
402,192,234551,128,0,234630:0:0:0:0:
256,192,234551,128,0,234590:0:0:0:0:
329,192,234630,128,0,234709:0:0:0:0:
182,192,234630,128,0,234669:0:0:0:0:
256,192,234709,128,0,234788:0:0:0:0:
475,192,234709,128,0,234946:0:0:0:0:
109,192,234709,128,0,234748:0:0:0:0:
182,192,234788,128,0,234867:0:0:0:0:
402,192,234788,128,0,234946:0:0:0:0:
36,192,234788,128,0,234827:0:0:0:0:
109,192,234867,128,0,234946:0:0:0:0:
329,192,234867,128,0,234946:0:0:0:0:
36,192,234946,128,0,235025:0:0:0:0:
329,192,235025,128,0,235261:0:0:0:0:
256,192,235025,1,0,0:0:0:0:
402,192,235104,128,0,235261:0:0:0:0:
182,192,235104,1,0,0:0:0:0:
475,192,235183,128,0,235261:0:0:0:0:
109,192,235183,1,0,0:0:0:0:
36,192,235183,1,0,0:0:0:0:
256,192,235261,1,0,0:0:0:0:
402,192,235340,1,0,0:0:0:0:
182,192,235340,1,0,0:0:0:0:
36,192,235340,128,0,235656:0:0:0:0:
475,192,235340,1,0,0:0:0:0:
329,192,235419,1,0,0:0:0:0:
109,192,235419,128,0,235577:0:0:0:0:
402,192,235498,128,0,235814:0:0:0:0:
475,192,235498,1,0,0:0:0:0:
182,192,235498,128,0,235538:0:0:0:0:
256,192,235498,1,0,0:0:0:0:
329,192,235577,128,0,235735:0:0:0:0:
109,192,235656,128,0,235972:0:0:0:0:
475,192,235656,1,0,0:0:0:0:
256,192,235656,128,0,235696:0:0:0:0:
182,192,235735,128,0,235893:0:0:0:0:
256,192,235814,1,0,0:0:0:0:
475,192,235814,128,0,236130:0:0:0:0:
36,192,235814,128,0,235854:0:0:0:0:
402,192,235893,128,0,236051:0:0:0:0:
36,192,235972,128,0,236288:0:0:0:0:
329,192,235972,128,0,236011:0:0:0:0:
182,192,235972,1,0,0:0:0:0:
109,192,236051,128,0,236209:0:0:0:0:
256,192,236051,1,0,0:0:0:0:
402,192,236130,1,0,0:0:0:0:
182,192,236130,128,0,236169:0:0:0:0:
256,192,236209,1,0,0:0:0:0:
329,192,236288,128,0,236604:0:0:0:0:
475,192,236288,1,0,0:0:0:0:
182,192,236288,128,0,236327:0:0:0:0:
402,192,236367,128,0,236525:0:0:0:0:
109,192,236367,128,0,236406:0:0:0:0:
182,192,236446,128,0,236761:0:0:0:0:
475,192,236446,128,0,236485:0:0:0:0:
36,192,236446,128,0,236485:0:0:0:0:
109,192,236525,128,0,236683:0:0:0:0:
256,192,236525,1,0,0:0:0:0:
402,192,236604,128,0,236919:0:0:0:0:
36,192,236604,128,0,236643:0:0:0:0:
475,192,236683,128,0,236840:0:0:0:0:
256,192,236683,1,0,0:0:0:0:
329,192,236761,1,0,0:0:0:0:
36,192,236761,128,0,237077:0:0:0:0:
109,192,236840,128,0,236998:0:0:0:0:
256,192,236840,128,0,236880:0:0:0:0:
329,192,236919,128,0,237235:0:0:0:0:
475,192,236919,1,0,0:0:0:0:
182,192,236919,128,0,236959:0:0:0:0:
256,192,236998,128,0,237156:0:0:0:0:
402,192,236998,1,0,0:0:0:0:
182,192,237077,1,0,0:0:0:0:
475,192,237077,1,0,0:0:0:0:
36,192,237156,128,0,237196:0:0:0:0:
109,192,237235,128,0,237551:0:0:0:0:
475,192,237235,1,0,0:0:0:0:
402,192,237235,128,0,237275:0:0:0:0:
256,192,237235,1,0,0:0:0:0:
36,192,237314,128,0,237472:0:0:0:0:
329,192,237314,128,0,237354:0:0:0:0:
182,192,237314,1,0,0:0:0:0:
402,192,237393,128,0,237709:0:0:0:0:
256,192,237393,128,0,237433:0:0:0:0:
475,192,237393,128,0,237433:0:0:0:0:
329,192,237472,128,0,237630:0:0:0:0:
182,192,237472,1,0,0:0:0:0:
36,192,237551,128,0,237867:0:0:0:0:
475,192,237551,1,0,0:0:0:0:
256,192,237551,128,0,237590:0:0:0:0:
109,192,237630,128,0,237788:0:0:0:0:
475,192,237709,128,0,238025:0:0:0:0:
182,192,237709,128,0,237748:0:0:0:0:
329,192,237709,1,0,0:0:0:0:
402,192,237788,128,0,237946:0:0:0:0:
256,192,237788,128,0,237827:0:0:0:0:
182,192,237867,128,0,238183:0:0:0:0:
329,192,237867,128,0,237906:0:0:0:0:
256,192,237946,128,0,238104:0:0:0:0:
36,192,237946,1,0,0:0:0:0:
109,192,238025,1,0,0:0:0:0:
329,192,238025,128,0,238064:0:0:0:0:
402,192,238104,1,0,0:0:0:0:
36,192,238104,1,0,0:0:0:0:
475,192,238183,1,0,0:0:0:0:
256,192,238183,1,0,0:0:0:0:
329,192,238183,128,0,238222:0:0:0:0:
109,192,238183,128,0,238261:0:0:0:0:
402,192,238261,128,0,238340:0:0:0:0:
182,192,238261,1,0,0:0:0:0:
256,192,238340,1,0,0:0:0:0:
36,192,238340,1,0,0:0:0:0:
329,192,238340,128,0,238380:0:0:0:0:
109,192,238340,1,0,0:0:0:0:
182,192,238419,128,0,238498:0:0:0:0:
475,192,238419,128,0,238498:0:0:0:0:
109,192,238498,1,0,0:0:0:0:
329,192,238498,1,0,0:0:0:0:
256,192,238498,128,0,238538:0:0:0:0:
402,192,238577,128,0,238656:0:0:0:0:
36,192,238577,128,0,238656:0:0:0:0:
329,192,238656,1,0,0:0:0:0:
109,192,238656,1,0,0:0:0:0:
182,192,238656,128,0,238696:0:0:0:0:
256,192,238735,128,0,238814:0:0:0:0:
475,192,238735,128,0,238814:0:0:0:0:
182,192,238814,1,0,0:0:0:0:
402,192,238814,1,0,0:0:0:0:
109,192,238814,128,0,238854:0:0:0:0:
36,192,238893,128,0,238972:0:0:0:0:
329,192,238893,128,0,238972:0:0:0:0:
402,192,238972,1,0,0:0:0:0:
182,192,238972,1,0,0:0:0:0:
475,192,238972,128,0,239011:0:0:0:0:
109,192,239051,128,0,239130:0:0:0:0:
329,192,239051,128,0,239130:0:0:0:0:
256,192,239130,1,0,0:0:0:0:
475,192,239130,1,0,0:0:0:0:
36,192,239130,128,0,239169:0:0:0:0:
182,192,239209,128,0,239288:0:0:0:0:
402,192,239209,128,0,239288:0:0:0:0:
475,192,239288,1,0,0:0:0:0:
256,192,239288,1,0,0:0:0:0:
36,192,239288,1,0,0:0:0:0:
109,192,239367,128,0,239446:0:0:0:0:
329,192,239367,128,0,239446:0:0:0:0:
36,192,239446,1,0,0:0:0:0:
256,192,239446,1,0,0:0:0:0:
475,192,239446,128,0,239485:0:0:0:0:
182,192,239525,128,0,239604:0:0:0:0:
402,192,239525,128,0,239604:0:0:0:0:
109,192,239604,1,0,0:0:0:0:
329,192,239604,1,0,0:0:0:0:
36,192,239604,128,0,239643:0:0:0:0:
256,192,239604,128,0,239643:0:0:0:0:
475,192,239683,128,0,239761:0:0:0:0:
182,192,239683,128,0,239761:0:0:0:0:
36,192,239761,1,0,0:0:0:0:
256,192,239761,1,0,0:0:0:0:
329,192,239761,128,0,239801:0:0:0:0:
109,192,239840,128,0,239919:0:0:0:0:
402,192,239840,128,0,239919:0:0:0:0:
475,192,239919,1,0,0:0:0:0:
182,192,239919,1,0,0:0:0:0:
329,192,239919,128,0,239959:0:0:0:0:
256,192,239998,128,0,240077:0:0:0:0:
36,192,239998,128,0,240077:0:0:0:0:
402,192,240077,1,0,0:0:0:0:
109,192,240077,1,0,0:0:0:0:
329,192,240077,128,0,240117:0:0:0:0:
182,192,240156,128,0,240235:0:0:0:0:
475,192,240156,128,0,240235:0:0:0:0:
329,192,240235,1,0,0:0:0:0:
36,192,240235,1,0,0:0:0:0:
256,192,240235,128,0,240275:0:0:0:0:
109,192,240314,128,0,240393:0:0:0:0:
402,192,240314,128,0,240393:0:0:0:0:
256,192,240393,1,0,0:0:0:0:
475,192,240393,1,0,0:0:0:0:
36,192,240393,1,0,0:0:0:0:
182,192,240393,128,0,240433:0:0:0:0:
329,192,240472,128,0,240551:0:0:0:0:
182,192,240472,128,0,240551:0:0:0:0:
109,192,240551,1,0,0:0:0:0:
402,192,240551,1,0,0:0:0:0:
36,192,240551,128,0,240590:0:0:0:0:
256,192,240630,128,0,240709:0:0:0:0:
402,192,240630,128,0,240709:0:0:0:0:
182,192,240709,1,0,0:0:0:0:
36,192,240709,1,0,0:0:0:0:
475,192,240709,128,0,240748:0:0:0:0:
109,192,240788,128,0,240867:0:0:0:0:
329,192,240788,128,0,240867:0:0:0:0:
256,192,240867,1,0,0:0:0:0:
402,192,240867,1,0,0:0:0:0:
475,192,240867,128,0,240906:0:0:0:0:
182,192,240946,128,0,241025:0:0:0:0:
36,192,240946,128,0,241025:0:0:0:0:
329,192,241025,1,0,0:0:0:0:
475,192,241025,1,0,0:0:0:0:
256,192,241025,128,0,241064:0:0:0:0:
109,192,241104,128,0,241183:0:0:0:0:
329,192,241104,128,0,241183:0:0:0:0:
256,192,241183,1,0,0:0:0:0:
402,192,241183,1,0,0:0:0:0:
182,192,241183,128,0,241222:0:0:0:0:
36,192,241261,128,0,241340:0:0:0:0:
475,192,241261,128,0,241340:0:0:0:0:
329,192,241340,1,0,0:0:0:0:
182,192,241340,1,0,0:0:0:0:
109,192,241340,128,0,241380:0:0:0:0:
402,192,241419,128,0,241498:0:0:0:0:
182,192,241419,128,0,241498:0:0:0:0:
256,192,241498,1,0,0:0:0:0:
109,192,241498,1,0,0:0:0:0:
36,192,241498,128,0,241538:0:0:0:0:
329,192,241577,128,0,241656:0:0:0:0:
475,192,241577,128,0,241656:0:0:0:0:
182,192,241656,1,0,0:0:0:0:
36,192,241656,1,0,0:0:0:0:
402,192,241656,128,0,241696:0:0:0:0:
109,192,241735,128,0,241814:0:0:0:0:
256,192,241735,128,0,241814:0:0:0:0:
329,192,241814,1,0,0:0:0:0:
475,192,241814,128,0,242051:0:0:0:0:
256,192,241893,1,0,0:0:0:0:
402,192,241893,128,0,242051:0:0:0:0:
182,192,241972,1,0,0:0:0:0:
36,192,241972,1,0,0:0:0:0:
329,192,241972,128,0,242130:0:0:0:0:
109,192,242051,1,0,0:0:0:0:
256,192,242051,128,0,242209:0:0:0:0:
182,192,242130,1,0,0:0:0:0:
402,192,242130,1,0,0:0:0:0:
36,192,242130,128,0,242367:0:0:0:0:
475,192,242130,1,0,0:0:0:0:
329,192,242209,1,0,0:0:0:0:
109,192,242209,128,0,242367:0:0:0:0:
402,192,242288,1,0,0:0:0:0:
475,192,242288,1,0,0:0:0:0:
182,192,242288,128,0,242367:0:0:0:0:
256,192,242367,128,0,242446:0:0:0:0:
36,192,242446,1,0,0:0:0:0:
182,192,242446,1,0,0:0:0:0:
329,192,242446,128,0,242525:0:0:0:0:
402,192,242446,128,0,242604:0:0:0:0:
475,192,242446,128,0,242761:0:0:0:0:
109,192,242446,1,0,0:0:0:0:
256,192,242525,128,0,242604:0:0:0:0:
329,192,242604,1,0,0:0:0:0:
36,192,242604,1,0,0:0:0:0:
182,192,242604,128,0,242683:0:0:0:0:
402,192,242683,1,0,0:0:0:0:
109,192,242683,128,0,242761:0:0:0:0:
256,192,242761,1,0,0:0:0:0:
182,192,242761,1,0,0:0:0:0:
36,192,242761,128,0,242840:0:0:0:0:
329,192,242840,1,0,0:0:0:0:
475,192,242840,128,0,242919:0:0:0:0:
36,192,242919,1,0,0:0:0:0:
182,192,242919,1,0,0:0:0:0:
402,192,242919,128,0,242998:0:0:0:0:
109,192,242998,1,0,0:0:0:0:
329,192,242998,128,0,243077:0:0:0:0:
402,192,243077,1,0,0:0:0:0:
475,192,243077,1,0,0:0:0:0:
182,192,243077,128,0,243156:0:0:0:0:
256,192,243077,1,0,0:0:0:0:
109,192,243156,128,0,243235:0:0:0:0:
329,192,243156,1,0,0:0:0:0:
36,192,243156,1,0,0:0:0:0:
182,192,243235,128,0,243340:0:0:0:0:
402,192,243235,128,0,243288:0:0:0:0:
475,192,243235,128,0,243288:0:0:0:0:
109,192,243288,128,0,243393:0:0:0:0:
256,192,243288,128,0,243393:0:0:0:0:
36,192,243340,128,0,243393:0:0:0:0:
329,192,243340,128,0,243393:0:0:0:0:
402,192,243393,128,0,243446:0:0:0:0:
475,192,243472,128,0,243551:0:0:0:0:
182,192,243472,128,0,243551:0:0:0:0:
256,192,243472,1,0,0:0:0:0:
329,192,243551,128,0,243656:0:0:0:0:
109,192,243551,128,0,243604:0:0:0:0:
36,192,243551,128,0,243604:0:0:0:0:
256,192,243604,128,0,243709:0:0:0:0:
402,192,243604,128,0,243709:0:0:0:0:
182,192,243656,128,0,243709:0:0:0:0:
475,192,243656,128,0,243709:0:0:0:0:
36,192,243709,128,0,243761:0:0:0:0:
256,192,243788,1,0,0:0:0:0:
475,192,243788,128,0,243867:0:0:0:0:
109,192,243788,128,0,243867:0:0:0:0:
329,192,243867,128,0,243972:0:0:0:0:
36,192,243867,128,0,243919:0:0:0:0:
256,192,243919,128,0,244025:0:0:0:0:
402,192,243919,128,0,244025:0:0:0:0:
475,192,243972,128,0,244025:0:0:0:0:
182,192,243972,128,0,244025:0:0:0:0:
109,192,244025,128,0,244077:0:0:0:0:
36,192,244104,128,0,244183:0:0:0:0:
329,192,244104,128,0,244183:0:0:0:0:
256,192,244104,1,0,0:0:0:0:
475,192,244183,128,0,244235:0:0:0:0:
182,192,244183,128,0,244288:0:0:0:0:
402,192,244183,128,0,244235:0:0:0:0:
256,192,244235,128,0,244340:0:0:0:0:
109,192,244235,128,0,244340:0:0:0:0:
329,192,244288,128,0,244340:0:0:0:0:
36,192,244288,128,0,244340:0:0:0:0:
475,192,244340,128,0,244393:0:0:0:0:
402,192,244340,128,0,244419:0:0:0:0:
182,192,244419,128,0,244498:0:0:0:0:
256,192,244419,128,0,244472:0:0:0:0:
329,192,244498,128,0,244577:0:0:0:0:
402,192,244498,128,0,244551:0:0:0:0:
36,192,244498,1,0,0:0:0:0:
109,192,244577,128,0,244656:0:0:0:0:
182,192,244577,128,0,244630:0:0:0:0:
256,192,244656,128,0,244735:0:0:0:0:
329,192,244656,128,0,244709:0:0:0:0:
475,192,244656,1,0,0:0:0:0:
36,192,244735,128,0,244814:0:0:0:0:
109,192,244735,128,0,244788:0:0:0:0:
402,192,244814,128,0,244893:0:0:0:0:
256,192,244814,128,0,244893:0:0:0:0:
182,192,244814,128,0,244867:0:0:0:0:
475,192,244893,128,0,244972:0:0:0:0:
109,192,244893,1,0,0:0:0:0:
36,192,244972,1,0,0:0:0:0:
402,192,244972,128,0,245130:0:0:0:0:
109,192,245025,1,0,0:0:0:0:
329,192,245051,128,0,245130:0:0:0:0:
182,192,245077,1,0,0:0:0:0:
256,192,245130,128,0,245367:0:0:0:0:
36,192,245130,1,0,0:0:0:0:
475,192,245209,128,0,245446:0:0:0:0:
109,192,245209,1,0,0:0:0:0:
402,192,245209,1,0,0:0:0:0:
182,192,245288,128,0,245525:0:0:0:0:
36,192,245288,1,0,0:0:0:0:
402,192,245367,128,0,245604:0:0:0:0:
329,192,245367,1,0,0:0:0:0:
109,192,245446,128,0,245683:0:0:0:0:
36,192,245446,1,0,0:0:0:0:
329,192,245525,128,0,245761:0:0:0:0:
256,192,245525,1,0,0:0:0:0:
36,192,245604,128,0,245840:0:0:0:0:
475,192,245604,1,0,0:0:0:0:
256,192,245683,128,0,245919:0:0:0:0:
182,192,245683,1,0,0:0:0:0:
109,192,245761,128,0,245840:0:0:0:0:
182,192,245761,128,0,245840:0:0:0:0:
402,192,245761,1,0,0:0:0:0:
475,192,245761,1,0,0:0:0:0:
329,192,245840,128,0,245919:0:0:0:0:
402,192,245840,128,0,245919:0:0:0:0:
109,192,245919,128,0,245998:0:0:0:0:
36,192,245919,128,0,245998:0:0:0:0:
182,192,245919,1,0,0:0:0:0:
256,192,245998,128,0,246077:0:0:0:0:
329,192,245998,128,0,246077:0:0:0:0:
475,192,245998,1,0,0:0:0:0:
182,192,246077,128,0,246156:0:0:0:0:
402,192,246077,128,0,246156:0:0:0:0:
475,192,246156,128,0,246235:0:0:0:0:
109,192,246156,128,0,246235:0:0:0:0:
402,192,246235,128,0,246314:0:0:0:0:
36,192,246235,128,0,246314:0:0:0:0:
109,192,246314,128,0,246393:0:0:0:0:
329,192,246314,128,0,246393:0:0:0:0:
182,192,246393,128,0,246446:0:0:0:0:
256,192,246393,128,0,246446:0:0:0:0:
36,192,246393,1,0,0:0:0:0:
475,192,246393,1,0,0:0:0:0:
329,192,246446,1,0,0:0:0:0:
402,192,246498,128,0,246761:0:0:0:0:
109,192,246551,128,0,246604:0:0:0:0:
182,192,246551,128,0,246604:0:0:0:0:
36,192,246551,1,0,0:0:0:0:
475,192,246551,1,0,0:0:0:0:
256,192,246604,1,0,0:0:0:0:
329,192,246656,128,0,246761:0:0:0:0:
36,192,246709,128,0,246761:0:0:0:0:
109,192,246709,128,0,246761:0:0:0:0:
475,192,246709,128,0,246788:0:0:0:0:
182,192,246761,1,0,0:0:0:0:
256,192,246814,1,0,0:0:0:0:
329,192,246867,128,0,247104:0:0:0:0:
36,192,246867,1,0,0:0:0:0:
402,192,246946,128,0,247025:0:0:0:0:
109,192,246946,1,0,0:0:0:0:
475,192,247025,128,0,247183:0:0:0:0:
182,192,247025,1,0,0:0:0:0:
402,192,247104,1,0,0:0:0:0:
109,192,247104,1,0,0:0:0:0:
36,192,247183,1,0,0:0:0:0:
329,192,247183,128,0,247419:0:0:0:0:
109,192,247261,1,0,0:0:0:0:
475,192,247261,128,0,247340:0:0:0:0:
256,192,247261,128,0,247340:0:0:0:0:
402,192,247340,128,0,247577:0:0:0:0:
182,192,247340,128,0,247419:0:0:0:0:
36,192,247419,128,0,247656:0:0:0:0:
109,192,247419,128,0,247498:0:0:0:0:
256,192,247498,128,0,247577:0:0:0:0:
475,192,247498,128,0,247577:0:0:0:0:
182,192,247577,128,0,247656:0:0:0:0:
329,192,247577,128,0,247656:0:0:0:0:
109,192,247656,128,0,247893:0:0:0:0:
475,192,247656,128,0,247735:0:0:0:0:
256,192,247735,128,0,247814:0:0:0:0:
402,192,247735,128,0,247814:0:0:0:0:
182,192,247814,128,0,247893:0:0:0:0:
329,192,247814,128,0,247893:0:0:0:0:
475,192,247893,128,0,247972:0:0:0:0:
36,192,247893,128,0,247972:0:0:0:0:
256,192,247893,128,0,247972:0:0:0:0:
329,192,247972,128,0,248209:0:0:0:0:
182,192,247972,128,0,248051:0:0:0:0:
109,192,248051,128,0,248130:0:0:0:0:
402,192,248051,128,0,248130:0:0:0:0:
475,192,248051,128,0,248130:0:0:0:0:
256,192,248130,128,0,248209:0:0:0:0:
36,192,248130,128,0,248209:0:0:0:0:
182,192,248209,128,0,248288:0:0:0:0:
402,192,248209,128,0,248288:0:0:0:0:
475,192,248288,1,0,0:0:0:0:
109,192,248288,128,0,248367:0:0:0:0:
36,192,248288,128,0,248446:0:0:0:0:
256,192,248340,128,0,248498:0:0:0:0:
329,192,248393,128,0,248446:0:0:0:0:
402,192,248446,128,0,248604:0:0:0:0:
475,192,248446,128,0,248525:0:0:0:0:
182,192,248446,128,0,248551:0:0:0:0:
109,192,248498,128,0,248604:0:0:0:0:
36,192,248551,128,0,248761:0:0:0:0:
329,192,248604,128,0,248709:0:0:0:0:
256,192,248604,128,0,248683:0:0:0:0:
182,192,248656,128,0,248867:0:0:0:0:
402,192,248656,128,0,248761:0:0:0:0:
109,192,248709,128,0,248814:0:0:0:0:
475,192,248761,128,0,249025:0:0:0:0:
329,192,248814,128,0,248946:0:0:0:0:
402,192,248840,128,0,248998:0:0:0:0:
256,192,248867,128,0,248919:0:0:0:0:
36,192,248919,128,0,249077:0:0:0:0:
109,192,248919,128,0,249025:0:0:0:0:
182,192,248972,128,0,249077:0:0:0:0:
256,192,249025,128,0,249130:0:0:0:0:
402,192,249077,128,0,249235:0:0:0:0:
475,192,249077,128,0,249183:0:0:0:0:
329,192,249130,128,0,249235:0:0:0:0:
256,192,249183,128,0,249288:0:0:0:0:
182,192,249235,128,0,249340:0:0:0:0:
36,192,249235,128,0,249446:0:0:0:0:
329,192,249288,128,0,249393:0:0:0:0:
109,192,249314,128,0,249472:0:0:0:0:
402,192,249340,128,0,249446:0:0:0:0:
182,192,249393,128,0,249498:0:0:0:0:
475,192,249393,128,0,249498:0:0:0:0:
329,192,249446,128,0,249525:0:0:0:0:
256,192,249472,128,0,249577:0:0:0:0:
402,192,249498,128,0,249656:0:0:0:0:
475,192,249551,128,0,249604:0:0:0:0:
109,192,249551,128,0,249630:0:0:0:0:
36,192,249551,128,0,249656:0:0:0:0:
182,192,249551,128,0,249604:0:0:0:0:
329,192,249604,128,0,249735:0:0:0:0:
256,192,249656,128,0,249788:0:0:0:0:
109,192,249709,128,0,249814:0:0:0:0:
182,192,249709,128,0,249867:0:0:0:0:
36,192,249709,128,0,249788:0:0:0:0:
475,192,249709,128,0,249998:0:0:0:0:
402,192,249761,128,0,249946:0:0:0:0:
329,192,249814,128,0,249919:0:0:0:0:
256,192,249867,128,0,249893:0:0:0:0:
36,192,249867,128,0,249946:0:0:0:0:
109,192,249919,128,0,249998:0:0:0:0:
182,192,249972,128,0,250051:0:0:0:0:
329,192,250025,128,0,250209:0:0:0:0:
36,192,250025,128,0,250235:0:0:0:0:
256,192,250025,128,0,250104:0:0:0:0:
402,192,250077,128,0,250261:0:0:0:0:
109,192,250104,128,0,250183:0:0:0:0:
475,192,250130,128,0,250183:0:0:0:0:
256,192,250183,128,0,250340:0:0:0:0:
182,192,250235,128,0,250393:0:0:0:0:
109,192,250288,128,0,250446:0:0:0:0:
36,192,250340,128,0,250393:0:0:0:0:
475,192,250340,128,0,250498:0:0:0:0:
402,192,250340,128,0,250446:0:0:0:0:
329,192,250393,128,0,250498:0:0:0:0:
256,192,250446,128,0,250551:0:0:0:0:
182,192,250498,128,0,250604:0:0:0:0:
109,192,250498,128,0,250551:0:0:0:0:
36,192,250498,128,0,250577:0:0:0:0:
475,192,250551,128,0,250867:0:0:0:0:
402,192,250604,128,0,250814:0:0:0:0:
329,192,250656,128,0,250761:0:0:0:0:
36,192,250656,128,0,250735:0:0:0:0:
109,192,250656,128,0,250735:0:0:0:0:
182,192,250709,128,0,250788:0:0:0:0:
256,192,250761,128,0,250840:0:0:0:0:
36,192,250814,128,0,250893:0:0:0:0:
109,192,250840,128,0,250919:0:0:0:0:
329,192,250867,128,0,250919:0:0:0:0:
182,192,250893,128,0,250972:0:0:0:0:
402,192,250919,128,0,250998:0:0:0:0:
36,192,250972,1,0,0:0:0:0:
256,192,250972,1,0,0:0:0:0:
475,192,250972,128,0,251051:0:0:0:0:
329,192,251025,1,0,0:0:0:0:
109,192,251025,1,0,0:0:0:0:
402,192,251077,1,0,0:0:0:0:
182,192,251077,1,0,0:0:0:0:
475,192,251130,1,0,0:0:0:0:
36,192,251130,128,0,251288:0:0:0:0:
256,192,251130,128,0,251288:0:0:0:0:
402,192,251209,1,0,0:0:0:0:
109,192,251209,1,0,0:0:0:0:
475,192,251288,1,0,0:0:0:0:
329,192,251288,128,0,251446:0:0:0:0:
182,192,251288,128,0,251446:0:0:0:0:
256,192,251367,1,0,0:0:0:0:
109,192,251446,1,0,0:0:0:0:
36,192,251446,128,0,251604:0:0:0:0:
402,192,251446,128,0,251604:0:0:0:0:
182,192,251525,1,0,0:0:0:0:
475,192,251525,1,0,0:0:0:0:
329,192,251604,128,0,251683:0:0:0:0:
109,192,251604,1,0,0:0:0:0:
182,192,251683,128,0,251761:0:0:0:0:
256,192,251683,1,0,0:0:0:0:
402,192,251683,128,0,251761:0:0:0:0:
109,192,251761,128,0,251840:0:0:0:0:
475,192,251761,128,0,251919:0:0:0:0:
329,192,251761,1,0,0:0:0:0:
36,192,251761,1,0,0:0:0:0:
256,192,251840,1,0,0:0:0:0:
109,192,251919,1,0,0:0:0:0:
36,192,251919,128,0,251998:0:0:0:0:
402,192,251919,128,0,252077:0:0:0:0:
329,192,251919,1,0,0:0:0:0:
182,192,251998,1,0,0:0:0:0:
475,192,252077,1,0,0:0:0:0:
109,192,252077,128,0,252156:0:0:0:0:
329,192,252077,128,0,252156:0:0:0:0:
256,192,252077,1,0,0:0:0:0:
36,192,252077,1,0,0:0:0:0:
402,192,252156,128,0,252235:0:0:0:0:
182,192,252156,1,0,0:0:0:0:
109,192,252235,1,0,0:0:0:0:
475,192,252235,128,0,252314:0:0:0:0:
36,192,252235,128,0,252314:0:0:0:0:
256,192,252235,1,0,0:0:0:0:
329,192,252314,1,0,0:0:0:0:
182,192,252314,128,0,252393:0:0:0:0:
36,192,252393,1,0,0:0:0:0:
402,192,252393,128,0,252472:0:0:0:0:
256,192,252393,128,0,252472:0:0:0:0:
475,192,252393,128,0,252630:0:0:0:0:
109,192,252472,1,0,0:0:0:0:
329,192,252472,128,0,252551:0:0:0:0:
256,192,252551,128,0,252630:0:0:0:0:
36,192,252551,128,0,252630:0:0:0:0:
182,192,252551,1,0,0:0:0:0:
402,192,252630,1,0,0:0:0:0:
109,192,252630,128,0,252709:0:0:0:0:
329,192,252630,128,0,252709:0:0:0:0:
182,192,252709,1,0,0:0:0:0:
475,192,252709,128,0,252761:0:0:0:0:
36,192,252709,128,0,252788:0:0:0:0:
256,192,252709,1,0,0:0:0:0:
256,192,252788,128,0,252867:0:0:0:0:
329,192,252788,1,0,0:0:0:0:
475,192,252867,1,0,0:0:0:0:
182,192,252867,1,0,0:0:0:0:
109,192,252867,128,0,252946:0:0:0:0:
256,192,252946,128,0,253025:0:0:0:0:
402,192,252946,128,0,253025:0:0:0:0:
36,192,252946,1,0,0:0:0:0:
109,192,253025,1,0,0:0:0:0:
329,192,253025,1,0,0:0:0:0:
475,192,253025,1,0,0:0:0:0:
182,192,253025,128,0,253104:0:0:0:0:
36,192,253104,1,0,0:0:0:0:
256,192,253104,1,0,0:0:0:0:
402,192,253104,128,0,253183:0:0:0:0:
182,192,253183,1,0,0:0:0:0:
475,192,253183,1,0,0:0:0:0:
329,192,253183,128,0,253261:0:0:0:0:
109,192,253183,128,0,253261:0:0:0:0:
402,192,253261,1,0,0:0:0:0:
256,192,253261,128,0,253340:0:0:0:0:
36,192,253261,128,0,253340:0:0:0:0:
182,192,253340,128,0,253498:0:0:0:0:
329,192,253340,128,0,253551:0:0:0:0:
475,192,253340,128,0,253919:0:0:0:0:
109,192,253393,128,0,253446:0:0:0:0:
36,192,253446,128,0,253709:0:0:0:0:
109,192,253498,128,0,253656:0:0:0:0:
182,192,253551,128,0,253604:0:0:0:0:
256,192,253604,1,0,0:0:0:0:
329,192,253656,128,0,253814:0:0:0:0:
402,192,253656,128,0,253867:0:0:0:0:
182,192,253709,1,0,0:0:0:0:
109,192,253761,1,0,0:0:0:0:
36,192,253814,128,0,254604:0:0:0:0:
109,192,253867,128,0,254446:0:0:0:0:
182,192,253919,128,0,254183:0:0:0:0:
329,192,253972,128,0,254130:0:0:0:0:
256,192,253972,128,0,254077:0:0:0:0:
402,192,254025,1,0,0:0:0:0:
475,192,254077,128,0,254288:0:0:0:0:
402,192,254130,128,0,254235:0:0:0:0:
329,192,254183,1,0,0:0:0:0:
256,192,254235,1,0,0:0:0:0:
182,192,254288,128,0,254446:0:0:0:0:
329,192,254340,1,0,0:0:0:0:
402,192,254393,1,0,0:0:0:0:
475,192,254446,128,0,254814:0:0:0:0:
402,192,254498,128,0,254814:0:0:0:0:
329,192,254551,128,0,254814:0:0:0:0:
182,192,254604,128,0,254761:0:0:0:0:
256,192,254604,128,0,254761:0:0:0:0:
109,192,254656,1,0,0:0:0:0:
36,192,254709,1,0,0:0:0:0:
109,192,254761,1,0,0:0:0:0:
182,192,254814,1,0,0:0:0:0:
256,192,254867,1,0,0:0:0:0:
329,192,254919,128,0,254998:0:0:0:0:
402,192,254919,128,0,254998:0:0:0:0:
475,192,254919,128,0,254998:0:0:0:0:
256,192,254972,128,0,255077:0:0:0:0:
182,192,254972,128,0,255025:0:0:0:0:
109,192,255025,128,0,255130:0:0:0:0:
329,192,255077,128,0,255156:0:0:0:0:
402,192,255077,128,0,255156:0:0:0:0:
475,192,255077,128,0,255156:0:0:0:0:
36,192,255077,128,0,255130:0:0:0:0:
182,192,255130,128,0,255235:0:0:0:0:
109,192,255183,128,0,255235:0:0:0:0:
329,192,255235,128,0,255340:0:0:0:0:
256,192,255235,128,0,255340:0:0:0:0:
402,192,255235,128,0,255340:0:0:0:0:
36,192,255288,128,0,255393:0:0:0:0:
109,192,255340,128,0,255393:0:0:0:0:
329,192,255393,128,0,255498:0:0:0:0:
402,192,255393,128,0,255498:0:0:0:0:
475,192,255393,128,0,255498:0:0:0:0:
256,192,255393,128,0,255498:0:0:0:0:
182,192,255446,128,0,255551:0:0:0:0:
109,192,255498,128,0,255551:0:0:0:0:
36,192,255551,128,0,255630:0:0:0:0:
475,192,255551,128,0,255630:0:0:0:0:
402,192,255630,128,0,255709:0:0:0:0:
109,192,255630,128,0,255709:0:0:0:0:
329,192,255709,128,0,255788:0:0:0:0:
182,192,255709,128,0,255788:0:0:0:0:
256,192,255788,128,0,255867:0:0:0:0:
182,192,255867,1,0,0:0:0:0:
329,192,255867,1,0,0:0:0:0:
256,192,255946,1,0,0:0:0:0:
182,192,256025,1,0,0:0:0:0:
329,192,256104,1,0,0:0:0:0:
182,192,256183,1,0,0:0:0:0:
329,192,256261,1,0,0:0:0:0:
182,192,256340,1,0,0:0:0:0:
329,192,256419,1,0,0:0:0:0:
182,192,256498,1,0,0:0:0:0:
329,192,256577,1,0,0:0:0:0:
182,192,256656,1,0,0:0:0:0:
329,192,256735,1,0,0:0:0:0:
182,192,256814,1,0,0:0:0:0:
329,192,256893,1,0,0:0:0:0:
182,192,256972,1,0,0:0:0:0:
329,192,257051,1,0,0:0:0:0:
182,192,257130,1,0,0:0:0:0:
256,192,257209,1,0,0:0:0:0:
329,192,257288,1,0,0:0:0:0:
256,192,257367,1,0,0:0:0:0:
182,192,257446,1,0,0:0:0:0:
329,192,257525,1,0,0:0:0:0:
182,192,257604,1,0,0:0:0:0:
329,192,257683,1,0,0:0:0:0:
36,192,257761,1,0,0:0:0:0:
109,192,257761,1,0,0:0:0:0:
182,192,257761,1,0,0:0:0:0:
256,192,257761,1,0,0:0:0:0:
402,192,257761,1,0,0:0:0:0:
475,192,257761,1,0,0:0:0:0:
182,192,257919,1,0,0:0:0:0:
256,192,257919,1,0,0:0:0:0:
36,192,257919,1,0,0:0:0:0:
329,192,257919,1,0,0:0:0:0:
475,192,257919,1,0,0:0:0:0:
402,192,257919,1,0,0:0:0:0:
109,192,257919,1,0,0:0:0:0:
36,192,258393,128,0,258472:0:0:0:0:
329,192,258393,128,0,258511:0:0:0:0:
475,192,258393,128,0,258827:0:0:0:0:
109,192,258413,128,0,258492:0:0:0:0:
182,192,258419,128,0,258498:0:0:0:0:
256,192,258433,128,0,258511:0:0:0:0:
402,192,258472,128,0,258590:0:0:0:0:
109,192,258551,128,0,258630:0:0:0:0:
182,192,258571,128,0,258650:0:0:0:0:
256,192,258577,128,0,258656:0:0:0:0:
329,192,258590,128,0,258669:0:0:0:0:
182,192,258709,128,0,258788:0:0:0:0:
36,192,258709,128,0,258946:0:0:0:0:
256,192,258729,128,0,258808:0:0:0:0:
329,192,258735,128,0,258814:0:0:0:0:
402,192,258748,128,0,258827:0:0:0:0:
109,192,258788,128,0,258946:0:0:0:0:
256,192,258867,128,0,258946:0:0:0:0:
182,192,258867,128,0,258906:0:0:0:0:
329,192,258886,128,0,258965:0:0:0:0:
402,192,258893,128,0,258972:0:0:0:0:
475,192,258906,128,0,258985:0:0:0:0:
36,192,259025,128,0,259104:0:0:0:0:
329,192,259025,128,0,259143:0:0:0:0:
402,192,259025,128,0,259301:0:0:0:0:
475,192,259025,128,0,259459:0:0:0:0:
109,192,259044,128,0,259123:0:0:0:0:
182,192,259051,128,0,259130:0:0:0:0:
256,192,259064,128,0,259143:0:0:0:0:
109,192,259183,128,0,259261:0:0:0:0:
36,192,259183,128,0,259577:0:0:0:0:
182,192,259202,128,0,259281:0:0:0:0:
256,192,259209,128,0,259288:0:0:0:0:
329,192,259222,128,0,259301:0:0:0:0:
182,192,259340,128,0,259419:0:0:0:0:
109,192,259340,128,0,259617:0:0:0:0:
256,192,259360,128,0,259439:0:0:0:0:
329,192,259367,128,0,259446:0:0:0:0:
402,192,259380,128,0,259459:0:0:0:0:
256,192,259498,128,0,259577:0:0:0:0:
182,192,259498,128,0,259617:0:0:0:0:
329,192,259518,128,0,259597:0:0:0:0:
402,192,259525,128,0,259604:0:0:0:0:
475,192,259538,128,0,259617:0:0:0:0:
36,192,259656,128,0,259735:0:0:0:0:
329,192,259656,128,0,259775:0:0:0:0:
402,192,259656,128,0,259933:0:0:0:0:
475,192,259656,128,0,260090:0:0:0:0:
109,192,259676,128,0,259755:0:0:0:0:
182,192,259683,128,0,259761:0:0:0:0:
256,192,259696,128,0,259775:0:0:0:0:
109,192,259814,128,0,259893:0:0:0:0:
36,192,259814,128,0,260209:0:0:0:0:
182,192,259834,128,0,259913:0:0:0:0:
256,192,259840,128,0,259919:0:0:0:0:
329,192,259854,128,0,259933:0:0:0:0:
182,192,259972,128,0,260051:0:0:0:0:
109,192,259972,128,0,260248:0:0:0:0:
256,192,259992,128,0,260071:0:0:0:0:
329,192,259998,128,0,260077:0:0:0:0:
402,192,260011,128,0,260090:0:0:0:0:
256,192,260130,128,0,260209:0:0:0:0:
182,192,260130,128,0,260288:0:0:0:0:
329,192,260150,128,0,260229:0:0:0:0:
402,192,260156,128,0,260235:0:0:0:0:
475,192,260169,128,0,260248:0:0:0:0:
36,192,260288,128,0,260367:0:0:0:0:
329,192,260288,128,0,260406:0:0:0:0:
109,192,260308,128,0,260386:0:0:0:0:
182,192,260314,128,0,260393:0:0:0:0:
256,192,260327,128,0,260406:0:0:0:0:
475,192,260367,128,0,260525:0:0:0:0:
109,192,260446,128,0,260525:0:0:0:0:
402,192,260446,128,0,260564:0:0:0:0:
182,192,260465,128,0,260544:0:0:0:0:
256,192,260472,128,0,260551:0:0:0:0:
329,192,260485,128,0,260564:0:0:0:0:
36,192,260525,128,0,260801:0:0:0:0:
182,192,260604,128,0,260683:0:0:0:0:
475,192,260604,128,0,260722:0:0:0:0:
256,192,260623,128,0,260702:0:0:0:0:
329,192,260630,128,0,260709:0:0:0:0:
402,192,260643,128,0,260722:0:0:0:0:
109,192,260683,128,0,260880:0:0:0:0:
256,192,260761,128,0,260840:0:0:0:0:
329,192,260781,128,0,260860:0:0:0:0:
402,192,260788,128,0,260867:0:0:0:0:
475,192,260801,128,0,260880:0:0:0:0:
182,192,260801,128,0,260840:0:0:0:0:
475,192,260919,128,0,260998:0:0:0:0:
182,192,260919,128,0,261038:0:0:0:0:
109,192,260919,128,0,261196:0:0:0:0:
36,192,260919,128,0,261354:0:0:0:0:
402,192,260939,128,0,261018:0:0:0:0:
329,192,260946,128,0,261025:0:0:0:0:
256,192,260959,128,0,261038:0:0:0:0:
402,192,261077,128,0,261156:0:0:0:0:
329,192,261097,128,0,261176:0:0:0:0:
256,192,261104,128,0,261183:0:0:0:0:
182,192,261117,128,0,261196:0:0:0:0:
475,192,261156,128,0,261275:0:0:0:0:
329,192,261235,128,0,261314:0:0:0:0:
402,192,261235,128,0,261472:0:0:0:0:
256,192,261255,128,0,261334:0:0:0:0:
182,192,261261,128,0,261340:0:0:0:0:
109,192,261275,128,0,261354:0:0:0:0:
256,192,261393,128,0,261472:0:0:0:0:
475,192,261393,128,0,261472:0:0:0:0:
182,192,261413,128,0,261492:0:0:0:0:
109,192,261419,128,0,261498:0:0:0:0:
36,192,261433,128,0,261511:0:0:0:0:
475,192,261551,128,0,261630:0:0:0:0:
182,192,261551,128,0,261669:0:0:0:0:
109,192,261551,128,0,261827:0:0:0:0:
36,192,261551,128,0,261985:0:0:0:0:
402,192,261571,128,0,261650:0:0:0:0:
329,192,261577,128,0,261656:0:0:0:0:
256,192,261590,128,0,261669:0:0:0:0:
402,192,261709,128,0,261788:0:0:0:0:
329,192,261729,128,0,261808:0:0:0:0:
256,192,261735,128,0,261814:0:0:0:0:
182,192,261748,128,0,261827:0:0:0:0:
329,192,261867,128,0,261946:0:0:0:0:
475,192,261867,128,0,262104:0:0:0:0:
402,192,261867,128,0,262143:0:0:0:0:
256,192,261886,128,0,261965:0:0:0:0:
182,192,261893,128,0,261972:0:0:0:0:
109,192,261906,128,0,261985:0:0:0:0:
256,192,262025,128,0,262104:0:0:0:0:
329,192,262025,128,0,262104:0:0:0:0:
182,192,262044,128,0,262123:0:0:0:0:
109,192,262051,128,0,262130:0:0:0:0:
36,192,262064,128,0,262143:0:0:0:0:
475,192,262183,128,0,262261:0:0:0:0:
182,192,262183,128,0,262301:0:0:0:0:
109,192,262183,128,0,262459:0:0:0:0:
36,192,262183,128,0,262617:0:0:0:0:
402,192,262202,128,0,262281:0:0:0:0:
329,192,262209,128,0,262288:0:0:0:0:
256,192,262222,128,0,262301:0:0:0:0:
402,192,262340,128,0,262419:0:0:0:0:
329,192,262360,128,0,262439:0:0:0:0:
256,192,262367,128,0,262446:0:0:0:0:
182,192,262380,128,0,262459:0:0:0:0:
329,192,262498,128,0,262577:0:0:0:0:
402,192,262498,128,0,262735:0:0:0:0:
475,192,262498,128,0,262735:0:0:0:0:
256,192,262518,128,0,262597:0:0:0:0:
182,192,262525,128,0,262604:0:0:0:0:
109,192,262538,128,0,262617:0:0:0:0:
256,192,262656,128,0,262735:0:0:0:0:
182,192,262676,128,0,262755:0:0:0:0:
109,192,262683,128,0,262761:0:0:0:0:
36,192,262696,128,0,262775:0:0:0:0:
475,192,262814,128,0,262893:0:0:0:0:
182,192,262814,128,0,262933:0:0:0:0:
109,192,262814,128,0,263090:0:0:0:0:
36,192,262814,128,0,263248:0:0:0:0:
402,192,262834,128,0,262913:0:0:0:0:
329,192,262840,128,0,262919:0:0:0:0:
256,192,262854,128,0,262933:0:0:0:0:
402,192,262972,128,0,263051:0:0:0:0:
329,192,262992,128,0,263071:0:0:0:0:
256,192,262998,128,0,263077:0:0:0:0:
182,192,263011,128,0,263090:0:0:0:0:
329,192,263130,128,0,263209:0:0:0:0:
402,192,263130,128,0,263446:0:0:0:0:
256,192,263150,128,0,263229:0:0:0:0:
182,192,263156,128,0,263235:0:0:0:0:
109,192,263169,128,0,263248:0:0:0:0:
256,192,263288,128,0,263367:0:0:0:0:
329,192,263288,128,0,263367:0:0:0:0:
475,192,263288,128,0,263525:0:0:0:0:
182,192,263308,128,0,263386:0:0:0:0:
109,192,263314,128,0,263393:0:0:0:0:
36,192,263327,128,0,263406:0:0:0:0:
36,192,263446,128,0,263525:0:0:0:0:
329,192,263446,128,0,263485:0:0:0:0:
109,192,263465,128,0,263544:0:0:0:0:
182,192,263472,128,0,263551:0:0:0:0:
256,192,263485,128,0,263564:0:0:0:0:
402,192,263525,128,0,263564:0:0:0:0:
182,192,263604,128,0,263683:0:0:0:0:
475,192,263604,128,0,263880:0:0:0:0:
256,192,263623,128,0,263702:0:0:0:0:
329,192,263630,128,0,263709:0:0:0:0:
402,192,263643,128,0,263722:0:0:0:0:
109,192,263761,128,0,263840:0:0:0:0:
402,192,263761,128,0,263880:0:0:0:0:
36,192,263761,128,0,264038:0:0:0:0:
182,192,263781,128,0,263860:0:0:0:0:
256,192,263788,128,0,263867:0:0:0:0:
329,192,263801,128,0,263880:0:0:0:0:
256,192,263919,128,0,263998:0:0:0:0:
109,192,263919,128,0,264038:0:0:0:0:
329,192,263939,128,0,264018:0:0:0:0:
402,192,263946,128,0,264025:0:0:0:0:
475,192,263959,128,0,264038:0:0:0:0:
475,192,264077,128,0,264156:0:0:0:0:
182,192,264077,128,0,264117:0:0:0:0:
402,192,264097,128,0,264176:0:0:0:0:
329,192,264104,128,0,264183:0:0:0:0:
256,192,264117,128,0,264196:0:0:0:0:
109,192,264156,128,0,264196:0:0:0:0:
329,192,264235,128,0,264314:0:0:0:0:
36,192,264235,128,0,264551:0:0:0:0:
256,192,264255,128,0,264334:0:0:0:0:
182,192,264261,128,0,264340:0:0:0:0:
109,192,264275,128,0,264354:0:0:0:0:
475,192,264314,128,0,264354:0:0:0:0:
402,192,264393,128,0,264472:0:0:0:0:
329,192,264413,128,0,264492:0:0:0:0:
256,192,264419,128,0,264498:0:0:0:0:
182,192,264433,128,0,264511:0:0:0:0:
109,192,264472,128,0,264511:0:0:0:0:
475,192,264551,128,0,264906:0:0:0:0:
256,192,264551,128,0,264630:0:0:0:0:
182,192,264571,128,0,264650:0:0:0:0:
109,192,264577,128,0,264656:0:0:0:0:
36,192,264590,128,0,264669:0:0:0:0:
329,192,264630,128,0,264827:0:0:0:0:
36,192,264709,128,0,264788:0:0:0:0:
402,192,264709,128,0,264788:0:0:0:0:
109,192,264729,128,0,264808:0:0:0:0:
182,192,264735,128,0,264814:0:0:0:0:
256,192,264748,128,0,264827:0:0:0:0:
182,192,264867,128,0,264946:0:0:0:0:
36,192,264867,128,0,265143:0:0:0:0:
256,192,264886,128,0,264965:0:0:0:0:
329,192,264893,128,0,264972:0:0:0:0:
402,192,264906,128,0,264985:0:0:0:0:
109,192,265025,128,0,265104:0:0:0:0:
475,192,265025,128,0,265143:0:0:0:0:
182,192,265044,128,0,265123:0:0:0:0:
256,192,265051,128,0,265130:0:0:0:0:
329,192,265064,128,0,265143:0:0:0:0:
256,192,265183,128,0,265261:0:0:0:0:
109,192,265183,128,0,265261:0:0:0:0:
329,192,265202,128,0,265281:0:0:0:0:
402,192,265209,128,0,265288:0:0:0:0:
475,192,265222,128,0,265301:0:0:0:0:
36,192,265261,128,0,265538:0:0:0:0:
475,192,265340,128,0,265419:0:0:0:0:
182,192,265340,128,0,265419:0:0:0:0:
402,192,265360,128,0,265439:0:0:0:0:
329,192,265367,128,0,265446:0:0:0:0:
256,192,265380,128,0,265459:0:0:0:0:
109,192,265419,128,0,265459:0:0:0:0:
329,192,265498,128,0,265577:0:0:0:0:
402,192,265498,128,0,265538:0:0:0:0:
475,192,265498,128,0,265893:0:0:0:0:
256,192,265518,128,0,265597:0:0:0:0:
182,192,265525,128,0,265604:0:0:0:0:
109,192,265538,128,0,265617:0:0:0:0:
402,192,265656,128,0,265735:0:0:0:0:
36,192,265656,128,0,265696:0:0:0:0:
329,192,265676,128,0,265755:0:0:0:0:
256,192,265683,128,0,265761:0:0:0:0:
182,192,265696,128,0,265775:0:0:0:0:
256,192,265814,128,0,265893:0:0:0:0:
402,192,265814,128,0,265893:0:0:0:0:
182,192,265834,128,0,265913:0:0:0:0:
109,192,265840,128,0,265919:0:0:0:0:
36,192,265854,128,0,265933:0:0:0:0:
475,192,265972,128,0,266025:0:0:0:0:
256,192,265972,128,0,266025:0:0:0:0:
182,192,266025,128,0,266077:0:0:0:0:
402,192,266025,128,0,266077:0:0:0:0:
329,192,266077,128,0,266340:0:0:0:0:
109,192,266077,128,0,266340:0:0:0:0:
36,192,266130,128,0,266169:0:0:0:0:
256,192,266130,128,0,266169:0:0:0:0:
475,192,266209,128,0,266288:0:0:0:0:
182,192,266209,128,0,266288:0:0:0:0:
36,192,266288,128,0,266367:0:0:0:0:
256,192,266288,128,0,266327:0:0:0:0:
402,192,266288,128,0,266656:0:0:0:0:
182,192,266393,128,0,266656:0:0:0:0:
109,192,266446,128,0,266485:0:0:0:0:
329,192,266446,128,0,266525:0:0:0:0:
475,192,266446,128,0,266814:0:0:0:0:
256,192,266525,128,0,266604:0:0:0:0:
36,192,266525,128,0,266683:0:0:0:0:
109,192,266604,128,0,266761:0:0:0:0:
329,192,266604,128,0,266643:0:0:0:0:
256,192,266683,128,0,266761:0:0:0:0:
182,192,266761,128,0,266919:0:0:0:0:
402,192,266761,128,0,266801:0:0:0:0:
36,192,266761,128,0,266998:0:0:0:0:
329,192,266840,128,0,266919:0:0:0:0:
256,192,266919,128,0,267077:0:0:0:0:
475,192,266919,128,0,267077:0:0:0:0:
109,192,266919,128,0,266998:0:0:0:0:
402,192,266998,128,0,267077:0:0:0:0:
36,192,267077,128,0,268498:0:0:0:0:
109,192,267077,128,0,267235:0:0:0:0:
475,192,267235,128,0,268498:0:0:0:0:
402,192,267235,1,0,0:0:0:0:
329,192,267235,1,0,0:0:0:0:
402,192,267340,1,0,0:0:0:0:
256,192,267340,1,0,0:0:0:0:
402,192,267446,1,0,0:0:0:0:
182,192,267446,1,0,0:0:0:0:
402,192,267551,1,0,0:0:0:0:
109,192,267551,1,0,0:0:0:0:
109,192,267656,1,0,0:0:0:0:
256,192,267656,1,0,0:0:0:0:
109,192,267761,1,0,0:0:0:0:
329,192,267761,1,0,0:0:0:0:
109,192,267867,1,0,0:0:0:0:
402,192,267867,1,0,0:0:0:0:
182,192,267972,1,0,0:0:0:0:
329,192,267972,1,0,0:0:0:0:
256,192,268077,1,0,0:0:0:0:
182,192,268183,1,0,0:0:0:0:
329,192,268183,1,0,0:0:0:0:
109,192,268288,1,0,0:0:0:0:
402,192,268288,1,0,0:0:0:0:
256,192,268288,1,0,0:0:0:0:
402,192,268393,1,0,0:0:0:0:
109,192,268393,1,0,0:0:0:0:
182,192,268393,1,0,0:0:0:0:
329,192,268393,1,0,0:0:0:0:
182,192,268498,1,0,0:0:0:0:
109,192,268498,1,0,0:0:0:0:
256,192,268498,1,0,0:0:0:0:
329,192,268551,1,0,0:0:0:0:
402,192,268604,1,0,0:0:0:0:
475,192,268656,1,0,0:0:0:0:
182,192,268656,1,0,0:0:0:0:
109,192,268656,1,0,0:0:0:0:
256,192,268709,1,0,0:0:0:0:
329,192,268761,1,0,0:0:0:0:
36,192,268814,1,0,0:0:0:0:
402,192,268814,1,0,0:0:0:0:
475,192,268814,1,0,0:0:0:0:
109,192,268867,1,0,0:0:0:0:
182,192,268919,1,0,0:0:0:0:
329,192,268972,1,0,0:0:0:0:
475,192,268972,1,0,0:0:0:0:
402,192,268972,128,0,269130:0:0:0:0:
256,192,269051,1,0,0:0:0:0:
182,192,269130,1,0,0:0:0:0:
36,192,269130,1,0,0:0:0:0:
109,192,269130,128,0,269288:0:0:0:0:
402,192,269288,1,0,0:0:0:0:
475,192,269288,128,0,269446:0:0:0:0:
329,192,269446,1,0,0:0:0:0:
256,192,269446,1,0,0:0:0:0:
182,192,269446,1,0,0:0:0:0:
36,192,269446,128,0,269604:0:0:0:0:
109,192,269604,1,0,0:0:0:0:
256,192,269604,128,0,269761:0:0:0:0:
182,192,269761,128,0,269972:0:0:0:0:
36,192,269761,128,0,269840:0:0:0:0:
329,192,269761,1,0,0:0:0:0:
402,192,269761,1,0,0:0:0:0:
475,192,269761,1,0,0:0:0:0:
109,192,269840,128,0,269919:0:0:0:0:
329,192,269919,128,0,270130:0:0:0:0:
402,192,269919,128,0,269998:0:0:0:0:
256,192,269919,1,0,0:0:0:0:
475,192,269998,128,0,270077:0:0:0:0:
109,192,270077,128,0,270288:0:0:0:0:
36,192,270077,128,0,270156:0:0:0:0:
256,192,270077,1,0,0:0:0:0:
182,192,270156,128,0,270235:0:0:0:0:
402,192,270235,128,0,270393:0:0:0:0:
329,192,270235,128,0,270314:0:0:0:0:
475,192,270314,128,0,270393:0:0:0:0:
36,192,270393,128,0,270630:0:0:0:0:
182,192,270393,128,0,270630:0:0:0:0:
109,192,270393,1,0,0:0:0:0:
256,192,270413,1,0,0:0:0:0:
329,192,270413,1,0,0:0:0:0:
475,192,270551,128,0,270709:0:0:0:0:
329,192,270551,128,0,270709:0:0:0:0:
182,192,270709,1,0,0:0:0:0:
109,192,270709,1,0,0:0:0:0:
36,192,270709,1,0,0:0:0:0:
256,192,270867,128,0,276709:0:0:0:0:
329,192,270867,1,0,0:0:0:0:
402,192,270867,1,0,0:0:0:0:
475,192,270867,1,0,0:0:0:0:
109,192,270867,1,0,0:0:0:0:
182,192,270867,1,0,0:0:0:0:
36,192,270867,1,0,0:0:0:0:
