osu file format v14

[General]
AudioFilename: audio.mp3
AudioLeadIn: 0
PreviewTime: 67756
Countdown: 0
SampleSet: None
StackLeniency: 0.6
Mode: 0
LetterboxInBreaks: 0
WidescreenStoryboard: 0

[Editor]
DistanceSpacing: 1.5
BeatDivisor: 4
GridSize: 4
TimelineZoom: 2.2

[Metadata]
Title:Zen Zen Zense
TitleUnicode:前前前世
Artist:RADWIMPS
ArtistUnicode:RADWIMPS
Creator:Mamiko
Version:Insane
Source:君の名は。
Tags:kimi no na wa shinkai makoto
BeatmapID:1908138
BeatmapSetID:913441

[Difficulty]
HPDrainRate:6
CircleSize:4
OverallDifficulty:8.5
ApproachRate:9.2
SliderMultiplier:1.7
SliderTickRate:1

[Events]
//Background and Video events
0,0,"bg.jpg",0,0
//Break Periods
//Storyboard Layer 0 (Background)
//Storyboard Layer 1 (Fail)
//Storyboard Layer 2 (Pass)
//Storyboard Layer 3 (Foreground)
//Storyboard Sound Samples

[TimingPoints]
20,315.789473684211,4,2,1,70,1,0
20,-133.333333333333,4,2,2,50,0,0
10125,-100,4,2,1,70,0,0
20230,-133.333333333333,4,2,2,50,0,0
44072,-133.333333333333,4,2,1,70,0,0
45177,-100,4,2,1,70,0,0
55598,-133.333333333333,4,2,1,70,0,0
63177,-100,4,2,1,70,0,0
68230,-100,4,2,1,70,0,1
88441,-133.333333333333,4,2,1,70,0,1
90967,-100,4,2,1,70,0,0
92230,-133.333333333333,4,2,1,70,0,0
93493,-100,4,2,2,70,0,0
101072,-100,4,2,1,70,0,0
103598,-133.333333333333,4,2,2,50,0,0
128546,-100,4,2,1,70,0,0
138967,-133.333333333333,4,2,1,70,0,0
146546,-100,4,2,1,70,0,0
151598,-100,4,2,1,70,0,1
172125,-133.333333333333,4,2,1,70,0,1
175283,-100,4,2,1,70,0,1
176862,-100,4,2,1,70,0,0
233072,315.789473684211,4,2,1,70,1,0
233072,-100,4,2,1,70,0,1

[Colours]
Combo1 : 255,128,64
Combo2 : 0,128,255
Combo3 : 128,255,0
Combo4 : 255,128,128

[HitObjects]
56,328,20,6,0,P|92:324|136:304,1,63.7500024318696,0|0,1:0|0:0,0:0:0:0:
244,248,335,2,0,P|208:248|172:240,1,63.7500024318696,0|0,1:0|0:0,0:0:0:0:
56,116,651,2,0,P|88:160|92:240,1,127.500004863739,0|0,1:0|0:0,0:0:0:0:
184,128,1125,1,0,0:0:0:0:
184,128,1204,1,0,0:0:0:0:
184,128,1283,6,0,P|207:98|220:56,1,63.7500024318696
440,112,1598,2,0,P|408:112|376:121,1,63.7500024318696,0|0,1:0|0:0,0:0:0:0:
364,276,1914,1,0,0:0:0:0:
468,220,2072,1,0,0:0:0:0:
280,152,2230,2,0,L|292:224,1,63.7500024318696,0|0,1:0|0:0,0:0:0:0:
316,352,2546,6,0,P|260:332|180:336,1,127.500004863739,0|0,1:2|1:0,0:0:0:0:
72,356,3020,1,0,0:0:0:0:
132,264,3177,2,0,P|156:204|164:124,1,127.500004863739,0|0,1:2|0:0,0:0:0:0:
0,136,3651,1,0,0:0:0:0:
0,136,3730,1,0,0:0:0:0:
0,136,3809,6,0,P|28:157|64:168,1,63.7500024318696
172,24,4125,2,0,P|144:38|119:58,1,63.7500024318696,0|0,1:2|0:0,0:0:0:0:
248,140,4441,1,0,0:0:0:0:
280,152,4520,1,0,0:0:0:0:
312,152,4598,1,0,0:0:0:0:
460,64,4756,2,0,L|384:48,1,63.7500024318696,0|0,1:0|0:0,0:0:0:0:
359,247,5072,6,0,P|385:230|404:204,1,63.7500024318696,4|0,1:2|0:0,0:0:0:0:
248,140,5388,2,0,L|261:211,1,63.7500024318696,0|0,1:0|0:0,0:0:0:0:
280,336,5704,2,0,P|220:312|152:324,1,127.500004863739,2|0,1:2|0:0,0:0:0:0:
32,244,6177,1,0,0:0:0:0:
32,244,6256,1,0,0:0:0:0:
32,244,6335,6,0,P|68:220|100:212,1,63.7500024318696,2|0,0:0|0:0,0:0:0:0:
144,52,6651,2,0,P|159:79|171:109,1,63.7500024318696,0|0,1:0|0:0,0:0:0:0:
168,244,6967,1,2,1:2:0:0:
252,136,7125,1,0,0:0:0:0:
320,252,7283,2,0,P|284:248|248:224,1,63.7500024318696,0|0,1:0|0:0,0:0:0:0:
360,52,7598,5,2,0:0:0:0:
374,80,7676,1,2,0:0:0:0:
383,110,7755,1,2,0:0:0:0:
388,142,7834,1,0,0:0:0:0:
389,174,7913,1,0,1:2:0:0:
320,252,8072,1,0,0:0:0:0:
440,352,8230,1,2,0:0:0:0:
472,180,8388,1,0,0:0:0:0:
344,344,8546,2,0,P|312:344|268:328,1,63.7500024318696,0|0,1:0|0:0,0:0:0:0:
216,144,8862,6,0,L|228:206,1,63.7500024318696,2|0,0:0|0:0,0:0:0:0:
160,348,9098,2,0,L|148:272,1,63.7500024318696,2|0,0:0|0:0,0:0:0:0:
144,244,9335,1,2,0:0:0:0:
291,194,9493,6,0,L|228:206,1,63.7500024318696,2|0,0:0|0:0,0:0:0:0:
24,176,9730,2,0,L|89:166,1,63.7500024318696,2|0,0:0|0:0,0:0:0:0:
128,160,9967,1,2,0:0:0:0:
448,192,10125,6,0,P|448:150|432:100,1,85,0|0,1:0|0:0,0:0:0:0:
344,32,10441,2,0,L|324:128,1,85,0|0,1:0|0:0,0:0:0:0:
104,200,10756,1,0,1:0:0:0:
208,92,10914,1,0,0:0:0:0:
216,336,11072,2,0,L|196:216,1,85,0|0,1:0|0:0,0:0:0:0:
264,184,11388,6,0,P|312:206|380:218,1,85,0|0,1:0|0:0,0:0:0:0:
380,336,11704,2,0,P|424:324|464:292,1,85,0|0,1:0|0:0,0:0:0:0:
256,312,12020,1,0,1:0:0:0:
219,322,12098,1,0,0:0:0:0:
189,344,12177,1,0,0:0:0:0:
412,216,12335,2,0,P|428:176|428:124,1,85,0|0,1:0|0:0,0:0:0:0:
260,36,12651,5,0,1:0:0:0:
260,36,12730,1,0,0:0:0:0:
260,36,12809,1,0,0:0:0:0:
252,184,12967,1,0,1:0:0:0:
348,68,13125,1,0,0:0:0:0:
200,112,13283,1,0,1:0:0:0:
344,160,13441,1,0,0:0:0:0:
164,40,13598,2,0,P|120:44|76:72,1,85,0|0,1:0|0:0,0:0:0:0:
152,348,13914,6,0,P|180:304|160:216,1,127.5,0|0,1:0|0:0,0:0:0:0:
100,204,14230,2,0,P|148:212|228:152,1,127.5,0|0,1:0|0:0,0:0:0:0:
384,72,14546,2,0,P|336:64|256:124,1,127.5,0|0,1:0|0:0,0:0:0:0:
269,100,14862,2,0,P|228:84|180:84,1,85,0|0,1:0|0:0,0:0:0:0:
257,352,15177,6,0,L|268:268,1,85,0|0,1:0|0:0,0:0:0:0:
348,176,15493,1,0,1:0:0:0:
408,292,15651,1,0,0:0:0:0:
464,104,15809,2,0,L|444:212,1,85,0|0,1:0|0:0,1:0:0:0:
254,194,16125,2,0,P|214:178|158:174,1,85,0|0,1:0|0:0,0:0:0:0:
40,276,16441,5,0,1:0:0:0:
46,313,16519,1,0,0:0:0:0:
67,344,16598,1,0,0:0:0:0:
204,316,16756,2,0,P|240:292|288:288,1,85,0|0,1:0|0:0,0:0:0:0:
144,140,17072,2,0,B|136:232,1,85,0|0,1:0|0:0,0:0:0:0:
240,112,17388,2,0,L|228:16,1,85,0|0,1:0|0:0,0:0:0:0:
472,152,17704,5,2,1:2:0:0:
446,180,17782,1,2,0:0:0:0:
412,195,17861,1,2,0:0:0:0:
373,195,17940,1,0,0:0:0:0:
339,179,18020,2,0,L|332:288,1,85,0|0,1:0|0:0,0:0:0:0:
240,112,18335,1,0,1:0:0:0:
208,312,18493,1,0,0:0:0:0:
56,176,18651,6,0,B|96:164|96:164|152:176,1,85,0|0,1:0|0:0,0:0:0:0:
247,214,18967,2,0,L|380:193,1,127.5,0|0,1:0|0:0,0:0:0:0:
396,216,19283,2,0,P|388:264|388:304,1,85,2|0,1:2|0:0,0:0:0:0:
276,120,19598,1,0,0:0:0:0:
184,328,19756,5,0,1:0:0:0:
159,332,19834,1,0,1:0:0:0:
133,331,19913,1,0,1:0:0:0:
109,322,19992,1,0,1:0:0:0:
88,308,20071,1,0,1:0:0:0:
71,289,20150,1,0,1:0:0:0:
60,266,20230,6,0,L|68:178,1,63.7500024318696,0|0,1:0|0:0,0:0:0:0:
160,84,20546,2,0,L|152:152,1,63.7500024318696,2|0,0:0|0:0,0:0:0:0:
224,236,20862,2,0,L|300:232,1,63.7500024318696,0|0,1:0|0:0,0:0:0:0:
336,116,21177,2,0,L|272:120,1,63.7500024318696,2|0,0:0|0:0,0:0:0:0:
412,296,21493,6,0,P|396:237|408:172,2,127.500004863739,0|0|0,1:0|0:0|1:0,0:0:0:0:
256,360,22441,2,0,L|260:284,1,63.7500024318696,2|0,0:0|0:0,0:0:0:0:
200,236,22677,1,0,0:0:0:0:
200,236,22756,6,0,P|160:268|76:280,1,127.500004863739,0|2,1:0|0:0,0:0:0:0:
48,192,23230,1,2,0:0:0:0:
48,92,23388,2,0,P|80:84|128:84,1,63.7500024318696,0|0,1:0|0:0,0:0:0:0:
260,144,23704,2,0,P|224:141|184:132,1,63.7500024318696,2|0,0:0|0:0,0:0:0:0:
288,56,24020,6,0,L|408:32,1,95.6250036478044,0|0,1:0|0:0,0:0:0:0:
381,37,24335,2,0,P|376:64|376:112,1,63.7500024318696,2|2,0:0|0:0,0:0:0:0:
464,272,24651,2,0,P|456:232|440:192,1,63.7500024318696,0|0,1:0|0:0,0:0:0:0:
324,196,24967,1,2,0:0:0:0:
324,196,25046,1,0,0:0:0:0:
324,196,25125,1,0,0:0:0:0:
324,196,25204,1,0,0:0:0:0:
324,196,25283,6,0,P|292:212|264:232,1,63.7500024318696,0|0,1:0|0:0,0:0:0:0:
172,336,25598,1,2,0:0:0:0:
336,284,25756,1,0,0:0:0:0:
180,164,25914,5,2,1:2:0:0:
256,316,26072,1,2,0:0:0:0:
264,120,26230,1,2,0:0:0:0:
148,252,26388,1,0,0:0:0:0:
352,148,26546,5,2,1:2:0:0:
92,184,26704,1,2,0:0:0:0:
284,216,26862,1,2,0:0:0:0:
176,76,27020,1,0,0:0:0:0:
192,248,27177,5,0,1:0:0:0:
208,160,27335,1,0,0:0:0:0:
104,272,27493,2,0,L|116:356,1,63.7500024318696,2|0,0:0|0:0,0:0:0:0:
312,320,27809,6,0,P|340:296|456:288,1,127.500004863739,0|0,1:0|0:0,0:0:0:0:
426,279,28283,1,2,0:0:0:0:
432,112,28441,2,0,L|412:192,1,63.7500024318696,0|0,1:0|0:0,0:0:0:0:
304,196,28756,2,0,P|264:180|224:176,1,63.7500024318696,2|0,0:0|0:0,0:0:0:0:
172,344,29072,6,0,L|152:188,1,127.500004863739,0|2,1:0|0:0,0:0:0:0:
200,144,29546,1,2,0:0:0:0:
72,224,29704,2,0,P|40:232|-8:228,1,63.7500024318696,0|0,1:0|0:0,0:0:0:0:
48,104,30020,2,0,P|80:96|128:100,1,63.7500024318696,2|0,0:0|0:0,0:0:0:0:
200,144,30335,6,0,P|252:142|316:88,1,127.500004863739,0|2,1:0|0:0,0:0:0:0:
228,56,30809,1,0,0:0:0:0:
340,188,30967,2,0,P|372:189|428:200,1,63.7500024318696,0|0,1:0|0:0,0:0:0:0:
268,264,31283,2,0,P|234:268|204:284,1,63.7500024318696,2|0,0:0|0:0,0:0:0:0:
400,352,31598,6,0,L|388:272,1,63.7500024318696,0|0,1:0|0:0,0:0:0:0:
216,220,31914,2,0,P|252:228|284:232,1,63.7500024318696,2|0,0:0|0:0,0:0:0:0:
384,120,32230,2,0,P|353:127|322:132,1,63.7500024318696,0|0,1:0|0:0,0:0:0:0:
256,88,32467,2,0,P|224:84|192:72,1,63.7500024318696,2|0,0:0|0:0,0:0:0:0:
116,56,32704,1,0,0:0:0:0:
116,56,32783,1,0,0:0:0:0:
116,56,32862,6,0,P|121:94|132:136,1,63.7500024318696,2|0,0:0|0:0,0:0:0:0:
184,260,33177,2,0,P|190:228|192:196,1,63.7500024318696,2|2,0:0|0:0,0:0:0:0:
56,188,33493,2,0,P|28:244|40:324,1,127.500004863739,0|2,1:0|0:0,0:0:0:0:
144,356,33967,1,0,0:0:0:0:
248,276,34125,6,0,P|274:264|332:260,1,63.7500024318696,0|0,1:0|0:0,0:0:0:0:
408,372,34441,2,0,P|376:368|340:352,1,63.7500024318696,2|2,0:0|0:0,0:0:0:0:
420,268,34756,2,0,P|436:236|440:192,1,63.7500024318696,0|0,1:0|0:0,0:0:0:0:
376,52,35072,1,2,0:0:0:0:
376,52,35151,1,0,0:0:0:0:
376,52,35230,1,0,0:0:0:0:
376,52,35309,1,0,0:0:0:0:
376,52,35388,6,0,P|408:72|440:104,1,63.7500024318696,0|0,1:0|0:0,0:0:0:0:
220,248,35704,1,2,0:0:0:0:
244,156,35862,1,0,0:0:0:0:
368,212,36020,5,0,1:0:0:0:
140,192,36177,1,0,0:0:0:0:
328,124,36335,1,2,0:0:0:0:
304,280,36493,1,0,0:0:0:0:
208,72,36651,5,0,1:0:0:0:
248,200,36809,1,0,0:0:0:0:
112,296,36967,1,2,0:0:0:0:
140,192,37125,1,0,0:0:0:0:
208,344,37283,6,0,P|242:343|276:331,1,63.7500024318696,0|0,1:0|0:0,0:0:0:0:
336,292,37520,1,0,0:0:0:0:
336,292,37598,2,0,P|368:284|412:288,1,63.7500024318696,2|0,0:0|0:0,0:0:0:0:
480,180,37914,6,0,P|432:188|356:128,1,127.500004863739,0|2,1:0|0:0,0:0:0:0:
328,48,38388,1,2,0:0:0:0:
240,112,38546,2,0,L|244:204,1,63.7500024318696,0|0,1:0|0:0,0:0:0:0:
96,136,38862,2,0,L|94:53,1,63.7500024318696,2|0,0:0|0:0,0:0:0:0:
36,228,39177,6,0,P|96:244|172:208,1,127.500004863739,0|2,1:0|0:0,0:0:0:0:
242,175,39651,1,0,0:0:0:0:
340,256,39809,2,0,P|368:236|416:228,1,63.7500024318696,0|0,1:0|0:0,0:0:0:0:
220,320,40125,2,0,P|192:308|144:304,1,63.7500024318696,2|0,0:0|0:0,0:0:0:0:
160,304,40362,1,0,0:0:0:0:
160,304,40441,5,4,0:0:0:0:
116,116,40598,1,0,0:0:0:0:
242,175,40756,1,2,0:0:0:0:
80,248,40914,1,0,0:0:0:0:
192,56,41072,5,2,0:0:0:0:
160,208,41230,1,0,0:0:0:0:
40,156,41388,1,0,1:0:0:0:
40,156,41467,1,0,0:0:0:0:
40,156,41546,1,0,0:0:0:0:
242,175,41704,6,0,P|262:143|266:99,1,63.7500024318696,4|0,0:0|0:0,0:0:0:0:
108,24,42020,1,2,0:0:0:0:
120,128,42177,1,0,0:0:0:0:
224,40,42335,2,0,P|264:28|328:40,1,95.6250036478044,2|0,0:0|0:0,0:0:0:0:
356,56,42651,2,0,P|388:64|436:64,1,63.7500024318696,0|0,1:0|0:0,0:0:0:0:
356,236,42967,6,0,L|340:160,1,63.7500024318696,4|0,0:0|0:0,0:0:0:0:
464,272,43283,2,0,P|456:300|436:340,1,63.7500024318696,2|0,0:0|0:0,0:0:0:0:
288,300,43598,2,0,P|252:284|212:276,1,63.7500024318696
80,328,43914,1,2,0:0:0:0:
144,240,44072,6,0,P|164:188|152:92,1,127.500004863739,0|8,1:0|0:3,0:0:0:0:
161,117,44467,1,0,0:0:0:0:
161,117,44546,1,0,0:0:0:0:
96,24,44704,1,4,0:3:0:0:
72,172,44862,1,4,0:3:0:0:
256,108,45020,1,0,0:0:0:0:
144,240,45177,6,0,B|184:220|184:220|284:244,1,127.5,8|0,0:1|0:0,0:0:0:0:
300,248,45493,5,0,1:0:0:0:
480,224,45651,1,0,1:0:0:0:
340,132,45809,1,8,0:1:0:0:
392,324,45967,1,0,0:0:0:0:
424,148,46125,2,0,L|436:52,1,85,8|0,0:1|0:0,0:0:0:0:
232,108,46441,5,0,1:0:0:0:
268,264,46598,1,0,1:0:0:0:
132,224,46756,1,8,0:1:0:0:
312,172,46914,1,0,0:0:0:0:
224,356,47072,1,8,0:1:0:0:
132,224,47230,1,0,1:0:0:0:
268,264,47388,5,0,1:0:0:0:
112,324,47546,1,0,1:0:0:0:
152,116,47704,2,0,B|181:89|181:89|205:181,1,127.5,8|0,0:1|0:0,0:0:0:0:
132,224,48020,6,0,L|8:200,1,85,0|0,1:0|0:0,0:0:0:0:
306,335,48335,2,0,L|210:359,1,85,0|0,1:0|0:0,0:0:0:0:
424,232,48651,1,8,0:1:0:0:
424,232,48967,5,8,0:1:0:0:
316,204,49125,1,0,0:0:0:0:
376,40,49283,2,0,L|392:144,1,85,0|0,1:0|0:0,0:0:0:0:
232,128,49598,2,0,L|216:224,1,85,0|0,1:0|0:0,0:0:0:0:
56,88,49914,2,0,P|119:81|192:60,1,127.5,8|0,0:1|0:0,0:0:0:0:
232,128,50230,2,0,L|216:224,1,85,0|0,1:0|0:0,0:0:0:0:
264,344,50546,5,0,1:0:0:0:
324,232,50704,1,0,1:0:0:0:
156,288,50862,1,8,0:1:0:0:
232,128,51020,1,0,0:0:0:0:
360,324,51177,2,0,P|402:327|444:327,1,85,8|0,0:1|0:0,0:0:0:0:
352,128,51493,5,0,1:0:0:0:
324,232,51651,1,0,1:0:0:0:
128,168,51809,1,8,0:1:0:0:
156,288,51967,1,0,0:0:0:0:
236,208,52125,1,8,0:1:0:0:
64,104,52283,1,0,1:0:0:0:
36,268,52441,5,0,1:0:0:0:
128,168,52598,1,0,1:0:0:0:
152,360,52756,1,8,0:1:0:0:
168,260,52914,1,0,0:0:0:0:
304,260,53072,6,0,L|336:364,1,85,0|0,1:0|0:0,0:0:0:0:
436,144,53388,2,0,L|408:240,1,85,0|0,1:0|0:0,0:0:0:0:
308,48,53704,1,8,0:1:0:0:
308,48,54020,5,8,0:1:0:0:
320,164,54177,1,0,1:0:0:0:
188,108,54335,2,0,L|200:4,1,85,0|0,1:0|1:0,0:0:0:0:
320,164,54651,1,8,0:3:0:0:
172,216,54809,1,0,1:0:0:0:
172,216,54888,1,0,1:0:0:0:
172,216,54967,1,0,1:0:0:0:
52,56,55125,1,8,0:3:0:0:
92,160,55283,1,4,0:3:0:0:
52,264,55441,1,4,0:3:0:0:
188,368,55598,6,0,P|188:320|172:224,1,127.500004863739,4|0,0:0|0:0,0:0:0:0:
364,288,56072,1,0,0:0:0:0:
296,136,56230,2,0,L|268:280,1,127.500004863739
408,200,56704,2,0,P|447:193|480:176,2,63.7500024318696,0|0|0,0:0|1:0|0:0,0:0:0:0:
376,88,57177,2,0,P|366:59|368:12,1,63.7500024318696
296,136,57493,2,0,P|236:148|152:116,1,127.500004863739,0|0,1:0|0:0,0:0:0:0:
64,40,57967,5,0,0:0:0:0:
68,160,58125,2,0,P|80:191|84:232,1,63.7500024318696,0|8,1:0|0:1,0:0:0:0:
173,130,58441,1,0,0:0:0:0:
156,296,58598,2,0,P|134:323|100:336,2,63.7500024318696,0|8|0,0:0|0:1|0:0,0:0:0:0:
248,252,59072,2,0,P|236:220|232:180,1,63.7500024318696,8|0,0:1|0:0,0:0:0:0:
284,336,59388,5,0,1:0:0:0:
284,336,59546,2,0,L|352:328,1,63.7500024318696,8|0,0:1|0:0,0:0:0:0:
444,284,59862,2,0,B|416:236|416:236|424:156,1,127.500004863739,0|0,1:0|1:0,0:0:0:0:
308,128,60335,2,0,L|320:216,1,63.7500024318696,8|0,0:1|0:0,0:0:0:0:
184,344,60651,6,0,L|196:200,1,127.500004863739,4|0,0:0|0:0,0:0:0:0:
68,128,61125,1,0,0:0:0:0:
52,224,61283,2,0,L|64:300,1,63.7500024318696,0|0,1:0|0:0,0:0:0:0:
194,216,61598,1,0,0:0:0:0:
136,52,61756,6,0,P|188:88|268:80,1,127.500004863739,0|0,1:0|1:1,0:0:0:0:
172,240,62230,2,0,L|160:168,1,63.7500024318696,8|0,0:1|0:0,0:0:0:0:
256,180,62546,2,0,P|288:164|336:156,1,63.7500024318696,0|0,1:0|0:0,0:0:0:0:
88,224,62862,2,0,L|0:212,1,63.7500024318696,4|0,1:3|0:0,0:0:0:0:
152,344,63177,6,0,L|284:328,1,127.5,4|0,0:0|0:0,0:0:0:0:
312,340,63493,2,0,P|313:299|325:250,1,85,8|0,0:1|0:0,0:0:0:0:
328,168,63809,1,0,1:0:0:0:
411,299,63967,1,0,1:0:0:0:
228,242,64125,1,8,0:1:0:0:
328,168,64283,6,0,P|396:140|408:52,1,170,0|0,1:0|1:0,0:0:0:0:
208,128,64756,2,0,P|168:112|124:104,1,85,8|0,0:1|0:0,0:0:0:0:
44,144,65072,1,0,1:0:0:0:
200,32,65230,1,0,1:0:0:0:
136,200,65388,2,0,L|148:304,1,85,8|0,0:1|0:0,0:0:0:0:
360,336,65704,6,0,P|312:320|224:328,1,127.5,4|0,0:0|0:0,0:0:0:0:
196,352,66020,2,0,P|154:363|92:352,1,85,8|0,0:1|0:0,0:0:0:0:
240,200,66335,2,0,L|336:208,1,85,0|0,1:0|0:0,0:0:0:0:
88,256,66651,1,8,0:1:0:0:
54,263,66729,1,0,0:0:0:0:
21,270,66808,1,0,0:0:0:0:
112,92,66967,5,0,1:0:0:0:
141,95,67045,1,0,0:0:0:0:
171,98,67124,1,0,0:0:0:0:
200,102,67203,1,0,0:0:0:0:
228,104,67283,2,0,L|276:84,1,42.5,0|0,1:0|1:0,1:0:0:0:
332,136,67441,2,0,L|388:152,1,42.5,0|0,1:0|1:0,1:0:0:0:
448,100,67598,5,0,0:0:0:0:
200,24,67756,5,0,0:0:0:0:
180,188,67914,1,0,0:0:0:0:
332,136,68072,1,0,0:0:0:0:
92,132,68230,6,0,L|81:216,1,85,4|0,1:2|0:0,0:0:0:0:
344,268,68546,2,0,L|333:352,1,85,8|0,0:1|0:0,0:0:0:0:
132,112,68862,2,0,L|120:204,1,85,0|0,1:2|1:2,0:0:0:0:
216,324,69177,1,8,0:1:0:0:
344,100,69335,1,0,1:0:0:0:
344,100,69414,1,0,0:0:0:0:
344,100,69493,1,0,0:0:0:0:
204,204,69651,5,0,1:0:0:0:
428,236,69809,1,8,0:1:0:0:
300,284,69967,2,0,P|292:248|296:184,1,85,0|0,1:0|0:0,0:0:0:0:
372,44,70283,1,0,1:0:0:0:
376,160,70441,1,8,0:1:0:0:
276,104,70598,1,0,0:0:0:0:
468,188,70756,5,0,1:2:0:0:
300,284,70914,2,0,P|264:264|196:256,1,85,0|8,1:0|0:1,0:0:0:0:
88,308,71230,1,0,1:0:0:0:
200,160,71388,1,0,1:0:0:0:
48,112,71546,1,0,1:0:0:0:
128,220,71704,1,8,0:1:0:0:
304,124,71862,6,0,P|252:132|172:52,1,170,0|0,1:0|1:0,0:0:0:0:
408,84,72335,2,0,L|396:176,1,85,8|0,0:1|0:0,0:0:0:0:
328,336,72651,1,0,1:0:0:0:
300,220,72809,1,0,1:0:0:0:
460,312,72967,1,8,0:1:0:0:
304,124,73125,6,0,P|244:136|208:232,1,170,0|0,1:0|1:0,0:0:0:0:
328,336,73598,1,8,0:1:0:0:
300,220,73756,1,0,0:0:0:0:
136,280,73914,1,0,1:0:0:0:
380,256,74072,1,0,1:0:0:0:
304,124,74230,1,8,0:1:0:0:
148,372,74388,6,0,P|92:364|52:264,1,170,0|0,1:0|1:0,0:0:0:0:
212,104,74862,1,8,0:1:0:0:
136,280,75020,1,0,0:0:0:0:
40,172,75177,1,0,1:0:0:0:
284,216,75335,1,0,1:0:0:0:
132,188,75493,2,0,L|116:56,1,127.5,8|0,0:1|0:0,0:0:0:0:
116,61,75809,6,0,P|164:80|252:88,1,127.5,4|0,1:2|0:0,0:0:0:0:
272,72,76125,1,8,0:1:0:0:
496,160,76283,2,0,B|452:180|452:180|368:152,1,127.5,0|0,1:0|0:0,0:0:0:0:
344,144,76598,2,0,L|332:240,1,85,0|8,1:0|0:1,0:0:0:0:
140,360,76914,2,0,P|120:312|144:236,1,127.5,0|0,1:0|0:0,0:0:0:0:
160,216,77230,1,8,0:3:0:0:
324,316,77388,1,4,0:3:0:0:
96,348,77546,6,0,L|80:200,1,127.5,0|0,1:0|0:0,0:0:0:0:
56,140,77862,2,0,L|68:88,1,42.5,0|0,1:0|0:0,0:0:0:0:
156,92,78020,2,0,L|184:56,1,42.5,8|0,0:1|0:0,0:0:0:0:
272,80,78177,1,0,1:0:0:0:
272,80,78256,1,0,1:0:0:0:
272,80,78335,6,0,L|374:57,1,85,0|0,1:0|0:0,0:0:0:0:
352,324,78651,2,0,L|454:301,1,85,8|0,0:1|0:0,0:0:0:0:
260,120,78967,2,0,L|362:97,1,85,0|0,1:0|1:0,0:0:0:0:
296,244,79283,2,0,L|240:260,1,42.5,8|0,0:1|0:0,0:0:0:0:
184,328,79441,6,0,P|204:284|176:168,1,170,0|0,1:0|1:0,0:0:0:0:
92,112,79914,1,8,0:1:0:0:
48,288,80072,2,0,P|88:280|128:248,1,85,0|0,1:0|0:0,0:0:0:0:
268,80,80388,1,0,1:0:0:0:
296,208,80546,1,8,0:1:0:0:
177,169,80704,1,0,0:0:0:0:
424,192,80862,6,0,L|408:336,1,127.5,0|0,1:2|0:0,0:0:0:0:
404,352,81177,1,8,0:1:0:0:
177,169,81335,2,0,P|209:145|257:145,1,85,0|0,1:0|1:0,0:0:0:0:
138,251,81651,2,0,P|99:233|78:197,1,85,0|8,1:0|0:1,0:0:0:0:
232,244,81967,2,0,P|204:326|120:342,1,170,0|0,1:0|1:0,0:0:0:0:
48,308,82441,1,8,0:1:0:0:
304,336,82598,6,0,P|368:304|488:296,1,170,0|0,1:0|1:0,0:0:0:0:
316,204,83072,1,8,0:1:0:0:
404,24,83230,2,0,L|420:200,1,170,0|0,1:0|1:0,0:0:0:0:
148,164,83704,1,8,0:1:0:0:
312,112,83862,1,0,0:0:0:0:
252,256,84020,1,0,1:0:0:0:
172,140,84177,1,0,1:0:0:0:
348,220,84335,1,8,0:1:0:0:
92,376,84493,6,0,L|108:200,1,170,0|0,1:0|1:0,0:0:0:0:
152,64,84967,1,8,0:1:0:0:
196,236,85125,1,0,0:0:0:0:
24,184,85283,1,0,1:0:0:0:
256,112,85441,1,0,1:0:0:0:
212,260,85598,1,8,0:1:0:0:
292,132,85756,6,0,L|464:168,1,170,0|0,1:0|1:0,0:0:0:0:
352,360,86230,2,0,P|341:322|340:272,1,85,8|0,0:1|0:0,0:0:0:0:
416,240,86546,1,0,1:0:0:0:
260,332,86704,1,0,1:0:0:0:
240,144,86862,1,8,0:1:0:0:
88,316,87020,6,0,P|160:308|196:216,1,170,0|0,1:0|1:0,0:0:0:0:
72,48,87493,2,0,L|56:200,1,127.5,8|0,0:1|0:0,0:0:0:0:
58,174,87809,2,8,L|128:168,1,56.6666666666667,0|0,1:0|1:0,0:0:0:0:
224,84,88020,2,8,L|157:91,1,56.6666666666667,0|0,1:0|1:0,0:0:0:0:
198,226,88230,2,8,L|263:221,1,56.6666666666667,0|0,1:0|1:0,0:0:0:0:
368,128,88441,6,0,B|344:164|344:164|364:264,1,127.500004863739,4|0,0:0|1:0,0:0:0:0:
440,336,88914,1,0,0:0:0:0:
456,180,89072,2,0,L|468:96,1,63.7500024318696,0|0,1:0|0:0,0:0:0:0:
360,246,89388,1,0,1:0:0:0:
268,140,89546,2,0,L|256:56,1,63.7500024318696,8|0,0:1|0:0,0:0:0:0:
44,176,89862,5,0,1:0:0:0:
192,208,90020,1,8,0:3:0:0:
128,128,90177,5,4,0:3:0:0:
144,280,90335,1,4,0:3:0:0:
280,240,90493,5,0,1:0:0:0:
56,260,90651,1,8,0:1:0:0:
228,312,90809,5,0,1:0:0:0:
256,104,90967,1,4,1:2:0:0:
256,192,91046,12,0,92230,0:0:0:0:
320,168,92388,5,0,0:0:0:0:
168,268,92704,1,0,0:0:0:0:
168,268,92783,1,0,0:0:0:0:
168,268,92862,1,0,0:0:0:0:
244,332,93020,2,0,P|252:272|240:192,1,127.500004863739
196,56,93493,6,0,L|184:140,1,85,4|0,0:0|0:0,0:0:0:0:
72,196,93809,2,0,P|60:164|12:124,1,85,2|0,0:0|0:0,0:0:0:0:
168,272,94125,2,0,P|152:304|96:332,1,85,0|0,1:0|0:0,0:0:0:0:
32,288,94441,1,2,0:0:0:0:
243,205,94598,2,0,P|279:257|383:269,1,170,2|0,0:0|0:0,0:0:0:0:
400,68,95072,6,0,P|368:96|352:172,1,85,2|0,0:0|0:0,0:0:0:0:
379,270,95388,1,2,0:0:0:0:
480,188,95546,1,0,0:0:0:0:
272,228,95704,2,0,L|184:244,1,85,2|0,0:0|0:0,0:0:0:0:
64,64,96020,6,0,L|160:76,1,85,4|0,0:0|0:0,0:0:0:0:
304,96,96335,2,0,P|336:72|360:32,1,85,2|0,0:0|0:0,0:0:0:0:
88,164,96651,2,0,P|74:206|72:256,1,85,2|0,0:0|0:0,0:0:0:0:
276,364,96967,2,0,L|256:268,1,85,2|0,0:0|0:0,0:0:0:0:
388,292,97283,6,0,P|428:304|476:304,1,85,2|0,0:0|0:0,0:0:0:0:
308,192,97598,2,0,P|348:184|396:156,1,85,2|0,0:0|0:0,0:0:0:0:
104,120,97914,2,0,P|85:157|76:212,1,85,2|0,0:0|0:0,0:0:0:0:
176,236,98230,2,0,P|188:284|212:328,1,85,2|0,0:0|0:0,0:0:0:0:
280,56,98546,6,0,P|236:52|192:68,1,85,0|0,1:0|0:0,0:0:0:0:
376,152,98862,2,0,L|396:52,1,85,2|0,0:0|0:0,0:0:0:0:
256,176,99177,2,0,L|276:280,1,85,2|0,0:0|0:0,0:0:0:0:
296,356,99493,1,2,0:0:0:0:
44,320,99651,2,0,P|116:284|204:328,1,170,2|0,0:0|0:0,0:0:0:0:
396,320,100125,6,0,P|412:280|416:224,1,85,2|0,0:0|0:0,0:0:0:0:
236,184,100441,1,2,0:0:0:0:
324,260,100598,1,2,0:0:0:0:
348,136,100756,2,0,L|328:40,1,85,2|0,0:0|0:0,0:0:0:0:
96,60,101072,5,2,0:0:0:0:
123,71,101150,1,0,0:0:0:0:
152,75,101229,1,0,0:0:0:0:
182,73,101308,1,8,0:1:0:0:
210,64,101388,2,0,L|220:128,1,42.5,8|0,0:1|0:0,0:0:0:0:
140,208,101546,2,0,L|144:148,1,42.5
232,264,101704,1,8,0:3:0:0:
232,264,101783,1,4,0:3:0:0:
232,264,101862,1,4,0:3:0:0:
412,184,102020,6,0,L|392:80,1,85,4|0,0:0|0:0,0:0:0:0:
388,64,102256,1,0,1:0:0:0:
388,64,102335,1,0,1:0:0:0:
324,248,102493,1,4,0:0:0:0:
324,248,102572,1,0,0:0:0:0:
324,248,102651,2,0,L|312:188,1,42.5,0|0,1:0|1:0,0:0:0:0:
296,108,102809,1,0,1:0:0:0:
224,236,102967,1,0,0:0:0:0:
144,40,103125,5,0,1:0:0:0:
168,160,103283,1,8,0:1:0:0:
60,124,103441,1,0,1:0:0:0:
256,68,103598,5,0,0:0:0:0:
296,60,103914,1,0,0:0:0:0:
328,152,104230,5,0,0:0:0:0:
368,144,104546,1,0,0:0:0:0:
392,240,104862,5,0,0:0:0:0:
432,232,105177,1,0,0:0:0:0:
356,340,105493,5,0,1:0:0:0:
184,272,105730,1,0,0:0:0:0:
184,272,105809,1,0,0:0:0:0:
268,308,105967,1,0,0:0:0:0:
100,336,106125,6,0,P|104:300|88:208,1,127.500004863739
104,92,106756,1,0,0:0:0:0:
120,72,107072,1,0,0:0:0:0:
260,188,107230,1,0,0:0:0:0:
72,192,107388,5,0,0:0:0:0:
208,112,107704,1,0,0:0:0:0:
228,100,108020,1,0,0:0:0:0:
460,176,108335,2,0,P|428:174|396:160,1,63.7500024318696
344,96,108651,5,0,0:0:0:0:
356,248,108809,1,0,0:0:0:0:
232,184,108967,2,0,L|224:120,1,63.7500024318696
364,56,109283,2,0,P|416:60|472:72,2,95.6250036478044
196,168,109914,6,0,L|192:248,1,63.7500024318696
360,296,110230,1,0,0:0:0:0:
316,176,110388,1,0,0:0:0:0:
240,324,110546,2,0,P|200:336|132:312,1,95.6250036478044
112,296,110862,2,0,P|76:287|32:288,1,63.7500024318696
132,176,111177,5,0,0:0:0:0:
168,192,111493,1,0,0:0:0:0:
80,80,111809,1,0,0:0:0:0:
80,80,112125,5,0,0:0:0:0:
168,192,112283,1,0,0:0:0:0:
80,80,112441,1,0,0:0:0:0:
204,208,112756,1,0,0:0:0:0:
244,224,113072,1,0,0:0:0:0:
256,64,113388,2,0,L|184:84,1,63.7500024318696
384,172,113704,6,0,P|400:108|380:44,2,127.500004863739
444,332,114651,2,0,L|452:252,1,63.7500024318696
296,224,114967,1,0,0:0:0:0:
296,224,115283,2,0,P|250:265|172:256,1,127.500004863739
152,152,115914,2,0,P|188:152|224:180,1,63.7500024318696
100,340,116230,6,0,L|72:212,1,127.500004863739
148,44,116862,2,0,P|172:92|176:140,2,95.6250036478044
260,172,117493,2,0,P|310:152|396:144,1,127.500004863739
476,276,118125,2,0,L|468:364,1,63.7500024318696
352,296,118441,2,0,L|340:224,1,63.7500024318696
464,68,118756,5,0,0:0:0:0:
432,188,118914,1,0,0:0:0:0:
348,104,119072,1,0,0:0:0:0:
508,144,119230,1,0,0:0:0:0:
264,164,119388,5,0,0:0:0:0:
348,72,119546,1,0,0:0:0:0:
376,248,119704,1,0,0:0:0:0:
160,168,119862,1,0,0:0:0:0:
392,152,120020,5,0,0:0:0:0:
268,288,120177,1,0,0:0:0:0:
208,72,120335,1,0,0:0:0:0:
300,184,120493,1,0,0:0:0:0:
120,344,120651,6,0,L|104:240,1,95.6250036478044
105,249,120967,2,0,P|135:255|179:255,1,63.7500024318696
104,120,121283,2,0,L|28:140,1,63.7500024318696
192,152,121598,2,0,P|200:116|196:72,1,63.7500024318696
308,32,121914,2,0,P|308:72|324:144,2,95.6250036478044
272,216,122546,6,0,P|262:262|260:344,1,127.500004863739
400,200,123177,1,0,0:0:0:0:
160,264,123493,2,0,L|84:288,1,63.7500024318696
140,144,123809,5,0,0:0:0:0:
272,216,123967,1,0,0:0:0:0:
52,200,124125,1,0,0:0:0:0:
112,60,124283,1,0,0:0:0:0:
188,264,124441,5,0,0:0:0:0:
140,144,124598,1,0,0:0:0:0:
304,108,124756,1,0,0:0:0:0:
264,320,124914,1,0,0:0:0:0:
232,164,125072,5,0,0:0:0:0:
416,224,125230,1,0,0:0:0:0:
176,326,125388,2,0,P|180:290|192:254,1,63.7500024318696
304,108,125704,6,0,P|334:119|365:125,1,63.7500024318696
231,163,125941,2,0,P|227:132|216:102,1,63.7500024318696
316,200,126177,2,0,P|288:220|270:244,1,63.7500024318696
360,40,126493,5,0,0:0:0:0:
360,40,126572,1,0,0:0:0:0:
360,40,126651,1,0,0:0:0:0:
464,204,126809,2,0,P|440:256|364:268,1,127.500004863739
224,308,127283,2,0,P|251:328|276:364,1,63.7500024318696
96,336,127598,5,0,0:0:0:0:
96,336,127756,2,0,L|108:200,1,127.500004863739
272,176,128230,2,0,P|244:192|196:200,1,63.7500024318696
52,88,128546,6,0,P|76:104|136:120,1,85
284,28,128862,5,0,0:0:0:0:
220,104,129020,1,0,0:0:0:0:
388,216,129177,1,0,0:0:0:0:
352,104,129335,1,0,0:0:0:0:
200,212,129493,2,0,L|291:189,1,85
468,268,129809,5,0,0:0:0:0:
304,296,129967,1,0,0:0:0:0:
416,168,130125,1,0,0:0:0:0:
400,344,130283,1,0,0:0:0:0:
232,88,130441,5,0,0:0:0:0:
320,172,130598,1,0,0:0:0:0:
164,320,130756,1,0,0:0:0:0:
204,200,130914,1,0,0:0:0:0:
304,296,131072,2,0,L|324:396,1,85
440,84,131388,6,0,L|356:60,1,85
144,108,131704,2,0,L|56:124,1,85
292,180,132020,1,0,0:0:0:0:
292,180,132335,5,0,0:0:0:0:
248,312,132493,2,0,P|308:328|392:252,1,170
384,120,132967,1,0,0:0:0:0:
384,120,133125,1,0,0:0:0:0:
208,220,133283,2,0,P|168:240|108:252,1,85
40,116,133598,2,0,L|128:144,1,85
292,36,133914,5,0,0:0:0:0:
204,116,134072,1,0,0:0:0:0:
348,204,134230,1,0,0:0:0:0:
300,120,134388,1,0,0:0:0:0:
224,232,134546,2,0,L|240:316,1,85
472,332,134862,5,0,0:0:0:0:
316,284,135020,1,0,0:0:0:0:
472,164,135177,1,0,0:0:0:0:
404,268,135335,1,0,0:0:0:0:
316,40,135493,5,0,0:0:0:0:
384,172,135651,1,0,0:0:0:0:
248,104,135809,1,0,0:0:0:0:
404,76,135967,1,0,0:0:0:0:
296,200,136125,2,0,P|256:192|200:192,1,85
80,324,136441,6,0,L|168:336,1,85
368,304,136756,2,0,L|452:290,1,85
260,288,137072,1,0,0:0:0:0:
260,288,137388,5,0,0:0:0:0:
240,168,137546,2,0,P|244:120|260:72,1,85
320,44,137809,2,0,L|376:36,1,56.6666666666667
392,120,138020,2,0,L|460:144,1,56.6666666666667
388,236,138230,1,0,0:0:0:0:
396,244,138335,5,0,0:0:0:0:
404,252,138441,2,0,L|384:324,1,56.6666666666667
296,280,138651,2,0,L|240:308,1,56.6666666666667
176,340,138862,1,0,0:0:0:0:
176,340,138967,1,0,0:0:0:0:
120,240,139283,5,0,0:0:0:0:
200,96,139441,1,0,0:0:0:0:
200,96,139598,2,0,L|336:76,1,127.500004863739
428,116,140072,1,0,0:0:0:0:
428,116,140388,1,0,0:0:0:0:
344,232,140546,2,0,L|348:152,1,63.7500024318696
248,216,140862,2,0,L|260:360,1,127.500004863739
40,276,141493,5,0,0:0:0:0:
172,176,141651,1,0,0:0:0:0:
172,176,141967,1,0,0:0:0:0:
200,344,142125,2,0,L|204:272,1,63.7500024318696
296,168,142441,2,0,L|300:240,1,63.7500024318696
404,324,142756,5,0,0:0:0:0:
404,324,142914,2,0,P|424:264|396:200,1,127.500004863739
380,184,143546,1,0,0:0:0:0:
208,248,143704,1,0,0:0:0:0:
268,68,143862,1,0,0:0:0:0:
268,68,143941,1,0,0:0:0:0:
268,68,144020,6,0,L|288:224,1,127.500004863739
284,194,144493,1,0,0:0:0:0:
136,120,144651,1,0,0:0:0:0:
136,120,144967,1,0,0:0:0:0:
204,328,145125,2,0,P|188:268|196:192,1,127.500004863739
240,76,145598,5,0,0:0:0:0:
392,120,145756,1,0,0:0:0:0:
422,112,145834,1,0,0:0:0:0:
445,91,145913,1,0,0:0:0:0:
332,32,146072,1,0,0:0:0:0:
308,164,146230,2,0,P|316:200|340:240,1,63.7500024318696
468,300,146546,6,0,B|416:284|416:284|328:312,1,127.5
308,324,146862,2,0,P|267:328|224:315,1,85
104,188,147177,1,0,0:0:0:0:
240,228,147335,1,0,0:0:0:0:
148,356,147493,1,0,0:0:0:0:
20,196,147651,6,0,P|52:116|140:108,1,170
104,280,148125,2,0,L|8:296,1,85
168,192,148441,1,0,0:0:0:0:
188,336,148598,1,0,0:0:0:0:
327,181,148756,2,0,P|286:191|252:216,1,85
348,384,149072,6,0,B|316:344|316:344|324:252,1,127.5
360,280,149388,2,0,L|440:316,1,85
502,188,149704,2,0,L|420:208,1,85
308,72,150020,2,0,L|388:120,1,85
300,184,150335,6,0,L|258:189,1,42.5
104,36,150493,1,0,0:0:0:0:
144,27,150571,1,0,0:0:0:0:
180,48,150650,1,0,0:0:0:0:
192,88,150729,1,0,0:0:0:0:
180,128,150809,2,0,L|168:184,1,42.5
136,344,150967,1,0,0:0:0:0:
64,208,151125,6,0,L|52:152,1,42.5
40,296,151283,1,0,0:0:0:0:
65,295,151361,1,0,0:0:0:0:
89,288,151440,1,0,0:0:0:0:
111,274,151519,1,0,0:0:0:0:
131,257,151598,6,0,L|232:280,1,85,4|0,0:0|0:0,0:0:0:0:
376,68,151914,2,0,L|291:80,1,85,8|0,0:1|0:0,0:0:0:0:
156,304,152230,2,0,L|257:327,1,85,0|0,1:0|1:0,0:0:0:0:
412,264,152546,1,8,0:1:0:0:
268,184,152704,1,0,1:0:0:0:
268,184,152783,1,0,0:0:0:0:
268,184,152862,1,0,0:0:0:0:
320,360,153020,5,0,1:0:0:0:
420,224,153177,1,8,0:1:0:0:
200,304,153335,2,0,P|160:296|116:264,1,85,0|0,1:0|0:0,0:0:0:0:
280,84,153651,1,0,1:0:0:0:
292,248,153809,1,8,0:1:0:0:
152,180,153967,1,0,0:0:0:0:
404,136,154125,5,0,1:0:0:0:
204,48,154283,2,0,L|196:136,1,85,0|8,1:0|0:1,0:0:0:0:
176,288,154598,1,0,0:0:0:0:
284,160,154756,1,0,1:0:0:0:
80,204,154914,1,0,1:0:0:0:
280,296,155072,1,8,0:1:0:0:
248,60,155230,6,0,L|228:240,1,170,0|0,1:0|1:0,0:0:0:0:
160,348,155704,2,0,P|132:320|76:296,1,85,8|0,0:1|0:0,0:0:0:0:
280,296,156020,1,0,1:0:0:0:
328,144,156177,1,0,1:0:0:0:
144,216,156335,1,8,0:1:0:0:
336,380,156493,6,0,P|412:356|428:268,1,170,0|0,1:0|1:0,0:0:0:0:
244,112,156967,1,8,0:1:0:0:
156,332,157125,1,0,0:0:0:0:
280,296,157283,1,0,1:0:0:0:
144,216,157441,1,0,1:0:0:0:
48,340,157598,1,8,0:1:0:0:
92,132,157756,6,0,P|172:120|232:188,1,170,0|0,1:0|1:0,0:0:0:0:
160,360,158230,1,8,0:1:0:0:
144,216,158388,1,0,0:0:0:0:
372,260,158546,1,0,1:0:0:0:
244,304,158704,1,0,1:0:0:0:
296,52,158862,2,0,L|316:184,1,127.5,8|0,0:1|0:0,0:0:0:0:
315,178,159177,6,0,P|360:152|420:148,1,85,4|0,0:0|0:0,0:0:0:0:
344,344,159493,1,8,0:1:0:0:
236,260,159651,2,0,P|200:232|144:220,1,85,0|0,1:0|0:0,0:0:0:0:
60,304,159967,1,0,1:0:0:0:
176,344,160125,5,8,0:1:0:0:
128,96,160283,1,4,1:2:0:0:
160,60,160598,6,0,L|152:116,1,42.5,0|0,1:0|0:0,0:0:0:0:
132,236,160756,1,8,0:1:0:0:
396,172,160914,1,4,1:2:0:0:
396,132,161230,5,0,0:0:0:0:
396,132,161309,1,0,0:0:0:0:
396,132,161388,2,0,L|356:144,1,42.5
260,220,161546,2,0,L|308:232,1,42.5
388,336,161704,6,0,L|400:232,1,85
273,39,162020,2,0,L|264:124,1,85
424,312,162335,2,0,L|436:208,1,85
400,92,162651,1,0,0:0:0:0:
175,163,162809,6,0,P|223:229|306:232,1,170
368,176,163283,1,0,0:0:0:0:
148,296,163441,2,0,P|112:308|65:307,1,85
264,148,163756,1,0,0:0:0:0:
240,324,163914,1,0,0:0:0:0:
112,220,164072,1,0,0:0:0:0:
356,204,164230,6,0,L|345:288,1,85
200,240,164546,1,0,0:0:0:0:
348,80,164704,1,0,0:0:0:0:
460,240,164862,1,0,0:0:0:0:
280,184,165020,1,0,0:0:0:0:
464,108,165177,1,0,0:0:0:0:
345,288,165335,2,0,P|276:232|199:241,1,170
112,304,165809,1,0,0:0:0:0:
259,353,165967,6,0,L|283:169,1,170
296,88,166441,1,0,0:0:0:0:
24,200,166598,2,0,P|76:252|176:244,1,170
208,44,167072,1,0,0:0:0:0:
116,164,167230,1,0,0:0:0:0:
308,252,167388,1,0,0:0:0:0:
208,172,167546,1,0,0:0:0:0:
172,344,167704,1,0,0:0:0:0:
404,296,167862,6,0,P|392:208|364:116,1,170
216,264,168335,1,0,0:0:0:0:
320,340,168493,1,0,0:0:0:0:
256,144,168651,1,0,0:0:0:0:
104,280,168809,1,0,0:0:0:0:
308,236,168967,1,0,0:0:0:0:
156,48,169125,6,0,L|172:244,1,170
352,316,169598,2,0,P|384:280|394:224,1,85
296,60,169914,1,0,0:0:0:0:
288,204,170072,1,0,0:0:0:0:
408,128,170230,1,0,0:0:0:0:
148,164,170388,2,0,P|132:256|236:296,1,198.333333333333
232,40,170862,6,0,L|252:200,1,127.5
253,200,171177,1,0,0:0:0:0:
362,232,171335,1,0,0:0:0:0:
426,140,171493,1,0,0:0:0:0:
359,50,171651,1,0,0:0:0:0:
254,86,171809,5,0,0:0:0:0:
254,86,172125,2,0,P|230:106|208:144,1,63.7500024318696
256,272,172441,1,0,0:0:0:0:
256,272,172756,1,0,0:0:0:0:
176,216,172914,6,0,P|120:196|36:204,1,127.500004863739
204,69,173388,2,0,L|216:160,1,63.7500024318696
324,217,173704,2,0,P|388:220|448:200,1,127.500004863739
308,69,174177,1,0,0:0:0:0:
256,292,174493,5,0,0:0:0:0:
256,292,174651,2,0,L|256:136,1,127.500004863739
256,60,175283,1,0,0:0:0:0:
120,100,175441,2,0,L|96:176,2,42.5
304,232,175809,6,0,P|302:261|286:310,2,56.6666666666667
224,264,176125,2,0,P|210:289|174:327,2,56.6666666666667
144,248,176441,1,0,0:0:0:0:
120,263,176546,1,0,0:0:0:0:
94,273,176651,1,0,0:0:0:0:
65,276,176756,1,0,0:0:0:0:
37,273,176862,1,0,0:0:0:0:
