osu file format v14

[General]
AudioFilename: audio.mp3
AudioLeadIn: 0
PreviewTime: 52800
Countdown: 0
SampleSet: None
StackLeniency: 0.8
Mode: 2
LetterboxInBreaks: 0
WidescreenStoryboard: 0

[Editor]
Bookmarks: 39911,50490,52069,63437
DistanceSpacing: 2.7
BeatDivisor: 4
GridSize: 16
TimelineZoom: 3

[Metadata]
Title:Zen Zen Zense
TitleUnicode:前前前世
Artist:RADWIMPS
ArtistUnicode:RADWIMPS
Creator:-Nicotine
Version:Forgotten
Source:君の名は。
Tags:Kimi no Na wa. Your Name. the movie opening Quit user RoseusJaeger KaguyaHouraisan
BeatmapID:1092274
BeatmapSetID:514142

[Difficulty]
HPDrainRate:7
CircleSize:4
OverallDifficulty:9.3
ApproachRate:9.3
SliderMultiplier:1.6
SliderTickRate:2

[Events]
//Background and Video events
0,0,"yooo.png",0,0
//Break Periods
//Storyboard Layer 0 (Background)
//Storyboard Layer 1 (Fail)
//Storyboard Layer 2 (Pass)
//Storyboard Layer 3 (Foreground)
//Storyboard Sound Samples

[TimingPoints]
280,315.789473684211,4,3,1,80,1,0
280,-100,4,3,1,70,0,0
4174,-100,4,3,1,70,0,0
4385,-111.111111111111,4,3,1,30,0,0
4595,-100,4,3,1,70,0,0
4806,-100,4,3,1,30,0,0
5016,-111.111111111111,4,3,1,70,0,0
5227,-100,4,3,1,30,0,0
5332,-100,4,3,1,75,0,0
10385,-100,4,3,1,60,0,0
29174,-100,4,3,1,70,0,0
29490,-100,4,3,0,70,0,0
30595,-100,4,3,1,70,0,0
40701,-100,4,3,1,40,0,0
48280,-100,4,3,1,75,0,0
52859,-100,4,3,1,25,0,0
53332,-100,4,3,1,90,0,1
53569,-100,4,3,1,90,0,1
53885,-100,4,3,1,40,0,1
54200,-100,4,3,1,90,0,1
63674,-100,4,3,1,90,0,1
63990,-100,4,3,1,40,0,1
64306,-100,4,3,1,90,0,1
73525,315.789473684211,4,3,1,70,1,1
73525,-100,4,3,1,65,0,0
76148,-100,4,3,1,65,0,0

[Colours]
Combo1 : 252,153,120
Combo2 : 244,117,149
Combo3 : 70,251,142
Combo4 : 85,194,236
Combo5 : 194,126,188
Combo6 : 251,213,96

[HitObjects]
64,256,280,6,0,P|112:272|160:256,1,80
304,256,595,2,0,P|352:272|400:256,1,80,0|0,0:0|0:0,0:0:0:0:
480,256,911,2,0,P|528:192|480:144,1,160,0|0,0:0|0:0,0:0:0:0:
192,80,1385,1,0,0:0:0:0:
168,128,1464,1,0,0:0:0:0:
192,168,1543,1,0,0:0:0:0:
336,64,1701,5,0,0:0:0:0:
432,64,1858,1,0,0:0:0:0:
304,112,2016,1,0,0:0:0:0:
464,112,2174,1,0,0:0:0:0:
336,64,2332,1,0,0:0:0:0:
432,64,2490,1,0,0:0:0:0:
304,112,2648,1,0,0:0:0:0:
80,256,2806,5,0,0:0:0:0:
41,212,2885,1,0,0:0:0:0:
36,169,2964,1,0,0:0:0:0:
62,135,3043,1,0,0:0:0:0:
112,112,3122,1,0,0:0:0:0:
272,128,3280,6,0,L|336:176,1,80
448,176,3595,2,0,L|384:224,1,80,0|0,0:0|0:0,0:0:0:0:
320,224,3911,1,0,0:0:0:0:
160,256,4069,6,0,L|96:272,1,53.3333333333333
324,160,4280,6,0,L|384:176,1,53.3333333333333,0|0,0:0|0:0,0:0:0:0:
160,256,4490,6,0,L|96:272,1,47.9999985351563,0|0,0:0|0:0,0:0:0:0:
324,160,4701,6,0,L|384:176,1,53.3333333333333
160,256,4911,6,0,L|96:272,1,53.3333333333333,0|0,0:0|0:0,0:0:0:0:
324,160,5122,6,0,L|384:176,1,47.9999985351563,0|0,0:0|0:0,0:0:0:0:
192,288,5332,6,0,L|152:216,1,80,6|0,0:0|0:0,0:0:0:0:
384,288,5648,2,0,L|424:216,1,80,10|0,0:0|0:0,0:0:0:0:
256,128,5964,1,10,0:0:0:0:
352,128,6122,1,0,0:0:0:0:
128,64,6280,2,0,L|32:64,1,80,10|0,0:0|0:0,0:0:0:0:
288,80,6595,6,0,L|208:112,1,80,10|0,0:0|0:0,0:0:0:0:
430,114,6911,2,0,L|352:160,1,80,10|0,0:0|0:0,0:0:0:0:
128,304,7227,2,0,L|96:224,1,80,10|0,0:0|0:0,0:0:0:0:
320,112,7543,2,0,L|384:128,1,80,10|0,0:0|0:0,0:0:0:0:
120,216,7858,5,2,0:2:0:0:
72,192,7937,1,2,0:2:0:0:
48,136,8016,1,2,0:2:0:0:
72,80,8095,1,2,0:2:0:0:
112,32,8174,2,0,L|191:39,2,80,10|0|10,0:0|0:0|0:0,0:0:0:0:
336,96,8648,6,0,L|256:112,2,80,0|10|0,0:0|0:0|0:0,0:0:0:0:
256,272,9122,1,2,0:0:0:0:
128,256,9280,2,0,L|80:192,1,80,0|8,0:0|0:0,0:0:0:0:
288,232,9595,2,0,L|240:168,1,80,0|2,0:0|0:0,0:0:0:0:
432,240,9911,5,0,0:0:0:0:
464,192,9990,1,0,0:0:0:0:
480,144,10069,1,2,0:0:0:0:
464,96,10148,1,0,0:0:0:0:
432,48,10227,1,0,0:0:0:0:
112,160,10385,6,0,L|80:240,1,80,4|0,0:2|0:0,0:0:0:0:
160,304,10701,1,0,0:0:0:0:
256,304,10858,1,0,0:0:0:0:
352,304,11016,1,0,0:0:0:0:
304,224,11174,1,0,0:0:0:0:
208,224,11332,1,0,0:0:0:0:
120,56,11490,6,0,L|96:144,1,80
256,64,11806,2,0,L|288:144,1,80,0|0,0:0|0:0,0:0:0:0:
400,64,12122,1,0,0:0:0:0:
96,176,12280,2,0,P|64:240|112:304,1,160,0|0,0:0|0:0,0:0:0:0:
144,320,12674,1,0,0:0:0:0:
192,320,12753,1,0,0:0:0:0:
432,288,12911,6,0,P|480:224|432:160,1,160,0|0,0:0|0:0,0:0:0:0:
256,128,13385,1,0,0:0:0:0:
352,128,13543,1,0,0:0:0:0:
256,80,13701,2,0,L|240:160,1,80,0|0,0:0|0:0,0:0:0:0:
432,80,14016,2,0,L|448:160,1,80
192,136,14332,1,0,0:0:0:0:
336,136,14490,1,0,0:0:0:0:
192,136,14648,1,0,0:0:0:0:
432,208,14806,6,0,L|464:128,1,80
104,96,15122,1,0,0:0:0:0:
72,136,15201,1,0,0:0:0:0:
72,176,15280,1,0,0:0:0:0:
104,224,15358,1,0,0:0:0:0:
384,224,15437,6,0,L|480:208,2,80,4|0|0,0:2|0:0|0:0,0:0:0:0:
272,80,15911,2,0,L|184:48,2,80
112,304,16385,2,0,L|160:224,1,80,0|0,0:0|0:0,0:0:0:0:
256,304,16701,2,0,L|304:224,1,80
112,304,17016,2,0,L|160:224,1,80,0|0,0:0|0:0,0:0:0:0:
352,288,17332,1,0,0:0:0:0:
96,288,17490,2,0,P|48:240|96:176,1,160,0|0,0:0|0:0,0:0:0:0:
408,120,17964,5,4,0:2:0:0:
240,64,18122,2,0,L|144:64,1,80,0|0,0:0|0:0,0:0:0:0:
128,200,18437,1,0,0:0:0:0:
240,272,18595,2,0,L|208:360,1,80
64,264,18911,2,0,L|96:352,1,80,0|0,0:0|0:0,0:0:0:0:
240,272,19227,2,0,L|208:360,1,80
64,264,19543,5,0,0:0:0:0:
224,96,19701,2,0,L|128:96,1,80
368,96,20016,1,0,0:0:0:0:
272,224,20174,1,0,0:0:0:0:
368,224,20332,1,0,0:0:0:0:
112,304,20490,6,0,P|80:240|112:160,1,160,4|0,0:2|0:0,0:0:0:0:
296,96,20964,1,0,0:0:0:0:
320,136,21043,1,0,0:0:0:0:
296,184,21122,1,0,0:0:0:0:
224,224,21280,5,0,0:0:0:0:
128,224,21437,1,0,0:0:0:0:
32,224,21595,1,0,0:0:0:0:
128,144,21753,1,0,0:0:0:0:
224,144,21911,1,0,0:0:0:0:
176,224,22069,1,0,0:0:0:0:
272,224,22227,1,0,0:0:0:0:
384,192,22385,6,0,P|416:240|384:288,1,120
80,272,22701,2,0,P|48:240|96:192,1,120
336,240,23016,2,0,P|240:256|176:224,1,160
416,144,23490,6,0,L|448:64,1,80
272,144,23806,2,0,L|240:64,1,80
416,144,24122,2,0,L|448:64,1,80
336,96,24437,1,0,0:0:0:0:
240,96,24595,1,0,0:0:0:0:
144,96,24753,1,0,0:0:0:0:
432,304,24911,2,0,P|472:248|424:184,1,160,0|0,0:0|0:0,0:0:0:0:
112,96,25385,1,0,0:0:0:0:
353,86,25543,6,0,L|432:64,1,80,4|0,0:2|0:0,0:0:0:0:
304,176,25858,2,0,L|224:144,2,80,0|0|0,0:0|0:0|0:0,0:0:0:0:
64,304,26332,2,0,L|88:224,1,80,0|0,0:0|0:0,0:0:0:0:
288,304,26648,2,0,L|264:224,1,80
96,80,26964,1,0,0:0:0:0:
192,80,27122,1,0,0:0:0:0:
288,80,27280,1,0,0:0:0:0:
352,160,27437,1,0,0:0:0:0:
120,136,27595,5,0,0:0:0:0:
88,176,27674,1,0,0:0:0:0:
72,224,27753,1,0,0:0:0:0:
88,272,27832,1,0,0:0:0:0:
120,312,27911,1,0,0:0:0:0:
432,320,28069,2,0,L|464:240,1,80,4|0,0:2|0:0,0:0:0:0:
224,320,28385,2,0,L|192:240,1,80
184,192,28701,6,0,L|256:144,1,80
310,233,29016,2,0,L|256:304,1,80,2|8,0:0|0:0,0:0:0:0:
392,312,29332,2,0,L|416:224,1,80,2|8,0:0|0:0,0:0:0:0:
128,112,29648,2,0,L|48:72,1,80,12|0,0:0|0:0,0:0:0:0:
184,272,29964,2,0,L|104:232,1,80,12|0,0:0|0:0,0:0:0:0:
392,104,30280,2,0,L|472:72,1,80,8|0,0:0|0:0,0:0:0:0:
112,96,30595,6,0,L|192:120,2,80,4|0|8,0:0|0:0|0:0,0:0:0:0:
416,264,31069,6,0,L|320:288,2,80,0|2|0,0:0|0:0|0:0,0:0:0:0:
64,240,31543,6,0,L|144:264,2,80,8|0|2,0:0|0:0|0:0,0:0:0:0:
416,64,32016,6,0,L|328:96,1,80,0|2,0:0|0:0,0:0:0:0:
277,237,32332,2,0,L|352:208,1,80,0|8,0:0|0:0,0:0:0:0:
64,96,32648,2,0,L|152:128,1,80,0|2,0:0|0:0,0:0:0:0:
384,328,32964,2,0,P|440:264|392:216,1,160
96,80,33437,5,8,0:0:0:0:
240,80,33595,1,0,0:0:0:0:
128,176,33753,1,2,0:0:0:0:
272,176,33911,1,0,0:0:0:0:
160,256,34069,1,8,0:0:0:0:
312,72,34227,5,0,0:0:0:0:
336,120,34306,1,0,0:0:0:0:
312,168,34385,1,2,0:0:0:0:
64,304,34543,2,0,L|32:224,1,80,0|8,0:0|0:0,0:0:0:0:
288,304,34858,2,0,L|256:224,1,80,0|8,0:0|0:0,0:0:0:0:
432,304,35174,2,0,L|400:224,1,80,0|8,0:0|0:0,0:0:0:0:
96,88,35490,1,2,0:0:0:0:
328,80,35648,2,0,P|376:96|408:88,1,80,4|0,0:0|0:0,0:0:0:0:
184,184,35964,6,0,P|136:200|104:192,1,80,8|0,0:0|0:0,0:0:0:0:
328,184,36280,2,0,P|376:200|408:192,1,80,2|0,0:0|0:0,0:0:0:0:
176,104,36595,2,0,L|88:72,2,80,8|0|2,0:0|0:0|0:0,0:0:0:0:
336,104,37069,2,0,L|424:72,2,80,0|8|0,0:0|0:0|0:0,0:0:0:0:
112,80,37543,2,0,P|64:104|32:96,1,80,2|0,0:0|0:0,0:0:0:0:
288,88,37858,2,0,P|240:112|208:104,1,80,8|0,0:0|0:0,0:0:0:0:
400,96,38174,6,0,P|448:160|392:200,1,160,2|8,0:0|0:0,0:0:0:0:
128,104,38648,2,0,P|72:160|128:200,1,160
400,312,39122,2,0,L|432:232,1,80,8|0,0:0|0:0,0:0:0:0:
152,304,39437,2,0,P|88:256|144:184,1,160,2|8,0:0|0:0,0:0:0:0:
400,96,39911,5,0,0:0:0:0:
360,112,39990,1,0,0:0:0:0:
312,136,40069,1,0,0:0:0:0:
376,176,40148,2,0,L|296:208,1,80
136,288,40385,1,0,0:0:0:0:
104,248,40464,1,0,0:0:0:0:
80,200,40543,1,0,0:0:0:0:
408,264,40622,1,0,0:0:0:0:
368,272,40701,2,0,P|280:280|256:224,1,160,4|0,0:0|0:0,0:0:0:0:
96,80,41174,5,0,0:0:0:0:
240,80,41332,1,8,0:0:0:0:
112,80,41490,1,0,0:0:0:0:
252,80,41648,1,0,0:0:0:0:
124,80,41806,1,0,0:0:0:0:
264,80,41964,1,2,0:0:0:0:
72,304,42122,2,0,L|112:224,1,80,8|0,0:0|0:0,0:0:0:0:
440,304,42437,2,0,L|400:224,1,80,0|8,0:0|0:0,0:0:0:0:
416,80,42753,5,0,0:0:0:0:
272,80,42911,1,0,0:0:0:0:
400,80,43069,1,0,0:0:0:0:
260,80,43227,1,2,0:0:0:0:
388,80,43385,1,8,0:0:0:0:
248,80,43543,1,0,0:0:0:0:
112,56,43701,6,0,L|96:144,1,80,0|8,0:0|0:0,0:0:0:0:
400,56,44016,2,0,L|416:144,1,80,0|8,0:0|0:0,0:0:0:0:
192,112,44332,1,0,0:0:0:0:
408,72,44490,2,0,L|320:80,1,80,0|8,0:0|0:0,0:0:0:0:
112,232,44806,1,2,0:0:0:0:
88,280,44885,1,0,0:0:0:0:
112,328,44964,1,0,0:0:0:0:
416,328,45122,6,0,L|464:256,1,80
256,320,45437,2,0,L|320:256,1,80,8|0,0:0|0:0,0:0:0:0:
88,48,45753,2,0,L|176:64,2,80,4|0|2,0:0|0:0|0:0,0:0:0:0:
424,48,46227,1,0,0:0:0:0:
400,88,46306,1,0,0:0:0:0:
424,136,46385,1,8,0:0:0:0:
304,272,46543,2,0,P|256:320|192:272,1,160
80,112,47016,6,0,L|160:128,1,80,0|8,0:0|0:0,0:0:0:0:
432,112,47332,2,0,L|352:128,1,80,0|2,0:0|0:0,0:0:0:0:
80,112,47648,2,0,L|160:128,1,80
432,112,47964,2,0,L|352:128,1,80,8|0,0:0|0:0,0:0:0:0:
112,176,48280,6,0,P|72:256|112:272,1,160,4|0,0:0|0:0,0:0:0:0:
440,272,48753,1,0,0:0:0:0:
128,80,48911,2,0,L|152:160,1,80
384,80,49227,2,0,L|360:160,1,80,0|0,0:0|0:0,0:0:0:0:
168,288,49543,2,0,L|88:288,1,80
320,216,49858,2,0,L|240:216,1,80,0|0,0:0|0:0,0:0:0:0:
472,136,50174,2,0,L|376:136,2,80,0|0|0,0:0|0:0|0:0,0:0:0:0:
112,208,50648,6,0,L|96:128,1,80,0|0,0:0|0:0,0:0:0:0:
352,208,50964,2,0,L|384:112,1,80,0|0,0:0|0:0,0:0:0:0:
128,128,51280,1,0,0:0:0:0:
384,80,51437,2,0,L|304:128,1,80,0|0,0:0|0:0,0:0:0:0:
128,80,51753,2,0,L|216:128,1,80,0|0,0:0|0:0,0:0:0:0:
432,248,52069,5,0,0:0:0:0:
384,216,52148,1,0,0:0:0:0:
336,184,52227,1,0,0:0:0:0:
384,280,52306,2,0,L|315:238,1,80
168,144,52543,2,0,L|104:193,1,80
320,96,53332,6,0,P|384:112|448:96,1,120,4|0,0:0|0:0,0:0:0:0:
192,96,53648,6,0,P|128:112|64:96,1,120,8|0,0:0|0:0,0:0:0:0:
352,176,53964,6,0,P|416:192|480:176,1,120
80,144,54280,6,0,L|96:232,1,80,8|0,0:0|0:0,0:0:0:0:
256,144,54595,2,0,L|272:224,1,80
432,144,54911,2,0,B|336:144|336:144|400:112,1,160,8|0,0:0|0:0,0:0:0:0:
80,304,55385,1,0,0:0:0:0:
176,304,55543,1,8,0:0:0:0:
272,304,55701,1,0,0:0:0:0:
88,64,55858,6,0,L|72:144,1,80
432,96,56174,1,8,0:0:0:0:
320,96,56332,1,0,0:0:0:0:
400,208,56490,1,0,0:0:0:0:
104,304,56648,2,0,L|80:224,1,80,0|8,0:0|0:0,0:0:0:0:
376,304,56964,2,0,P|424:256|360:208,1,160,0|0,0:0|0:0,0:0:0:0:
96,80,57437,6,0,L|80:160,1,80,8|0,0:0|0:0,0:0:0:0:
416,280,57753,2,0,L|320:264,2,80,0|0|8,0:0|0:0|0:0,0:0:0:0:
128,72,58227,2,0,P|72:144|112:192,1,160
440,80,58701,5,8,0:0:0:0:
320,80,58858,1,0,0:0:0:0:
208,80,59016,1,0,0:0:0:0:
320,160,59174,1,0,0:0:0:0:
80,304,59332,2,0,L|-16:288,2,80,8|0|0,0:0|0:0|0:0,0:0:0:0:
416,304,59806,6,0,L|448:216,1,80,0|8,0:0|0:0,0:0:0:0:
120,64,60122,2,0,P|72:136|104:192,1,160,0|0,0:0|0:0,0:0:0:0:
296,192,60595,1,8,0:0:0:0:
72,304,60753,2,0,L|112:208,1,80
240,312,61069,2,0,L|264:232,1,80,0|8,0:0|0:0,0:0:0:0:
408,320,61385,2,0,L|440:240,1,80
104,320,61701,2,0,L|72:240,1,80,0|8,0:0|0:0,0:0:0:0:
376,248,62016,6,0,B|464:240|464:240|384:208,1,160,0|0,0:0|0:0,0:0:0:0:
64,88,62490,1,8,0:0:0:0:
208,88,62648,1,0,0:0:0:0:
64,88,62806,1,0,0:0:0:0:
208,88,62964,1,0,0:0:0:0:
64,88,63122,1,8,0:0:0:0:
256,96,63280,1,0,0:0:0:0:
191,47,63437,6,0,P|133:40|77:61,1,120,4|0,0:0|0:0,0:0:0:0:
320,47,63753,6,0,P|378:40|434:61,1,120,8|0,0:0|0:0,0:0:0:0:
191,47,64069,6,0,P|133:40|77:61,1,120,0|0,0:0|0:0,0:0:0:0:
256,184,64385,1,8,0:0:0:0:
432,80,64543,2,0,L|416:168,1,80
256,80,64858,2,0,L|240:160,1,80,0|8,0:0|0:0,0:0:0:0:
80,80,65174,2,0,B|0:80|0:80|80:112,1,160,0|0,0:0|0:0,0:0:0:0:
264,248,65648,5,8,0:0:0:0:
392,152,65806,1,0,0:0:0:0:
104,64,65964,2,0,P|64:128|104:208,1,160,0|8,0:0|0:0,0:0:0:0:
416,320,66437,2,0,L|328:320,2,80
176,312,66911,1,8,0:0:0:0:
400,224,67069,2,0,B|480:208|480:208|400:192,1,160,0|0,0:0|0:0,0:0:0:0:
64,184,67543,6,0,L|152:184,1,80,8|0,0:0|0:0,0:0:0:0:
64,184,67858,2,0,L|152:184,1,80
64,184,68174,2,0,L|152:184,1,80,8|0,0:0|0:0,0:0:0:0:
336,240,68490,2,0,P|368:160|336:96,1,160,0|8,0:0|0:0,0:0:0:0:
88,288,68964,5,0,0:0:0:0:
192,240,69122,1,0,0:0:0:0:
264,152,69280,1,0,0:0:0:0:
344,232,69437,2,0,P|384:192|328:112,1,160,8|0,0:0|0:0,0:0:0:0:
136,88,69911,6,0,L|112:168,1,80,0|8,0:0|0:0,0:0:0:0:
304,96,70227,2,0,L|280:176,1,80
136,272,70543,1,0,0:0:0:0:
304,280,70701,1,8,0:0:0:0:
176,168,70858,1,0,0:0:0:0:
344,176,71016,1,0,0:0:0:0:
152,104,71174,6,0,P|120:192|160:240,1,160,0|0,0:0|0:0,0:0:0:0:
264,200,71648,1,0,0:0:0:0:
376,176,71806,1,0,0:0:0:0:
464,104,71964,1,8,0:0:0:0:
192,88,72122,2,0,L|168:168,1,80
320,88,72437,2,0,L|296:168,1,80,0|8,0:0|0:0,0:0:0:0:
264,312,72753,1,0,0:0:0:0:
432,256,72911,6,0,L|400:208,1,53.3333333333333,2|0,0:0|0:0,0:0:0:0:
224,256,73122,2,0,L|256:208,1,53.3333333333333
432,256,73332,2,0,L|400:208,1,53.3333333333333
160,256,73525,2,0,P|112:208|112:160,1,120,4|0,0:0|0:0,0:0:0:0:
288,192,74156,2,0,P|301:137|261:86,1,120.000004577637,8|0,0:0|0:0,0:0:0:0:
192,176,74630,2,0,P|216:120|272:96,1,120.000004577637
320,176,75103,6,0,L|288:96,1,80
416,208,75419,2,0,L|400:128,1,80
256,272,75735,2,0,P|216:240|256:168,1,120.000004577637
256,192,76130,12,0,77788,0:0:0:0:
144,192,77946,5,0,0:0:0:0:
368,192,78103,5,0,0:0:0:0:
