osu file format v14

[General]
AudioFilename: audio.mp3
AudioLeadIn: 0
PreviewTime: 51789
Countdown: 0
SampleSet: Normal
StackLeniency: 0.8
Mode: 0
LetterboxInBreaks: 0
WidescreenStoryboard: 1

[Editor]
DistanceSpacing: 2
BeatDivisor: 2
GridSize: 4
TimelineZoom: 1.2

[Metadata]
Title:Yumetourou
TitleUnicode:夢灯籠
Artist:RADWIMPS
ArtistUnicode:RADWIMPS
Creator:Ezequiel101XD
Version:Hard
Source:Kimi no na wa
Tags:kimi no na wa radwimps yumetourou your name opening movie romance anime
BeatmapID:1581218
BeatmapSetID:750982

[Difficulty]
HPDrainRate:5
CircleSize:4
OverallDifficulty:6
ApproachRate:8
SliderMultiplier:1.4
SliderTickRate:1

[Events]
//Background and Video events
0,0,"Bg1.jpg",0,0
Video,0,"OpeningHD.avi"
//Break Periods
2,84708,89488
//Storyboard Layer 0 (Background)
//Storyboard Layer 1 (Fail)
//Storyboard Layer 2 (Pass)
//Storyboard Layer 3 (Foreground)
//Storyboard Sound Samples

[TimingPoints]
24580,348.836529947186,4,1,0,20,1,0
24580,-200,4,1,0,20,0,0
52486,337.078017357539,4,1,0,60,1,0
52486,-100,4,1,0,60,0,1
63272,-125,4,1,0,50,0,0
71025,-100,4,1,0,50,0,0
74058,-125,4,1,0,50,0,0
84845,-66.6666666666667,4,1,0,50,0,0
90238,-125,4,1,0,60,0,1
114508,-100,4,1,0,50,0,0

[HitObjects]
88,100,24580,6,0,L|236:144,1,140,2|8,0:0|0:0,0:0:0:0:
308,204,25626,1,8,0:0:0:0:
216,252,25975,1,2,0:0:0:0:
312,296,26324,1,8,0:0:0:0:
416,292,26673,2,0,L|416:148,1,140,8|2,0:0|0:0,0:0:0:0:
320,100,27719,5,8,0:0:0:0:
320,100,27893,2,0,L|220:156,1,105,4|8,0:0|0:0,0:0:0:0:
192,284,29114,1,8,0:0:0:0:
192,284,29289,2,0,L|292:228,1,105,4|8,0:0|0:0,0:0:0:0:
420,96,30161,6,0,P|432:176|400:240,1,140,2|8,0:0|0:0,0:0:0:0:
312,276,31207,1,8,0:0:0:0:
208,264,31556,2,0,L|128:252,2,70,2|8|8,0:0|0:0|0:0,0:0:0:0:
312,272,32603,1,8,0:0:0:0:
260,180,32952,1,2,0:0:0:0:
168,128,33300,1,8,0:0:0:0:
92,200,33649,1,8,0:0:0:0:
92,200,33824,1,8,0:0:0:0:
148,280,34085,2,0,L|176:328,1,52.5,4|12,0:0|0:0,0:0:0:0:
284,72,35568,5,4,0:0:0:0:
284,72,35742,2,2,L|332:124,1,70,2|10,0:0|0:0,0:0:0:0:
364,224,36440,1,8,0:0:0:0:
256,188,36789,2,0,L|204:128,1,70,8|2,0:0|0:0,0:0:0:0:
292,72,37486,1,8,0:0:0:0:
292,72,37835,2,0,L|320:112,2,35,8|0|8,0:0|0:0|0:0,0:0:0:0:
396,80,38533,2,0,P|416:156|376:212,2,140,2|8|2,0:0|0:0|0:0,0:0:0:0:
292,76,40277,1,4,0:0:0:0:
292,76,40452,1,4,0:0:0:0:
36,128,41324,5,2,0:0:0:0:
108,204,41672,1,8,0:0:0:0:
196,260,42021,1,8,0:0:0:0:
184,156,42370,1,0,0:0:0:0:
280,112,42719,1,2,0:0:0:0:
364,172,43068,1,8,0:0:0:0:
396,272,43417,1,8,0:0:0:0:
296,300,43766,1,8,0:0:0:0:
284,196,44114,1,2,0:0:0:0:
204,128,44463,1,8,0:0:0:0:
116,188,44812,1,8,0:0:0:0:
188,264,45161,1,0,0:0:0:0:
292,252,45510,1,2,0:0:0:0:
252,156,45859,1,8,0:0:0:0:
404,248,46207,6,0,L|404:168,1,70,8|8,0:0|0:0,0:0:0:0:
300,176,46905,1,2,0:0:0:0:
276,280,47254,1,8,0:0:0:0:
196,174,47603,1,8,0:0:0:0:
276,104,47952,1,8,0:0:0:0:
380,124,48300,1,2,0:0:0:0:
388,228,48649,1,8,0:0:0:0:
312,300,48998,6,0,L|236:300,2,70,8|8|2,0:0|0:0|0:0,0:0:0:0:
256,192,50045,1,8,0:0:0:0:
200,84,50393,2,0,L|276:84,2,70,8|8|2,0:0|0:0|0:0,0:0:0:0:
364,192,51963,2,0,L|316:192,2,35,4|8|4,0:0|0:0|0:0,0:0:0:0:
420,116,52486,5,2,0:0:0:0:
344,64,52654,1,0,0:0:0:0:
268,116,52823,1,8,0:0:0:0:
192,68,52991,1,0,0:0:0:0:
112,112,53160,2,0,L|56:168,1,70,8|0,0:0|0:0,0:0:0:0:
92,248,53497,1,8,0:0:0:0:
160,312,53665,5,0,0:0:0:0:
236,260,53834,1,2,0:0:0:0:
180,188,54002,1,0,0:0:0:0:
264,152,54171,1,8,0:0:0:0:
348,184,54339,1,0,0:0:0:0:
352,276,54508,1,8,0:0:0:0:
352,276,54677,2,4,L|404:332,1,70
308,336,55014,1,0,0:0:0:0:
228,296,55182,6,0,L|176:216,1,70,2|0,0:0|0:0,0:0:0:0:
156,152,55519,2,0,L|216:108,1,70,8|0,0:0|0:0,0:0:0:0:
296,76,55856,1,8,0:0:0:0:
388,76,56025,1,0,0:0:0:0:
412,164,56193,1,8,0:0:0:0:
320,176,56362,1,0,0:0:0:0:
232,200,56530,2,0,L|172:253,1,70,2|0,0:0|0:0,0:0:0:0:
140,328,56868,2,0,L|220:324,1,70,8|0,0:0|0:0,0:0:0:0:
256,192,57205,12,8,62598,0:0:0:0:
256,88,63272,5,2,0:0:0:0:
328,40,63441,1,0,0:0:0:0:
340,116,63609,1,8,0:0:0:0:
424,120,63778,1,0,0:0:0:0:
380,196,63946,2,0,L|304:284,1,112,8|8,0:0|0:0,0:0:0:0:
264,352,64452,1,0,0:0:0:0:
216,276,64620,6,0,L|116:192,1,112,2|8,0:0|0:0,0:0:0:0:
88,132,65126,1,0,0:0:0:0:
172,136,65294,1,8,0:0:0:0:
136,60,65463,1,0,0:0:0:0:
220,64,65631,1,8,0:0:0:0:
304,64,65800,1,0,0:0:0:0:
384,88,65969,2,0,L|444:200,1,112,2|8,0:0|0:0,0:0:0:0:
384,252,66474,5,0,0:0:0:0:
308,212,66643,2,0,L|212:140,1,112,8|8,0:0|0:0,0:0:0:0:
152,92,67148,1,0,0:0:0:0:
72,120,67317,1,2,0:0:0:0:
44,200,67485,1,0,0:0:0:0:
116,248,67654,2,0,L|216:308,1,112,8|8,0:0|0:0,0:0:0:0:
296,312,68160,1,0,0:0:0:0:
380,312,68328,2,0,L|456:312,2,56,8|0|2,0:0|0:0|0:0,0:0:0:0:
468,168,69002,5,8,0:0:0:0:
388,192,69171,1,0,0:0:0:0:
304,192,69339,1,8,0:0:0:0:
224,168,69508,1,0,0:0:0:0:
156,116,69676,1,8,0:0:0:0:
224,68,69845,1,0,0:0:0:0:
308,68,70014,2,0,L|436:68,2,112,2|8|8,0:0|0:0|0:0,0:0:0:0:
100,48,71025,5,8,0:0:0:0:
44,136,71193,1,0,0:0:0:0:
148,136,71362,1,2,0:0:0:0:
100,228,71530,1,0,0:0:0:0:
204,228,71699,1,2,0:0:0:0:
148,316,71867,1,0,0:0:0:0:
252,316,72036,2,0,L|400:316,1,140
340,224,72542,5,0,0:0:0:0:
444,224,72710,1,0,0:0:0:0:
392,132,72879,1,0,0:0:0:0:
288,132,73047,1,0,0:0:0:0:
340,40,73216,1,0,0:0:0:0:
236,40,73384,2,0,L|92:40,1,140
232,140,74058,5,0,0:0:0:0:
276,304,74396,2,0,L|191:219,1,112,8|8,0:0|0:0,0:0:0:0:
196,224,74901,1,0,0:0:0:0:
196,223,75070,2,0,L|276:144,1,112,8|2,0:0|0:0,0:0:0:0:
275,144,75575,1,0,0:0:0:0:
276,144,75744,2,0,L|355:223,1,112,8|8,0:0|0:0,0:0:0:0:
355,223,76250,1,0,0:0:0:0:
355,224,76418,2,0,L|276:304,1,112,8|2,0:0|0:0,0:0:0:0:
216,148,77092,6,0,L|332:148,1,112,8|8,0:0|0:0,0:0:0:0:
328,148,77598,1,0,0:0:0:0:
327,148,77766,2,0,L|328:264,1,112,8|2,0:0|0:0,0:0:0:0:
327,259,78272,1,0,0:0:0:0:
327,259,78441,2,0,L|212:260,1,112,8|8,0:0|0:0,0:0:0:0:
215,259,78946,1,0,0:0:0:0:
216,259,79115,2,0,L|216:144,1,112,8|2,0:0|0:0,0:0:0:0:
348,44,79789,6,0,L|224:44,1,112,8|8,0:0|0:0,0:0:0:0:
236,96,80294,1,0,0:0:0:0:
236,148,80463,2,0,L|364:148,1,112,8|2,0:0|0:0,0:0:0:0:
400,148,80969,1,0,0:0:0:0:
400,200,81137,2,0,L|400:264,2,56,8|0|8,0:0|0:0|0:0,0:0:0:0:
288,324,81811,5,8,0:0:0:0:
220,352,81980,1,0,0:0:0:0:
152,328,82148,1,2,0:0:0:0:
88,364,82317,1,0,0:0:0:0:
52,300,82485,2,0,L|40:176,1,112,8|8,0:0|0:0,0:0:0:0:
80,128,82991,1,0,0:0:0:0:
152,116,83160,1,8,0:0:0:0:
128,184,83328,1,0,0:0:0:0:
88,244,83497,1,2,0:0:0:0:
132,304,83665,1,0,0:0:0:0:
204,304,83834,1,8,0:0:0:0:
276,300,84002,2,0,L|352:296,2,56,0|8|0,0:0|0:0|0:0,0:0:0:0:
212,240,84508,1,8,0:0:0:0:
64,64,90238,6,2,L|136:64,1,56,0|0,0:0|0:0,0:0:0:0:
120,108,90575,2,0,L|120:168,1,56,8|0,0:0|0:0,0:0:0:0:
164,164,90912,2,0,L|224:164,1,56,8|0,0:0|0:0,0:0:0:0:
264,164,91249,2,0,L|264:96,1,56,8|0,0:0|0:0,0:0:0:0:
364,112,91587,6,0,L|364:176,1,56,2|0,0:0|0:0,0:0:0:0:
368,212,91924,2,0,L|368:284,1,56,8|0,0:0|0:0,0:0:0:0:
368,312,92261,2,0,L|296:312,1,56,8|0,0:0|0:0,0:0:0:0:
268,308,92598,2,0,L|268:232,1,56,8|0,0:0|0:0,0:0:0:0:
200,176,92935,6,0,P|220:116|268:104,1,112,2|8,0:0|0:0,0:0:0:0:
264,168,93440,1,0,0:0:0:0:
332,160,93609,6,0,P|282:180|269:232,1,112,8|0,0:0|0:0,0:0:0:0:
332,224,94115,1,0,0:0:0:0:
336,292,94283,6,0,P|348:239|398:219,1,112,2|8,0:0|0:0,0:0:0:0:
424,132,94957,6,0,L|424:72,3,56,8|0|8|0,0:0|0:0|0:0|0:0,0:0:0:0:
368,76,95631,2,0,L|292:76,1,56
256,76,95969,2,0,L|180:76,1,56
144,76,96306,2,0,L|144:152,1,56
144,188,96643,2,0,L|216:188,1,56
256,192,96980,2,0,L|328:192,2,56
256,136,97485,2,0,L|256:80,1,56
312,80,97822,2,0,L|312:148,1,56
180,68,98328,6,0,P|232:104|284:76,1,112,2|0,0:0|0:0,0:0:0:0:
216,124,98834,1,4,0:0:0:0:
256,176,99002,6,0,P|203:189|162:155,1,112,8|8,0:0|0:0,0:0:0:0:
204,216,99508,1,4,0:0:0:0:
148,244,99676,6,0,P|200:280|252:252,1,112,2|8,0:0|0:0,0:0:0:0:
256,176,100351,1,8,0:0:0:0:
256,88,100688,1,8,0:0:0:0:
256,188,101025,6,0,P|160:192|120:312,1,224,2|12,0:0|0:0,0:0:0:0:
256,300,102036,1,8,0:0:0:0:
256,188,102373,6,0,P|252:92|132:52,1,224,2|12,0:0|0:0,0:0:0:0:
144,192,103384,1,8,0:0:0:0:
256,196,103721,6,0,P|352:192|392:72,1,224,2|12,0:0|0:0,0:0:0:0:
256,84,104733,1,8,0:0:0:0:
256,196,105070,6,0,P|260:292|380:332,1,224,0|12,0:0|0:0,0:0:0:0:
368,192,106081,1,8,0:0:0:0:
256,68,106418,6,0,B|152:148|168:136,1,112,2|8,0:0|0:0,0:0:0:0:
108,196,106924,1,0,0:0:0:0:
108,280,107092,1,8,0:0:0:0:
184,312,107261,1,0,0:0:0:0:
268,300,107429,1,8,0:0:0:0:
340,256,107598,1,0,0:0:0:0:
388,188,107766,2,0,L|432:124,2,56,8|0|8,0:0|0:0|0:0,0:0:0:0:
304,188,108272,5,0,0:0:0:0:
244,248,108440,1,8,0:0:0:0:
172,208,108609,1,0,0:0:0:0:
120,140,108778,2,0,L|72:84,2,56,8|0|2,0:0|0:0|0:0,0:0:0:0:
204,140,109283,1,0,0:0:0:0:
260,76,109452,1,8,0:0:0:0:
344,68,109620,1,0,0:0:0:0:
420,100,109789,2,0,L|452:156,1,56,8|0,0:0|0:0,0:0:0:0:
452,232,110126,1,8,0:0:0:0:
388,288,110294,1,0,0:0:0:0:
304,296,110463,2,0,L|228:304,2,56,2|0|8,0:0|0:0|0:0,0:0:0:0:
364,236,110969,1,0,0:0:0:0:
416,172,111137,1,8,0:0:0:0:
392,92,111306,1,0,0:0:0:0:
316,56,111474,1,8,0:0:0:0:
236,84,111643,1,0,0:0:0:0:
156,112,111811,6,0,P|88:144|60:180,1,112,2|8,0:0|0:0,0:0:0:0:
48,256,112317,1,0,0:0:0:0:
104,320,112485,2,0,L|224:332,1,112,8|8,0:0|0:0,0:0:0:0:
296,312,112991,1,0,0:0:0:0:
308,228,113160,6,0,P|324:172|384:152,1,112,2|8,0:0|0:0,0:0:0:0:
428,212,113665,1,0,0:0:0:0:
472,284,113834,2,0,L|364:324,1,112,8|8,0:0|0:0,0:0:0:0:
292,288,114339,1,0,0:0:0:0:
256,188,114508,5,4,0:0:0:0:
