osu file format v14

[General]
AudioFilename: audio.mp3
AudioLeadIn: 0
PreviewTime: 90066
Countdown: 0
SampleSet: Soft
StackLeniency: 0.7
Mode: 2
LetterboxInBreaks: 0
WidescreenStoryboard: 1

[Editor]
DistanceSpacing: 1.1
BeatDivisor: 4
GridSize: 4
TimelineZoom: 1.5

[Metadata]
Title:Yume Tourou
TitleUnicode:夢灯籠
Artist:RADWIMPS
ArtistUnicode:RADWIMPS
Creator:rew0825
Version:Platter
Source:君の名は。
Tags:-Hex- -Joakh Greaper male vocal your name kimi no na wa op opening theme movie anime japanese rock j-rock
BeatmapID:2764349
BeatmapSetID:558284

[Difficulty]
HPDrainRate:4
CircleSize:3.5
OverallDifficulty:8
ApproachRate:8
SliderMultiplier:1.56
SliderTickRate:2

[Events]
//Background and Video events
0,0,"BG.jpg",0,0
//Break Periods
//Storyboard Layer 0 (Background)
//Storyboard Layer 1 (Fail)
//Storyboard Layer 2 (Pass)
//Storyboard Layer 3 (Foreground)
//Storyboard Layer 4 (Overlay)
//Storyboard Sound Samples

[TimingPoints]
773,348.837209302326,4,2,2,20,1,0
23796,-100,4,2,2,10,0,0
24493,-100,4,2,2,50,0,0
41238,-100,4,2,2,55,0,0
52052,-100,4,2,1,65,0,0
52400,337.078651685393,4,2,1,80,1,0
62512,-100,4,2,1,70,0,0
63171,337.078651685393,4,2,1,60,1,0
73971,337.078651685393,4,2,1,65,1,0
84759,-100,4,2,1,70,0,0
90138,337.078651685393,4,2,1,75,1,1
113593,337.078651685393,4,2,1,60,1,0
114407,337.078651685393,4,2,1,80,1,0

[Colours]
Combo1 : 214,131,235
Combo2 : 88,105,188
Combo3 : 148,211,245

[HitObjects]
256,192,18912,12,0,23796,0:0:0:0:
136,264,24493,6,0,P|64:220|144:132,1,234,2|2,0:0|0:0,0:0:0:0:
228,132,25191,1,2,0:0:0:0:
400,132,25540,2,0,L|404:212,1,78,2|2,0:0|0:0,0:0:0:0:
316,212,25889,6,0,L|160:212,2,156,2|2|2,0:0|0:0|0:0,0:0:0:0:
144,212,26935,2,0,L|140:132,1,78,2|2,0:0|0:0,0:0:0:0:
304,136,27284,6,0,P|352:168|300:228,1,156,2|0,0:0|0:0,0:0:0:0:
216,228,27807,2,0,P|128:232|76:356,1,234,2|2,0:0|0:0,0:0:0:0:
248,352,28679,6,0,P|368:336|404:240,1,234,2|2,0:0|0:0,0:0:0:0:
316,244,29377,2,0,L|320:164,1,78,0|2,0:0|0:0,0:0:0:0:
408,164,29726,1,2,0:0:0:0:
144,164,30075,6,0,P|72:204|152:288,1,234,2|2,0:0|0:0,0:0:0:0:
236,288,30773,2,0,P|340:268|360:156,1,234,2|2,0:0|0:0,0:0:0:0:
196,152,31470,6,0,P|128:144|104:68,1,156,2|2,0:0|0:0,0:0:0:0:
176,64,31993,1,2,0:0:0:0:
252,64,32168,1,2,0:0:0:0:
424,64,32517,2,0,L|428:144,1,78,2|2,0:0|0:0,0:0:0:0:
264,144,32866,6,0,P|192:152|172:224,1,156,2|0,0:0|0:0,0:0:0:0:
344,224,33563,1,2,0:0:0:0:
228,224,33796,1,2,0:0:0:0:
344,224,34028,1,2,0:0:0:0:
124,220,34261,6,0,P|120:168|200:120,1,156,2|0,0:0|0:0,0:0:0:0:
284,120,34784,2,0,P|368:120|440:0,1,234,2|2,0:0|0:0,0:0:0:0:
356,4,35482,1,2,0:0:0:0:
192,4,35656,6,0,P|128:48|204:148,1,234,2|2,0:0|0:0,0:0:0:0:
292,148,36354,2,0,P|372:200|288:264,1,234,2|2,0:0|0:0,0:0:0:0:
124,268,37052,6,0,P|100:216|220:136,1,234,2|2,0:0|0:0,0:0:0:0:
304,136,37749,2,0,L|308:56,1,78,2|2,0:0|0:0,0:0:0:0:
220,60,38098,2,0,L|216:140,1,78,2|2,0:0|0:0,0:0:0:0:
380,136,38447,6,0,P|428:180|368:232,1,156,2|0,0:0|0:0,0:0:0:0:
288,236,38970,2,0,P|160:236|100:152,1,234,2|2,0:0|0:0,0:0:0:0:
272,160,39842,6,0,P|356:148|384:84,1,156,2|0,0:0|1:0,0:0:0:0:
296,88,40366,1,0,1:0:0:0:
212,88,40540,2,0,L|208:172,1,78,2|2,0:0|0:0,0:0:0:0:
296,164,40889,1,2,0:0:0:0:
212,164,41063,1,2,0:0:0:0:
376,164,41238,6,0,P|424:212|368:264,1,156,0|10,1:2|0:0,0:0:0:0:
208,264,41935,1,2,0:0:0:0:
120,264,42110,2,0,P|88:208|156:148,1,156,2|2,0:0|0:0,0:0:0:0:
308,148,42633,6,0,P|376:136|440:80,1,156,2|8,0:0|0:0,0:0:0:0:
272,80,43331,2,0,L|108:80,1,156,2|10,0:0|0:0,0:0:0:0:
280,80,43854,6,0,P|328:128|272:180,1,156,2|2,0:0|0:0,0:0:0:0:
192,180,44377,1,10,0:0:0:0:
356,180,44726,2,0,P|420:192|444:280,1,156,2|10,0:0|0:0,0:0:0:0:
360,276,45249,1,2,0:0:0:0:
196,276,45424,6,0,P|116:264|80:196,1,156,0|8,0:0|0:0,0:0:0:0:
248,204,46121,1,2,0:0:0:0:
336,204,46296,1,10,0:0:0:0:
248,204,46470,1,2,0:0:0:0:
84,204,46645,6,0,P|44:156|100:96,1,156,10|2,0:0|0:0,0:0:0:0:
184,96,47168,1,10,0:0:0:0:
348,96,47517,1,2,0:0:0:0:
264,96,47691,2,0,L|424:96,1,156,2|2,0:0|0:0,0:0:0:0:
256,96,48214,6,0,P|208:152|272:200,1,156,2|8,0:0|0:0,0:0:0:0:
428,204,48912,1,2,0:0:0:0:
476,288,49086,1,2,0:0:0:0:
392,288,49261,1,10,0:0:0:0:
228,288,49435,6,0,P|156:276|132:200,1,156,2|0,0:0|0:0,0:0:0:0:
216,204,49959,1,8,0:0:0:0:
380,204,50307,2,0,P|424:144|372:96,1,156,2|10,0:0|0:0,0:0:0:0:
288,96,50831,1,2,0:0:0:0:
124,92,51005,6,0,P|76:132|132:192,1,156,0|8,1:0|0:0,0:0:0:0:
292,192,51703,2,0,L|296:276,1,78,8|2,0:0|0:0,0:0:0:0:
132,272,52052,2,0,L|128:192,1,78,2|8,1:2|0:0,0:0:0:0:
380,192,52400,6,0,P|424:136|372:80,1,156,14|10,1:2|0:0,0:0:0:0:
292,80,52905,1,2,1:2:0:0:
128,80,53074,2,0,L|124:164,1,78,10|2,0:0|1:2,0:0:0:0:
212,156,53411,1,10,0:0:0:0:
128,156,53579,1,2,1:2:0:0:
288,156,53748,6,0,L|292:240,1,78,10|2,0:0|1:2,0:0:0:0:
204,236,54085,2,0,L|120:236,1,78,10|2,0:0|1:2,0:0:0:0:
212,236,54422,1,10,0:0:0:0:
368,236,54591,1,0,3:2:0:0:
212,236,54759,2,0,L|208:316,1,78,10|2,3:2|1:2,0:0:0:0:
444,312,55096,6,0,P|480:244|428:200,1,156,10|10,0:0|0:0,0:0:0:0:
344,200,55602,1,2,1:2:0:0:
180,200,55770,2,0,L|176:120,1,78,10|2,0:0|1:2,0:0:0:0:
264,120,56107,1,10,0:0:0:0:
176,120,56276,1,2,1:2:0:0:
336,120,56444,6,0,L|340:200,1,78,10|2,0:0|1:2,0:0:0:0:
252,200,56782,1,10,0:0:0:0:
340,200,56950,1,2,1:2:0:0:
176,200,57119,2,0,P|132:144|188:96,1,156,10|10,0:0|0:0,0:0:0:0:
240,96,57568,1,8,0:0:0:0:
296,96,57680,1,8,0:0:0:0:
172,96,57793,6,0,P|120:144|172:188,1,156,2|10,1:2|0:0,0:0:0:0:
256,188,58298,1,2,1:2:0:0:
420,188,58467,2,0,L|424:268,1,78,8|2,0:0|1:2,0:0:0:0:
336,268,58804,1,8,0:0:0:0:
424,268,58973,1,2,1:2:0:0:
264,268,59141,6,0,L|260:188,1,78,10|2,0:0|1:2,0:0:0:0:
344,192,59478,2,0,L|428:192,1,78,8|2,0:0|1:2,0:0:0:0:
336,192,59815,1,8,0:0:0:0:
184,192,59984,1,0,3:2:0:0:
332,192,60152,2,0,L|336:112,1,78,10|2,3:2|1:2,0:0:0:0:
104,188,60489,6,0,P|56:152|104:88,1,156,10|10,0:0|0:0,0:0:0:0:
184,88,60995,1,2,1:2:0:0:
348,88,61164,2,0,L|352:172,1,78,10|2,0:0|1:2,0:0:0:0:
264,164,61501,1,10,0:0:0:0:
348,164,61669,1,2,1:2:0:0:
184,164,61838,6,0,L|180:244,1,78,10|2,0:0|1:2,0:0:0:0:
264,244,62175,1,10,0:0:0:0:
180,244,62343,1,2,1:2:0:0:
424,244,62512,5,2,1:2:0:0:
464,236,62596,1,8,0:0:0:0:
484,200,62680,1,8,0:0:0:0:
464,164,62765,1,8,0:0:0:0:
424,152,62849,1,10,1:2:0:0:
340,152,63017,1,8,0:0:0:0:
104,152,63171,6,0,P|56:120|156:40,1,234,2|2,1:2|0:0,0:0:0:0:
236,32,63845,1,2,1:2:0:0:
64,32,64182,2,0,L|60:112,1,78,2|2,1:2|0:0,0:0:0:0:
224,112,64519,6,0,L|392:112,2,156,2|2|2,1:2|1:2|1:2,0:0:0:0:
396,112,65530,2,0,L|400:192,1,78,2|2,1:2|0:0,0:0:0:0:
236,192,65867,6,0,P|152:208|108:336,1,234,2|2,1:2|0:0,0:0:0:0:
196,336,66541,2,0,L|200:256,1,78,2|2,1:2|0:0,0:0:0:0:
112,260,66878,1,2,1:2:0:0:
196,256,67047,1,2,0:0:0:0:
360,256,67215,6,0,P|440:248|488:184,2,156,2|2|2,1:2|1:2|1:2,0:0:0:0:
188,256,68227,2,0,L|184:176,1,78,2|2,1:2|0:0,0:0:0:0:
348,180,68564,6,0,P|392:120|340:72,1,156,2|0,1:2|1:2,0:0:0:0:
256,72,69069,1,2,0:0:0:0:
172,72,69238,2,0,P|112:104|96:188,1,156,2|2,1:2|1:2,0:0:0:0:
180,184,69744,1,2,0:0:0:0:
344,184,69912,6,0,L|508:184,2,156,2|2|2,1:2|1:2|1:2,0:0:0:0:
172,184,70923,2,0,L|168:264,1,78,0|2,1:2|0:0,0:0:0:0:
332,260,71260,6,0,P|380:208|328:160,1,156,2|2,1:2|1:2,0:0:0:0:
244,160,71766,1,2,0:0:0:0:
328,160,71935,2,0,P|404:148|440:80,1,156,2|2,1:2|1:2,0:0:0:0:
352,84,72440,1,2,0:0:0:0:
188,84,72609,6,0,P|140:136|200:196,1,156,2|2,1:2|1:2,0:0:0:0:
272,196,73114,1,2,0:0:0:0:
360,196,73283,2,0,P|432:212|468:288,1,156,2|2,1:2|1:2,0:0:0:0:
52,280,73971,6,0,P|32:228|160:160,1,234,6|2,1:2|0:0,0:0:0:0:
324,160,74645,1,2,1:2:0:0:
312,76,74813,1,2,0:0:0:0:
252,156,74982,1,2,1:2:0:0:
172,160,75150,1,2,0:0:0:0:
336,160,75319,6,0,L|340:244,1,78,2|2,1:2|0:0,0:0:0:0:
252,236,75656,2,0,L|248:320,1,78,2|2,1:2|0:0,0:0:0:0:
412,316,75993,2,0,L|416:236,1,78,2|2,1:2|0:0,0:0:0:0:
328,240,76330,1,2,1:2:0:0:
416,240,76499,1,2,0:0:0:0:
252,240,76667,6,0,P|204:192|260:140,1,156,2|0,1:2|1:2,0:0:0:0:
340,140,77173,1,2,0:0:0:0:
176,140,77341,1,2,1:2:0:0:
92,132,77510,1,2,0:0:0:0:
52,56,77678,1,2,1:2:0:0:
316,56,78015,6,0,P|392:72|424:156,1,156,2|2,1:2|1:2,0:0:0:0:
160,132,78690,2,0,P|84:148|52:232,1,156,2|2,1:2|1:2,0:0:0:0:
332,220,79364,6,0,P|376:176|328:112,1,156,2|0,1:2|1:2,0:0:0:0:
244,112,79869,1,2,0:0:0:0:
80,112,80038,2,0,L|76:204,1,78,2|2,1:2|0:0,0:0:0:0:
164,188,80375,1,2,1:2:0:0:
76,188,80544,1,2,0:0:0:0:
240,188,80712,6,0,L|244:268,1,78,2|2,1:2|0:0,0:0:0:0:
156,264,81049,2,0,L|152:352,1,78,2|2,1:2|0:0,0:0:0:0:
316,344,81386,2,0,P|400:332|440:276,1,156,2|0,1:2|1:2,0:0:0:0:
352,276,81892,1,2,0:0:0:0:
120,276,82060,6,0,L|116:196,1,78,2|2,1:2|0:0,0:0:0:0:
280,200,82397,2,0,L|456:200,1,156,2|2,1:2|1:2,0:0:0:0:
448,72,83072,1,2,1:2:0:0:
184,68,83409,6,0,P|136:112|204:176,1,156,2|2,1:2|1:2,0:0:0:0:
344,180,83914,1,8,0:0:0:0:
388,184,83999,1,8,0:0:0:0:
408,252,84083,1,2,1:2:0:0:
324,256,84251,1,8,0:3:0:0:
160,256,84420,2,0,L|156:348,1,78,2|0,1:2|0:0,0:0:0:0:
392,336,84757,6,0,L|396:252,1,78,6|2,1:2|1:2,0:0:0:0:
308,260,85094,1,2,0:0:0:0:
396,260,85263,1,0,1:2:0:0:
232,260,85431,2,0,L|152:260,2,78,10|0|0,0:0|1:2|1:2,0:0:0:0:
396,260,85937,6,0,P|440:212|384:156,1,156,2|2,1:2|1:2,0:0:0:0:
304,156,86442,1,2,1:2:0:0:
392,156,86611,1,2,0:0:0:0:
228,156,86779,1,8,0:0:0:0:
144,156,86948,2,0,P|100:208|172:264,1,156,2|2,1:2|0:0,0:0:0:0:
384,272,87454,6,0,P|428:224|376:164,1,156,6|2,1:2|0:0,0:0:0:0:
292,164,87959,1,0,1:2:0:0:
128,164,88128,1,10,0:0:0:0:
212,164,88296,1,0,1:2:0:0:
124,164,88465,1,0,1:2:0:0:
288,164,88633,2,0,L|292:248,1,78,10|0,0:0|1:2,0:0:0:0:
128,244,88970,5,10,0:0:0:0:
108,280,89055,1,10,0:0:0:0:
128,316,89139,1,8,0:0:0:0:
216,316,89308,1,0,1:2:0:0:
379,313,89476,1,10,0:0:0:0:
420,300,89560,1,10,0:0:0:0:
436,260,89645,1,8,0:0:0:0:
348,260,89813,1,0,1:2:0:0:
436,260,89982,1,10,0:0:0:0:
204,260,90138,6,0,L|44:260,2,156,6|2|2,1:2|1:2|1:2,0:0:0:0:
468,260,91149,2,0,L|392:240,1,78,2|8,1:2|0:0,0:0:0:0:
156,260,91486,6,0,P|96:244|64:160,1,156,2|2,1:2|1:2,0:0:0:0:
328,164,92160,2,0,L|332:248,1,78,2|8,1:2|0:0,0:0:0:0:
168,244,92497,2,0,L|164:324,1,78,2|8,1:2|0:0,0:0:0:0:
400,320,92834,6,0,P|448:260|400:216,1,156,2|8,1:2|1:2,0:0:0:0:
316,216,93340,1,2,0:0:0:0:
152,220,93508,2,0,P|80:208|52:136,1,156,2|0,1:2|1:2,0:0:0:0:
136,136,94014,1,10,0:0:0:0:
368,136,94182,6,0,P|412:88|360:32,1,156,2|8,1:2|0:0,0:0:0:0:
196,32,94688,1,8,0:3:0:0:
176,72,94772,1,8,0:3:0:0:
196,112,94857,1,0,1:3:0:0:
360,116,95025,1,8,0:3:0:0:
380,156,95109,1,8,0:3:0:0:
360,196,95194,1,0,1:3:0:0:
272,196,95362,1,2,1:2:0:0:
36,196,95531,6,0,L|216:196,2,156,6|10|2,1:2|1:2|1:2,0:0:0:0:
300,196,96542,2,0,L|308:116,1,78,2|8,1:2|0:0,0:0:0:0:
72,120,96879,6,0,P|28:76|96:24,1,156,2|2,1:2|1:2,0:0:0:0:
348,28,97553,2,0,L|264:28,1,78,2|8,1:2|0:0,0:0:0:0:
104,28,97890,2,0,L|184:28,1,78,2|8,1:2|0:0,0:0:0:0:
416,28,98227,6,0,P|472:80|404:132,1,156,2|0,1:2|1:2,0:0:0:0:
348,132,98733,1,2,0:0:0:0:
184,132,98902,2,0,L|356:132,1,156,2|0,1:2|1:2,0:0:0:0:
328,224,99407,1,10,0:0:0:0:
92,224,99576,6,0,P|48:264|112:328,1,156,2|0,1:2|1:2,0:0:0:0:
184,328,100081,1,8,0:3:0:0:
348,328,100250,2,0,L|352:248,1,78,2|8,1:2|0:3,0:0:0:0:
188,252,100587,2,0,L|184:172,1,78,2|10,1:2|0:0,0:0:0:0:
420,176,100924,6,0,P|468:124|412:80,1,156,6|10,1:2|1:2,0:0:0:0:
252,80,101430,2,0,P|204:120|256:176,1,156,2|2,0:0|0:0,0:0:0:0:
420,176,101935,2,0,L|428:256,1,78,2|8,1:2|0:0,0:0:0:0:
192,252,102272,6,0,P|124:236|100:160,1,156,4|0,1:2|1:2,0:0:0:0:
188,164,102778,1,2,0:0:0:0:
352,164,102946,2,0,L|356:84,1,78,2|10,1:2|0:0,0:0:0:0:
268,88,103284,1,2,1:2:0:0:
356,88,103452,1,10,0:0:0:0:
124,88,103621,6,0,P|80:136|140:196,1,156,6|10,1:2|1:2,0:0:0:0:
292,196,104126,2,0,P|336:244|276:304,1,156,2|2,0:0|0:0,0:0:0:0:
124,304,104632,2,0,L|120:224,1,78,2|8,1:2|0:0,0:0:0:0:
356,228,104969,6,0,P|424:212|460:136,1,156,4|0,1:2|1:2,0:0:0:0:
296,140,105475,1,8,0:3:0:0:
252,152,105559,1,8,0:3:0:0:
228,188,105643,1,0,1:2:0:0:
392,192,105812,1,8,0:3:0:0:
412,228,105896,1,8,0:3:0:0:
388,264,105980,1,2,1:2:0:0:
300,264,106149,1,8,0:3:0:0:
68,268,106317,6,0,P|32:232|96:160,1,156,6|10,1:2|1:2,0:0:0:0:
248,160,106823,2,0,L|424:160,1,156,2|2,0:0|0:0,0:0:0:0:
240,160,107329,2,0,L|128:160,1,78,2|10,1:2|0:0,0:0:0:0:
396,160,107666,6,0,P|436:108|384:48,1,156,2|2,1:2|1:2,0:0:0:0:
220,48,108171,2,0,L|56:48,1,156,2|10,0:0|0:0,0:0:0:0:
228,48,108677,2,0,L|332:48,1,78,2|10,1:2|0:0,0:0:0:0:
72,48,109014,6,0,P|28:100|96:152,1,156,0|0,1:2|1:2,0:0:0:0:
164,152,109520,2,0,L|328:152,1,156,2|0,0:0|0:0,0:0:0:0:
232,152,110025,1,0,1:2:0:0:
80,148,110194,1,8,0:0:0:0:
232,152,110362,5,0,1:2:0:0:
320,152,110531,1,8,0:3:0:0:
340,116,110615,1,8,0:3:0:0:
316,80,110699,1,0,1:2:0:0:
224,152,110868,5,8,0:3:0:0:
208,192,110952,1,8,0:3:0:0:
224,232,111036,1,0,1:2:0:0:
312,232,111205,1,8,0:3:0:0:
348,252,111289,1,8,0:3:0:0:
360,292,111373,1,0,1:2:0:0:
272,292,111542,1,8,0:0:0:0:
40,292,111711,5,6,1:2:0:0:
128,292,111879,1,2,0:0:0:0:
40,292,112048,1,10,1:2:0:0:
204,292,112216,2,0,P|284:288|312:224,1,156,2|2,1:2|1:2,0:0:0:0:
148,224,112722,2,0,L|144:144,1,78,2|8,1:2|0:0,0:0:0:0:
380,144,113059,5,2,1:2:0:0:
296,144,113227,1,2,0:0:0:0:
384,144,113396,1,10,1:2:0:0:
220,144,113593,2,0,P|176:180|224:248,1,156,2|2,1:2|0:0,0:0:0:0:
308,248,114098,1,2,0:0:0:0:
52,272,114407,6,0,P|60:224|152:192,1,156,14|10,1:2|0:0,0:0:0:0:
236,192,114912,1,2,1:2:0:0:
404,192,115081,2,0,L|408:272,1,78,10|2,0:0|1:2,0:0:0:0:
320,268,115418,1,10,0:0:0:0:
408,268,115586,1,2,1:2:0:0:
244,268,115755,6,0,L|240:188,1,78,10|2,0:0|1:2,0:0:0:0:
328,188,116092,2,0,L|412:188,1,78,10|2,0:0|1:2,0:0:0:0:
320,188,116429,1,10,0:0:0:0:
168,188,116598,1,0,3:2:0:0:
320,188,116766,2,0,L|324:108,1,78,10|2,3:2|1:2,0:0:0:0:
88,108,117103,6,0,P|40:152|100:212,1,156,10|10,0:0|0:0,0:0:0:0:
172,212,117609,1,2,1:2:0:0:
336,212,117777,2,0,L|340:296,1,78,10|2,0:0|1:2,0:0:0:0:
252,292,118114,1,10,0:0:0:0:
336,292,118283,1,2,1:2:0:0:
172,292,118451,6,0,L|92:292,1,78,10|2,0:0|1:2,0:0:0:0:
184,248,118789,1,10,0:0:0:0:
96,248,118957,1,2,1:2:0:0:
264,248,119126,2,0,P|304:196|256:132,1,156,10|10,0:0|0:0,0:0:0:0:
200,132,119575,1,8,0:0:0:0:
144,132,119687,1,8,0:0:0:0:
264,132,119800,6,0,P|328:128|344:48,1,156,2|10,1:2|0:0,0:0:0:0:
260,132,120305,1,2,1:2:0:0:
96,132,120474,2,0,L|92:212,1,78,8|2,0:0|1:2,0:0:0:0:
180,208,120811,1,8,0:0:0:0:
92,208,120980,1,2,1:2:0:0:
252,208,121148,6,0,L|256:288,1,78,10|2,0:0|1:2,0:0:0:0:
168,288,121485,2,0,L|80:288,1,78,8|2,0:0|1:2,0:0:0:0:
176,288,121822,1,8,0:0:0:0:
328,288,121991,1,0,3:2:0:0:
176,288,122159,2,0,L|172:208,1,78,10|2,3:2|1:2,0:0:0:0:
404,288,122496,6,0,P|448:224|400:176,1,156,10|10,0:0|0:0,0:0:0:0:
316,176,123002,1,2,1:2:0:0:
152,176,123171,2,0,L|148:96,1,78,10|2,0:0|1:2,0:0:0:0:
236,100,123508,1,10,0:0:0:0:
148,100,123676,1,2,1:2:0:0:
312,100,123845,6,0,L|316:20,1,78,2|8,1:2|0:3,0:0:0:0:
80,24,124182,1,10,1:2:0:0:
48,52,124266,1,8,1:2:0:0:
40,92,124350,1,8,0:0:0:0:
64,128,124435,1,8,0:0:0:0:
104,140,124519,1,2,1:2:0:0:
192,140,124687,1,8,0:0:0:0:
108,140,124856,1,2,1:2:0:0:
360,140,125024,5,6,1:2:0:0:
