osu file format v14

[General]
AudioFilename: audio.mp3
AudioLeadIn: 0
PreviewTime: 90066
Countdown: 0
SampleSet: Soft
StackLeniency: 0.7
Mode: 2
LetterboxInBreaks: 0
WidescreenStoryboard: 1

[Editor]
DistanceSpacing: 1.2
BeatDivisor: 4
GridSize: 32
TimelineZoom: 2.2

[Metadata]
Title:Yume Tourou
TitleUnicode:夢灯籠
Artist:RADWIMPS
ArtistUnicode:RADWIMPS
Creator:rew0825
Version:Joakh's Salad
Source:君の名は。
Tags:-Hex- -Joakh Greaper male vocal your name kimi no na wa op opening theme movie anime japanese rock j-rock
BeatmapID:2773175
BeatmapSetID:558284

[Difficulty]
HPDrainRate:3
CircleSize:3
OverallDifficulty:7
ApproachRate:7
SliderMultiplier:1.5
SliderTickRate:1

[Events]
//Background and Video events
0,0,"BG.jpg",0,0
//Break Periods
//Storyboard Layer 0 (Background)
//Storyboard Layer 1 (Fail)
//Storyboard Layer 2 (Pass)
//Storyboard Layer 3 (Foreground)
//Storyboard Layer 4 (Overlay)
//Storyboard Sound Samples

[TimingPoints]
773,348.837209302326,4,2,2,20,1,0
773,-100,4,2,2,20,0,0
23796,-100,4,2,2,10,0,0
24493,-111.111111111111,4,2,2,50,0,0
30075,-100,4,2,2,50,0,0
41238,-100,4,2,2,55,0,0
52052,-100,4,2,1,65,0,0
52400,337.078651685393,4,2,1,80,1,0
62512,-100,4,2,1,70,0,0
63171,337.078651685393,4,2,1,60,1,0
73971,337.078651685393,4,2,1,65,1,0
84759,-100,4,2,1,70,0,0
90138,337.078651685393,4,2,1,75,1,1
113593,337.078651685393,4,2,1,60,1,0
114407,337.078651685393,4,2,1,80,1,0

[Colours]
Combo1 : 214,131,235
Combo2 : 88,105,188
Combo3 : 148,211,245

[HitObjects]
256,192,18912,12,0,23796,0:0:0:0:
182,283,24493,6,0,P|114:224|181:164,1,202.499993820191,2|2,0:0|0:0,0:0:0:0:
267,153,25191,2,0,L|404:143,1,134.999995880127,2|2,0:0|0:0,0:0:0:0:
340,143,25714,1,2,0:0:0:0:
272,144,25889,5,2,0:0:0:0:
127,127,26238,1,2,0:0:0:0:
263,220,26586,2,0,L|403:191,1,134.999995880127,2|2,0:0|0:0,0:0:0:0:
316,220,27110,1,2,0:0:0:0:
234,225,27284,6,0,P|143:204|145:111,1,202.499993820191,2|2,0:0|0:0,0:0:0:0:
300,114,28331,2,0,L|151:95,1,134.999995880127,2|2,0:0|0:0,0:0:0:0:
252,190,29028,6,0,L|254:106,1,67.4999979400635,0|2,0:0|0:0,0:0:0:0:
165,127,29377,2,0,L|163:213,1,67.4999979400635,0|2,0:0|0:0,0:0:0:0:
329,305,29900,1,2,0:0:0:0:
241,306,30075,6,0,P|174:230|254:168,1,225,2|2,0:0|0:0,0:0:0:0:
351,178,30773,2,0,P|370:280|274:320,1,225,2|2,0:0|0:0,0:0:0:0:
183,316,31470,1,2,0:0:0:0:
332,321,31819,6,0,L|406:318,2,75,2|2|2,0:0|0:0|0:0,0:0:0:0:
166,337,32517,2,0,P|141:310|147:268,1,75,2|2,0:0|0:0,0:0:0:0:
230,222,32866,2,0,P|300:228|304:300,1,150,2|0,0:0|0:0,0:0:0:0:
143,119,33563,6,0,L|44:102,2,100,2|2|2,0:0|0:0|0:0,0:0:0:0:
252,126,34261,2,0,P|351:216|252:305,1,300,2|0,0:0|0:0,0:0:0:0:
50,261,35482,5,2,0:0:0:0:
139,262,35656,2,0,L|291:263,1,150,2|0,0:0|0:0,0:0:0:0:
207,182,36179,1,2,0:0:0:0:
125,169,36354,2,0,P|133:97|199:70,1,150,2|0,0:0|0:0,0:0:0:0:
353,60,37052,6,0,P|390:154|297:194,1,225,2|2,0:0|0:0,0:0:0:0:
217,192,37749,2,0,P|213:229|215:266,1,75,2|2,0:0|0:0,0:0:0:0:
304,264,38098,2,0,P|314:300|304:336,1,75,2|2,0:0|0:0,0:0:0:0:
214,339,38447,6,0,P|144:329|135:260,1,150,2|0,0:0|0:0,0:0:0:0:
226,235,38970,2,0,P|301:170|224:108,1,225,2|2,0:0|0:0,0:0:0:0:
107,133,39842,5,2,0:0:0:0:
258,129,40191,2,0,L|332:129,1,75,0|0,1:0|1:0,0:0:0:0:
245,178,40540,1,2,0:0:0:0:
182,210,40714,1,2,0:0:0:0:
189,280,40889,1,2,0:0:0:0:
257,298,41063,1,2,0:0:0:0:
346,297,41238,6,0,P|413:277|410:207,1,150,0|10,1:2|0:0,0:0:0:0:
230,204,41935,1,2,0:0:0:0:
303,205,42110,2,0,P|307:135|241:111,1,150,2|2,0:0|0:0,0:0:0:0:
151,117,42633,2,0,P|84:140|84:210,1,150,2|8,0:0|0:0,0:0:0:0:
249,318,43331,6,0,P|294:266|249:213,1,150,2|10,0:0|0:0,0:0:0:0:
166,217,43854,1,2,0:0:0:0:
249,213,44028,1,0,1:0:0:0:
411,133,44377,6,0,L|410:212,1,75,10|2,0:0|1:2,0:0:0:0:
320,211,44726,2,0,P|246:200|180:164,1,150,2|10,0:0|0:0,0:0:0:0:
278,151,45249,2,0,P|377:128|349:28,1,225,2|8,0:0|0:0,0:0:0:0:
188,60,46121,6,0,L|113:50,2,75,2|10|2,0:0|0:0|0:0,0:0:0:0:
277,75,46645,2,0,P|346:99|369:168,1,150,10|2,0:0|0:0,0:0:0:0:
280,186,47168,6,0,P|211:206|200:277,1,150,10|2,0:0|0:0,0:0:0:0:
289,274,47691,1,2,0:0:0:0:
428,260,48040,1,2,0:0:0:0:
338,258,48214,6,0,L|188:258,1,150,2|8,0:0|0:0,0:0:0:0:
342,198,48912,2,0,L|429:195,2,75,2|2|10,0:0|0:0|0:0,0:0:0:0:
251,201,49435,2,0,P|185:175|191:105,1,150,2|0,0:0|0:0,0:0:0:0:
281,98,49959,1,8,0:0:0:0:
145,193,50307,6,0,P|131:261|194:291,1,150,2|10,0:0|0:0,0:0:0:0:
284,284,50831,2,0,P|359:220|282:158,1,225,2|8,0:0|0:0,0:0:0:0:
192,158,51528,1,0,1:0:0:0:
318,309,51877,1,2,0:0:0:0:
400,310,52052,2,0,L|397:213,1,75,2|8,1:2|0:0,0:0:0:0:
210,230,52400,6,0,P|166:179|217:135,1,150,14|10,1:2|0:0,0:0:0:0:
367,131,53074,1,10,0:0:0:0:
214,126,53411,2,0,L|140:126,1,75,10|2,0:0|1:2,0:0:0:0:
224,197,53748,6,0,L|299:195,2,75,10|2|10,0:0|1:2|0:0,0:0:0:0:
44,193,54422,2,0,L|45:274,1,75,10|0,0:0|3:2,0:0:0:0:
135,267,54759,1,10,3:2:0:0:
433,268,55096,6,0,P|469:206|428:148,1,150,10|10,0:0|0:0,0:0:0:0:
252,168,55770,2,0,L|252:268,1,75,10|2,0:0|1:2,0:0:0:0:
341,242,56107,2,0,L|342:332,1,75,10|2,0:0|1:2,0:0:0:0:
161,302,56444,6,0,P|118:248|162:194,1,150,10|10,0:0|0:0,0:0:0:0:
315,175,57119,1,10,0:0:0:0:
148,207,57456,2,0,L|148:124,1,75,10|8,0:0|0:0,0:0:0:0:
329,119,57793,6,0,P|375:170|334:226,1,150,2|10,1:2|0:0,0:0:0:0:
168,93,58467,1,8,0:0:0:0:
334,65,58804,2,0,L|333:139,1,75,8|2,0:0|1:2,0:0:0:0:
236,143,59141,6,0,L|140:142,2,75,10|2|8,0:0|1:2|0:0,0:0:0:0:
415,143,59815,2,0,L|441:73,1,75,8|0,0:0|3:2,0:0:0:0:
351,67,60152,1,10,3:2:0:0:
48,254,60489,6,0,P|78:188|149:176,1,150,10|10,0:0|0:0,0:0:0:0:
292,325,61164,2,0,L|292:227,1,75,10|2,0:0|1:2,0:0:0:0:
195,249,61501,2,0,L|195:323,1,75,10|2,0:0|1:2,0:0:0:0:
278,250,61838,6,0,L|352:248,2,75,10|2|10,0:0|1:2|0:0,0:0:0:0:
113,247,62512,1,2,1:2:0:0:
39,233,62680,1,8,0:0:0:0:
55,151,62849,1,10,1:2:0:0:
136,141,63017,1,8,0:0:0:0:
301,213,63171,6,0,P|347:165|299:117,1,150,2|0,1:2|1:2,0:0:0:0:
216,117,63676,1,2,0:0:0:0:
125,119,63845,2,0,P|82:172|133:217,1,150,2|2,1:2|1:2,0:0:0:0:
316,310,64519,6,0,B|166:306,2,150,2|2|2,1:2|1:2|1:2,0:0:0:0:
158,206,65530,2,0,P|145:172|167:143,1,75,2|2,1:2|0:0,0:0:0:0:
348,139,65867,6,0,P|412:171|419:243,1,150,2|0,1:2|1:2,0:0:0:0:
330,240,66373,1,2,0:0:0:0:
240,244,66541,2,0,P|194:195|243:148,1,150,2|2,1:2|1:2,0:0:0:0:
424,277,67215,6,0,P|439:204|418:133,1,150,2|2,1:2|1:2,0:0:0:0:
258,202,67890,1,2,1:2:0:0:
92,198,68227,2,0,L|100:105,1,75,2|2,1:2|0:0,0:0:0:0:
279,86,68564,6,0,P|351:83|399:151,1,150,2|0,1:2|1:2,0:0:0:0:
308,154,69069,1,2,0:0:0:0:
218,158,69238,2,0,P|145:171|95:225,1,150,2|2,1:2|1:2,0:0:0:0:
276,329,69912,6,0,P|320:277|273:227,1,150,2|2,1:2|1:2,0:0:0:0:
123,216,70586,1,2,1:2:0:0:
271,195,70923,1,0,1:2:0:0:
269,120,71092,1,2,0:0:0:0:
89,109,71260,6,0,P|90:178|157:197,1,150,2|2,1:2|1:2,0:0:0:0:
291,176,71935,2,0,P|325:112|287:52,1,150,2|2,1:2|1:2,0:0:0:0:
137,47,72609,6,0,P|94:103|138:157,1,150,2|2,1:2|1:2,0:0:0:0:
286,162,73283,1,2,1:2:0:0:
106,154,73620,1,2,1:2:0:0:
400,131,73971,6,0,P|439:186|387:231,1,150,6|0,1:2|1:2,0:0:0:0:
298,230,74476,1,2,0:0:0:0:
207,232,74645,2,0,P|176:165|202:98,1,150,2|2,1:2|1:2,0:0:0:0:
356,78,75319,6,0,L|356:152,1,75,2|2,1:2|0:0,0:0:0:0:
274,155,75656,1,2,1:2:0:0:
106,177,75993,2,0,L|45:133,2,75,2|2|2,1:2|0:0|1:2,0:0:0:0:
372,291,76667,6,0,P|364:220|297:194,1,150,2|0,1:2|1:2,0:0:0:0:
207,194,77173,1,2,0:0:0:0:
139,168,77341,1,2,1:2:0:0:
141,100,77510,1,2,0:0:0:0:
208,54,77678,1,2,1:2:0:0:
373,257,78015,6,0,P|419:206|369:159,1,150,2|2,1:2|1:2,0:0:0:0:
220,173,78690,1,2,1:2:0:0:
400,161,79027,1,2,1:2:0:0:
113,231,79364,6,0,P|63:185|111:138,1,150,2|0,1:2|1:2,0:0:0:0:
200,139,79869,1,2,0:0:0:0:
289,136,80038,2,0,P|359:153|380:221,1,150,2|2,1:2|1:2,0:0:0:0:
202,263,80712,5,2,1:2:0:0:
134,256,80881,1,2,0:0:0:0:
139,184,81049,1,2,1:2:0:0:
209,168,81218,1,2,0:0:0:0:
388,159,81386,2,0,P|435:205|385:250,1,150,2|0,1:2|1:2,0:0:0:0:
205,236,82060,6,0,P|157:189|207:145,1,150,2|2,1:2|1:2,0:0:0:0:
386,127,82735,2,0,L|386:293,1,150,2|2,1:2|1:2,0:0:0:0:
194,314,83409,6,0,L|360:303,1,150,2|2,1:2|1:2,0:0:0:0:
216,223,84083,2,0,L|214:132,1,75,2|8,1:2|0:3,0:0:0:0:
307,152,84420,2,0,L|306:66,1,75,2|0,1:2|0:0,0:0:0:0:
126,94,84757,6,0,P|129:165|197:184,1,150,6|2,1:2|0:0,0:0:0:0:
370,227,85431,1,10,0:0:0:0:
204,196,85768,2,0,L|144:248,2,75,0|2|0,1:2|1:2|0:0,0:0:0:0:
376,170,86442,5,2,1:2:0:0:
226,170,86779,1,8,0:0:0:0:
158,167,86948,1,2,1:2:0:0:
90,164,87117,1,0,0:0:0:0:
375,133,87454,6,0,L|456:124,2,75,6|2|2,1:2|1:2|0:0,0:0:0:0:
190,176,88128,1,10,0:0:0:0:
363,145,88465,1,0,1:2:0:0:
184,120,88802,5,0,1:2:0:0:
273,117,88970,2,0,P|316:170|265:214,1,150,10|0,0:0|1:2,0:0:0:0:
175,219,89476,2,0,L|105:247,2,75,10|8|0,0:0|0:0|1:2,0:0:0:0:
475,115,90138,5,6,1:2:0:0:
320,93,90475,1,2,1:2:0:0:
471,331,90812,2,0,L|321:333,1,150,2|2,1:2|1:2,0:0:0:0:
230,332,91317,1,8,0:0:0:0:
410,241,91486,6,0,P|450:184|405:131,1,150,2|2,1:2|1:2,0:0:0:0:
226,150,92160,2,0,L|151:150,1,75,2|8,1:2|0:0,0:0:0:0:
236,216,92497,2,0,L|327:214,1,75,2|8,1:2|0:0,0:0:0:0:
129,258,92834,6,0,P|79:214|127:168,1,150,2|8,1:2|1:2,0:0:0:0:
218,164,93340,1,2,0:0:0:0:
307,163,93508,2,0,P|381:231|308:300,1,225,2|10,1:2|0:0,0:0:0:0:
218,299,94182,6,0,P|152:275|159:206,1,150,2|8,1:2|0:0,0:0:0:0:
343,223,94857,1,0,1:3:0:0:
418,212,95025,1,8,0:3:0:0:
401,139,95194,1,0,1:3:0:0:
333,130,95362,1,2,1:2:0:0:
153,124,95531,5,6,1:2:0:0:
302,121,95868,1,10,1:2:0:0:
152,137,96205,2,0,P|103:182|153:225,1,150,2|2,1:2|1:2,0:0:0:0:
243,224,96711,1,8,0:0:0:0:
424,215,96879,6,0,P|448:145|427:74,1,150,2|2,1:2|1:2,0:0:0:0:
247,77,97553,2,0,L|172:75,1,75,2|8,1:2|0:0,0:0:0:0:
259,152,97890,2,0,L|336:150,1,75,2|8,1:2|0:0,0:0:0:0:
152,183,98227,6,0,P|149:253|215:274,1,150,2|0,1:2|1:2,0:0:0:0:
402,241,98902,2,0,P|452:197|403:151,1,150,2|0,1:2|1:2,0:0:0:0:
306,148,99407,1,10,0:0:0:0:
214,182,99576,6,0,P|166:233|208:288,1,150,2|0,1:2|1:2,0:0:0:0:
296,284,100081,1,8,0:3:0:0:
386,284,100250,2,0,L|387:202,1,75,2|8,1:2|0:3,0:0:0:0:
301,180,100587,2,0,L|221:181,1,75,2|10,1:2|0:0,0:0:0:0:
45,205,100924,6,0,P|48:276|115:298,1,150,6|10,1:2|1:2,0:0:0:0:
201,287,101430,2,0,P|268:263|277:192,1,150,2|2,0:0|0:0,0:0:0:0:
179,190,101935,2,0,L|182:97,1,75,2|8,1:2|0:0,0:0:0:0:
363,144,102272,6,0,P|412:190|364:237,1,150,4|0,1:2|1:2,0:0:0:0:
224,244,102946,2,0,L|221:133,1,75,2|10,1:2|0:0,0:0:0:0:
312,163,103284,2,0,L|313:88,1,75,2|10,1:2|0:0,0:0:0:0:
132,213,103621,6,0,P|88:166|143:127,1,150,6|10,1:2|1:2,0:0:0:0:
230,133,104126,2,0,P|281:174|225:223,1,150,2|2,0:0|0:0,0:0:0:0:
137,238,104632,2,0,L|216:226,1,75,2|8,1:2|0:0,0:0:0:0:
392,171,104969,6,0,P|438:222|387:267,1,150,4|0,1:2|1:2,0:0:0:0:
220,242,105643,1,0,1:2:0:0:
339,238,105980,2,0,L|336:144,1,75,2|8,1:2|0:3,0:0:0:0:
155,156,106317,6,0,P|175:87|246:75,1,150,6|10,1:2|1:2,0:0:0:0:
332,91,106823,2,0,P|372:148|323:197,1,150,2|2,0:0|0:0,0:0:0:0:
226,195,107329,1,2,1:2:0:0:
76,231,107666,6,0,P|128:180|210:186,1,150,2|2,1:2|1:2,0:0:0:0:
291,180,108171,2,0,P|293:252|230:285,1,150,2|10,0:0|0:0,0:0:0:0:
133,289,108677,1,2,1:2:0:0:
430,301,109014,6,0,P|476:249|430:197,1,150,0|0,1:2|1:2,0:0:0:0:
332,188,109520,2,0,P|268:156|267:85,1,150,2|0,0:0|0:0,0:0:0:0:
365,80,110025,1,0,1:2:0:0:
219,73,110362,6,0,L|224:165,1,75,0|8,1:2|0:3,0:0:0:0:
317,142,110699,2,0,L|320:222,1,75,0|8,1:2|0:3,0:0:0:0:
223,343,111036,1,0,1:2:0:0:
144,317,111205,1,8,0:3:0:0:
156,235,111373,1,0,1:2:0:0:
235,211,111542,1,8,0:0:0:0:
415,198,111711,6,0,P|457:143|406:99,1,150,6|10,1:2|1:2,0:0:0:0:
320,99,112216,2,0,P|258:139|252:211,1,150,2|2,1:2|1:2,0:0:0:0:
350,209,112722,1,2,1:2:0:0:
179,254,113059,5,2,1:2:0:0:
198,333,113227,1,2,0:0:0:0:
272,348,113396,1,10,1:2:0:0:
480,288,113593,1,2,1:2:0:0:
217,213,114407,6,0,P|148:233|139:303,1,150,14|10,1:2|0:0,0:0:0:0:
318,296,115081,1,10,0:0:0:0:
137,253,115418,2,0,L|138:166,1,75,10|2,0:0|1:2,0:0:0:0:
227,183,115755,6,0,L|329:186,2,75,10|2|10,0:0|1:2|0:0,0:0:0:0:
47,178,116429,2,0,L|32:254,1,75,10|0,0:0|3:2,0:0:0:0:
123,251,116766,1,10,3:2:0:0:
422,130,117103,6,0,P|361:90|287:82,1,150,10|10,0:0|0:0,0:0:0:0:
111,96,117777,1,10,0:0:0:0:
90,165,117946,1,2,1:2:0:0:
133,223,118114,1,10,0:0:0:0:
205,225,118283,1,2,1:2:0:0:
386,218,118451,6,0,P|434:170|385:125,1,150,10|10,0:0|0:0,0:0:0:0:
232,149,119126,1,10,0:0:0:0:
397,260,119463,2,0,L|397:173,1,75,10|8,0:0|0:0,0:0:0:0:
216,168,119800,6,0,P|168:121|217:75,1,150,2|10,1:2|0:0,0:0:0:0:
370,76,120474,1,8,0:0:0:0:
220,88,120811,2,0,L|145:88,1,75,8|2,0:0|1:2,0:0:0:0:
226,150,121148,6,0,L|313:148,2,75,10|2|8,0:0|1:2|0:0,0:0:0:0:
62,132,121822,2,0,L|37:203,1,75,8|0,0:0|3:2,0:0:0:0:
128,202,122159,1,10,3:2:0:0:
432,207,122496,6,0,P|449:138|389:102,1,150,10|10,0:0|0:0,0:0:0:0:
216,129,123171,2,0,L|128:130,1,75,10|2,0:0|1:2,0:0:0:0:
225,185,123508,2,0,L|323:184,1,75,10|2,0:0|1:2,0:0:0:0:
214,268,123845,6,0,L|120:268,2,75,2|8|10,1:2|0:3|1:2,0:0:0:0:
389,251,124519,1,2,1:2:0:0:
333,179,124687,1,8,0:0:0:0:
245,161,124856,1,2,1:2:0:0:
61,161,125024,5,6,1:2:0:0:
