osu file format v14

[General]
AudioFilename: audio.mp3
AudioLeadIn: 0
PreviewTime: 90066
Countdown: 0
SampleSet: Soft
StackLeniency: 0.7
Mode: 2
LetterboxInBreaks: 0
WidescreenStoryboard: 1

[Editor]
DistanceSpacing: 1.4
BeatDivisor: 4
GridSize: 16
TimelineZoom: 1.8

[Metadata]
Title:Yume Tourou
TitleUnicode:夢灯籠
Artist:RADWIMPS
ArtistUnicode:RADWIMPS
Creator:rew0825
Version:Greaper's Rain
Source:君の名は。
Tags:-Hex- -Joakh Greaper male vocal your name kimi no na wa op opening theme movie anime japanese rock j-rock
BeatmapID:2816406
BeatmapSetID:558284

[Difficulty]
HPDrainRate:5
CircleSize:4
OverallDifficulty:9
ApproachRate:9
SliderMultiplier:1.95
SliderTickRate:2

[Events]
//Background and Video events
0,0,"BG.jpg",0,0
//Break Periods
//Storyboard Layer 0 (Background)
//Storyboard Layer 1 (Fail)
//Storyboard Layer 2 (Pass)
//Storyboard Layer 3 (Foreground)
//Storyboard Layer 4 (Overlay)
//Storyboard Sound Samples

[TimingPoints]
773,348.837209302326,4,2,2,20,1,0
23796,-100,4,2,2,10,0,0
24493,-100,4,2,2,50,0,0
41238,-100,4,2,2,55,0,0
52052,-100,4,2,1,65,0,0
52400,337.078651685393,4,2,1,80,1,0
62512,-100,4,2,1,70,0,0
63171,337.078651685393,4,2,1,60,1,0
73971,337.078651685393,4,2,1,65,1,0
84757,-100,4,2,1,70,0,0
90138,337.078651685393,4,2,1,75,1,1
90138,-90.9090909090909,4,2,1,75,0,1
113593,337.078651685393,4,2,1,60,1,0
114407,337.078651685393,4,2,1,80,1,0

[Colours]
Combo1 : 214,131,235
Combo2 : 88,105,188
Combo3 : 148,211,245

[HitObjects]
256,192,18912,12,0,23796,0:0:0:0:
345,268,24493,6,0,P|344:213|227:134,1,195,2|0,0:0|0:0,0:0:0:0:
146,124,25017,1,2,0:0:0:0:
301,110,25191,2,0,L|506:119,1,195,2|2,0:0|0:0,0:0:0:0:
399,63,25714,1,2,0:0:0:0:
242,67,25889,6,0,P|194:104|263:185,1,195,2|2,0:0|0:0,0:0:0:0:
360,180,26412,1,0,0:0:0:0:
198,207,26586,2,0,P|119:260|178:347,1,195,2|2,0:0|0:0,0:0:0:0:
248,341,27110,1,2,0:0:0:0:
406,327,27284,6,0,P|456:293|396:192,1,195,2|0,0:0|0:0,0:0:0:0:
252,190,27807,2,0,P|248:132|443:36,1,292.5,2|2,0:0|0:0,0:0:0:0:
160,33,28679,6,0,P|96:60|168:132,1,195,2|0,0:0|0:0,0:0:0:0:
257,139,29203,1,2,0:0:0:0:
115,187,29377,2,0,L|12:190,2,97.5,0|2|2,0:0|0:0|0:0,0:0:0:0:
221,186,29900,1,2,0:0:0:0:
378,188,30075,6,0,P|376:127|262:67,1,195,2|0,0:0|0:0,0:0:0:0:
167,69,30598,1,2,0:0:0:0:
324,203,30773,2,0,P|392:261|314:330,1,195,2|0,0:0|0:0,0:0:0:0:
242,334,31296,1,2,0:0:0:0:
89,332,31470,6,0,P|40:294|100:186,1,195,2|2,0:0|0:0,0:0:0:0:
193,181,31993,1,2,0:0:0:0:
297,165,32168,2,0,L|91:147,1,195,2|2,0:0|0:0,0:0:0:0:
98,74,32691,1,2,0:0:0:0:
259,248,32866,6,0,P|257:195|141:124,1,195,2|0,0:0|0:0,0:0:0:0:
47,132,33389,1,0,0:0:0:0:
207,99,33563,1,2,0:0:0:0:
328,98,33796,1,2,0:0:0:0:
207,99,34028,1,2,0:0:0:0:
49,100,34261,6,0,L|46:216,1,97.5,2|0,0:0|0:0,0:0:0:0:
144,203,34610,1,0,0:0:0:0:
302,225,34784,2,0,L|427:230,2,97.5,2|0|0,0:0|0:0|0:0,0:0:0:0:
145,155,35307,2,0,L|138:56,1,97.5,2|2,0:0|0:0,0:0:0:0:
298,124,35656,6,0,L|501:146,1,195,2|0,0:0|0:0,0:0:0:0:
487,220,36179,1,2,0:0:0:0:
327,276,36354,2,0,P|274:255|337:153,1,195,2|0,0:0|0:0,0:0:0:0:
408,143,36877,1,2,0:0:0:0:
248,123,37052,6,0,P|180:179|255:239,1,195,2|0,0:0|0:0,0:0:0:0:
334,245,37575,1,2,0:0:0:0:
491,237,37749,2,0,L|495:132,1,97.5,2|2,0:0|0:0,0:0:0:0:
341,196,38098,2,0,L|337:91,1,97.5,2|2,0:0|0:0,0:0:0:0:
496,80,38447,6,0,L|283:64,1,195,2|0,0:0|0:0,0:0:0:0:
448,119,38970,2,0,P|494:181|363:303,1,292.5,2|2,0:0|0:0,0:0:0:0:
97,334,39842,6,0,L|324:350,1,195,2|0,0:0|1:0,0:0:0:0:
152,270,40366,1,0,1:0:0:0:
298,266,40540,2,0,L|321:164,1,97.5,2|2,0:0|0:0,0:0:0:0:
177,160,40889,1,2,0:0:0:0:
334,226,41063,6,0,P|332:136|237:89,1,195,2|0,0:0|0:0,0:0:0:0:
101,88,41586,2,0,L|98:188,1,97.5,10|0,0:0|1:0,0:0:0:0:
189,196,41935,1,2,0:0:0:0:
42,209,42110,2,0,L|269:231,1,195,2|2,0:0|0:0,0:0:0:0:
101,288,42633,6,0,P|42:261|107:175,1,195,2|8,0:0|0:0,0:0:0:0:
193,167,43156,1,0,0:0:0:0:
342,174,43331,2,0,L|349:61,1,97.5,2|0,0:0|0:0,0:0:0:0:
196,68,43679,1,10,0:0:0:0:
342,322,43854,6,0,L|104:295,1,195,2|2,0:0|0:0,0:0:0:0:
286,250,44377,2,0,L|291:145,1,97.5,10|2,0:0|1:2,0:0:0:0:
145,153,44726,2,0,L|373:135,1,195,2|10,0:0|0:0,0:0:0:0:
190,258,45249,6,0,P|142:226|202:120,1,195,2|0,0:0|0:0,0:0:0:0:
283,118,45773,1,8,0:0:0:0:
190,112,45947,1,0,0:0:0:0:
36,118,46121,2,0,L|27:16,1,97.5,2|10,0:0|0:0,0:0:0:0:
121,13,46470,1,2,0:0:0:0:
271,50,46645,6,0,P|331:82|269:166,1,195,10|2,0:0|0:0,0:0:0:0:
126,182,47168,2,0,L|118:293,1,97.5,10|2,0:0|1:2,0:0:0:0:
218,284,47517,1,2,0:0:0:0:
311,300,47691,2,0,L|102:332,1,195,2|2,0:0|0:0,0:0:0:0:
270,343,48214,6,0,L|481:324,1,195,2|8,0:0|0:0,0:0:0:0:
265,271,48912,2,0,L|260:170,1,97.5,2|2,0:0|0:0,0:0:0:0:
361,167,49261,1,10,0:0:0:0:
211,135,49435,6,0,L|205:34,1,97.5,2|0,0:0|1:0,0:0:0:0:
407,30,49959,2,0,L|410:132,1,97.5,8|0,0:0|1:0,0:0:0:0:
262,152,50307,2,0,L|47:166,1,195,2|10,0:0|0:0,0:0:0:0:
223,223,50831,6,0,P|305:205|212:93,1,292.5,2|8,0:0|0:0,0:0:0:0:
124,111,51528,2,0,L|117:226,1,97.5,0|8,1:0|0:0,0:0:0:0:
273,218,51877,1,2,0:0:0:0:
119,348,52052,1,2,1:2:0:0:
85,338,52110,1,0,0:0:0:0:
66,303,52168,1,0,1:0:0:0:
72,264,52226,1,8,0:0:0:0:
105,239,52284,1,8,0:0:0:0:
309,282,52400,6,0,L|432:273,1,97.5,14|0,1:2|1:2,0:0:0:0:
257,231,52737,2,0,L|252:115,1,97.5,10|2,0:0|1:2,0:0:0:0:
410,161,53074,2,0,L|412:58,1,97.5,10|2,0:0|1:2,0:0:0:0:
256,55,53411,2,0,L|146:49,1,97.5,10|2,0:0|1:2,0:0:0:0:
399,166,53748,6,0,L|505:175,1,97.5,10|2,0:0|1:2,0:0:0:0:
348,206,54085,2,0,L|344:308,1,97.5,10|2,0:0|1:2,0:0:0:0:
443,302,54422,1,10,0:0:0:0:
197,305,54591,1,0,3:2:0:0:
445,259,54759,2,0,L|448:154,1,97.5,10|2,3:2|1:2,0:0:0:0:
195,166,55096,6,0,P|145:142|217:47,1,195,10|10,0:0|0:0,0:0:0:0:
294,36,55602,1,2,1:2:0:0:
144,175,55770,2,0,L|137:276,1,97.5,10|2,0:0|1:2,0:0:0:0:
292,182,56107,2,0,L|390:188,1,97.5,10|2,0:0|1:2,0:0:0:0:
140,304,56444,6,0,L|22:301,1,97.5,10|2,0:0|1:2,0:0:0:0:
187,275,56782,2,0,L|194:173,1,97.5,10|2,0:0|1:2,0:0:0:0:
39,142,57119,2,0,L|41:42,1,97.5,10|0,0:0|0:0,0:0:0:0:
292,149,57456,1,10,0:0:0:0:
359,116,57568,1,8,0:0:0:0:
361,51,57680,1,8,0:0:0:0:
160,50,57793,6,0,L|151:152,1,97.5,2|0,1:2|1:2,0:0:0:0:
307,146,58130,2,0,L|310:252,1,97.5,10|2,0:0|1:2,0:0:0:0:
162,243,58467,2,0,L|267:251,1,97.5,8|2,0:0|1:2,0:0:0:0:
405,266,58804,2,0,L|305:255,1,97.5,8|2,0:0|1:2,0:0:0:0:
64,204,59141,6,0,L|62:96,1,97.5,10|2,0:0|1:2,0:0:0:0:
211,103,59478,2,0,L|87:95,2,97.5,8|2|8,0:0|1:2|0:0,0:0:0:0:
454,111,59984,1,0,3:2:0:0:
212,147,60152,2,0,L|85:164,1,97.5,10|2,3:2|1:2,0:0:0:0:
368,170,60489,6,0,P|428:234|359:293,1,195,10|10,0:0|0:0,0:0:0:0:
262,290,60995,1,2,1:2:0:0:
423,136,61164,2,0,L|428:28,1,97.5,10|2,0:0|1:2,0:0:0:0:
274,44,61501,2,0,L|157:35,1,97.5,10|2,0:0|1:2,0:0:0:0:
423,87,61838,6,0,L|430:202,1,97.5,10|2,0:0|1:2,0:0:0:0:
276,190,62175,2,0,L|400:195,1,97.5,10|2,0:0|1:2,0:0:0:0:
124,235,62512,1,2,1:2:0:0:
77,211,62596,1,8,0:0:0:0:
79,164,62680,1,8,0:0:0:0:
128,140,62765,1,8,0:0:0:0:
301,144,62849,1,10,1:2:0:0:
349,141,62933,1,8,0:0:0:0:
355,114,63017,1,8,0:0:0:0:
350,86,63102,1,8,0:0:0:0:
179,201,63171,6,0,P|131:189|65:58,1,195,2|0,1:2|1:2,0:0:0:0:
156,64,63676,1,2,0:0:0:0:
302,63,63845,2,0,L|89:60,1,195,2|2,1:2|1:2,0:0:0:0:
101,140,64350,1,2,0:0:0:0:
258,143,64519,6,0,L|267:249,1,97.5,2|0,1:2|0:0,0:0:0:0:
167,244,64856,2,0,L|392:261,1,195,2|2,1:2|1:2,0:0:0:0:
463,153,65362,1,0,0:0:0:0:
496,112,65446,1,0,0:0:0:0:
496,64,65530,1,2,1:2:0:0:
450,36,65614,1,0,0:0:0:0:
402,31,65699,1,2,0:0:0:0:
245,346,65867,6,0,P|174:308|170:203,1,195,2|0,1:2|1:2,0:0:0:0:
269,204,66373,1,2,0:0:0:0:
117,181,66541,2,0,L|104:58,1,97.5,2|2,1:2|0:0,0:0:0:0:
211,77,66878,2,0,L|320:72,1,97.5,2|2,1:2|0:0,0:0:0:0:
159,74,67215,6,0,P|99:149|168:208,1,195,2|2,1:2|1:2,0:0:0:0:
252,215,67721,1,0,0:0:0:0:
352,229,67890,2,0,L|238:246,1,97.5,2|0,1:2|0:0,0:0:0:0:
217,257,68142,1,0,0:0:0:0:
187,294,68227,1,2,1:2:0:0:
194,341,68311,1,0,0:0:0:0:
233,367,68395,1,2,0:0:0:0:
392,340,68564,6,0,L|401:226,1,97.5,2|0,1:2|0:0,0:0:0:0:
296,227,68901,1,0,1:2:0:0:
399,195,69069,1,2,0:0:0:0:
251,172,69238,2,0,L|51:152,1,195,2|2,1:2|1:2,0:0:0:0:
51,80,69744,1,2,0:0:0:0:
203,140,69912,6,0,L|206:29,1,97.5,2|0,1:2|0:0,0:0:0:0:
54,185,70249,2,0,L|49:299,1,97.5,2|0,1:2|0:0,0:0:0:0:
204,289,70586,1,2,1:2:0:0:
106,282,70755,1,0,0:0:0:0:
66,255,70839,1,0,0:0:0:0:
52,209,70923,1,0,1:2:0:0:
70,165,71008,1,0,0:0:0:0:
112,143,71092,1,2,0:0:0:0:
258,148,71260,6,0,L|374:143,1,97.5,2|2,1:2|0:0,0:0:0:0:
208,118,71597,2,0,L|202:13,1,97.5,2|2,1:2|0:0,0:0:0:0:
352,24,71935,2,0,L|457:22,1,97.5,2|0,1:2|0:0,0:0:0:0:
337,90,72272,1,2,1:2:0:0:
336,138,72356,1,0,0:0:0:0:
335,187,72440,1,2,0:0:0:0:
483,172,72609,6,0,L|488:275,1,97.5,2|0,1:2|0:0,0:0:0:0:
341,279,72946,1,2,1:2:0:0:
488,287,73114,1,2,0:0:0:0:
336,229,73283,2,0,L|221:244,1,97.5,2|0,1:2|0:0,0:0:0:0:
391,194,73620,2,0,L|395:88,1,97.5,2|0,1:2|0:0,0:0:0:0:
116,85,73971,6,0,P|64:120|126:220,1,195,6|0,1:2|1:2,0:0:0:0:
212,225,74476,1,2,0:0:0:0:
61,224,74645,2,0,L|51:105,1,97.5,2|2,1:2|0:0,0:0:0:0:
196,151,74982,2,0,L|305:143,1,97.5,2|2,1:2|0:0,0:0:0:0:
141,95,75319,6,0,L|31:100,1,97.5,2|2,1:2|0:0,0:0:0:0:
187,140,75656,2,0,L|192:243,1,97.5,2|2,1:2|0:0,0:0:0:0:
338,192,75993,2,0,L|343:295,1,97.5,2|2,1:2|0:0,0:0:0:0:
196,317,76330,1,2,1:2:0:0:
164,291,76414,1,0,0:0:0:0:
167,243,76499,1,2,0:0:0:0:
213,223,76583,1,0,0:0:0:0:
391,208,76667,6,0,P|439:194|379:92,1,195,2|0,1:2|1:2,0:0:0:0:
304,76,77173,1,2,0:0:0:0:
157,77,77341,2,0,L|151:179,1,97.5,2|2,1:2|0:0,0:0:0:0:
295,180,77678,2,0,L|300:284,1,97.5,2|0,1:2|0:0,0:0:0:0:
151,277,78015,6,0,L|362:291,1,195,2|2,1:2|1:2,0:0:0:0:
356,196,78521,1,0,0:0:0:0:
209,188,78690,2,0,L|206:74,1,97.5,2|0,1:2|0:0,0:0:0:0:
359,86,79027,1,2,1:2:0:0:
411,90,79111,1,0,0:0:0:0:
427,138,79195,1,0,0:0:0:0:
415,185,79279,1,0,0:0:0:0:
249,233,79364,6,0,L|37:263,1,195,2|0,1:2|1:2,0:0:0:0:
154,302,79869,1,2,0:0:0:0:
303,286,80038,2,0,L|308:185,1,97.5,2|2,1:2|0:0,0:0:0:0:
165,181,80375,2,0,L|154:77,1,97.5,2|2,1:2|0:0,0:0:0:0:
305,79,80712,6,0,L|423:64,1,97.5,2|2,1:2|0:0,0:0:0:0:
262,130,81049,2,0,L|151:142,1,97.5,2|2,1:2|0:0,0:0:0:0:
313,179,81386,2,0,L|422:189,1,97.5,2|0,1:2|0:0,0:0:0:0:
455,209,81639,1,0,0:0:0:0:
472,249,81723,1,0,1:2:0:0:
470,296,81808,1,0,0:0:0:0:
434,330,81892,1,2,0:0:0:0:
382,340,81976,1,0,0:0:0:0:
185,296,82060,6,0,L|81:295,1,97.5,2|2,1:2|0:0,0:0:0:0:
232,243,82397,1,2,1:2:0:0:
271,217,82482,1,0,0:0:0:0:
271,170,82566,1,0,0:0:0:0:
232,145,82650,1,0,0:0:0:0:
143,140,82735,2,0,L|133:29,1,97.5,2|0,1:2|0:0,0:0:0:0:
284,122,83072,1,2,1:2:0:0:
285,73,83156,1,0,0:0:0:0:
286,24,83240,1,0,0:0:0:0:
134,301,83409,5,2,1:2:0:0:
90,279,83493,1,0,0:0:0:0:
65,238,83577,1,2,0:0:0:0:
66,190,83662,1,0,0:0:0:0:
92,150,83746,1,2,1:2:0:0:
136,130,83830,1,0,0:0:0:0:
331,138,83914,2,0,L|338:197,1,48.75,8|8,0:0|0:0,0:0:0:0:
159,210,84083,2,0,L|152:320,1,97.5,2|8,1:2|0:3,0:0:0:0:
299,295,84420,1,2,1:2:0:0:
347,298,84504,1,0,0:0:0:0:
396,301,84588,1,0,0:0:0:0:
100,157,84757,5,6,1:2:0:0:
240,151,84926,2,0,L|247:260,1,97.5,2|2,1:2|0:0,0:0:0:0:
149,265,85263,1,0,1:2:0:0:
296,285,85431,2,0,L|413:291,1,97.5,10|0,0:0|1:2,0:0:0:0:
346,167,85684,1,0,1:2:0:0:
259,161,85768,2,0,L|161:149,1,97.5,0|2,1:2|1:2,0:0:0:0:
16,144,86105,6,0,L|25:42,1,97.5,0|2,0:0|1:2,0:0:0:0:
124,42,86442,2,0,L|229:40,1,97.5,2|2,1:2|0:0,0:0:0:0:
323,46,86779,1,8,0:0:0:0:
179,84,86948,2,0,L|73:92,2,97.5,2|0|2,1:2|0:0|0:0,0:0:0:0:
428,95,87454,5,6,1:2:0:0:
290,116,87622,2,0,L|282:218,1,97.5,2|2,1:2|0:0,0:0:0:0:
381,222,87959,1,0,1:2:0:0:
238,247,88128,2,0,L|134:256,1,97.5,10|0,0:0|1:2,0:0:0:0:
283,286,88465,2,0,L|387:273,1,97.5,0|10,1:2|0:0,0:0:0:0:
134,303,88802,5,0,1:2:0:0:
275,198,88970,2,0,L|279:139,1,48.75,10|10,0:0|0:0,0:0:0:0:
193,133,89139,2,0,L|194:75,1,48.75,8|8,0:0|0:0,0:0:0:0:
358,76,89308,2,0,L|478:67,1,97.5,0|10,1:2|0:0,0:0:0:0:
406,33,89560,1,10,0:0:0:0:
195,33,89645,2,0,L|138:32,1,48.75,8|8,0:0|0:0,0:0:0:0:
342,132,89813,2,0,L|353:235,1,97.5,0|10,1:2|0:0,0:0:0:0:
302,236,90066,1,10,0:0:0:0:
86,242,90138,6,0,L|83:121,1,107.25000327301,6|0,1:2|0:0,0:0:0:0:
246,130,90475,2,0,L|364:118,1,107.25000327301,2|0,1:2|0:0,0:0:0:0:
197,91,90812,2,0,L|321:82,1,107.25000327301,2|0,1:2|0:0,0:0:0:0:
140,64,91149,2,0,L|28:70,1,107.25000327301,2|8,1:2|0:0,0:0:0:0:
309,142,91486,6,0,L|315:256,1,107.25000327301,2|0,1:2|0:0,0:0:0:0:
152,250,91823,2,0,L|300:261,1,107.25000327301,2|0,1:2|0:0,0:0:0:0:
422,270,92160,2,0,L|427:150,1,107.25000327301,2|8,1:2|0:0,0:0:0:0:
276,150,92497,1,2,1:2:0:0:
422,149,92666,1,8,0:0:0:0:
155,118,92834,6,0,P|88:148|170:241,1,214.500006546021,2|8,1:2|1:2,0:0:0:0:
254,249,93340,1,2,0:0:0:0:
92,278,93508,2,0,L|353:299,1,214.500006546021,2|0,1:2|1:2,0:0:0:0:
137,331,94014,1,10,0:0:0:0:
409,292,94182,6,0,P|408:218|288:147,1,214.500006546021,2|8,1:2|0:0,0:0:0:0:
192,133,94688,2,0,L|187:78,1,53.6250016365052,8|8,0:3|0:3,0:0:0:0:
277,86,94857,2,0,L|392:76,1,107.25000327301,0|8,1:3|0:3,0:0:0:0:
224,66,95194,2,0,L|109:71,1,107.25000327301,0|2,1:3|1:2,0:0:0:0:
62,77,95446,1,0,1:0:0:0:
282,132,95531,6,0,L|293:249,1,107.25000327301,6|0,1:2|0:0,0:0:0:0:
130,184,95868,2,0,L|123:298,1,107.25000327301,10|0,1:2|0:0,0:0:0:0:
274,295,96205,2,0,L|392:302,1,107.25000327301,2|0,1:2|0:0,0:0:0:0:
225,325,96542,1,2,1:2:0:0:
382,337,96711,1,8,0:0:0:0:
104,309,96879,6,0,L|102:189,1,107.25000327301,2|0,1:2|0:0,0:0:0:0:
254,196,97216,2,0,L|263:70,1,107.25000327301,2|0,1:2|0:0,0:0:0:0:
107,83,97553,2,0,L|231:90,1,107.25000327301,2|8,1:2|0:0,0:0:0:0:
67,52,97890,2,0,L|187:59,1,107.25000327301,2|8,1:2|0:0,0:0:0:0:
443,61,98227,6,0,P|494:114|399:182,1,214.500006546021,2|0,1:2|1:2,0:0:0:0:
299,176,98733,1,2,0:0:0:0:
134,219,98902,2,0,L|376:248,1,214.500006546021,2|0,1:2|1:2,0:0:0:0:
187,279,99407,1,10,0:0:0:0:
461,292,99576,6,0,L|463:174,1,107.25000327301,2|8,1:2|0:3,0:0:0:0:
407,179,99829,1,8,0:3:0:0:
351,176,99913,1,0,1:2:0:0:
468,116,100081,1,8,0:3:0:0:
297,108,100250,2,0,L|180:96,1,107.25000327301,2|8,1:2|0:3,0:0:0:0:
354,95,100587,2,0,L|360:-16,1,107.25000327301,2|10,1:2|0:0,0:0:0:0:
81,40,100924,6,0,P|26:64|100:150,1,214.500006546021,6|10,1:2|1:2,0:0:0:0:
254,159,101430,2,0,L|39:189,1,214.500006546021,2|2,0:0|0:0,0:0:0:0:
193,227,101935,1,2,1:2:0:0:
48,248,102104,1,8,0:0:0:0:
312,274,102272,6,0,P|379:223|310:135,1,214.500006546021,4|0,1:2|1:2,0:0:0:0:
210,127,102778,1,2,0:0:0:0:
366,117,102946,2,0,L|373:0,1,107.25000327301,2|10,1:2|0:0,0:0:0:0:
222,16,103284,1,2,1:2:0:0:
369,13,103452,1,10,0:0:0:0:
101,24,103621,6,0,P|101:87|242:161,1,214.500006546021,6|10,1:2|1:2,0:0:0:0:
51,176,104126,2,0,L|40:291,1,107.25000327301,2|0,0:0|1:2,0:0:0:0:
147,302,104463,1,2,0:0:0:0:
302,311,104632,1,2,1:2:0:0:
147,302,104800,1,8,0:0:0:0:
414,255,104969,6,0,P|468:219|407:110,1,214.500006546021,4|0,1:2|1:2,0:0:0:0:
296,119,105475,2,0,L|291:183,1,53.6250016365052,8|8,0:3|0:3,0:0:0:0:
389,184,105643,2,0,L|392:295,1,107.25000327301,0|8,1:2|0:3,0:0:0:0:
227,280,105980,2,0,L|104:287,1,107.25000327301,2|8,1:2|0:3,0:0:0:0:
65,292,106233,1,0,0:0:0:0:
306,97,106317,6,0,L|425:83,1,107.25000327301,6|2,1:2|0:0,0:0:0:0:
250,125,106654,1,10,1:2:0:0:
409,141,106823,2,0,P|469:176|393:272,1,214.500006546021,2|2,0:0|0:0,0:0:0:0:
256,274,107329,1,2,1:2:0:0:
407,315,107497,1,10,0:0:0:0:
144,318,107666,6,0,P|146:257|279:181,1,214.500006546021,2|2,1:2|1:2,0:0:0:0:
420,173,108171,2,0,L|414:56,1,107.25000327301,2|0,0:0|1:2,0:0:0:0:
253,64,108508,2,0,L|261:173,1,107.25000327301,10|2,0:0|1:2,0:0:0:0:
417,111,108845,1,10,0:0:0:0:
141,64,109014,6,0,P|81:93|150:199,1,214.500006546021,0|0,1:2|1:2,0:0:0:0:
248,205,109520,1,2,0:0:0:0:
95,212,109688,2,0,L|89:337,1,107.25000327301,0|0,1:2|0:0,0:0:0:0:
247,326,110025,1,0,1:2:0:0:
90,336,110194,1,8,0:0:0:0:
359,254,110362,6,0,L|482:243,1,107.25000327301,0|8,1:2|0:3,0:0:0:0:
411,201,110615,1,8,0:3:0:0:
325,206,110699,2,0,L|317:90,1,107.25000327301,0|8,1:2|0:3,0:0:0:0:
375,92,110952,1,8,0:3:0:0:
295,79,111036,2,0,L|172:78,1,107.25000327301,0|8,1:2|0:3,0:0:0:0:
183,21,111373,1,0,1:2:0:0:
421,24,111542,1,8,0:0:0:0:
143,115,111711,6,0,L|27:125,1,107.25000327301,6|2,1:2|0:0,0:0:0:0:
188,171,112048,1,10,1:2:0:0:
38,178,112216,2,0,L|32:302,1,107.25000327301,2|0,1:2|0:0,0:0:0:0:
134,300,112553,1,2,1:2:0:0:
302,306,112722,2,0,L|426:317,1,107.25000327301,2|8,1:2|0:0,0:0:0:0:
149,242,113059,5,2,1:2:0:0:
412,237,113227,1,2,0:0:0:0:
416,183,113312,1,8,0:0:0:0:
420,130,113396,1,10,1:2:0:0:
131,118,113593,2,0,L|336:116,1,195,2|2,1:2|0:0,0:0:0:0:
425,111,114098,1,2,0:0:0:0:
28,180,114407,6,0,L|23:64,1,97.5,14|0,1:2|1:2,0:0:0:0:
175,93,114744,2,0,L|293:84,1,97.5,10|2,0:0|1:2,0:0:0:0:
114,69,115081,2,0,L|8:69,1,97.5,10|2,0:0|1:2,0:0:0:0:
162,125,115418,2,0,L|158:231,1,97.5,10|2,0:0|1:2,0:0:0:0:
103,220,115671,1,0,0:0:0:0:
262,235,115755,6,0,L|376:244,1,97.5,10|2,0:0|1:2,0:0:0:0:
210,258,116092,2,0,L|207:367,1,97.5,10|2,0:0|1:2,0:0:0:0:
355,337,116429,1,10,0:0:0:0:
114,351,116598,1,0,3:2:0:0:
356,345,116766,2,0,L|459:339,1,97.5,10|2,3:2|1:2,0:0:0:0:
192,293,117103,6,0,P|150:257|209:147,1,195,10|10,0:0|0:0,0:0:0:0:
305,143,117609,1,2,1:2:0:0:
152,140,117777,2,0,L|140:39,1,97.5,10|2,0:0|1:2,0:0:0:0:
296,39,118114,2,0,L|401:37,1,97.5,10|2,0:0|1:2,0:0:0:0:
138,88,118451,6,0,L|35:83,1,97.5,10|2,0:0|1:2,0:0:0:0:
191,130,118789,2,0,L|197:233,1,97.5,10|2,0:0|1:2,0:0:0:0:
44,160,119126,2,0,L|149:164,1,97.5,10|0,0:0|0:0,0:0:0:0:
392,176,119463,1,10,0:0:0:0:
395,240,119575,1,8,0:0:0:0:
398,305,119687,1,8,0:0:0:0:
201,306,119800,6,0,L|85:312,1,97.5,2|0,1:2|1:2,0:0:0:0:
256,271,120137,2,0,L|359:262,1,97.5,10|2,0:0|1:2,0:0:0:0:
199,249,120474,2,0,L|193:152,1,97.5,8|2,0:0|1:2,0:0:0:0:
344,145,120811,2,0,L|453:138,1,97.5,8|2,0:0|1:2,0:0:0:0:
444,86,121064,1,0,0:0:0:0:
249,72,121148,6,0,L|119:84,1,97.5,10|2,0:0|1:2,0:0:0:0:
298,113,121485,2,0,L|301:215,1,97.5,8|2,0:0|1:2,0:0:0:0:
201,223,121822,1,8,0:0:0:0:
459,245,121991,1,0,3:2:0:0:
200,282,122159,2,0,L|189:385,1,97.5,10|2,3:2|1:2,0:0:0:0:
442,354,122496,6,0,L|211:361,1,195,10|10,0:0|0:0,0:0:0:0:
151,367,123002,1,2,1:2:0:0:
301,281,123171,2,0,L|299:177,1,97.5,10|2,0:0|1:2,0:0:0:0:
148,183,123508,2,0,L|36:174,1,97.5,10|2,0:0|1:2,0:0:0:0:
301,130,123845,5,2,1:2:0:0:
349,125,123929,1,0,0:0:0:0:
398,120,124013,1,8,0:3:0:0:
153,86,124182,1,10,1:2:0:0:
110,104,124266,1,8,1:2:0:0:
105,150,124350,1,8,0:0:0:0:
144,176,124435,1,8,0:0:0:0:
293,197,124519,2,0,L|352:206,1,48.75,2|0,1:2|1:0,0:0:0:0:
172,234,124687,2,0,L|109:225,2,48.75,8|8|2,0:0|0:0|1:2,0:0:0:0:
465,252,125024,5,6,1:2:0:0:
