osu file format v14

[General]
AudioFilename: audio.mp3
AudioLeadIn: 0
PreviewTime: 90146
Countdown: 0
SampleSet: None
StackLeniency: 0.7
Mode: 3
LetterboxInBreaks: 0
SpecialStyle: 1
WidescreenStoryboard: 1

[Editor]
DistanceSpacing: 1
BeatDivisor: 4
GridSize: 4
TimelineZoom: 0.9999998

[Metadata]
Title:Yume Tourou
TitleUnicode:夢灯籠
Artist:RADWIMPS
ArtistUnicode:RADWIMPS
Creator:eyes
Version:Beginning
Source:君の名は。
Tags:j-pop your name kimi no na wa semyon422 shana lesus [Shana Lesus] theme song ost
BeatmapID:1383162
BeatmapSetID:619531

[Difficulty]
HPDrainRate:6
CircleSize:8
OverallDifficulty:6
ApproachRate:5
SliderMultiplier:1.4
SliderTickRate:1

[Events]
//Background and Video events
0,0,"YumeBG.jpg",0,0
//Break Periods
//Storyboard Layer 0 (Background)
//Storyboard Layer 1 (Fail)
//Storyboard Layer 2 (Pass)
//Storyboard Layer 3 (Foreground)
//Storyboard Sound Samples
Sample,63180,0,"drum_cym.wav",50
Sample,82056,0,"drum_cym.wav",30
Sample,83405,0,"drum_cym.wav",50
Sample,83742,0,"drum_cym.wav",50
Sample,95540,0,"D2 SD2-054.wav",90
Sample,112056,0,"drum_cym.wav",50
Sample,112393,0,"drum_cym.wav",50
Sample,112731,0,"drum_cym.wav",50

[TimingPoints]
24488,348.837209302326,4,3,1,10,1,0
24488,-97.0873786407767,4,3,1,10,0,0
52394,337.078651685393,4,3,1,50,1,1
63180,-100,4,3,1,15,0,0
84753,-100,4,3,1,30,0,0
90146,-100,4,3,1,50,0,1
113573,-100,4,3,1,26,0,0
114416,-100,4,3,1,50,0,1
125034,-100,4,3,1,50,0,0

[HitObjects]
32,192,24488,5,0,0:0:0:20:DB_B7.wav
402,192,25011,1,0,0:0:0:0:
329,192,25534,1,0,0:0:0:0:
96,192,25883,1,0,0:0:0:0:
402,192,26406,1,0,0:0:0:0:
256,192,26929,1,0,0:0:0:0:
160,192,27278,1,0,0:0:0:0:
475,192,27801,1,0,0:0:0:0:
329,192,28325,1,0,0:0:0:0:
96,192,28674,1,0,0:0:0:0:
224,192,29022,1,0,0:0:0:0:
329,192,29371,1,0,0:0:0:0:
475,192,29720,1,0,0:0:0:0:
256,192,30069,1,0,0:0:0:0:
96,192,30592,1,0,0:0:0:0:
224,192,31115,1,0,0:0:0:0:
329,192,31464,1,0,0:0:0:0:
160,192,31988,1,0,0:0:0:0:
256,192,32511,1,0,0:0:0:0:
402,192,32860,1,0,0:0:0:0:
224,192,33383,1,0,0:0:0:0:
329,192,33906,1,0,0:0:0:0:
475,192,34255,1,0,0:0:0:0:
256,192,34604,1,0,0:0:0:0:
96,192,34953,1,0,0:0:0:0:
402,192,35301,1,0,0:0:0:0:
160,192,35650,1,0,0:0:0:0:
329,192,36174,1,0,0:0:0:0:
256,192,36697,1,0,0:0:0:0:
224,192,37046,1,0,0:0:0:0:
402,192,37569,1,0,0:0:0:0:
329,192,38092,1,0,0:0:0:0:
160,192,38441,1,0,0:0:0:0:
475,192,38964,1,0,0:0:0:0:
224,192,39488,1,0,0:0:0:0:
329,192,39836,1,0,0:0:0:0:
96,192,40185,1,0,0:0:0:31:DN_Kick PE2F.wav
475,192,40534,1,0,0:0:0:0:
256,192,40883,1,0,0:0:0:0:
160,192,41232,1,0,0:0:0:31:DN_Kick PE2F.wav
402,192,41581,1,0,0:0:0:25:LR3_Snare HSF.wav
224,192,41755,1,0,0:0:0:31:DN_Kick PE2F.wav
256,192,42278,1,0,0:0:0:25:LR3_Snare HSF.wav
329,192,42627,1,0,0:0:0:0:
480,192,42976,1,0,0:0:0:25:LR3_Snare HSF.wav
160,192,43325,1,0,0:0:0:0:
256,192,43674,1,0,0:0:0:25:LR3_Snare HSF.wav
402,192,44022,1,0,0:0:0:31:DN_Kick PE2F.wav
96,192,44371,1,0,0:0:0:25:LR3_Snare HSF.wav
224,192,44546,1,0,0:0:0:31:DN_Kick PE2F.wav
480,192,45069,1,0,0:0:0:25:LR3_Snare HSF.wav
352,192,45243,1,0,0:0:0:25:LR3_Snare HSF.wav
256,192,45418,1,0,0:0:0:0:
160,192,45767,1,0,0:0:0:25:LR3_Snare HSF.wav
416,192,46115,1,0,0:0:0:0:
224,192,46464,1,0,0:0:0:25:LR3_Snare HSF.wav
96,192,46813,1,0,0:0:0:31:DN_Kick PE2F.wav
475,192,47162,1,0,0:0:0:25:LR3_Snare HSF.wav
329,192,47336,1,0,0:0:0:31:DN_Kick PE2F.wav
256,192,47860,1,0,0:0:0:25:LR3_Snare HSF.wav
402,192,48208,1,0,0:0:0:0:
160,192,48557,1,0,0:0:0:25:LR3_Snare HSF.wav
224,192,48906,1,0,0:0:0:0:
475,192,49255,1,0,0:0:0:25:LR3_Snare HSF.wav
256,192,49604,1,0,0:0:0:31:DN_Kick PE2F.wav
160,192,49953,1,0,0:0:0:25:LR3_Snare HSF.wav
402,192,50127,1,0,0:0:0:31:DN_Kick PE2F.wav
96,192,50650,1,0,0:0:0:25:LR3_Snare HSF.wav
329,192,50999,128,0,51697:0:0:0:31:DN_Kick PE2F.wav
160,192,51697,128,0,52394:0:0:0:25:LR_Snare Clap High.wav
288,192,52394,1,10,0:0:0:0:
32,192,52394,1,0,0:0:0:50:drum_cym.wav
224,192,52731,1,4,0:0:0:0:
402,192,53068,1,4,0:0:0:0:
160,192,53405,1,4,0:0:0:0:
475,192,53742,1,4,0:0:0:0:
96,192,54079,1,4,0:0:0:0:
288,192,54416,1,4,0:0:0:0:
224,192,54585,1,12,0:0:0:40:D2 SD2-054.wav
32,192,54753,1,12,0:0:0:40:D2 SD2-054.wav
329,192,55090,1,4,0:0:0:0:
475,192,55427,1,4,0:0:0:0:
224,192,55764,1,4,0:0:0:0:
96,192,56101,1,4,0:0:0:0:
416,192,56438,1,4,0:0:0:0:
160,192,56776,1,4,0:0:0:0:
480,192,57113,1,4,0:0:0:0:
224,192,57450,128,4,57787:0:0:0:0:
352,192,57787,1,6,0:0:0:0:
32,192,58124,1,4,0:0:0:50:drum_cym.wav
402,192,58461,1,4,0:0:0:0:
96,192,58798,1,4,0:0:0:0:
480,192,59135,1,4,0:0:0:0:
160,192,59472,1,4,0:0:0:0:
288,192,59809,1,4,0:0:0:0:
352,192,59978,1,12,0:0:0:40:D2 SD2-054.wav
32,192,60146,1,12,0:0:0:40:D2 SD2-054.wav
224,192,60483,1,4,0:0:0:0:
416,192,60820,1,4,0:0:0:0:
160,192,61158,1,4,0:0:0:0:
352,192,61495,1,4,0:0:0:0:
288,192,61832,1,4,0:0:0:0:
480,192,62169,1,4,0:0:0:0:
96,192,62506,128,6,62843:0:0:0:0:
402,192,62843,128,6,63180:0:0:0:0:
224,192,63180,1,0,0:0:0:50:DN_Kick PE2F.wav
480,192,63686,1,0,0:0:0:0:
224,192,63854,1,0,0:0:0:50:DN_Kick PE2F.wav
96,192,64191,1,0,0:0:0:50:DN_Kick PE2F.wav
160,192,64360,1,0,0:0:0:0:
329,192,64528,1,0,0:0:0:50:DN_Kick PE2F.wav
224,192,64865,1,0,0:0:0:50:DN_Kick PE2F.wav
329,192,65202,1,0,0:0:0:50:DN_Kick PE2F.wav
160,192,65540,1,0,0:0:0:50:DN_Kick PE2F.wav
480,192,65708,1,0,0:0:0:0:
96,192,65877,1,0,0:0:0:50:DN_Kick PE2F.wav
224,192,66382,1,0,0:0:0:0:
416,192,66551,1,0,0:0:0:50:DN_Kick PE2F.wav
352,192,66719,1,0,0:0:0:0:
288,192,66888,1,0,0:0:0:50:DN_Kick PE2F.wav
160,192,67056,1,0,0:0:0:0:
475,192,67225,1,0,0:0:0:50:DN_Kick PE2F.wav
224,192,67562,1,0,0:0:0:50:DN_Kick PE2F.wav
475,192,67899,1,0,0:0:0:50:DN_Kick PE2F.wav
416,192,68236,1,0,0:0:0:50:DN_Kick PE2F.wav
288,192,68405,1,0,0:0:0:0:
160,192,68573,1,0,0:0:0:50:DN_Kick PE2F.wav
96,192,69079,1,0,0:0:0:0:
160,192,69247,1,0,0:0:0:50:DN_Kick PE2F.wav
288,192,69585,1,0,0:0:0:50:DN_Kick PE2F.wav
224,192,69753,1,0,0:0:0:0:
402,192,69922,1,0,0:0:0:50:DN_Kick PE2F.wav
96,192,70259,1,0,0:0:0:50:DN_Kick PE2F.wav
402,192,70596,1,0,0:0:0:50:DN_Kick PE2F.wav
224,192,71101,1,0,0:0:0:0:
352,192,71270,1,0,0:0:0:50:DN_Kick PE2F.wav
480,192,71438,1,0,0:0:0:0:
96,192,71607,1,0,0:0:0:50:DN_Kick PE2F.wav
224,192,71776,1,0,0:0:0:0:
352,192,71944,1,0,0:0:0:50:DN_Kick PE2F.wav
160,192,72281,1,0,0:0:0:50:DN_Kick PE2F.wav
288,192,72450,1,0,0:0:0:0:
416,192,72618,1,0,0:0:0:50:DN_Kick PE2F.wav
96,192,72787,1,0,0:0:0:0:
224,192,72955,1,0,0:0:0:50:DN_Kick PE2F.wav
352,192,73124,1,0,0:0:0:0:
480,192,73292,1,0,0:0:0:50:DN_Kick PE2F.wav
224,192,73629,1,0,0:0:0:50:DN_Kick PE2F.wav
32,192,73967,128,10,74641:0:0:0:50:drum_cym.wav
288,192,74472,1,0,0:0:0:0:
402,192,74641,128,0,75315:0:0:0:50:DN_Kick PE2F.wav
224,192,74978,1,0,0:0:0:50:DN_Kick PE2F.wav
160,192,75315,128,0,75989:0:0:0:50:DN_Kick PE2F.wav
480,192,75652,1,0,0:0:0:50:DN_Kick PE2F.wav
329,192,75989,128,0,76663:0:0:0:50:DN_Kick PE2F.wav
96,192,76326,1,0,0:0:0:50:DN_Kick PE2F.wav
224,192,76663,128,0,77337:0:0:0:50:DN_Kick PE2F.wav
416,192,77169,1,0,0:0:0:0:
256,192,77337,128,0,78011:0:0:0:50:DN_Kick PE2F.wav
160,192,77674,1,0,0:0:0:50:DN_Kick PE2F.wav
475,192,78011,128,0,78686:0:0:0:50:DN_Kick PE2F.wav
224,192,78349,1,0,0:0:0:50:DN_Kick PE2F.wav
402,192,78686,128,0,79360:0:0:0:50:DN_Kick PE2F.wav
288,192,79023,1,0,0:0:0:50:DN_Kick PE2F.wav
96,192,79360,128,0,80034:0:0:0:50:DN_Kick PE2F.wav
224,192,79865,1,0,0:0:0:0:
256,192,80034,128,0,80708:0:0:0:50:DN_Kick PE2F.wav
480,192,80371,1,0,0:0:0:50:DN_Kick PE2F.wav
329,192,80708,128,0,81382:0:0:0:50:DN_Kick PE2F.wav
96,192,81045,1,0,0:0:0:50:DN_Kick PE2F.wav
160,192,81382,128,0,82056:0:0:0:50:DN_Kick PE2F.wav
288,192,81719,1,0,0:0:0:50:DN_Kick PE2F.wav
475,192,82056,1,0,0:0:0:50:DN_Kick PE2F.wav
96,192,82393,1,0,0:0:0:50:DN_Kick PE2F.wav
224,192,82562,1,0,0:0:0:0:
475,192,82731,1,0,0:0:0:50:DN_Kick PE2F.wav
96,192,83068,1,0,0:0:0:50:DN_Kick PE2F.wav
475,192,83405,1,0,0:0:0:50:DN_Kick PE2F.wav
160,192,83742,1,0,0:0:0:50:DN_Kick PE2F.wav
256,192,83910,1,4,0:0:0:0:
402,192,84079,1,6,0:0:0:0:
224,192,84247,1,0,0:0:0:50:LR_Tom Drop.wav
352,192,84416,1,0,0:0:0:50:LR_Tom Drop.wav
32,192,84753,1,14,0:0:0:0:
480,192,84753,128,0,85427:0:0:0:50:drum_cym.wav
224,192,85090,1,4,0:0:0:0:
96,192,85427,128,4,86101:0:0:0:0:
352,192,85764,1,2,0:0:0:0:
480,192,86101,128,4,86776:0:0:0:0:
224,192,86438,1,2,0:0:0:0:
160,192,86776,1,4,0:0:0:0:
416,192,86944,1,2,0:0:0:0:
32,192,87450,1,14,0:0:0:0:
352,192,87450,128,0,88124:0:0:0:50:drum_cym.wav
480,192,87787,1,4,0:0:0:0:
224,192,88124,128,4,88798:0:0:0:0:
96,192,88461,1,2,0:0:0:0:
402,192,88798,1,2,0:0:0:50:drum_cym.wav
329,192,88967,128,4,89304:0:0:0:0:
160,192,89304,1,2,0:0:0:50:drum_cym.wav
224,192,89472,128,4,89809:0:0:0:0:
475,192,89809,1,2,0:0:0:50:drum_cym.wav
256,192,89978,1,4,0:0:0:0:
96,192,90146,128,0,91495:0:0:0:50:drum_cym.wav
32,192,90146,1,14,0:0:0:90:D2 SD2-054.wav
416,192,90483,1,4,0:0:0:0:
352,192,90820,1,2,0:0:0:0:
160,192,91158,1,2,0:0:0:0:
475,192,91495,128,2,92843:0:0:0:50:drum_cym.wav
288,192,91832,1,4,0:0:0:0:
224,192,92169,1,2,0:0:0:0:
96,192,92337,1,4,0:0:0:0:
160,192,92674,1,4,0:0:0:0:
329,192,92843,128,2,94191:0:0:0:50:drum_cym.wav
288,192,93180,1,4,0:0:0:0:
416,192,93349,1,0,0:0:0:60:LR_Hat Fast.wav
96,192,93517,1,2,0:0:0:0:
160,192,93854,1,2,0:0:0:0:
480,192,94023,1,4,0:0:0:0:
224,192,94191,128,2,94865:0:0:0:50:drum_cym.wav
288,192,94528,1,4,0:0:0:0:
416,192,94865,1,0,0:0:0:50:LR_Tom Drop.wav
352,192,95202,1,0,0:0:0:50:LR_Tom Drop.wav
288,192,95540,128,0,96888:0:0:0:50:drum_cym.wav
32,192,95540,1,14,0:0:0:0:
224,192,95877,1,4,0:0:0:0:
160,192,96214,1,2,0:0:0:0:
480,192,96551,1,2,0:0:0:0:
416,192,96888,128,2,98236:0:0:0:50:drum_cym.wav
352,192,97225,1,4,0:0:0:0:
224,192,97562,1,2,0:0:0:0:
160,192,97731,1,4,0:0:0:0:
96,192,98068,1,4,0:0:0:0:
256,192,98236,128,2,99585:0:0:0:50:drum_cym.wav
352,192,98573,1,4,0:0:0:0:
224,192,98742,1,0,0:0:0:60:LR_Hat Fast.wav
475,192,98910,1,2,0:0:0:0:
160,192,99247,1,2,0:0:0:0:
416,192,99416,1,4,0:0:0:0:
96,192,99585,1,2,0:0:0:50:drum_cym.wav
224,192,99922,1,0,0:0:0:50:LR_Tom Drop.wav
329,192,100259,1,0,0:0:0:50:LR_Tom Drop.wav
475,192,100596,1,0,0:0:0:50:LR_Tom Drop.wav
32,192,100933,1,0,0:0:0:90:D2 SD2-054.wav
224,192,100933,1,2,0:0:0:50:drum_cym.wav
352,192,101270,1,4,0:0:0:0:
480,192,101438,1,0,0:0:0:60:LR_Hat Fast.wav
288,192,101607,1,2,0:0:0:0:
96,192,101776,1,0,0:0:0:60:LR_Hat Fast.wav
224,192,101944,1,2,0:0:0:0:
32,192,102281,1,0,0:0:0:90:D2 SD2-054.wav
352,192,102281,1,2,0:0:0:50:drum_cym.wav
480,192,102618,1,4,0:0:0:0:
416,192,102787,1,0,0:0:0:60:LR_Hat Fast.wav
96,192,102955,1,2,0:0:0:0:
224,192,103124,1,4,0:0:0:0:
288,192,103292,1,0,0:0:0:60:LR_Hat Fast.wav
352,192,103461,1,4,0:0:0:0:
32,192,103629,1,0,0:0:0:90:D2 SD2-054.wav
160,192,103629,1,2,0:0:0:50:drum_cym.wav
288,192,103967,1,4,0:0:0:0:
480,192,104135,1,0,0:0:0:60:LR_Hat Fast.wav
352,192,104304,1,2,0:0:0:0:
96,192,104472,1,0,0:0:0:60:LR_Hat Fast.wav
224,192,104641,1,2,0:0:0:0:
32,192,104978,1,0,0:0:0:90:D2 SD2-054.wav
480,192,104978,1,2,0:0:0:50:drum_cym.wav
160,192,105315,1,4,0:0:0:0:
288,192,105652,1,2,0:0:0:0:
480,192,105989,1,2,0:0:0:50:LR_Tom Drop.wav
224,192,106158,1,0,0:0:0:60:LR_Hat Fast.wav
32,192,106326,1,10,0:0:0:0:
416,192,106326,128,0,107674:0:0:0:50:drum_cym.wav
288,192,106495,1,0,0:0:0:60:LR_Hat Fast.wav
160,192,106663,1,4,0:0:0:0:
352,192,107000,1,2,0:0:0:0:
224,192,107169,1,0,0:0:0:60:LR_Hat Fast.wav
96,192,107337,1,2,0:0:0:0:
160,192,107674,128,2,109023:0:0:0:0:
224,192,107843,1,0,0:0:0:60:LR_Hat Fast.wav
329,192,108011,1,4,0:0:0:0:
480,192,108180,1,0,0:0:0:60:LR_Hat Fast.wav
288,192,108349,1,2,0:0:0:0:
416,192,108517,1,4,0:0:0:0:
475,192,108854,1,4,0:0:0:0:
32,192,109023,1,10,0:0:0:50:drum_cym.wav
96,192,109360,1,4,0:0:0:0:
288,192,109697,1,2,0:0:0:0:
224,192,110034,1,2,0:0:0:0:
352,192,110202,1,4,0:0:0:0:
480,192,110371,1,10,0:0:0:0:
160,192,110708,1,2,0:0:0:50:LR_Tom Drop.wav
288,192,111045,1,2,0:0:0:0:
96,192,111382,1,2,0:0:0:50:LR_Tom Drop.wav
224,192,111523,1,12,0:0:0:0:
402,192,111719,128,0,112056:0:0:0:50:drum_cym.wav
32,192,111719,1,14,0:0:0:0:
160,192,112056,128,4,112393:0:0:0:0:
329,192,112393,128,4,112731:0:0:0:0:
224,192,112731,128,4,113068:0:0:0:0:
475,192,113068,1,2,0:0:0:50:drum_cym.wav
329,192,113320,1,6,0:0:0:0:
224,192,113405,1,6,0:0:0:50:drum_cym.wav
32,192,113573,1,0,0:0:0:50:drum_cym.wav
96,192,113573,1,14,0:0:0:0:
32,192,114416,1,0,0:0:0:50:drum_cym.wav
288,192,114416,128,10,114753:0:0:0:0:
480,192,114753,128,4,115090:0:0:0:0:
224,192,115090,128,4,115427:0:0:0:0:
96,192,115427,128,4,115764:0:0:0:0:
416,192,115764,1,4,0:0:0:0:
160,192,116101,1,4,0:0:0:0:
329,192,116438,1,4,0:0:0:0:
256,192,116607,1,12,0:0:0:40:D2 SD2-054.wav
32,192,116776,1,12,0:0:0:40:D2 SD2-054.wav
402,192,117113,128,4,117450:0:0:0:0:
224,192,117450,128,4,117787:0:0:0:0:
329,192,117787,128,4,118124:0:0:0:0:
160,192,118124,128,4,118461:0:0:0:0:
475,192,118461,1,4,0:0:0:0:
96,192,118798,1,4,0:0:0:0:
475,192,119135,1,4,0:0:0:0:
224,192,119472,128,4,119809:0:0:0:0:
329,192,119809,1,6,0:0:0:0:
32,192,120146,128,0,120483:0:0:0:50:drum_cym.wav
402,192,120483,128,4,120820:0:0:0:0:
96,192,120820,128,4,121158:0:0:0:0:
160,192,121158,1,4,0:0:0:0:
352,192,121495,1,4,0:0:0:0:
224,192,121832,1,4,0:0:0:0:
288,192,122000,1,12,0:0:0:40:D2 SD2-054.wav
32,192,122169,1,12,0:0:0:40:D2 SD2-054.wav
352,192,122506,128,4,122843:0:0:0:0:
160,192,122843,128,4,123180:0:0:0:0:
480,192,123180,128,4,123517:0:0:0:0:
224,192,123517,128,4,123854:0:0:0:0:
96,192,123854,1,2,0:0:0:0:
288,192,124191,128,4,124528:0:0:0:0:
416,192,124528,1,2,0:0:0:0:
480,192,124697,1,4,0:0:0:0:
160,192,124865,1,2,0:0:0:0:
96,192,125034,1,0,0:0:0:50:drum_cym.wav
32,192,125034,1,14,0:0:0:0:
