osu file format v14

[General]
AudioFilename: audio.mp3
AudioLeadIn: 0
PreviewTime: 90146
Countdown: 0
SampleSet: None
StackLeniency: 0.7
Mode: 3
LetterboxInBreaks: 0
SpecialStyle: 1
WidescreenStoryboard: 1

[Editor]
Bookmarks: 24487,30069,35650,41232,46813
DistanceSpacing: 1
BeatDivisor: 4
GridSize: 4
TimelineZoom: 1.1

[Metadata]
Title:Yume Tourou
TitleUnicode:夢灯籠
Artist:RADWIMPS
ArtistUnicode:RADWIMPS
Creator:eyes
Version:422's Normal
Source:君の名は。
Tags:j-pop your name kimi no na wa semyon422 shana lesus [Shana Lesus] theme song ost
BeatmapID:1383160
BeatmapSetID:619531

[Difficulty]
HPDrainRate:7
CircleSize:8
OverallDifficulty:7
ApproachRate:5
SliderMultiplier:1.4
SliderTickRate:1

[Events]
//Background and Video events
0,0,"TourouBG.jpg",0,0
//Break Periods
//Storyboard Layer 0 (Background)
//Storyboard Layer 1 (Fail)
//Storyboard Layer 2 (Pass)
//Storyboard Layer 3 (Foreground)
//Storyboard Sound Samples
Sample,63180,0,"drum_cym.wav",50
Sample,83742,0,"drum_cym.wav",50
Sample,112393,0,"drum_cym.wav",50

[TimingPoints]
24488,348.837209302326,4,3,1,10,1,0
24488,-97.0873786407767,4,3,1,10,0,0
52394,337.078651685393,4,3,1,50,1,1
63180,-100,4,3,1,15,0,0
84753,-100,4,3,1,30,0,0
90146,-100,4,3,1,50,0,1
113573,-100,4,3,1,26,0,0
114416,-100,4,3,1,50,0,1
125034,-100,4,3,1,50,0,0

[HitObjects]
96,192,24488,5,0,0:0:0:20:DB_B7.wav
224,192,24488,1,0,0:0:0:0:
256,192,24836,1,0,0:0:0:0:
402,192,25011,1,0,0:0:0:0:
329,192,25534,1,0,0:0:0:0:
160,192,25883,1,0,0:0:0:0:
256,192,26232,1,0,0:0:0:0:
402,192,26406,1,0,0:0:0:0:
329,192,26929,1,0,0:0:0:0:
96,192,27278,1,0,0:0:0:0:
224,192,27627,1,0,0:0:0:0:
329,192,27801,1,0,0:0:0:0:
256,192,28325,1,0,0:0:0:0:
160,192,28674,1,0,0:0:0:0:
224,192,29022,1,0,0:0:0:0:
402,192,29197,1,0,0:0:0:0:
256,192,29371,1,0,0:0:0:0:
329,192,29546,1,0,0:0:0:0:
224,192,29720,1,0,0:0:0:0:
96,192,30069,1,0,0:0:0:0:
160,192,30243,1,0,0:0:0:0:
329,192,30418,1,0,0:0:0:0:
475,192,30592,1,0,0:0:0:0:
402,192,31115,1,0,0:0:0:0:
224,192,31464,1,0,0:0:0:0:
329,192,31813,1,0,0:0:0:0:
475,192,31988,1,0,0:0:0:0:
402,192,32511,1,0,0:0:0:0:
160,192,32860,1,0,0:0:0:0:
256,192,33208,1,0,0:0:0:0:
402,192,33383,1,0,0:0:0:0:
329,192,33906,1,0,0:0:0:0:
96,192,34255,1,0,0:0:0:0:
224,192,34604,1,0,0:0:0:0:
402,192,34778,1,0,0:0:0:0:
256,192,35301,1,0,0:0:0:0:
96,192,35650,1,0,0:0:0:0:
160,192,35999,1,0,0:0:0:0:
256,192,36174,1,0,0:0:0:0:
402,192,36697,1,0,0:0:0:0:
224,192,37046,1,0,0:0:0:0:
160,192,37394,1,0,0:0:0:0:
256,192,37569,1,0,0:0:0:0:
402,192,38092,1,0,0:0:0:0:
96,192,38441,1,0,0:0:0:0:
224,192,38790,1,0,0:0:0:0:
329,192,38964,1,0,0:0:0:0:
475,192,39488,1,0,0:0:0:0:
96,192,39836,1,0,0:0:0:0:
224,192,40185,1,0,0:0:0:31:DN_Kick PE2F.wav
329,192,40185,1,0,0:0:0:0:
402,192,40360,1,0,0:0:0:0:
160,192,40360,1,0,0:0:0:31:DN_Kick PE2F.wav
475,192,40534,1,0,0:0:0:0:
256,192,40883,1,0,0:0:0:0:
96,192,41232,1,0,0:0:0:31:DN_Kick PE2F.wav
256,192,41581,1,0,0:0:0:0:
160,192,41581,1,0,0:0:0:25:LR3_Snare HSF.wav
352,192,41755,1,0,0:0:0:31:DN_Kick PE2F.wav
96,192,42278,1,0,0:0:0:25:LR3_Snare HSF.wav
475,192,42278,1,0,0:0:0:0:
224,192,42627,1,0,0:0:0:0:
256,192,42976,1,0,0:0:0:0:
160,192,42976,1,0,0:0:0:25:LR3_Snare HSF.wav
402,192,43150,1,0,0:0:0:0:
224,192,43674,1,0,0:0:0:25:LR3_Snare HSF.wav
475,192,43674,1,0,0:0:0:0:
96,192,44022,1,0,0:0:0:31:DN_Kick PE2F.wav
224,192,44371,1,0,0:0:0:25:LR3_Snare HSF.wav
329,192,44371,1,0,0:0:0:0:
475,192,44546,1,0,0:0:0:31:DN_Kick PE2F.wav
256,192,45069,1,0,0:0:0:25:LR3_Snare HSF.wav
402,192,45069,1,0,0:0:0:0:
160,192,45418,1,0,0:0:0:0:
96,192,45767,1,0,0:0:0:25:LR3_Snare HSF.wav
224,192,45767,1,0,0:0:0:0:
402,192,45941,1,0,0:0:0:0:
256,192,46464,1,0,0:0:0:25:LR3_Snare HSF.wav
160,192,46464,1,0,0:0:0:0:
96,192,46813,1,0,0:0:0:31:DN_Kick PE2F.wav
329,192,47162,1,0,0:0:0:25:LR3_Snare HSF.wav
475,192,47162,1,0,0:0:0:0:
224,192,47336,1,0,0:0:0:31:DN_Kick PE2F.wav
160,192,47860,1,0,0:0:0:25:LR3_Snare HSF.wav
402,192,47860,1,0,0:0:0:0:
288,192,48208,1,0,0:0:0:0:
329,192,48557,1,0,0:0:0:25:LR3_Snare HSF.wav
475,192,48557,1,0,0:0:0:0:
96,192,48732,1,0,0:0:0:0:
224,192,49255,1,0,0:0:0:25:LR3_Snare HSF.wav
402,192,49255,1,0,0:0:0:0:
96,192,49604,1,0,0:0:0:31:DN_Kick PE2F.wav
224,192,49953,1,0,0:0:0:25:LR3_Snare HSF.wav
329,192,49953,1,0,0:0:0:0:
475,192,50127,1,0,0:0:0:31:DN_Kick PE2F.wav
256,192,50650,1,0,0:0:0:25:LR3_Snare HSF.wav
402,192,50650,1,0,0:0:0:0:
160,192,50999,1,0,0:0:0:31:DN_Kick PE2F.wav
224,192,51348,1,0,0:0:0:25:LR3_Snare HSF.wav
329,192,51522,1,0,0:0:0:25:LR_Snare Clap High.wav
475,192,51697,1,0,0:0:0:25:LR_Snare Clap High.wav
256,192,52046,128,0,52394:0:0:0:31:DN_Kick PE2F.wav
32,192,52394,1,0,0:0:0:50:drum_cym.wav
416,192,52394,1,2,0:0:0:0:
96,192,52394,1,8,0:0:0:0:
224,192,52562,1,2,0:0:0:0:
329,192,52731,1,4,0:0:0:0:
160,192,52899,1,2,0:0:0:0:
256,192,53068,1,4,0:0:0:0:
416,192,53236,1,0,0:0:0:0:
352,192,53405,1,4,0:0:0:0:
224,192,53573,1,2,0:0:0:0:
160,192,53742,128,4,53910:0:0:0:0:
329,192,53910,1,2,0:0:0:0:
480,192,54079,1,4,0:0:0:0:
224,192,54247,1,2,0:0:0:0:
96,192,54416,1,4,0:0:0:0:
416,192,54585,1,0,0:0:0:40:D2 SD2-054.wav
288,192,54585,1,12,0:0:0:0:
480,192,54753,1,0,0:0:0:40:D2 SD2-054.wav
160,192,54753,1,12,0:0:0:0:
96,192,54922,1,2,0:0:0:0:
288,192,55090,1,4,0:0:0:0:
475,192,55427,1,4,0:0:0:0:
160,192,55596,1,2,0:0:0:0:
288,192,55764,1,4,0:0:0:0:
416,192,55933,1,2,0:0:0:0:
352,192,56101,1,4,0:0:0:0:
224,192,56270,1,2,0:0:0:0:
96,192,56438,128,4,56607:0:0:0:0:
288,192,56607,1,2,0:0:0:0:
480,192,56776,1,4,0:0:0:0:
352,192,56944,1,2,0:0:0:0:
224,192,57113,1,4,0:0:0:0:
96,192,57281,1,4,0:0:0:0:
160,192,57450,128,4,57787:0:0:0:0:
480,192,57562,1,4,0:0:0:0:
416,192,57674,1,4,0:0:0:0:
352,192,57787,1,6,0:0:0:0:
224,192,57955,1,0,0:0:0:0:
288,192,58124,1,4,0:0:0:0:
480,192,58124,1,0,0:0:0:50:drum_cym.wav
96,192,58292,1,2,0:0:0:0:
160,192,58461,1,4,0:0:0:0:
288,192,58629,1,2,0:0:0:0:
416,192,58798,1,4,0:0:0:0:
352,192,58967,1,2,0:0:0:0:
96,192,59135,128,4,59304:0:0:0:0:
224,192,59304,1,2,0:0:0:0:
480,192,59472,1,4,0:0:0:0:
288,192,59641,1,2,0:0:0:0:
96,192,59809,1,4,0:0:0:0:
352,192,59978,1,0,0:0:0:40:D2 SD2-054.wav
224,192,59978,1,12,0:0:0:0:
480,192,60146,1,0,0:0:0:40:D2 SD2-054.wav
160,192,60146,1,12,0:0:0:0:
288,192,60315,1,2,0:0:0:0:
224,192,60483,1,4,0:0:0:0:
329,192,60820,1,4,0:0:0:0:
160,192,60989,1,2,0:0:0:0:
288,192,61158,1,4,0:0:0:0:
475,192,61326,1,2,0:0:0:0:
352,192,61495,1,4,0:0:0:0:
224,192,61663,1,2,0:0:0:0:
96,192,61832,128,4,62000:0:0:0:0:
402,192,62000,1,2,0:0:0:0:
160,192,62169,1,4,0:0:0:0:
96,192,62337,1,6,0:0:0:0:
480,192,62506,1,4,0:0:0:0:
288,192,62506,128,2,63180:0:0:0:0:
224,192,62674,1,4,0:0:0:0:
352,192,62843,1,6,0:0:0:0:
96,192,63011,1,4,0:0:0:0:
160,192,63180,1,0,0:0:0:50:DN_Kick PE2F.wav
329,192,63349,1,0,0:0:0:0:
160,192,63517,1,0,0:0:0:50:DN_Kick PE2F.wav
402,192,63686,1,0,0:0:0:0:
224,192,63854,1,0,0:0:0:50:DN_Kick PE2F.wav
329,192,64023,1,0,0:0:0:0:
224,192,64191,1,0,0:0:0:50:DN_Kick PE2F.wav
402,192,64360,1,0,0:0:0:0:
96,192,64528,1,0,0:0:0:50:DN_Kick PE2F.wav
256,192,64697,1,0,0:0:0:0:
96,192,64865,1,0,0:0:0:50:DN_Kick PE2F.wav
329,192,65034,1,0,0:0:0:0:
160,192,65202,1,0,0:0:0:50:DN_Kick PE2F.wav
256,192,65371,1,0,0:0:0:0:
160,192,65540,1,0,0:0:0:50:DN_Kick PE2F.wav
329,192,65708,1,0,0:0:0:0:
480,192,65877,1,0,0:0:0:50:DN_Kick PE2F.wav
224,192,66045,1,0,0:0:0:0:
480,192,66214,1,0,0:0:0:50:DN_Kick PE2F.wav
160,192,66382,1,0,0:0:0:0:
416,192,66551,1,0,0:0:0:50:DN_Kick PE2F.wav
224,192,66719,1,0,0:0:0:0:
416,192,66888,1,0,0:0:0:50:DN_Kick PE2F.wav
160,192,67056,1,0,0:0:0:0:
352,192,67225,1,0,0:0:0:50:DN_Kick PE2F.wav
96,192,67393,1,0,0:0:0:0:
352,192,67562,1,0,0:0:0:50:DN_Kick PE2F.wav
160,192,67731,1,0,0:0:0:0:
480,192,67899,1,0,0:0:0:50:DN_Kick PE2F.wav
96,192,68068,1,0,0:0:0:0:
480,192,68236,1,0,0:0:0:50:DN_Kick PE2F.wav
160,192,68405,1,0,0:0:0:0:
224,192,68573,1,0,0:0:0:50:DN_Kick PE2F.wav
402,192,68742,1,0,0:0:0:0:
224,192,68910,1,0,0:0:0:50:DN_Kick PE2F.wav
329,192,69079,1,0,0:0:0:0:
96,192,69247,1,0,0:0:0:50:DN_Kick PE2F.wav
402,192,69416,1,0,0:0:0:0:
96,192,69585,1,0,0:0:0:50:DN_Kick PE2F.wav
329,192,69753,1,0,0:0:0:0:
224,192,69922,1,0,0:0:0:50:DN_Kick PE2F.wav
480,192,70090,1,0,0:0:0:0:
224,192,70259,1,0,0:0:0:50:DN_Kick PE2F.wav
416,192,70427,1,0,0:0:0:0:
160,192,70596,1,0,0:0:0:50:DN_Kick PE2F.wav
480,192,70764,1,0,0:0:0:0:
160,192,70933,1,0,0:0:0:50:DN_Kick PE2F.wav
416,192,71101,1,0,0:0:0:0:
288,192,71270,1,0,0:0:0:50:DN_Kick PE2F.wav
96,192,71438,1,0,0:0:0:0:
288,192,71607,1,0,0:0:0:50:DN_Kick PE2F.wav
160,192,71776,1,0,0:0:0:0:
416,192,71944,1,0,0:0:0:50:DN_Kick PE2F.wav
96,192,72113,1,0,0:0:0:0:
416,192,72281,1,0,0:0:0:50:DN_Kick PE2F.wav
160,192,72450,1,0,0:0:0:0:
352,192,72618,1,0,0:0:0:50:DN_Kick PE2F.wav
224,192,72787,1,0,0:0:0:0:
352,192,72955,1,0,0:0:0:50:DN_Kick PE2F.wav
160,192,73124,1,0,0:0:0:0:
480,192,73292,1,0,0:0:0:50:DN_Kick PE2F.wav
224,192,73461,1,0,0:0:0:0:
480,192,73629,1,0,0:0:0:50:DN_Kick PE2F.wav
352,192,73629,1,0,0:0:0:0:
160,192,73798,1,0,0:0:0:0:
96,192,73967,1,0,0:0:0:50:drum_cym.wav
288,192,73967,1,10,0:0:0:0:
416,192,74304,1,0,0:0:0:55:DN_Kick PE2F.wav
224,192,74304,1,0,0:0:0:0:
352,192,74472,1,0,0:0:0:0:
96,192,74641,1,0,0:0:0:55:DN_Kick PE2F.wav
480,192,74809,1,0,0:0:0:0:
224,192,74978,1,0,0:0:0:55:DN_Kick PE2F.wav
288,192,75146,1,0,0:0:0:0:
416,192,75315,1,0,0:0:0:55:DN_Kick PE2F.wav
160,192,75483,1,0,0:0:0:0:
96,192,75652,1,0,0:0:0:0:
352,192,75652,1,0,0:0:0:55:DN_Kick PE2F.wav
288,192,75820,1,0,0:0:0:0:
475,192,75989,1,0,0:0:0:0:
160,192,75989,1,0,0:0:0:55:DN_Kick PE2F.wav
224,192,76326,1,0,0:0:0:55:DN_Kick PE2F.wav
352,192,76326,1,0,0:0:0:0:
402,192,76495,1,0,0:0:0:0:
96,192,76663,1,0,0:0:0:0:
288,192,76663,1,0,0:0:0:55:DN_Kick PE2F.wav
160,192,77000,1,0,0:0:0:0:
480,192,77000,1,0,0:0:0:55:DN_Kick PE2F.wav
288,192,77169,1,0,0:0:0:0:
96,192,77337,1,0,0:0:0:55:DN_Kick PE2F.wav
402,192,77506,1,0,0:0:0:0:
224,192,77674,1,0,0:0:0:55:DN_Kick PE2F.wav
352,192,77843,1,0,0:0:0:0:
480,192,78011,1,0,0:0:0:55:DN_Kick PE2F.wav
160,192,78180,1,0,0:0:0:0:
288,192,78349,1,0,0:0:0:55:DN_Kick PE2F.wav
416,192,78517,1,0,0:0:0:0:
352,192,78686,1,0,0:0:0:55:DN_Kick PE2F.wav
224,192,78686,1,0,0:0:0:0:
160,192,78854,1,0,0:0:0:0:
96,192,79023,1,0,0:0:0:0:
480,192,79023,1,0,0:0:0:55:DN_Kick PE2F.wav
224,192,79360,1,0,0:0:0:0:
416,192,79360,1,0,0:0:0:55:DN_Kick PE2F.wav
352,192,79697,1,0,0:0:0:0:
160,192,79697,1,0,0:0:0:55:DN_Kick PE2F.wav
402,192,79865,1,0,0:0:0:0:
96,192,80034,1,0,0:0:0:55:DN_Kick PE2F.wav
475,192,80202,1,0,0:0:0:0:
224,192,80371,1,0,0:0:0:55:DN_Kick PE2F.wav
352,192,80540,1,0,0:0:0:0:
160,192,80708,1,0,0:0:0:55:DN_Kick PE2F.wav
256,192,80877,1,0,0:0:0:0:
96,192,81045,1,0,0:0:0:55:DN_Kick PE2F.wav
416,192,81045,1,0,0:0:0:0:
224,192,81214,1,0,0:0:0:0:
329,192,81382,1,0,0:0:0:55:DN_Kick PE2F.wav
480,192,81382,1,0,0:0:0:0:
224,192,81719,1,0,0:0:0:0:
96,192,81719,1,0,0:0:0:55:DN_Kick PE2F.wav
402,192,81888,1,0,0:0:0:0:
288,192,82056,1,0,0:0:0:55:DN_Kick PE2F.wav
475,192,82056,128,0,83405:0:0:0:30:drum_cym.wav
160,192,82393,1,0,0:0:0:55:DN_Kick PE2F.wav
256,192,82731,1,0,0:0:0:55:DN_Kick PE2F.wav
402,192,83068,1,0,0:0:0:55:DN_Kick PE2F.wav
96,192,83405,1,0,0:0:0:55:DN_Kick PE2F.wav
256,192,83405,128,0,84753:0:0:0:50:drum_cym.wav
224,192,83742,1,0,0:0:0:55:DN_Kick PE2F.wav
352,192,84079,1,6,0:0:0:0:
480,192,84416,1,0,0:0:0:50:LR_Tom Drop.wav
402,192,84753,1,14,0:0:0:0:
32,192,84753,1,0,0:0:0:50:drum_cym.wav
160,192,84922,1,10,0:0:0:0:
329,192,85090,1,4,0:0:0:0:
96,192,85259,1,2,0:0:0:0:
256,192,85427,1,4,0:0:0:0:
475,192,85596,1,2,0:0:0:0:
224,192,85764,1,2,0:0:0:0:
402,192,85933,1,2,0:0:0:0:
160,192,86101,1,4,0:0:0:0:
329,192,86270,1,2,0:0:0:0:
96,192,86438,1,2,0:0:0:0:
402,192,86607,1,4,0:0:0:0:
160,192,86776,1,4,0:0:0:0:
475,192,86944,1,2,0:0:0:0:
224,192,87113,1,0,0:0:0:0:
96,192,87281,1,0,0:0:0:0:
256,192,87450,1,14,0:0:0:0:
32,192,87450,1,0,0:0:0:50:drum_cym.wav
160,192,87618,1,2,0:0:0:0:
329,192,87787,1,4,0:0:0:0:
224,192,87955,1,2,0:0:0:0:
402,192,88124,1,4,0:0:0:0:
256,192,88292,1,2,0:0:0:0:
475,192,88461,1,2,0:0:0:0:
329,192,88629,1,4,0:0:0:0:
160,192,88798,1,2,0:0:0:50:drum_cym.wav
402,192,88967,1,4,0:0:0:0:
96,192,89135,1,4,0:0:0:0:
475,192,89304,1,2,0:0:0:50:drum_cym.wav
224,192,89472,1,4,0:0:0:0:
329,192,89641,1,4,0:0:0:0:
160,192,89809,1,2,0:0:0:50:drum_cym.wav
416,192,89978,1,4,0:0:0:0:
32,192,90146,1,0,0:0:0:50:drum_cym.wav
288,192,90146,1,14,0:0:0:0:
96,192,90146,128,0,90483:0:0:0:90:D2 SD2-054.wav
224,192,90483,128,0,90820:0:0:0:60:LR_Hat Fast.wav
416,192,90483,1,4,0:0:0:0:
160,192,90820,128,0,91158:0:0:0:60:LR_Hat Fast.wav
480,192,90820,1,2,0:0:0:0:
329,192,91158,128,0,91495:0:0:0:60:LR_Hat Fast.wav
288,192,91158,1,2,0:0:0:0:
475,192,91495,128,0,91832:0:0:0:60:LR_Hat Fast.wav
96,192,91495,1,2,0:0:0:0:
224,192,91495,1,0,0:0:0:50:drum_cym.wav
329,192,91832,128,0,92169:0:0:0:60:LR_Hat Fast.wav
160,192,91832,1,4,0:0:0:0:
256,192,92169,128,0,92506:0:0:0:60:LR_Hat Fast.wav
96,192,92169,1,2,0:0:0:0:
160,192,92506,128,0,92843:0:0:0:60:LR_Hat Fast.wav
480,192,92506,1,2,0:0:0:0:
224,192,92843,128,0,93349:0:0:0:60:LR_Hat Fast.wav
402,192,92843,1,2,0:0:0:0:
96,192,92843,1,0,0:0:0:50:drum_cym.wav
352,192,93180,1,4,0:0:0:0:
96,192,93349,128,0,93517:0:0:0:60:LR_Hat Fast.wav
256,192,93517,128,0,94023:0:0:0:60:LR_Hat Fast.wav
416,192,93517,1,2,0:0:0:0:
96,192,93854,1,2,0:0:0:0:
160,192,94023,128,4,94191:0:0:0:0:
329,192,94191,128,0,94865:0:0:0:60:LR_Hat Fast.wav
475,192,94191,1,2,0:0:0:0:
224,192,94191,1,0,0:0:0:50:drum_cym.wav
416,192,94528,1,4,0:0:0:0:
96,192,94697,1,0,0:0:0:50:LR_Tom Drop.wav
224,192,94865,1,0,0:0:0:50:LR_Tom Drop.wav
160,192,95034,1,0,0:0:0:50:LR_Tom Drop.wav
288,192,95202,1,0,0:0:0:50:LR_Tom Drop.wav
402,192,95371,128,0,95540:0:0:0:60:LR_Hat Fast.wav
224,192,95371,1,0,0:0:0:50:LR_Tom Drop.wav
32,192,95540,1,0,0:0:0:50:drum_cym.wav
352,192,95540,1,14,0:0:0:0:
160,192,95540,128,0,95877:0:0:0:90:D2 SD2-054.wav
256,192,95877,128,0,96214:0:0:0:60:LR_Hat Fast.wav
480,192,95877,1,4,0:0:0:0:
224,192,96214,128,0,96551:0:0:0:60:LR_Hat Fast.wav
96,192,96214,1,2,0:0:0:0:
329,192,96551,128,0,96888:0:0:0:60:LR_Hat Fast.wav
416,192,96551,1,2,0:0:0:0:
475,192,96888,128,0,97225:0:0:0:60:LR_Hat Fast.wav
160,192,96888,1,2,0:0:0:0:
96,192,96888,1,0,0:0:0:50:drum_cym.wav
256,192,97225,128,0,97562:0:0:0:60:LR_Hat Fast.wav
416,192,97225,1,4,0:0:0:0:
160,192,97562,128,0,97899:0:0:0:60:LR_Hat Fast.wav
352,192,97562,1,2,0:0:0:0:
96,192,97899,128,0,98236:0:0:0:60:LR_Hat Fast.wav
480,192,97899,1,2,0:0:0:0:
224,192,98236,128,0,98742:0:0:0:60:LR_Hat Fast.wav
402,192,98236,1,2,0:0:0:0:
288,192,98236,1,0,0:0:0:50:drum_cym.wav
96,192,98573,1,4,0:0:0:0:
160,192,98742,128,0,98910:0:0:0:60:LR_Hat Fast.wav
329,192,98910,128,0,99416:0:0:0:60:LR_Hat Fast.wav
480,192,98910,1,2,0:0:0:0:
96,192,99247,1,2,0:0:0:0:
288,192,99416,128,4,99585:0:0:0:0:
160,192,99585,1,2,0:0:0:0:
480,192,99585,128,0,99753:0:0:0:50:drum_cym.wav
224,192,99753,1,0,0:0:0:50:LR_Tom Drop.wav
96,192,99922,1,0,0:0:0:50:LR_Tom Drop.wav
402,192,100090,128,0,100259:0:0:0:60:LR_Hat Fast.wav
288,192,100090,1,0,0:0:0:50:LR_Tom Drop.wav
329,192,100259,128,0,100427:0:0:0:60:LR_Hat Fast.wav
160,192,100259,1,0,0:0:0:50:LR_Tom Drop.wav
224,192,100427,128,0,100596:0:0:0:50:LR_Tom Drop.wav
96,192,100596,128,2,100764:0:0:0:50:LR_Tom Drop.wav
256,192,100764,128,4,100933:0:0:0:50:LR_Tom Drop.wav
160,192,100933,128,0,101101:0:0:0:90:D2 SD2-054.wav
32,192,100933,1,0,0:0:0:50:drum_cym.wav
416,192,100933,1,2,0:0:0:0:
224,192,101270,128,0,101438:0:0:0:60:LR_Hat Fast.wav
480,192,101270,1,4,0:0:0:0:
329,192,101438,128,0,101607:0:0:0:60:LR_Hat Fast.wav
96,192,101607,1,2,0:0:0:0:
256,192,101776,128,0,101944:0:0:0:60:LR_Hat Fast.wav
160,192,101944,128,0,102281:0:0:0:60:LR_Hat Fast.wav
416,192,101944,1,2,0:0:0:0:
32,192,102281,1,0,0:0:0:50:drum_cym.wav
352,192,102281,1,2,0:0:0:90:D2 SD2-054.wav
224,192,102618,1,4,0:0:0:0:
475,192,102787,128,0,102955:0:0:0:60:LR_Hat Fast.wav
402,192,102955,128,0,103124:0:0:0:60:LR_Hat Fast.wav
96,192,102955,1,2,0:0:0:0:
256,192,103124,128,4,103292:0:0:0:0:
160,192,103292,128,2,103461:0:0:0:0:
480,192,103292,1,0,0:0:0:0:
329,192,103461,128,4,103629:0:0:0:0:
224,192,103629,128,0,103798:0:0:0:90:D2 SD2-054.wav
32,192,103629,1,0,0:0:0:50:drum_cym.wav
416,192,103629,1,2,0:0:0:0:
96,192,103967,128,0,104135:0:0:0:60:LR_Hat Fast.wav
480,192,103967,1,4,0:0:0:0:
256,192,104135,128,0,104304:0:0:0:60:LR_Hat Fast.wav
160,192,104304,1,2,0:0:0:0:
402,192,104472,128,0,104641:0:0:0:60:LR_Hat Fast.wav
224,192,104641,128,0,105315:0:0:0:60:LR_Hat Fast.wav
352,192,104641,1,2,0:0:0:0:
32,192,104978,1,0,0:0:0:50:drum_cym.wav
96,192,104978,1,2,0:0:0:90:D2 SD2-054.wav
416,192,105315,1,4,0:0:0:0:
288,192,105483,1,0,0:0:0:50:LR_Tom Drop.wav
160,192,105652,1,2,0:0:0:0:
352,192,105820,1,0,0:0:0:50:LR_Tom Drop.wav
224,192,105989,1,0,0:0:0:50:LR_Tom Drop.wav
416,192,105989,128,2,106158:0:0:0:0:
160,192,106158,128,0,106326:0:0:0:50:LR_Tom Drop.wav
288,192,106326,128,2,106495:0:0:0:0:
32,192,106326,1,0,0:0:0:50:drum_cym.wav
480,192,106326,1,8,0:0:0:0:
96,192,106495,128,0,106663:0:0:0:60:LR_Hat Fast.wav
329,192,106663,128,0,106832:0:0:0:60:LR_Hat Fast.wav
224,192,106663,1,4,0:0:0:0:
475,192,106832,128,0,107169:0:0:0:60:LR_Hat Fast.wav
160,192,107000,1,2,0:0:0:0:
256,192,107169,128,0,107337:0:0:0:60:LR_Hat Fast.wav
224,192,107337,128,0,107506:0:0:0:60:LR_Hat Fast.wav
416,192,107337,1,2,0:0:0:0:
96,192,107506,128,4,107674:0:0:0:0:
329,192,107674,128,0,107843:0:0:0:60:LR_Hat Fast.wav
288,192,107674,1,2,0:0:0:0:
475,192,107843,128,0,108011:0:0:0:60:LR_Hat Fast.wav
160,192,108011,128,0,108180:0:0:0:60:LR_Hat Fast.wav
416,192,108011,1,4,0:0:0:0:
224,192,108180,128,0,108349:0:0:0:60:LR_Hat Fast.wav
96,192,108349,1,2,0:0:0:0:
402,192,108517,128,4,108686:0:0:0:0:
256,192,108686,128,0,108854:0:0:0:60:LR_Hat Fast.wav
160,192,108686,1,2,0:0:0:0:
329,192,108854,128,4,109360:0:0:0:0:
224,192,109023,1,10,0:0:0:0:
32,192,109023,1,0,0:0:0:50:drum_cym.wav
96,192,109360,1,4,0:0:0:0:
288,192,109697,1,2,0:0:0:0:
352,192,110034,1,2,0:0:0:0:
402,192,110371,1,8,0:0:0:0:
160,192,110371,1,2,0:0:0:0:
288,192,110540,1,0,0:0:0:50:LR_Tom Drop.wav
96,192,110708,1,2,0:0:0:50:LR_Tom Drop.wav
224,192,110877,1,0,0:0:0:50:LR_Tom Drop.wav
480,192,111045,1,2,0:0:0:0:
352,192,111214,1,0,0:0:0:50:LR_Tom Drop.wav
160,192,111382,1,2,0:0:0:50:LR_Tom Drop.wav
256,192,111719,128,2,111888:0:0:0:0:
32,192,111719,1,0,0:0:0:50:drum_cym.wav
416,192,111719,1,12,0:0:0:0:
96,192,111888,128,0,112056:0:0:0:60:LR_Hat Fast.wav
352,192,112056,1,4,0:0:0:0:
224,192,112056,128,0,112225:0:0:0:50:drum_cym.wav
402,192,112225,128,2,112562:0:0:0:0:
160,192,112393,1,4,0:0:0:0:
475,192,112562,128,2,112731:0:0:0:0:
224,192,112731,1,4,0:0:0:0:
352,192,112731,128,0,113068:0:0:0:50:drum_cym.wav
160,192,113068,128,0,113405:0:0:0:60:LR_Hat Fast.wav
402,192,113068,1,2,0:0:0:0:
96,192,113068,1,0,0:0:0:50:drum_cym.wav
480,192,113405,1,6,0:0:0:0:
288,192,113405,128,0,113573:0:0:0:50:drum_cym.wav
32,192,113573,1,0,0:0:0:50:drum_cym.wav
416,192,113573,1,14,0:0:0:0:
288,192,113910,1,0,0:0:0:0:
160,192,114079,1,0,0:0:0:0:
96,192,114416,1,2,0:0:0:0:
32,192,114416,1,0,0:0:0:50:drum_cym.wav
416,192,114416,1,8,0:0:0:0:
224,192,114585,1,2,0:0:0:0:
352,192,114753,1,4,0:0:0:0:
160,192,114922,1,2,0:0:0:0:
256,192,115090,1,4,0:0:0:0:
475,192,115259,1,2,0:0:0:0:
352,192,115427,1,4,0:0:0:0:
224,192,115596,1,2,0:0:0:0:
96,192,115764,128,4,115933:0:0:0:0:
288,192,115933,1,2,0:0:0:0:
329,192,116101,1,4,0:0:0:0:
224,192,116270,1,0,0:0:0:0:
96,192,116438,1,4,0:0:0:0:
416,192,116607,1,0,0:0:0:40:D2 SD2-054.wav
288,192,116607,1,12,0:0:0:0:
475,192,116776,1,0,0:0:0:40:D2 SD2-054.wav
160,192,116776,1,12,0:0:0:0:
96,192,116944,1,2,0:0:0:0:
288,192,117113,1,4,0:0:0:0:
480,192,117450,1,4,0:0:0:0:
96,192,117618,1,2,0:0:0:0:
224,192,117787,1,4,0:0:0:0:
402,192,117955,1,2,0:0:0:0:
288,192,118124,1,4,0:0:0:0:
160,192,118292,1,2,0:0:0:0:
96,192,118461,128,4,118629:0:0:0:0:
256,192,118629,1,2,0:0:0:0:
416,192,118798,1,4,0:0:0:0:
352,192,118967,1,2,0:0:0:0:
224,192,119135,1,4,0:0:0:0:
96,192,119304,1,4,0:0:0:0:
160,192,119472,128,4,119809:0:0:0:0:
352,192,119585,1,4,0:0:0:0:
416,192,119697,1,4,0:0:0:0:
480,192,119809,1,6,0:0:0:0:
288,192,119978,1,2,0:0:0:0:
402,192,120146,1,4,0:0:0:0:
160,192,120146,1,0,0:0:0:50:drum_cym.wav
96,192,120315,1,2,0:0:0:0:
224,192,120483,1,4,0:0:0:0:
329,192,120652,1,2,0:0:0:0:
475,192,120820,1,4,0:0:0:0:
256,192,120989,1,2,0:0:0:0:
96,192,121158,128,4,121326:0:0:0:0:
329,192,121326,1,2,0:0:0:0:
416,192,121495,1,4,0:0:0:0:
160,192,121663,1,0,0:0:0:0:
96,192,121832,1,4,0:0:0:0:
352,192,122000,1,0,0:0:0:40:D2 SD2-054.wav
224,192,122000,1,12,0:0:0:0:
480,192,122169,1,0,0:0:0:40:D2 SD2-054.wav
160,192,122169,1,12,0:0:0:0:
288,192,122337,1,2,0:0:0:0:
416,192,122506,1,4,0:0:0:0:
352,192,122843,1,4,0:0:0:0:
96,192,123011,1,2,0:0:0:0:
224,192,123180,1,4,0:0:0:0:
475,192,123349,1,2,0:0:0:0:
329,192,123517,1,4,0:0:0:0:
224,192,123686,1,4,0:0:0:0:
160,192,123854,128,2,124023:0:0:0:0:
402,192,124023,1,0,0:0:0:50:LR_Tom Drop.wav
256,192,124191,1,4,0:0:0:0:
480,192,124191,128,0,124528:0:0:0:0:
160,192,124360,1,4,0:0:0:0:
402,192,124528,1,2,0:0:0:0:
96,192,124528,128,4,124697:0:0:0:0:
224,192,124697,1,4,0:0:0:0:
329,192,124865,1,2,0:0:0:0:
480,192,125034,1,14,0:0:0:0:
32,192,125034,1,0,0:0:0:50:drum_cym.wav
