osu file format v14

[General]
AudioFilename: audio.mp3
AudioLeadIn: 0
PreviewTime: 90136
Countdown: 0
SampleSet: Soft
StackLeniency: 0.6
Mode: 0
LetterboxInBreaks: 0
WidescreenStoryboard: 1

[Editor]
Bookmarks: 24562,113647
DistanceSpacing: 1.1
BeatDivisor: 4
GridSize: 4
TimelineZoom: 1

[Metadata]
Title:Yume Tourou (TV Size)
TitleUnicode:夢灯籠 (TV Size)
Artist:RADWIMPS
ArtistUnicode:RADWIMPS
Creator:Gero
Version:Hard
Source:君の名は。
Tags:Makoto Shinkai Movie Taki Mitsuha Your Name. Kimi no Na wa. bossandy Nyantiaz DivineEnigma
BeatmapID:2229630
BeatmapSetID:831054

[Difficulty]
HPDrainRate:6.5
CircleSize:4
OverallDifficulty:6.5
ApproachRate:7.5
SliderMultiplier:1.4
SliderTickRate:2

[Events]
//Background and Video events
0,0,"BG.png",0,0
Video,9080,"Taki.mp4"
//Break Periods
//Storyboard Layer 0 (Background)
//Storyboard Layer 1 (Fail)
//Storyboard Layer 2 (Pass)
//Storyboard Layer 3 (Foreground)
//Storyboard Layer 4 (Overlay)
//Storyboard Sound Samples

[TimingPoints]
24562,348.837209302326,4,2,0,70,1,0
24562,-125,4,2,0,70,0,0
52468,337.078651685393,4,2,0,70,1,0
90220,-100,4,2,0,70,0,1
113647,-100,4,2,0,70,0,0

[Colours]
Combo1 : 255,134,255
Combo2 : 255,157,60
Combo3 : 167,79,255
Combo4 : 77,166,255
SliderTrackOverride : 17,17,17

[HitObjects]
332,264,24562,6,0,P|256:294|180:264,1,168
208,192,25259,2,0,L|208:80,1,112
256,16,25782,1,0,0:0:0:0:
304,80,25957,2,0,L|304:192,1,112
256,344,26655,1,0,0:0:0:0:
208,192,27003,1,0,0:0:0:0:
256,256,27178,1,0,0:0:0:0:
304,192,27352,6,0,B|339:168|383:192|383:192|427:216|462:192,2,168
256,40,28748,2,0,B|221:16|177:40|177:40|133:64|98:40,1,168
24,67,29445,2,0,B|18:40|18:40|24:13,2,56
120,192,30143,6,0,P|185:242|215:319,1,168
296,319,30841,2,0,P|326:242|391:192,1,168
344,132,31538,2,0,B|344:88|344:88|344:52|316:28,1,112
256,80,32062,1,0,0:0:0:0:
196,28,32236,2,0,B|168:52|168:88|168:88|168:132,1,112
216,192,32759,1,0,0:0:0:0:
296,192,32934,1,0,0:0:0:0:
256,344,33282,1,0,0:0:0:0:
296,192,33631,2,0,L|376:192,2,74.6666666666667
296,192,34329,6,0,L|296:136,1,56
256,68,34678,1,0,0:0:0:0:
216,136,34852,2,0,L|104:136,1,112
48,192,35375,1,0,0:0:0:0:
188,260,35724,6,0,B|212:292|212:292|300:292|300:292|324:260,1,168
368,192,36422,2,0,B|384:140|364:96|320:72|320:72|296:60,1,168
216,60,37120,2,0,B|192:72|192:72|148:96|128:140|144:192,1,168
188,260,37817,2,0,B|167:312|167:312|188:364,1,112
256,324,38341,1,0,0:0:0:0:
324,364,38515,6,0,B|364:384|404:360|404:360|444:384|484:364,2,168
404,229,39910,2,0,B|404:185|404:185|408:178|408:178|400:178|400:178|404:170|404:170|404:127,1,112
344,76,40434,1,0,0:0:0:0:
284,127,40608,2,0,L|228:127,2,56
140,192,41306,5,0,0:0:0:0:
256,300,41655,1,0,0:0:0:0:
372,192,42003,1,0,0:0:0:0:
372,192,42178,2,0,P|424:174|476:192,1,112
424,252,42701,2,0,P|372:270|320:252,1,112
140,192,43399,2,0,B|116:157|140:113|140:113|164:69|140:34,2,168
256,300,44794,2,0,B|256:132,2,168
372,192,46189,2,0,B|396:157|372:113|372:113|348:69|372:34,2,168
372,349,47585,5,0,0:0:0:0:
332,284,47759,1,0,0:0:0:0:
180,284,48108,1,0,0:0:0:0:
140,349,48282,1,0,0:0:0:0:
140,192,48631,1,0,0:0:0:0:
256,88,48980,1,0,0:0:0:0:
256,88,49155,2,0,L|256:32,2,56
334,88,49678,6,0,L|446:88,1,112
334,192,50375,2,0,B|288:192|288:192|256:213|256:213|224:192|224:192|178:192,2,168
446,296,51771,1,0,0:0:0:0:
446,296,51945,2,0,L|502:296,2,56
366,296,52468,6,0,B|305:296|305:296|297:292|297:292|289:288|289:288|227:288,1,140
164,330,52973,2,0,L|65:230,1,140
10,175,53479,1,0,0:0:0:0:
146,88,53816,6,0,B|207:88|207:88|215:92|215:92|223:96|223:96|284:96,1,140
348,54,54321,2,0,L|446:153,1,140
502,209,54827,1,0,0:0:0:0:
366,296,55164,6,0,B|344:280|312:268|268:280|268:280|231:287,1,140
164,330,55669,2,0,L|65:230,1,140
10,175,56175,1,0,0:0:0:0:
146,88,56512,6,0,B|168:104|200:116|244:104|244:104|280:96,1,140
348,54,57017,2,0,L|446:153,1,140
502,209,57523,1,0,0:0:0:0:
366,296,57861,6,0,B|357:330|357:330|366:364,2,70
332,148,58535,2,0,L|332:78,2,70
180,148,59209,2,0,L|180:78,2,70
146,296,59883,2,0,B|155:330|155:330|146:364,2,70
10,209,60557,6,0,B|11:140|11:140|44:78,1,140
121,77,61063,2,0,B|178:77|178:77|186:73|186:73|186:81|186:81|194:77|194:77|251:77,1,140
328,77,61569,1,0,0:0:0:0:
502,175,61906,6,0,B|501:244|501:244|468:306,1,140
391,307,62412,2,0,B|334:307|334:307|326:311|326:311|326:303|326:303|318:307|318:307|261:307,1,140
184,307,62918,1,0,0:0:0:0:
10,209,63254,6,0,L|108:110,1,140
163,55,63760,1,0,0:0:0:0:
218,111,63928,2,0,B|244:98|256:54|256:54|268:98|294:111,1,140
349,55,64434,1,0,0:0:0:0:
403,110,64602,6,0,P|436:101|469:110,2,70
349,165,65108,1,0,0:0:0:0:
403,220,65276,2,0,B|403:280|403:280|399:288|399:288|395:300|395:300|395:358,1,140
317,358,65782,1,0,0:0:0:0:
239,357,65951,6,0,B|168:357|168:357|119:307,1,140
65,253,66456,1,0,0:0:0:0:
119,198,66625,2,0,L|189:198,2,70
65,143,67130,1,0,0:0:0:0:
119,88,67299,6,0,B|154:27|154:27|189:88,1,140
256,48,67805,1,0,0:0:0:0:
323,88,67973,2,0,B|358:27|358:27|393:88,1,140
447,143,68479,1,0,0:0:0:0:
393,198,68647,6,0,P|334:233|318:299,1,140
256,344,69153,1,0,0:0:0:0:
193,299,69321,2,0,P|177:233|118:198,1,140
65,143,69827,1,0,0:0:0:0:
119,88,69996,5,0,0:0:0:0:
256,160,70333,1,0,0:0:0:0:
393,88,70670,1,0,0:0:0:0:
256,160,71007,2,0,B|242:192|242:192|256:224,1,70
310,278,71344,6,0,L|364:332,1,70
294,368,71681,1,0,0:0:0:0:
218,368,71850,1,0,0:0:0:0:
152,327,72018,2,0,L|202:278,1,70
256,224,72355,1,0,0:0:0:0:
310,278,72524,1,0,0:0:0:0:
256,224,72692,6,0,L|256:76,1,140
294,17,73198,1,0,0:0:0:0:
218,17,73366,1,0,0:0:0:0:
256,168,73703,1,0,0:0:0:0:
294,17,74041,6,0,B|294:47|294:47|256:28|218:47|218:47|218:17,1,140
141,16,74546,1,0,0:0:0:0:
63,16,74715,2,0,L|-7:16,2,70
63,92,75220,1,0,0:0:0:0:
141,92,75389,6,0,L|211:92,2,70
141,168,75894,1,0,0:0:0:0:
63,168,76063,2,0,L|-12:168,2,70
63,245,76569,1,0,0:0:0:0:
141,245,76737,6,0,B|181:245|181:245|231:245|256:302,1,140
310,356,77243,1,0,0:0:0:0:
364,301,77411,2,0,L|414:351,1,70
468,296,77748,2,0,L|418:246,1,70
472,191,78085,6,0,P|496:127|472:63,1,140
418,8,78591,1,0,0:0:0:0:
364,63,78760,2,0,P|340:127|364:191,1,140
418,246,79265,1,0,0:0:0:0:
364,301,79434,6,0,B|302:301|302:301|294:305|294:305|286:309|286:309|225:309,1,140
171,363,79939,1,0,0:0:0:0:
117,309,80108,2,0,B|131:277|131:277|117:245,1,70
171,191,80445,2,0,B|157:159|157:159|171:127,1,70
225,73,80782,5,0,0:0:0:0:
279,127,80950,1,0,0:0:0:0:
225,73,81119,1,0,0:0:0:0:
279,127,81287,1,0,0:0:0:0:
333,73,81456,2,0,B|360:96|356:141|356:141|421:141,1,140
480,192,81962,1,0,0:0:0:0:
421,243,82130,6,0,P|388:252|355:243,1,70
296,192,82467,2,0,P|263:183|230:192,1,70
171,243,82805,1,0,0:0:0:0:
24,192,83142,1,0,0:0:0:0:
171,141,83479,5,0,0:0:0:0:
230,192,83647,1,0,0:0:0:0:
171,243,83816,1,0,0:0:0:0:
236,192,83984,2,0,L|271:192,2,35
171,141,84321,1,0,0:0:0:0:
113,192,84489,1,0,0:0:0:0:
229,294,84827,6,0,L|369:294,1,140
428,344,85333,1,0,0:0:0:0:
488,293,85501,2,0,P|512:229|488:165,1,140
428,114,86007,2,0,B|360:114|360:114|309:63,1,140
256,120,86512,1,0,0:0:0:0:
202,63,86681,1,0,0:0:0:0:
256,120,86850,1,0,0:0:0:0:
202,63,87018,2,0,B|152:114|152:114|84:114,1,140
24,163,87524,6,0,P|0:227|24:291,1,140
84,344,88029,1,0,0:0:0:0:
143,294,88198,2,0,L|283:294,1,140
342,244,88703,2,0,P|375:235|408:244,1,70
467,294,89041,2,0,L|482:262,3,35
501,228,89378,1,0,0:0:0:0:
443,176,89546,2,0,L|458:144,3,35
477,110,89883,1,0,0:0:0:0:
419,58,90052,5,0,0:0:0:0:
419,58,90136,1,0,0:0:0:0:
419,58,90220,2,0,P|359:27|299:58,1,140
256,120,90726,1,0,0:0:0:0:
213,58,90894,2,0,P|153:27|93:58,1,140
35,110,91400,1,0,0:0:0:0:
93,162,91569,6,0,B|156:192|156:192|93:222,1,140
35,274,92074,1,0,0:0:0:0:
93,326,92243,1,0,0:0:0:0:
93,326,92411,2,0,L|163:326,1,70
221,274,92748,1,0,0:0:0:0:
279,326,92917,6,0,B|290:292|327:277|327:277|341:241|375:229,1,140
444,192,93423,1,0,0:0:0:0:
375,154,93591,2,0,B|341:142|327:106|327:106|290:91|279:58,1,140
221,110,94097,1,0,0:0:0:0:
163,58,94265,6,0,L|93:58,1,70
35,110,94602,1,0,0:0:0:0:
93,172,94771,1,0,0:0:0:0:
93,167,94855,1,0,0:0:0:0:
93,162,94939,2,0,L|163:162,1,70
221,110,95276,1,0,0:0:0:0:
279,58,95445,1,0,0:0:0:0:
337,110,95614,6,0,B|279:149|279:149|221:110,1,140
163,162,96119,1,0,0:0:0:0:
221,214,96288,2,0,B|235:246|235:246|221:278,1,70
163,330,96625,1,0,0:0:0:0:
105,278,96793,1,0,0:0:0:0:
163,330,96962,6,0,B|234:330|234:330|282:378,1,140
337,324,97467,1,0,0:0:0:0:
392,379,97636,1,0,0:0:0:0:
337,324,97805,2,0,P|328:291|337:258,1,70
392,203,98142,1,0,0:0:0:0:
337,148,98310,6,0,P|273:124|209:148,1,140
154,93,98816,1,0,0:0:0:0:
100,149,98984,2,0,B|45:192|45:192|100:235,1,140
154,291,99490,1,0,0:0:0:0:
209,236,99659,5,0,0:0:0:0:
264,291,99827,1,0,0:0:0:0:
264,297,99911,1,0,0:0:0:0:
264,303,99996,1,0,0:0:0:0:
319,236,100164,1,0,0:0:0:0:
264,181,100333,2,0,L|313:131,2,70
209,126,100838,1,0,0:0:0:0:
209,125,101007,6,0,L|159:174,1,70
96,129,101344,2,0,P|52:115|8:129,2,93.3333333333333
96,129,102018,2,0,P|87:96|96:63,1,70
160,17,102355,6,0,L|300:17,1,140
364,63,102861,1,0,0:0:0:0:
428,17,103029,1,0,0:0:0:0:
364,63,103198,2,0,P|355:96|364:129,1,70
428,175,103535,1,0,0:0:0:0:
428,175,103703,6,0,P|364:151|300:175,1,140
256,112,104209,2,0,P|280:176|256:240,1,140
320,283,104715,1,0,0:0:0:0:
256,327,104883,1,0,0:0:0:0:
192,283,105052,6,0,B|123:283|123:283|72:232,1,140
8,192,105557,2,0,B|-7:160,2,35
72,151,105894,2,0,B|56:119,2,35
136,110,106232,5,0,0:0:0:0:
136,110,106316,1,0,0:0:0:0:
136,110,106400,2,0,B|104:47,2,70
200,69,106906,2,0,P|256:33|312:69,1,140
376,110,107411,1,0,0:0:0:0:
318,69,107580,1,0,0:0:0:0:
382,110,107748,6,0,B|451:110|451:110|508:151,1,140
508,233,108254,2,0,B|451:274|451:274|382:274,1,140
318,315,108760,1,0,0:0:0:0:
376,274,108928,1,0,0:0:0:0:
312,315,109097,6,0,P|256:351|200:315,1,140
136,274,109602,2,0,B|136:224|136:224|91:192|91:192|136:160|136:160|136:110,1,210
200,69,110276,1,0,0:0:0:0:
136,28,110445,5,0,0:0:0:0:
200,69,110614,2,0,L|217:38,2,35
256,121,110951,2,0,L|256:156,2,35
312,69,111288,2,0,L|294:38,2,35
376,110,111625,1,0,0:0:0:0:
440,69,111793,6,0,B|426:37|426:37|440:5,2,70
504,110,112299,2,0,B|504:167|504:167|500:175|500:175|508:175|508:175|504:183|504:183|504:240,1,140
440,281,112805,1,0,0:0:0:0:
440,281,113142,6,0,B|426:313|426:313|440:345,2,70
376,240,113647,1,0,0:0:0:0:
