osu file format v14

[General]
AudioFilename: audio.mp3
AudioLeadIn: 0
PreviewTime: 24482
Countdown: 0
SampleSet: Normal
StackLeniency: 0.2
Mode: 1
LetterboxInBreaks: 0
WidescreenStoryboard: 0

[Editor]
Bookmarks: 63165
DistanceSpacing: 1.1
BeatDivisor: 4
GridSize: 32
TimelineZoom: 0.7999997

[Metadata]
Title:Yume Tourou
TitleUnicode:夢灯籠
Artist:RADWIMPS
ArtistUnicode:RADWIMPS
Creator:Poii
Version:Nardo's Oni
Source:君の名は。
Tags:Kimi no Na wa Your Name Opening OP 洋次郎 野田 Nardoxyribonucleic
BeatmapID:1650565
BeatmapSetID:784759

[Difficulty]
HPDrainRate:6
CircleSize:2
OverallDifficulty:5.5
ApproachRate:10
SliderMultiplier:1.4
SliderTickRate:1

[Events]
//Background and Video events
0,0,"kimi no background.jpg",0,0
//Break Periods
//Storyboard Layer 0 (Background)
//Storyboard Layer 1 (Fail)
//Storyboard Layer 2 (Pass)
//Storyboard Layer 3 (Foreground)
//Storyboard Sound Samples

[TimingPoints]
24482,348.837209302326,4,1,0,40,1,0
24482,-111.111111111111,4,1,0,40,0,0
40528,-109.89010989011,4,1,0,40,0,0
40702,-108.695652173913,4,1,0,40,0,0
40877,-107.52688172043,4,1,0,40,0,0
41051,-106.382978723404,4,1,0,40,0,0
41226,-105.263157894737,4,1,0,55,0,0
51691,-104.166666666667,4,1,0,55,0,0
51865,-103.092783505155,4,1,0,60,0,0
52040,-102.040816326531,4,1,0,65,0,0
52127,-101.522842639594,4,1,0,70,0,0
52214,-101.010101010101,4,1,0,75,0,0
52379,337.078651685393,4,1,0,80,1,0
52379,-100,4,1,0,80,0,0
62491,-102.040816326531,4,1,0,80,0,0
62575,-103.092783505155,4,1,0,80,0,0
62659,-104.166666666667,4,1,0,80,0,0
62744,-105.263157894737,4,1,0,80,0,0
62828,-106.382978723404,4,1,0,80,0,0
62912,-107.52688172043,4,1,0,80,0,0
62996,-108.695652173913,4,1,0,80,0,0
63081,-109.89010989011,4,1,0,80,0,0
63165,-111.111111111111,4,1,0,60,0,0
72940,-109.58904109589,4,1,0,60,0,0
73109,-108.843537414966,4,1,0,60,0,0
73277,-108.108108108108,4,1,0,60,0,0
73446,-107.38255033557,4,1,0,60,0,0
73614,-106.666666666667,4,1,0,60,0,0
73952,-105.263157894737,4,1,0,70,0,0
84738,-100,4,1,0,80,0,0
90131,-95.2380952380952,4,1,0,85,0,1
113558,-95.2380952380952,4,1,0,85,0,0
114401,-100,4,1,0,80,0,0

[HitObjects]
256,192,24482,5,0,0:0:0:0:
256,192,25005,1,8,0:0:0:0:
256,192,25179,1,0,0:0:0:0:
256,192,25528,1,8,0:0:0:0:
256,192,25702,1,8,0:0:0:0:
256,192,25877,1,0,0:0:0:0:
256,192,26226,1,8,0:0:0:0:
256,192,26575,1,0,0:0:0:0:
256,192,26923,1,8,0:0:0:0:
256,192,27098,1,0,0:0:0:0:
256,192,27272,1,8,0:0:0:0:
256,192,29888,1,8,0:0:0:0:
256,192,30063,1,0,0:0:0:0:
256,192,30586,1,0,0:0:0:0:
256,192,30761,1,0,0:0:0:0:
256,192,31284,1,0,0:0:0:0:
256,192,31458,1,8,0:0:0:0:
256,192,31807,1,8,0:0:0:0:
256,192,31982,1,8,0:0:0:0:
256,192,32156,1,0,0:0:0:0:
256,192,32505,1,0,0:0:0:0:
256,192,32679,1,8,0:0:0:0:
256,192,32854,1,0,0:0:0:0:
256,192,33551,1,0,0:0:0:0:
256,192,33784,1,8,0:0:0:0:
256,192,34016,1,8,0:0:0:0:
256,192,34249,1,0,0:0:0:0:
256,192,35470,1,8,0:0:0:0:
256,192,35644,1,0,0:0:0:0:
256,192,36168,1,0,0:0:0:0:
256,192,36342,1,8,0:0:0:0:
256,192,36865,1,8,0:0:0:0:
256,192,37040,1,0,0:0:0:0:
256,192,37563,1,0,0:0:0:0:
256,192,37737,1,0,0:0:0:0:
256,192,38086,1,8,0:0:0:0:
256,192,38261,1,0,0:0:0:0:
256,192,38435,1,8,0:0:0:0:
256,192,40528,1,0,0:0:0:0:
256,192,40702,1,0,0:0:0:0:
256,192,40877,1,8,0:0:0:0:
256,192,41051,1,8,0:0:0:0:
256,192,41226,1,0,0:0:0:0:
256,192,41575,1,8,0:0:0:0:
256,192,41923,1,8,0:0:0:0:
256,192,42098,1,8,0:0:0:0:
256,192,42447,1,0,0:0:0:0:
256,192,42621,1,8,0:0:0:0:
256,192,43319,1,0,0:0:0:0:
256,192,43493,1,0,0:0:0:0:
256,192,43668,1,8,0:0:0:0:
256,192,43842,1,0,0:0:0:0:
256,192,44191,1,0,0:0:0:0:
256,192,44365,1,8,0:0:0:0:
256,192,44540,1,0,0:0:0:0:
256,192,44714,1,8,0:0:0:0:
256,192,45063,1,8,0:0:0:0:
256,192,45237,1,8,0:0:0:0:
256,192,45412,1,0,0:0:0:0:
256,192,46109,1,0,0:0:0:0:
256,192,46284,1,0,0:0:0:0:
256,192,46458,1,8,0:0:0:0:
256,192,46633,1,0,0:0:0:0:
256,192,46982,1,0,0:0:0:0:
256,192,47156,1,8,0:0:0:0:
256,192,47330,1,0,0:0:0:0:
256,192,47505,1,8,0:0:0:0:
256,192,47679,1,0,0:0:0:0:
256,192,48028,1,8,0:0:0:0:
256,192,48202,1,0,0:0:0:0:
256,192,48900,1,0,0:0:0:0:
256,192,49075,1,0,0:0:0:0:
256,192,49249,1,8,0:0:0:0:
256,192,49423,1,8,0:0:0:0:
256,192,49598,1,0,0:0:0:0:
256,192,49947,1,8,0:0:0:0:
256,192,50121,1,0,0:0:0:0:
256,192,50295,1,8,0:0:0:0:
256,192,50644,1,0,0:0:0:0:
256,192,50819,1,8,0:0:0:0:
256,192,50993,1,0,0:0:0:0:
256,192,51342,1,8,0:0:0:0:
256,192,51691,1,0,0:0:0:0:
256,192,51865,1,0,0:0:0:0:
256,192,52040,1,8,0:0:0:0:
256,192,52127,1,8,0:0:0:0:
256,192,52214,1,8,0:0:0:0:
256,192,52379,1,4,0:0:0:0:
256,192,52716,1,8,0:0:0:0:
256,192,52884,1,0,0:0:0:0:
256,192,52968,1,0,0:0:0:0:
256,192,53053,1,0,0:0:0:0:
256,192,53221,1,8,0:0:0:0:
256,192,53390,1,8,0:0:0:0:
256,192,53558,1,0,0:0:0:0:
256,192,53727,1,8,0:0:0:0:
256,192,53811,1,8,0:0:0:0:
256,192,53895,1,0,0:0:0:0:
256,192,54064,1,8,0:0:0:0:
256,192,54232,1,0,0:0:0:0:
256,192,54317,1,8,0:0:0:0:
256,192,54401,1,0,0:0:0:0:
256,192,54570,1,8,0:0:0:0:
256,192,54738,1,12,0:0:0:0:
256,192,55075,1,4,0:0:0:0:
256,192,55412,1,8,0:0:0:0:
256,192,55581,1,0,0:0:0:0:
256,192,55665,1,0,0:0:0:0:
256,192,55749,1,0,0:0:0:0:
256,192,55918,1,8,0:0:0:0:
256,192,56086,1,8,0:0:0:0:
256,192,56255,1,0,0:0:0:0:
256,192,56339,1,8,0:0:0:0:
256,192,56423,1,0,0:0:0:0:
256,192,56508,1,0,0:0:0:0:
256,192,56592,1,8,0:0:0:0:
256,192,56761,1,8,0:0:0:0:
256,192,56929,1,0,0:0:0:0:
256,192,57013,1,0,0:0:0:0:
256,192,57098,1,8,0:0:0:0:
256,192,57266,1,0,0:0:0:0:
256,192,57435,1,8,0:0:0:0:
256,192,57547,1,8,0:0:0:0:
256,192,57659,1,8,0:0:0:0:
256,192,57772,1,0,0:0:0:0:
256,192,58025,1,0,0:0:0:0:
256,192,58109,1,8,0:0:0:0:
256,192,58277,1,0,0:0:0:0:
256,192,58446,1,8,0:0:0:0:
256,192,58614,1,0,0:0:0:0:
256,192,58699,1,0,0:0:0:0:
256,192,58783,1,8,0:0:0:0:
256,192,58952,1,0,0:0:0:0:
256,192,59120,1,8,0:0:0:0:
256,192,59204,1,8,0:0:0:0:
256,192,59289,1,0,0:0:0:0:
256,192,59457,1,8,0:0:0:0:
256,192,59626,1,0,0:0:0:0:
256,192,59710,1,8,0:0:0:0:
256,192,59794,1,0,0:0:0:0:
256,192,59963,1,8,0:0:0:0:
256,192,60131,1,12,0:0:0:0:
256,192,60468,1,4,0:0:0:0:
256,192,60805,1,8,0:0:0:0:
256,192,60974,1,0,0:0:0:0:
256,192,61058,1,0,0:0:0:0:
256,192,61143,1,0,0:0:0:0:
256,192,61311,1,8,0:0:0:0:
256,192,61480,1,8,0:0:0:0:
256,192,61648,1,0,0:0:0:0:
256,192,61732,1,8,0:0:0:0:
256,192,61817,1,0,0:0:0:0:
256,192,61985,1,8,0:0:0:0:
256,192,62154,1,8,0:0:0:0:
256,192,62238,1,0,0:0:0:0:
256,192,62322,1,0,0:0:0:0:
256,192,62491,1,0,0:0:0:0:
256,192,62575,1,0,0:0:0:0:
256,192,62659,1,0,0:0:0:0:
256,192,62744,1,0,0:0:0:0:
256,192,62828,1,8,0:0:0:0:
256,192,62912,1,8,0:0:0:0:
256,192,62996,1,8,0:0:0:0:
256,192,63081,1,8,0:0:0:0:
256,192,63165,1,0,0:0:0:0:
256,192,63671,1,8,0:0:0:0:
256,192,63839,1,0,0:0:0:0:
256,192,64176,1,8,0:0:0:0:
256,192,64345,1,8,0:0:0:0:
256,192,64513,1,0,0:0:0:0:
256,192,64850,1,8,0:0:0:0:
256,192,65187,1,0,0:0:0:0:
256,192,65525,1,8,0:0:0:0:
256,192,65693,1,0,0:0:0:0:
256,192,65862,1,8,0:0:0:0:
256,192,66367,1,0,0:0:0:0:
256,192,66536,1,8,0:0:0:0:
256,192,66704,1,0,0:0:0:0:
256,192,66873,1,0,0:0:0:0:
256,192,67041,1,8,0:0:0:0:
256,192,67210,1,0,0:0:0:0:
256,192,67547,1,8,0:0:0:0:
256,192,67884,1,0,0:0:0:0:
256,192,68221,1,8,0:0:0:0:
256,192,68390,1,0,0:0:0:0:
256,192,68558,1,8,0:0:0:0:
256,192,69064,1,8,0:0:0:0:
256,192,69232,1,0,0:0:0:0:
256,192,69570,1,0,0:0:0:0:
256,192,69738,1,8,0:0:0:0:
256,192,69907,1,0,0:0:0:0:
256,192,70244,1,8,0:0:0:0:
256,192,70581,1,0,0:0:0:0:
256,192,71086,1,0,0:0:0:0:
256,192,71255,1,8,0:0:0:0:
256,192,71423,1,0,0:0:0:0:
256,192,71592,1,8,0:0:0:0:
256,192,71761,1,8,0:0:0:0:
256,192,71929,1,0,0:0:0:0:
256,192,72266,1,8,0:0:0:0:
256,192,72435,1,8,0:0:0:0:
256,192,72603,1,0,0:0:0:0:
256,192,72940,1,0,0:0:0:0:
256,192,73109,1,8,0:0:0:0:
256,192,73277,1,0,0:0:0:0:
256,192,73446,1,0,0:0:0:0:
256,192,73614,1,8,0:0:0:0:
256,192,73952,1,4,0:0:0:0:
256,192,74457,1,8,0:0:0:0:
256,192,74626,1,0,0:0:0:0:
256,192,74794,1,8,0:0:0:0:
256,192,74963,1,8,0:0:0:0:
256,192,75131,1,0,0:0:0:0:
256,192,75300,1,8,0:0:0:0:
256,192,75468,1,0,0:0:0:0:
256,192,75637,1,8,0:0:0:0:
256,192,75805,1,0,0:0:0:0:
256,192,76143,1,0,0:0:0:0:
256,192,76311,1,8,0:0:0:0:
256,192,76480,1,0,0:0:0:0:
256,192,76648,1,8,0:0:0:0:
256,192,77154,1,8,0:0:0:0:
256,192,77322,1,8,0:0:0:0:
256,192,77491,1,0,0:0:0:0:
256,192,77659,1,8,0:0:0:0:
256,192,77828,1,0,0:0:0:0:
256,192,77996,1,8,0:0:0:0:
256,192,78334,1,8,0:0:0:0:
256,192,78671,1,0,0:0:0:0:
256,192,79008,1,8,0:0:0:0:
256,192,79176,1,0,0:0:0:0:
256,192,79345,1,0,0:0:0:0:
256,192,79850,1,0,0:0:0:0:
256,192,80019,1,8,0:0:0:0:
256,192,80187,1,0,0:0:0:0:
256,192,80356,1,0,0:0:0:0:
256,192,80525,1,8,0:0:0:0:
256,192,80693,1,8,0:0:0:0:
256,192,80862,1,0,0:0:0:0:
256,192,81030,1,0,0:0:0:0:
256,192,81199,1,8,0:0:0:0:
256,192,81367,1,0,0:0:0:0:
256,192,81873,1,0,0:0:0:0:
256,192,82041,1,8,0:0:0:0:
256,192,82210,1,0,0:0:0:0:
256,192,82294,1,0,0:0:0:0:
256,192,82378,1,8,0:0:0:0:
256,192,82547,1,8,0:0:0:0:
256,192,82716,1,0,0:0:0:0:
256,192,83053,1,8,0:0:0:0:
256,192,83390,1,0,0:0:0:0:
256,192,83558,1,0,0:0:0:0:
256,192,83643,1,0,0:0:0:0:
256,192,83727,1,8,0:0:0:0:
256,192,83895,1,8,0:0:0:0:
256,192,83980,1,8,0:0:0:0:
256,192,84064,1,0,0:0:0:0:
256,192,84232,1,0,0:0:0:0:
256,192,84401,1,8,0:0:0:0:
256,192,84485,1,0,0:0:0:0:
256,192,84570,1,0,0:0:0:0:
256,192,84738,1,8,0:0:0:0:
256,192,85075,1,8,0:0:0:0:
256,192,85244,1,0,0:0:0:0:
256,192,85412,1,8,0:0:0:0:
256,192,85581,1,0,0:0:0:0:
256,192,85749,1,0,0:0:0:0:
256,192,85918,1,8,0:0:0:0:
256,192,86086,1,8,0:0:0:0:
256,192,86255,1,0,0:0:0:0:
256,192,86339,1,0,0:0:0:0:
256,192,86423,1,8,0:0:0:0:
256,192,86592,1,8,0:0:0:0:
256,192,86761,1,0,0:0:0:0:
256,192,86929,1,8,0:0:0:0:
256,192,87435,1,0,0:0:0:0:
256,192,87603,1,8,0:0:0:0:
256,192,87772,1,8,0:0:0:0:
256,192,87940,1,0,0:0:0:0:
256,192,88109,1,8,0:0:0:0:
256,192,88277,1,0,0:0:0:0:
256,192,88446,1,0,0:0:0:0:
256,192,88614,1,8,0:0:0:0:
256,192,88783,1,0,0:0:0:0:
256,192,88952,1,8,0:0:0:0:
256,192,89036,1,8,0:0:0:0:
256,192,89120,1,8,0:0:0:0:
256,192,89204,1,8,0:0:0:0:
256,192,89289,1,0,0:0:0:0:
256,192,89457,1,8,0:0:0:0:
256,192,89541,1,8,0:0:0:0:
256,192,89626,1,8,0:0:0:0:
256,192,89794,1,0,0:0:0:0:
256,192,89963,1,8,0:0:0:0:
256,192,90131,1,4,0:0:0:0:
256,192,90468,1,8,0:0:0:0:
256,192,90637,1,0,0:0:0:0:
256,192,90721,1,0,0:0:0:0:
256,192,90805,1,0,0:0:0:0:
256,192,90974,1,0,0:0:0:0:
256,192,91143,1,8,0:0:0:0:
256,192,91311,1,0,0:0:0:0:
256,192,91395,1,0,0:0:0:0:
256,192,91480,1,8,0:0:0:0:
256,192,91564,1,8,0:0:0:0:
256,192,91648,1,0,0:0:0:0:
256,192,91817,1,8,0:0:0:0:
256,192,91985,1,0,0:0:0:0:
256,192,92070,1,8,0:0:0:0:
256,192,92154,1,0,0:0:0:0:
256,192,92322,1,8,0:0:0:0:
256,192,92491,1,0,0:0:0:0:
256,192,92659,1,8,0:0:0:0:
256,192,92744,1,8,0:0:0:0:
256,192,92828,1,0,0:0:0:0:
256,192,92996,1,0,0:0:0:0:
256,192,93165,1,8,0:0:0:0:
256,192,93334,1,0,0:0:0:0:
256,192,93502,1,8,0:0:0:0:
256,192,93839,1,0,0:0:0:0:
256,192,94008,1,8,0:0:0:0:
256,192,94176,1,0,0:0:0:0:
256,192,94513,1,8,0:0:0:0:
256,192,94766,1,8,0:0:0:0:
256,192,94850,1,0,0:0:0:0:
256,192,95019,1,0,0:0:0:0:
256,192,95187,1,8,0:0:0:0:
256,192,95356,1,0,0:0:0:0:
256,192,95525,1,12,0:0:0:0:
256,192,95862,1,0,0:0:0:0:
256,192,96030,1,8,0:0:0:0:
256,192,96114,1,8,0:0:0:0:
256,192,96199,1,8,0:0:0:0:
256,192,96367,1,0,0:0:0:0:
256,192,96536,1,8,0:0:0:0:
256,192,96704,1,0,0:0:0:0:
256,192,96873,1,8,0:0:0:0:
256,192,96957,1,8,0:0:0:0:
256,192,97041,1,0,0:0:0:0:
256,192,97126,1,0,0:0:0:0:
256,192,97210,1,8,0:0:0:0:
256,192,97378,1,0,0:0:0:0:
256,192,97547,1,8,0:0:0:0:
256,192,97631,1,0,0:0:0:0:
256,192,97716,1,8,0:0:0:0:
256,192,97884,1,0,0:0:0:0:
256,192,98053,1,8,0:0:0:0:
256,192,98137,1,8,0:0:0:0:
256,192,98221,1,0,0:0:0:0:
256,192,98390,1,0,0:0:0:0:
256,192,98558,1,8,0:0:0:0:
256,192,98727,1,0,0:0:0:0:
256,192,98895,1,8,0:0:0:0:
256,192,99232,1,0,0:0:0:0:
256,192,99401,1,8,0:0:0:0:
256,192,99570,1,0,0:0:0:0:
256,192,99822,1,8,0:0:0:0:
256,192,99907,1,0,0:0:0:0:
256,192,100075,1,0,0:0:0:0:
256,192,100244,1,8,0:0:0:0:
256,192,100412,1,8,0:0:0:0:
256,192,100581,1,0,0:0:0:0:
256,192,100749,1,8,0:0:0:0:
256,192,100918,1,0,0:0:0:0:
256,192,101255,1,0,0:0:0:0:
256,192,101423,1,8,0:0:0:0:
256,192,101761,1,8,0:0:0:0:
256,192,101929,1,0,0:0:0:0:
256,192,102098,1,8,0:0:0:0:
256,192,102266,1,8,0:0:0:0:
256,192,102603,1,0,0:0:0:0:
256,192,102772,1,0,0:0:0:0:
256,192,102940,1,8,0:0:0:0:
256,192,103109,1,8,0:0:0:0:
256,192,103277,1,0,0:0:0:0:
256,192,103446,1,8,0:0:0:0:
256,192,103614,1,0,0:0:0:0:
256,192,103952,1,8,0:0:0:0:
256,192,104120,1,0,0:0:0:0:
256,192,104457,1,0,0:0:0:0:
256,192,104626,1,8,0:0:0:0:
256,192,104794,1,8,0:0:0:0:
256,192,104963,1,0,0:0:0:0:
256,192,105300,1,8,0:0:0:0:
256,192,105637,1,0,0:0:0:0:
256,192,105805,1,0,0:0:0:0:
256,192,105890,1,0,0:0:0:0:
256,192,105974,1,0,0:0:0:0:
256,192,106143,1,0,0:0:0:0:
256,192,106311,1,12,0:0:0:0:
256,192,106480,1,0,0:0:0:0:
256,192,106564,1,0,0:0:0:0:
256,192,106648,1,8,0:0:0:0:
256,192,106817,1,8,0:0:0:0:
256,192,107154,1,8,0:0:0:0:
256,192,107322,1,0,0:0:0:0:
256,192,107491,1,8,0:0:0:0:
256,192,107575,1,8,0:0:0:0:
256,192,107659,1,0,0:0:0:0:
256,192,107828,1,0,0:0:0:0:
256,192,107996,1,8,0:0:0:0:
256,192,108165,1,0,0:0:0:0:
256,192,108249,1,0,0:0:0:0:
256,192,108334,1,8,0:0:0:0:
256,192,108502,1,8,0:0:0:0:
256,192,108671,1,0,0:0:0:0:
256,192,108839,1,8,0:0:0:0:
256,192,109008,1,0,0:0:0:0:
256,192,109345,1,8,0:0:0:0:
256,192,109513,1,8,0:0:0:0:
256,192,109682,1,0,0:0:0:0:
256,192,110019,1,0,0:0:0:0:
256,192,110187,1,8,0:0:0:0:
256,192,110356,1,0,0:0:0:0:
256,192,110525,1,0,0:0:0:0:
256,192,110693,1,8,0:0:0:0:
256,192,111030,1,0,0:0:0:0:
256,192,111199,1,0,0:0:0:0:
256,192,111283,1,0,0:0:0:0:
256,192,111367,1,0,0:0:0:0:
256,192,111536,1,8,0:0:0:0:
256,192,111704,1,4,0:0:0:0:
256,192,111873,1,0,0:0:0:0:
256,192,111957,1,0,0:0:0:0:
256,192,112041,1,8,0:0:0:0:
256,192,112210,1,8,0:0:0:0:
256,192,112547,1,8,0:0:0:0:
256,192,112716,1,0,0:0:0:0:
256,192,112884,1,8,0:0:0:0:
256,192,112968,1,0,0:0:0:0:
256,192,113053,1,0,0:0:0:0:
256,192,113221,1,8,0:0:0:0:
256,192,113305,1,8,0:0:0:0:
256,192,113390,1,0,0:0:0:0:
256,192,113558,1,12,0:0:0:0:
256,192,114401,1,4,0:0:0:0:
256,192,114738,1,8,0:0:0:0:
256,192,114907,1,0,0:0:0:0:
256,192,114991,1,0,0:0:0:0:
256,192,115075,1,0,0:0:0:0:
256,192,115244,1,8,0:0:0:0:
256,192,115412,1,8,0:0:0:0:
256,192,115581,1,0,0:0:0:0:
256,192,115749,1,8,0:0:0:0:
256,192,115834,1,8,0:0:0:0:
256,192,115918,1,0,0:0:0:0:
256,192,116086,1,8,0:0:0:0:
256,192,116255,1,0,0:0:0:0:
256,192,116339,1,8,0:0:0:0:
256,192,116423,1,0,0:0:0:0:
256,192,116592,1,8,0:0:0:0:
256,192,116761,1,12,0:0:0:0:
256,192,117098,1,4,0:0:0:0:
256,192,117435,1,8,0:0:0:0:
256,192,117603,1,0,0:0:0:0:
256,192,117687,1,0,0:0:0:0:
256,192,117772,1,0,0:0:0:0:
256,192,117940,1,8,0:0:0:0:
256,192,118109,1,8,0:0:0:0:
256,192,118277,1,0,0:0:0:0:
256,192,118362,1,8,0:0:0:0:
256,192,118446,1,0,0:0:0:0:
256,192,118530,1,0,0:0:0:0:
256,192,118614,1,8,0:0:0:0:
256,192,118783,1,8,0:0:0:0:
256,192,118952,1,0,0:0:0:0:
256,192,119036,1,0,0:0:0:0:
256,192,119120,1,8,0:0:0:0:
256,192,119289,1,0,0:0:0:0:
256,192,119457,1,8,0:0:0:0:
256,192,119570,1,8,0:0:0:0:
256,192,119682,1,8,0:0:0:0:
256,192,119794,1,0,0:0:0:0:
256,192,120047,1,0,0:0:0:0:
256,192,120131,1,8,0:0:0:0:
256,192,120300,1,0,0:0:0:0:
256,192,120468,1,8,0:0:0:0:
256,192,120637,1,0,0:0:0:0:
256,192,120721,1,0,0:0:0:0:
256,192,120805,1,8,0:0:0:0:
256,192,120974,1,0,0:0:0:0:
256,192,121143,1,8,0:0:0:0:
256,192,121227,1,8,0:0:0:0:
256,192,121311,1,0,0:0:0:0:
256,192,121480,1,8,0:0:0:0:
256,192,121648,1,0,0:0:0:0:
256,192,121732,1,8,0:0:0:0:
256,192,121817,1,0,0:0:0:0:
256,192,121985,1,8,0:0:0:0:
256,192,122154,1,12,0:0:0:0:
256,192,122491,1,4,0:0:0:0:
256,192,122828,1,8,0:0:0:0:
256,192,122996,1,0,0:0:0:0:
256,192,123081,1,0,0:0:0:0:
256,192,123165,1,0,0:0:0:0:
256,192,123334,1,8,0:0:0:0:
256,192,123502,1,8,0:0:0:0:
256,192,123671,1,0,0:0:0:0:
256,192,123755,1,8,0:0:0:0:
256,192,123839,1,0,0:0:0:0:
256,192,124008,1,8,0:0:0:0:
256,192,124176,1,8,0:0:0:0:
256,192,124261,1,0,0:0:0:0:
256,192,124345,1,8,0:0:0:0:
256,192,124513,1,0,0:0:0:0:
256,192,124598,1,0,0:0:0:0:
256,192,124682,1,8,0:0:0:0:
256,192,124766,1,8,0:0:0:0:
256,192,124850,1,0,0:0:0:0:
256,192,125019,1,8,0:0:0:0:
