osu file format v14

[General]
AudioFilename: audio.mp3
AudioLeadIn: 0
PreviewTime: 24482
Countdown: 0
SampleSet: Normal
StackLeniency: 0.2
Mode: 1
LetterboxInBreaks: 0
WidescreenStoryboard: 0

[Editor]
Bookmarks: 63165
DistanceSpacing: 1.1
BeatDivisor: 4
GridSize: 32
TimelineZoom: 2

[Metadata]
Title:Yume Tourou
TitleUnicode:夢灯籠
Artist:RADWIMPS
ArtistUnicode:RADWIMPS
Creator:Poii
Version:Muzukashii
Source:君の名は。
Tags:Kimi no Na wa Your Name Opening OP 洋次郎 野田 Nardoxyribonucleic
BeatmapID:1647503
BeatmapSetID:784759

[Difficulty]
HPDrainRate:6
CircleSize:2
OverallDifficulty:5
ApproachRate:10
SliderMultiplier:1.4
SliderTickRate:1

[Events]
//Background and Video events
0,0,"kimi no background.jpg",0,0
//Break Periods
//Storyboard Layer 0 (Background)
//Storyboard Layer 1 (Fail)
//Storyboard Layer 2 (Pass)
//Storyboard Layer 3 (Foreground)
//Storyboard Sound Samples

[TimingPoints]
24482,348.837209302326,4,1,0,40,1,0
24482,-100,4,1,0,40,0,0
40528,-100,4,1,0,50,0,0
52379,337.078651685393,4,1,0,80,1,0
52379,-100,4,1,0,80,0,0
63165,-100,4,1,0,60,0,0
84738,-100,4,1,0,80,0,0
90131,-100,4,1,0,60,0,1
114064,-100,4,1,0,60,0,0
114401,-100,4,1,0,80,0,0

[HitObjects]
256,192,24482,5,8,0:0:0:0:
256,192,25179,1,8,0:0:0:0:
256,192,25528,1,8,0:0:0:0:
256,192,25877,1,0,0:0:0:0:
256,192,26226,1,8,0:0:0:0:
256,192,26575,1,0,0:0:0:0:
256,192,26923,1,0,0:0:0:0:
256,192,27272,1,8,0:0:0:0:
256,192,30063,1,8,0:0:0:0:
256,192,30761,1,0,0:0:0:0:
256,192,31458,1,8,0:0:0:0:
256,192,31807,1,0,0:0:0:0:
256,192,32156,1,0,0:0:0:0:
256,192,32505,1,8,0:0:0:0:
256,192,32854,1,0,0:0:0:0:
256,192,33551,1,0,0:0:0:0:
256,192,33784,1,8,0:0:0:0:
256,192,34016,1,8,0:0:0:0:
256,192,34249,1,0,0:0:0:0:
256,192,35644,1,0,0:0:0:0:
256,192,36342,1,8,0:0:0:0:
256,192,37040,1,8,0:0:0:0:
256,192,37737,1,0,0:0:0:0:
256,192,38086,1,0,0:0:0:0:
256,192,38435,1,8,0:0:0:0:
256,192,40528,1,0,0:0:0:0:
256,192,40877,1,8,0:0:0:0:
256,192,41051,1,8,0:0:0:0:
256,192,41575,1,8,0:0:0:0:
256,192,41923,1,0,0:0:0:0:
256,192,42098,1,8,0:0:0:0:
256,192,42447,1,0,0:0:0:0:
256,192,42621,1,0,0:0:0:0:
256,192,43319,1,8,0:0:0:0:
256,192,43668,1,8,0:0:0:0:
256,192,43842,1,0,0:0:0:0:
256,192,44191,1,0,0:0:0:0:
256,192,44365,1,8,0:0:0:0:
256,192,44714,1,8,0:0:0:0:
256,192,45063,1,0,0:0:0:0:
256,192,45237,1,8,0:0:0:0:
256,192,46109,1,8,0:0:0:0:
256,192,46458,1,8,0:0:0:0:
256,192,46633,1,8,0:0:0:0:
256,192,46982,1,0,0:0:0:0:
256,192,47156,1,8,0:0:0:0:
256,192,47505,1,8,0:0:0:0:
256,192,47679,1,0,0:0:0:0:
256,192,48028,1,8,0:0:0:0:
256,192,48202,1,0,0:0:0:0:
256,192,48900,1,0,0:0:0:0:
256,192,49249,1,0,0:0:0:0:
256,192,49423,1,8,0:0:0:0:
256,192,50295,1,8,0:0:0:0:
256,192,50644,1,8,0:0:0:0:
256,192,50819,1,0,0:0:0:0:
256,192,51865,1,0,0:0:0:0:
256,192,52040,1,8,0:0:0:0:
256,192,52379,1,12,0:0:0:0:
256,192,52716,1,8,0:0:0:0:
256,192,53053,1,8,0:0:0:0:
256,192,53221,1,8,0:0:0:0:
256,192,53390,1,0,0:0:0:0:
256,192,53727,1,0,0:0:0:0:
256,192,54064,1,8,0:0:0:0:
256,192,54401,1,0,0:0:0:0:
256,192,54570,1,0,0:0:0:0:
256,192,54739,1,12,0:0:0:0:
256,192,55412,1,8,0:0:0:0:
256,192,55749,1,8,0:0:0:0:
256,192,55918,1,0,0:0:0:0:
256,192,56086,1,8,0:0:0:0:
256,192,56423,1,0,0:0:0:0:
256,192,56761,1,8,0:0:0:0:
256,192,56929,1,0,0:0:0:0:
256,192,57098,1,0,0:0:0:0:
256,192,57435,1,8,0:0:0:0:
256,192,57547,1,8,0:0:0:0:
256,192,57659,1,8,0:0:0:0:
256,192,57772,1,0,0:0:0:0:
256,192,58109,1,8,0:0:0:0:
256,192,58445,1,8,0:0:0:0:
256,192,58614,1,0,0:0:0:0:
256,192,58783,1,8,0:0:0:0:
256,192,59120,1,8,0:0:0:0:
256,192,59457,1,0,0:0:0:0:
256,192,59795,1,0,0:0:0:0:
256,192,59963,1,0,0:0:0:0:
256,192,60132,1,12,0:0:0:0:
256,192,60805,1,8,0:0:0:0:
252,168,61143,1,8,0:0:0:0:
256,192,61311,1,0,0:0:0:0:
256,192,61480,1,8,0:0:0:0:
252,168,61817,1,0,0:0:0:0:
256,192,62154,1,8,0:0:0:0:
256,192,62322,1,8,0:0:0:0:
252,168,62491,1,0,0:0:0:0:
252,168,62659,1,8,0:0:0:0:
256,192,62744,1,8,0:0:0:0:
252,168,62828,1,8,0:0:0:0:
256,192,62996,1,8,0:0:0:0:
256,192,63165,1,0,0:0:0:0:
256,192,63839,1,0,0:0:0:0:
256,192,64176,1,8,0:0:0:0:
256,192,64345,1,8,0:0:0:0:
256,192,64513,1,8,0:0:0:0:
256,192,64850,1,0,0:0:0:0:
256,192,65187,1,8,0:0:0:0:
256,192,65525,1,8,0:0:0:0:
256,192,65693,1,0,0:0:0:0:
256,192,65862,1,8,0:0:0:0:
256,192,66536,1,0,0:0:0:0:
256,192,66873,1,0,0:0:0:0:
256,192,67210,1,8,0:0:0:0:
256,192,67547,1,0,0:0:0:0:
256,192,67716,1,0,0:0:0:0:
256,192,67884,1,8,0:0:0:0:
256,192,68221,1,0,0:0:0:0:
256,192,68558,1,8,0:0:0:0:
256,192,69232,1,0,0:0:0:0:
256,192,69570,1,0,0:0:0:0:
256,192,69738,1,0,0:0:0:0:
256,192,69907,1,8,0:0:0:0:
256,192,70244,1,0,0:0:0:0:
256,184,70581,1,8,0:0:0:0:
256,184,71255,1,0,0:0:0:0:
256,192,71423,1,8,0:0:0:0:
256,192,71592,1,8,0:0:0:0:
256,184,71929,1,0,0:0:0:0:
256,184,72266,1,8,0:0:0:0:
256,184,72603,1,0,0:0:0:0:
256,192,72772,1,0,0:0:0:0:
256,192,72940,1,8,0:0:0:0:
256,192,73277,1,8,0:0:0:0:
256,184,73952,1,4,0:0:0:0:
256,192,74457,1,8,0:0:0:0:
256,184,74626,1,0,0:0:0:0:
256,192,74794,1,0,0:0:0:0:
256,184,74963,1,8,0:0:0:0:
256,184,75300,1,8,0:0:0:0:
256,192,75637,1,8,0:0:0:0:
256,192,75974,1,0,0:0:0:0:
256,192,76143,1,8,0:0:0:0:
256,192,76311,1,8,0:0:0:0:
256,184,76648,1,8,0:0:0:0:
256,192,77154,1,8,0:0:0:0:
256,184,77322,1,8,0:0:0:0:
256,192,77491,1,0,0:0:0:0:
256,192,77659,1,8,0:0:0:0:
256,184,77996,1,0,0:0:0:0:
256,192,78334,1,0,0:0:0:0:
256,192,78671,1,8,0:0:0:0:
256,192,79008,1,0,0:0:0:0:
256,192,79345,1,8,0:0:0:0:
256,184,80019,1,8,0:0:0:0:
256,184,80356,1,0,0:0:0:0:
256,192,80525,1,0,0:0:0:0:
256,184,80693,1,8,0:0:0:0:
256,192,80862,1,8,0:0:0:0:
256,184,81030,1,0,0:0:0:0:
256,192,81367,1,8,0:0:0:0:
256,184,82041,1,8,0:0:0:0:
256,192,82378,1,8,0:0:0:0:
256,192,82716,1,0,0:0:0:0:
256,192,83053,1,0,0:0:0:0:
252,192,83390,1,8,0:0:0:0:
256,192,83558,1,8,0:0:0:0:
256,192,83727,1,0,0:0:0:0:
256,192,83895,1,8,0:0:0:0:
256,192,83980,1,8,0:0:0:0:
252,192,84064,1,8,0:0:0:0:
252,192,84232,1,0,0:0:0:0:
252,192,84401,1,0,0:0:0:0:
252,192,84738,1,0,0:0:0:0:
256,192,84907,1,0,0:0:0:0:
256,192,85244,1,0,0:0:0:0:
252,192,85412,1,8,0:0:0:0:
256,192,85918,1,0,0:0:0:0:
256,192,86255,1,0,0:0:0:0:
252,192,86423,1,0,0:0:0:0:
252,192,86761,1,8,0:0:0:0:
252,192,87435,1,0,0:0:0:0:
256,192,87603,1,0,0:0:0:0:
256,192,87940,1,0,0:0:0:0:
252,192,88109,1,8,0:0:0:0:
256,192,88446,1,0,0:0:0:0:
256,192,88614,1,8,0:0:0:0:
252,192,88783,1,0,0:0:0:0:
256,192,88952,1,8,0:0:0:0:
252,192,89036,1,8,0:0:0:0:
256,192,89120,1,8,0:0:0:0:
252,192,89289,1,0,0:0:0:0:
256,192,89457,1,8,0:0:0:0:
256,192,89541,1,8,0:0:0:0:
256,192,89626,1,8,0:0:0:0:
256,192,89794,1,0,0:0:0:0:
252,192,90131,1,4,0:0:0:0:
252,192,90468,1,0,0:0:0:0:
252,192,90805,1,8,0:0:0:0:
256,192,91143,1,0,0:0:0:0:
256,188,91311,1,8,0:0:0:0:
252,192,91480,1,0,0:0:0:0:
256,192,91817,1,0,0:0:0:0:
256,192,92154,1,8,0:0:0:0:
256,192,92322,1,8,0:0:0:0:
256,192,92491,1,0,0:0:0:0:
252,188,92828,1,8,0:0:0:0:
256,192,93334,1,0,0:0:0:0:
252,188,93502,1,8,0:0:0:0:
252,188,93839,1,0,0:0:0:0:
256,192,94008,1,8,0:0:0:0:
252,188,94176,1,0,0:0:0:0:
256,160,94513,1,8,0:0:0:0:
256,160,94682,1,0,0:0:0:0:
256,160,94766,1,0,0:0:0:0:
256,160,94850,1,0,0:0:0:0:
256,192,95019,1,0,0:0:0:0:
256,192,95187,1,8,0:0:0:0:
252,188,95525,1,12,0:0:0:0:
252,188,95862,1,0,0:0:0:0:
252,188,96199,1,0,0:0:0:0:
256,192,96536,1,8,0:0:0:0:
252,188,96704,1,0,0:0:0:0:
252,188,96873,1,8,0:0:0:0:
252,188,97210,1,0,0:0:0:0:
252,188,97547,1,0,0:0:0:0:
256,192,97716,1,8,0:0:0:0:
256,192,97884,1,0,0:0:0:0:
252,188,98221,1,8,0:0:0:0:
256,192,98727,1,0,0:0:0:0:
252,188,98895,1,8,0:0:0:0:
252,188,99232,1,8,0:0:0:0:
256,192,99570,1,0,0:0:0:0:
256,192,99738,1,0,0:0:0:0:
256,160,99822,1,0,0:0:0:0:
256,192,99906,1,0,0:0:0:0:
256,192,100075,1,0,0:0:0:0:
252,188,100244,1,8,0:0:0:0:
256,192,100412,1,8,0:0:0:0:
256,192,100581,1,0,0:0:0:0:
256,192,100918,1,12,0:0:0:0:
256,192,101255,1,8,0:0:0:0:
256,192,101423,1,8,0:0:0:0:
256,192,101761,1,0,0:0:0:0:
256,192,101929,1,0,0:0:0:0:
256,192,102098,1,8,0:0:0:0:
256,192,102266,1,0,0:0:0:0:
256,192,102603,1,0,0:0:0:0:
256,192,102940,1,0,0:0:0:0:
256,192,103109,1,0,0:0:0:0:
256,192,103277,1,8,0:0:0:0:
256,192,103446,1,0,0:0:0:0:
256,192,103614,1,0,0:0:0:0:
256,192,103952,1,8,0:0:0:0:
256,192,104120,1,0,0:0:0:0:
256,192,104457,1,0,0:0:0:0:
256,192,104626,1,8,0:0:0:0:
256,192,104963,1,0,0:0:0:0:
256,192,105300,1,8,0:0:0:0:
256,192,105468,1,0,0:0:0:0:
256,160,105553,1,0,0:0:0:0:
256,192,105637,1,0,0:0:0:0:
256,192,105805,1,0,0:0:0:0:
288,192,105974,1,8,0:0:0:0:
256,192,106311,1,12,0:0:0:0:
256,192,106648,1,8,0:0:0:0:
256,192,106817,1,8,0:0:0:0:
256,192,106985,1,0,0:0:0:0:
256,192,107154,1,0,0:0:0:0:
256,192,107322,1,8,0:0:0:0:
252,192,107659,1,0,0:0:0:0:
256,192,107996,1,8,0:0:0:0:
256,192,108165,1,0,0:0:0:0:
252,192,108502,1,0,0:0:0:0:
252,192,108671,1,8,0:0:0:0:
256,192,108839,1,0,0:0:0:0:
252,192,109008,1,0,0:0:0:0:
252,192,109682,1,0,0:0:0:0:
256,192,110019,1,0,0:0:0:0:
256,192,110187,1,8,0:0:0:0:
252,192,110356,1,0,0:0:0:0:
252,192,110525,1,0,0:0:0:0:
252,192,110609,1,0,0:0:0:0:
252,192,110693,1,0,0:0:0:0:
252,192,110862,1,0,0:0:0:0:
252,192,111030,1,8,0:0:0:0:
256,192,111536,1,8,0:0:0:0:
252,192,111704,1,8,0:0:0:0:
252,192,111873,1,0,0:0:0:0:
252,192,112041,1,0,0:0:0:0:
256,192,112210,1,8,0:0:0:0:
252,192,112547,1,0,0:0:0:0:
256,192,112716,1,8,0:0:0:0:
252,192,113053,1,8,0:0:0:0:
256,192,113221,1,0,0:0:0:0:
260,189,113305,1,0,0:0:0:0:
256,192,113390,1,8,0:0:0:0:
256,192,113558,1,0,0:0:0:0:
256,192,114401,1,12,0:0:0:0:
256,192,114738,1,8,0:0:0:0:
256,192,115075,1,0,0:0:0:0:
256,192,115243,1,0,0:0:0:0:
256,192,115412,1,8,0:0:0:0:
256,192,115749,1,0,0:0:0:0:
256,192,116086,1,8,0:0:0:0:
256,192,116423,1,0,0:0:0:0:
256,192,116592,1,0,0:0:0:0:
256,192,116761,1,12,0:0:0:0:
256,192,117435,1,8,0:0:0:0:
256,192,117772,1,8,0:0:0:0:
256,192,117940,1,0,0:0:0:0:
256,192,118108,1,8,0:0:0:0:
256,192,118445,1,0,0:0:0:0:
256,192,118783,1,8,0:0:0:0:
256,192,118951,1,0,0:0:0:0:
256,192,119120,1,0,0:0:0:0:
256,192,119457,1,8,0:0:0:0:
256,192,119570,1,8,0:0:0:0:
256,192,119682,1,8,0:0:0:0:
256,192,119793,1,0,0:0:0:0:
256,192,120131,1,8,0:0:0:0:
256,192,120467,1,8,0:0:0:0:
256,192,120636,1,0,0:0:0:0:
256,192,120805,1,8,0:0:0:0:
256,192,121142,1,8,0:0:0:0:
256,192,121479,1,0,0:0:0:0:
256,192,121817,1,0,0:0:0:0:
256,192,121985,1,0,0:0:0:0:
256,192,122154,1,12,0:0:0:0:
256,192,122828,1,8,0:0:0:0:
252,168,123165,1,8,0:0:0:0:
256,192,123333,1,0,0:0:0:0:
256,192,123502,1,8,0:0:0:0:
252,168,123839,1,0,0:0:0:0:
256,192,124008,1,0,0:0:0:0:
256,192,124176,1,8,0:0:0:0:
256,192,124345,1,8,0:0:0:0:
256,192,124429,1,8,0:0:0:0:
252,168,124513,1,8,0:0:0:0:
256,192,124682,1,8,0:0:0:0:
256,192,124850,1,0,0:0:0:0:
256,192,125019,1,8,0:0:0:0:
