osu file format v14

[General]
AudioFilename: audio.mp3
AudioLeadIn: 0
PreviewTime: 32897
Countdown: 0
SampleSet: None
StackLeniency: 0.7
Mode: 0
LetterboxInBreaks: 0
WidescreenStoryboard: 0

[Editor]
Bookmarks: 18835,24460,52366,90113
DistanceSpacing: 1
BeatDivisor: 4
GridSize: 4
TimelineZoom: 1.5

[Metadata]
Title:Yume Tourou
TitleUnicode:夢灯籠
Artist:RADWIMPS
ArtistUnicode:RADWIMPS
Creator:Nines
Version:Shooting Stars
Source:君の名は。
Tags:kimi no na wa your name dream lantern
BeatmapID:1382167
BeatmapSetID:598831

[Difficulty]
HPDrainRate:5
CircleSize:4
OverallDifficulty:7.5
ApproachRate:9
SliderMultiplier:1.5
SliderTickRate:2

[Events]
//Background and Video events
0,0,"59184008_p0.jpg",0,0
Video,0,"android480pknnw.mp4"
//Break Periods
//Storyboard Layer 0 (Background)
//Storyboard Layer 1 (Fail)
//Storyboard Layer 2 (Pass)
//Storyboard Layer 3 (Foreground)
//Storyboard Sound Samples

[TimingPoints]
27273,697.674418604651,4,3,1,20,1,0
32156,-100,4,3,1,40,0,0
32897,348.837209302326,4,3,1,100,1,0
32897,-133.333333333333,4,3,1,40,0,0
49467,-117.647058823529,4,3,1,50,0,0
49642,-117.647058823529,4,3,2,50,0,0
49816,-117.647058823529,4,3,1,50,0,0
52432,-117.647058823529,4,3,2,50,0,0
52607,-117.647058823529,4,3,1,50,0,0
53304,-117.647058823529,4,3,2,50,0,0
53479,-117.647058823529,4,3,1,50,0,0
53828,-117.647058823529,4,3,2,50,0,0
54002,-117.647058823529,4,3,1,50,0,0
55223,-117.647058823529,4,3,2,50,0,0
55397,-117.647058823529,4,3,1,50,0,0
56269,-117.647058823529,4,3,3,50,0,0
56444,-117.647058823529,4,3,1,50,0,0
58014,-117.647058823529,4,3,2,50,0,0
58188,-117.647058823529,4,3,1,50,0,0
59235,-166.666666666667,4,3,1,50,0,0
59409,-166.666666666667,4,3,2,50,0,0
59583,-166.666666666667,4,3,1,50,0,0
59758,-166.666666666667,4,3,3,50,0,0
59932,-166.666666666667,4,3,1,50,0,0
60281,-200,4,3,1,50,0,0
60455,-200,4,3,1,30,0,0
60804,337.078651685393,4,3,1,100,1,0
60804,-80,4,1,1,70,0,1
63753,-80,4,1,1,5,0,1
63837,-80,4,1,1,70,0,1
69146,-80,4,1,1,5,0,1
69230,-80,4,1,1,70,0,1
71590,-100,4,3,1,70,0,0
93163,-133.333333333333,4,3,1,70,0,0
98556,-66.6666666666667,4,1,1,70,0,1
98809,-66.6666666666667,4,1,1,5,0,1
98893,-66.6666666666667,4,1,1,70,0,1
99146,-66.6666666666667,4,1,1,5,0,1
99230,-66.6666666666667,4,1,1,70,0,1
99483,-66.6666666666667,4,1,1,5,0,1
99568,-66.6666666666667,4,1,1,70,0,1
100157,-66.6666666666667,4,1,1,5,0,1
100242,-66.6666666666667,4,1,1,70,0,1
100495,-66.6666666666667,4,1,1,5,0,1
100579,-66.6666666666667,4,1,1,70,0,1
104202,-66.6666666666667,4,1,1,5,0,1
104287,-66.6666666666667,4,1,1,70,0,1
104539,-66.6666666666667,4,1,1,5,0,1
104624,-66.6666666666667,4,1,1,70,0,1
104877,-66.6666666666667,4,1,1,5,0,1
104961,-66.6666666666667,4,1,1,70,0,1
105551,-66.6666666666667,4,1,1,5,0,1
105635,-66.6666666666667,4,1,1,70,0,1
105888,-66.6666666666667,4,1,1,5,0,1
105972,-66.6666666666667,4,1,1,70,0,1
109343,-66.6666666666667,4,1,1,70,0,1
121983,-66.6666666666667,4,3,1,70,0,0
122826,-79.9999999999999,4,1,1,70,0,1
125775,-79.9999999999999,4,1,1,5,0,1
125860,-79.9999999999999,4,1,1,70,0,1
131169,-79.9999999999999,4,1,1,5,0,1
131253,-79.9999999999999,4,1,1,70,0,1
133444,-66.6666666666667,4,3,1,70,0,0

[HitObjects]
432,115,27273,6,0,B|314:49|152:115|68:173|68:173|199:154|199:154|84:91|84:91|140:210|140:210|166:80|166:80|68:173,1,1050
232,172,32897,6,0,P|283:154|336:176,1,112.500004291535
280,240,33421,1,0,0:0:0:0:
168,104,33595,2,0,P|144:152|152:220,1,112.500004291535
208,276,34118,1,0,0:0:0:0:
280,208,34293,6,0,L|278:151,1,56.2500021457673
120,192,34642,2,0,L|122:249,1,56.2500021457673
300,292,34990,2,0,P|268:336|192:340,1,112.500004291535
128,324,35514,1,0,0:0:0:0:
202,201,35688,6,0,L|200:144,2,56.2500021457673
32,180,36211,2,0,P|56:132|132:120,1,112.500004291535
200,144,36735,1,0,0:0:0:0:
200,144,37083,2,0,L|202:201,2,56.2500021457673
196,40,37607,5,0,0:0:0:0:
112,192,37781,1,0,0:0:0:0:
272,88,37955,1,0,0:0:0:0:
288,176,38130,1,0,0:0:0:0:
200,144,38304,1,0,0:0:0:0:
343,40,38479,6,0,P|423:45|460:120,1,168.750006437302
388,220,39176,2,0,B|356:140|356:140|388:104,1,112.500004291535
480,208,39700,1,0,0:0:0:0:
332,296,39874,6,0,L|260:288,1,56.2500021457673
216,216,40222,1,0,0:0:0:0:
312,200,40397,1,0,0:0:0:0:
332,296,40572,2,0,P|334:323|329:351,1,56.2500021457673
136,240,40921,2,0,P|134:211|139:183,1,56.2500021457673
300,188,41269,1,0,0:0:0:0:
248,316,41618,6,0,P|215:319|191:315,1,56.2500021457673
96,268,41967,2,0,B|48:252|4:276,2,84.3750032186509
248,340,42665,2,0,P|292:308|360:320,1,112.500004291535
420,336,43188,1,0,0:0:0:0:
246,318,43362,2,0,P|241:288|246:255,1,56.2500021457673
301,164,43711,1,0,0:0:0:0:
353,244,43886,1,0,0:0:0:0:
116,264,44060,6,0,P|56:236|40:176,1,112.500004291535
68,48,44583,1,0,0:0:0:0:
124,175,44758,2,0,P|176:159|226:182,1,112.500004291535
172,332,45281,1,0,0:0:0:0:
288,240,45455,6,0,P|310:189|294:137,1,112.500004291535
124,175,45979,1,0,0:0:0:0:
172,332,46153,2,0,P|200:338|232:336,1,56.2500021457673
343,243,46502,2,0,P|315:237|288:240,1,56.2500021457673
96,304,46851,6,0,P|92:332|96:364,2,56.2500021457673
104,152,47374,2,0,P|131:104|184:91,1,112.500004291535
264,144,47897,1,0,0:0:0:0:
264,144,48246,6,0,P|267:172|264:208,1,56.2500021457673
252,284,48595,1,2,0:0:0:0:
252,284,48769,1,2,0:0:0:0:
104,224,48944,1,0,0:0:0:0:
144,328,49118,1,0,0:0:0:0:
232,172,49293,1,0,0:0:0:0:
348,296,49467,6,0,B|300:340|300:340|272:300|216:284|168:316,1,191.250003647804,0|8,0:0|0:0,0:0:0:0:
100,348,50165,1,0,0:0:0:0:
28,180,50339,1,2,0:0:0:0:
64,264,50514,2,0,L|136:256,1,63.7500012159348,2|8,0:0|0:0,0:0:0:0:
248,100,50862,1,0,0:0:0:0:
211,192,51037,6,0,P|156:148|148:88,1,127.50000243187,2|8,0:0|0:0,0:0:0:0:
248,100,51560,1,0,0:0:0:0:
271,280,51735,1,2,0:0:0:0:
136,240,51909,1,2,0:0:0:0:
248,100,52083,1,8,0:0:0:0:
328,351,52258,6,0,P|357:295|347:234,1,127.50000243187
274,185,52781,2,0,L|211:192,1,63.7500012159348,8|0,0:0|0:0,0:0:0:0:
432,244,53130,2,0,L|452:118,1,127.50000243187,2|8,0:0|0:0,0:0:0:0:
293,12,53653,6,0,P|355:0|411:28,1,127.50000243187
255,162,54176,1,8,0:0:0:0:
360,192,54351,1,0,0:0:0:0:
336,84,54525,5,0,0:0:0:0:
280,272,54700,1,0,0:0:0:0:
152,120,54874,1,0,0:0:0:0:
193,341,55049,6,0,P|131:344|84:304,1,127.50000243187
272,244,55572,1,8,0:0:0:0:
156,264,55746,1,0,0:0:0:0:
336,352,55921,1,2,0:0:0:0:
400,296,56095,2,0,B|500:292|500:292|460:260,1,127.50000243187,2|0,0:0|0:0,0:0:0:0:
344,176,56618,2,0,P|282:167|234:206,1,127.50000243187,2|8,0:0|0:0,0:0:0:0:
224,300,57142,1,0,0:0:0:0:
420,208,57316,6,0,P|426:177|417:136,1,63.7500012159348,2|2,0:0|0:0,0:0:0:0:
340,88,57665,1,8,0:0:0:0:
396,288,57839,2,0,P|483:265|497:175,1,191.250003647804,2|8,0:0|0:0,0:0:0:0:
320,248,58537,1,2,0:0:0:0:
264,148,58711,2,0,P|204:133|153:168,1,127.50000243187,0|8,0:0|0:0,0:0:0:0:
217,215,59235,6,0,B|218:243|205:291|205:291|245:318|311:309|320:248,1,224.999993133545
204,132,60281,5,0,0:0:0:0:
341,205,60455,5,2,0:0:0:0:
376,204,60543,1,2,0:0:0:0:
413,201,60630,1,2,0:0:0:0:
450,198,60717,1,2,0:0:0:0:
488,194,60804,6,0,P|496:149|487:103,1,93.75,2|0,0:0|0:0,0:0:0:0:
23,189,61141,2,0,P|15:234|24:280,1,93.75,2|0,0:0|0:0,0:0:0:0:
416,52,61478,6,0,L|320:40,1,93.75,2|0,0:0|0:0,0:0:0:0:
96,332,61815,2,0,L|192:344,1,93.75,2|0,0:0|0:0,0:0:0:0:
220,348,62067,1,0,0:0:0:0:
251,350,62151,1,2,0:0:0:0:
278,341,62235,1,0,0:0:0:0:
300,319,62320,1,0,0:0:0:0:
292,36,62489,2,0,B|244:32|244:32|212:64,1,93.75,2|0,0:0|0:0,0:0:0:0:
236,259,62826,5,2,0:0:0:0:
436,168,62995,1,8,0:0:0:0:
60,200,63163,1,10,0:0:0:0:
280,124,63332,1,0,0:0:0:0:
96,332,63500,6,0,P|160:368|224:328,1,140.625,2|0,0:0|0:0,0:0:0:0:
236,259,63837,2,0,P|272:235|280:275,1,93.75,2|0,0:0|0:0,0:0:0:0:
224,84,64174,2,0,P|188:108|180:68,1,93.75,2|0,0:0|0:0,0:0:0:0:
296,8,64511,2,0,L|336:100,1,93.75,2|0,0:0|0:0,0:0:0:0:
316,128,64764,1,0,0:0:0:0:
296,160,64848,1,2,0:0:0:0:
276,192,64933,1,0,0:0:0:0:
259,219,65017,1,0,0:0:0:0:
39,235,65186,2,0,P|68:271|112:288,1,93.75,2|0,0:0|0:0,0:0:0:0:
259,219,65523,1,2,0:0:0:0:
120,204,65691,1,0,0:0:0:0:
388,252,65860,1,2,0:0:0:0:
403,207,65944,1,2,0:0:0:0:
418,163,66028,1,2,0:0:0:0:
434,119,66112,1,2,0:0:0:0:
449,74,66197,6,0,P|400:44|344:44,1,93.75,2|0,0:0|0:0,0:0:0:0:
44,280,66450,1,0,0:0:0:0:
63,310,66534,2,0,P|112:340|168:340,1,93.75,2|0,0:0|0:0,0:0:0:0:
304,80,66871,6,0,B|256:96|256:96|215:81,1,93.75,2|0,0:0|0:0,0:0:0:0:
208,304,67208,2,0,B|256:288|256:288|296:302,1,93.75,2|0,0:0|0:0,0:0:0:0:
147,40,67545,6,0,P|101:47|63:74,1,93.75,2|0,0:0|0:0,0:0:0:0:
364,343,67882,2,0,P|410:336|449:310,1,93.75,2|0,0:0|0:0,0:0:0:0:
256,128,68219,5,2,0:0:0:0:
256,372,68388,1,8,0:0:0:0:
256,12,68556,1,10,0:0:0:0:
340,200,68725,1,0,0:0:0:0:
172,200,68893,6,0,P|112:240|48:228,1,140.625,2|0,0:0|0:0,0:0:0:0:
98,156,69230,2,0,P|85:117|48:136,1,93.75,2|0,0:0|0:0,0:0:0:0:
345,280,69568,2,0,P|382:299|396:260,1,93.75,2|0,0:0|0:0,0:0:0:0:
348,76,69905,6,0,P|301:78|261:100,1,93.75
260,144,70157,1,0,0:0:0:0:
256,190,70241,1,0,0:0:0:0:
252,237,70325,1,0,0:0:0:0:
248,284,70409,1,0,0:0:0:0:
101,229,70579,1,2,0:0:0:0:
96,352,70747,1,0,0:0:0:0:
104,152,70916,1,2,0:0:0:0:
104,152,71000,1,0,0:0:0:0:
104,152,71084,1,2,0:0:0:0:
104,152,71169,1,2,0:0:0:0:
112,76,71253,5,2,0:0:0:0:
172,32,71337,1,2,0:0:0:0:
248,36,71421,1,2,0:0:0:0:
296,96,71506,1,2,0:0:0:0:
292,172,71590,6,0,B|288:220|288:220|308:268|292:324,1,150,2|2,0:0|0:0,0:0:0:0:
116,232,72096,1,0,0:0:0:0:
116,232,72264,2,0,L|208:224,1,75,2|0,0:0|0:0,0:0:0:0:
368,208,72601,1,2,0:0:0:0:
368,208,72770,1,0,0:0:0:0:
452,200,72938,5,2,0:0:0:0:
424,280,73107,1,0,0:0:0:0:
368,208,73275,1,2,0:0:0:0:
340,288,73444,1,0,0:0:0:0:
176,180,73612,2,0,L|204:260,1,75,2|0,0:0|0:0,0:0:0:0:
232,336,73950,1,0,0:0:0:0:
264,184,74118,1,0,0:0:0:0:
136,344,74287,6,0,P|60:336|36:252,1,150,2|2,0:0|0:0,0:0:0:0:
56,184,74792,1,0,0:0:0:0:
108,272,74961,5,2,0:0:0:0:
108,272,75129,1,0,0:0:0:0:
136,120,75298,1,2,0:0:0:0:
56,184,75466,1,0,0:0:0:0:
199,202,75635,6,0,P|235:190|279:194,1,75,2|0,0:0|0:0,0:0:0:0:
324,268,75972,2,0,P|288:280|244:276,1,75,2|0,0:0|0:0,0:0:0:0:
188,124,76309,2,0,P|224:112|268:116,1,75,2|0,0:0|0:0,0:0:0:0:
336,344,76646,2,0,P|300:356|256:352,1,75,2|0,0:0|0:0,0:0:0:0:
48,244,76983,6,0,P|45:172|104:130,1,150,2|2,0:0|0:0,0:0:0:0:
188,124,77489,1,0,0:0:0:0:
120,208,77657,5,2,0:0:0:0:
120,208,77826,1,0,0:0:0:0:
188,124,77995,1,2,0:0:0:0:
196,280,78163,1,0,0:0:0:0:
354,243,78332,6,0,L|280:240,1,75,2|0,0:0|0:0,0:0:0:0:
162,318,78669,2,0,L|236:314,1,75,2|0,0:0|0:0,0:0:0:0:
352,360,79006,1,2,0:0:0:0:
352,360,79174,1,0,0:0:0:0:
162,318,79343,2,0,L|165:243,1,75,2|0,0:0|0:0,0:0:0:0:
172,56,79680,5,2,0:0:0:0:
296,188,79848,1,0,0:0:0:0:
192,144,80017,1,2,0:0:0:0:
312,100,80186,1,0,0:0:0:0:
144,84,80354,1,2,0:0:0:0:
144,84,80523,1,0,0:0:0:0:
392,108,80691,1,2,0:0:0:0:
232,92,80860,1,0,0:0:0:0:
472,116,81028,5,2,0:0:0:0:
312,100,81197,1,0,0:0:0:0:
380,264,81365,1,2,0:0:0:0:
392,108,81534,1,0,0:0:0:0:
241,172,81702,2,0,L|316:180,1,75,2|0,0:0|0:0,0:0:0:0:
484,192,82039,1,2,0:0:0:0:
164,160,82377,6,0,P|80:176|32:116,1,150,6|2,0:0|0:0,0:0:0:0:
112,100,82882,1,0,0:0:0:0:
180,288,83051,1,2,0:0:0:0:
88,268,83219,1,0,0:0:0:0:
280,112,83388,1,2,0:0:0:0:
104,128,83556,1,0,0:0:0:0:
296,268,83725,5,2,0:0:0:0:
432,200,83893,1,0,0:0:0:0:
384,276,84062,1,2,0:0:0:0:
344,192,84230,1,0,0:0:0:0:
156,280,84399,5,2,0:0:0:0:
20,212,84568,1,0,0:0:0:0:
108,204,84736,1,2,0:0:0:0:
68,288,84905,1,0,0:0:0:0:
200,204,85073,6,0,P|171:136|103:112,1,150,2|2,0:0|0:0,0:0:0:0:
68,288,85579,1,0,0:0:0:0:
216,336,85747,1,2,0:0:0:0:
216,336,85916,1,0,0:0:0:0:
273,203,86084,2,0,P|233:210|197:203,1,75,2|0,0:0|0:0,0:0:0:0:
64,60,86421,6,0,P|103:52|140:60,1,75,2|0,0:0|0:0,0:0:0:0:
328,128,86759,2,0,L|336:212,1,75,2|0,0:0|0:0,0:0:0:0:
168,282,87096,2,0,L|176:208,1,75,2|0,0:0|0:0,0:0:0:0:
386,329,87433,2,0,L|312:340,1,75,2|0,0:0|0:0,0:0:0:0:
156,360,87770,1,2,0:0:0:0:
156,360,88107,5,2,0:0:0:0:
88,220,88275,1,0,0:0:0:0:
48,376,88444,1,2,0:0:0:0:
176,248,88612,1,0,0:0:0:0:
180,368,88781,1,2,0:0:0:0:
92,188,88950,1,0,0:0:0:0:
28,264,89118,5,2,0:0:0:0:
288,240,89287,1,0,0:0:0:0:
96,308,89455,1,2,0:0:0:0:
204,320,89624,1,0,0:0:0:0:
100,228,89792,2,0,P|92:192|100:148,1,75,2|0,0:0|0:0,0:0:0:0:
220,92,90129,5,2,0:0:0:0:
204,320,90298,1,0,0:0:0:0:
204,320,90466,1,2,0:0:0:0:
272,236,90635,1,0,0:0:0:0:
365,284,90803,1,2,0:0:0:0:
428,200,90972,1,0,0:0:0:0:
404,360,91141,2,0,P|368:368|320:356,1,75,2|0,0:0|0:0,0:0:0:0:
468,128,91478,2,0,P|498:156|514:204,1,75,2|0,0:0|0:0,0:0:0:0:
290,325,91815,5,2,0:0:0:0:
146,238,91983,1,0,0:0:0:0:
248,232,92152,1,2,0:0:0:0:
112,336,92320,1,2,0:1:0:0:
112,336,92405,1,2,0:1:0:0:
112,336,92489,1,2,0:1:0:0:
352,240,92657,1,2,3:0:0:0:
192,164,92826,1,2,3:0:0:0:
304,140,92995,1,2,0:0:0:0:
236,336,93163,5,2,0:0:0:0:
260,216,93332,1,2,0:0:0:0:
316,320,93500,2,0,P|349:323|370:333,1,56.2500021457673
144,220,93837,2,0,P|112:207|88:207,1,56.2500021457673,2|0,0:1|0:0,0:0:0:0:
56,216,94090,1,2,0:0:0:0:
28,244,94174,1,2,0:0:0:0:
148,336,94343,2,0,P|168:304|176:264,1,56.2500021457673,2|0,0:0|0:0,0:0:0:0:
112,140,94680,2,0,L|92:88,2,56.2500021457673,2|2|0,0:0|0:0|0:0,0:0:0:0:
232,84,95186,2,0,P|263:84|288:92,1,56.2500021457673,2|2,0:1|0:0,0:0:0:0:
392,168,95523,2,0,P|408:192|416:224,1,56.2500021457673
172,216,95860,6,0,L|117:204,1,56.2500021457673,6|2,0:0|0:0,0:0:0:0:
372,143,96197,2,0,L|428:132,1,56.2500021457673,0|2,0:0|0:0,0:0:0:0:
268,276,96534,2,0,L|212:287,1,56.2500021457673,2|2,0:1|0:0,0:0:0:0:
268,100,96871,1,0,0:0:0:0:
132,124,97039,2,0,L|76:135,1,56.2500021457673,2|2,0:1|0:0,0:0:0:0:
324,48,97377,5,2,0:1:0:0:
364,57,97461,1,2,0:1:0:0:
396,84,97545,1,2,0:1:0:0:
413,122,97629,1,2,0:1:0:0:
410,164,97714,1,2,0:0:0:0:
176,163,97882,5,2,0:1:0:0:
135,159,97966,1,2,0:1:0:0:
96,174,98051,1,2,0:1:0:0:
67,205,98135,1,2,0:1:0:0:
56,245,98219,1,2,0:0:0:0:
292,260,98388,5,2,0:1:0:0:
328,280,98472,1,2,0:1:0:0:
343,318,98556,6,0,P|416:348|471:291,1,168.750006437302,6|0,0:3|0:0,0:0:0:0:
512,204,98893,2,0,B|462:188|431:206|431:206|397:226|343:209,1,168.750006437302
383,128,99230,2,0,P|336:62|256:68,1,168.750006437302
300,140,99568,1,0,0:0:0:0:
343,318,99736,1,2,0:0:0:0:
300,140,99905,6,0,P|252:84|164:100,1,168.750006437302
80,228,100242,2,0,B|192:212|192:212|200:184|220:160,1,168.750006437302
300,140,100579,1,0,0:0:0:0:
440,248,100747,1,2,0:0:0:0:
276,228,100916,1,0,0:0:0:0:
424,152,101084,1,2,0:0:0:0:
260,68,101253,6,0,P|362:86|362:189,1,225.000008583069
316,272,101759,1,0,0:0:0:0:
472,312,101927,2,0,B|512:368|512:368|356:356,1,225.000008583069
256,316,102433,1,0,0:0:0:0:
41,311,102601,2,0,B|1:367|1:367|156:356,1,225.000008583069
256,224,103107,5,2,0:3:0:0:
256,196,103191,1,2,0:3:0:0:
256,168,103275,1,2,0:3:0:0:
256,316,103444,1,2,0:3:0:0:
203,88,103612,2,0,P|257:71|310:88,1,112.500004291535,2|0,0:3|0:0,0:0:0:0:
464,228,103950,6,0,B|348:256|348:256|360:192,1,168.750006437302,4|0,0:3|0:0,0:0:0:0:
422,140,104287,2,0,P|343:116|274:159,1,168.750006437302
240,248,104624,2,0,P|161:271|92:228,1,168.750006437302
76,136,104961,1,0,0:3:0:0:
88,344,105129,1,2,0:0:0:0:
155,86,105298,6,0,B|192:56|192:56|176:176,1,168.750006437302
219,254,105635,2,0,B|169:271|139:254|139:254|102:234|56:248,1,168.750006437302
92,328,105972,1,0,0:0:0:0:
176,176,106141,1,2,0:0:0:0:
288,320,106309,1,0,0:0:0:0:
356,164,106478,1,2,0:0:0:0:
472,315,106646,6,0,B|428:375|428:375|376:224,1,225.000008583069
348,136,107152,1,0,0:0:0:0:
130,104,107320,2,0,P|141:209|244:236,1,225.000008583069
208,152,107826,1,0,0:0:0:0:
168,325,107995,6,0,B|124:316|96:288|96:288|52:308|12:300,2,168.750006437302,0|2|2,0:0|0:3|0:3,0:0:0:0:
240,280,108669,2,0,P|253:333|232:384,1,112.500004291535,2|0,0:3|0:0,0:0:0:0:
40,216,109006,2,0,L|56:104,1,112.500004291535
312,184,109343,5,4,0:0:0:0:
168,329,109511,1,0,0:0:0:0:
132,88,109680,1,0,0:0:0:0:
388,148,109848,2,0,B|512:176|512:176|464:204,2,168.750006437302
260,116,110523,1,0,0:0:0:0:
196,302,110691,6,0,B|160:344|104:344|104:344|48:312|48:244,1,225.000008583069,4|0,0:0|0:0,0:0:0:0:
156,152,111197,1,0,0:0:0:0:
380,252,111365,1,0,0:0:0:0:
132,252,111534,1,0,0:0:0:0:
356,152,111702,1,0,0:0:0:0:
256,344,111871,1,0,0:0:0:0:
212,88,112039,6,0,P|161:65|108:78,1,112.500004291535,4|0,0:0|0:0,0:0:0:0:
144,232,112377,1,0,0:0:0:0:
292,76,112545,2,0,B|464:56|464:56|428:128,1,225.000008583069
402,319,113051,2,0,L|392:208,1,112.500004291535
184,0,113388,6,0,P|160:76|208:176,1,168.750006437302,4|0,0:0|0:0,0:0:0:0:
268,184,113725,2,0,B|284:240|284:240|261:289,1,112.500004291535
192,232,113978,1,0,0:0:0:0:
160,228,114062,1,0,0:0:0:0:
128,360,114230,1,0,0:0:0:0:
163,354,114315,1,0,0:0:0:0:
199,348,114399,1,0,0:0:0:0:
360,248,114568,1,0,0:0:0:0:
416,352,114736,5,4,0:0:0:0:
192,232,114905,1,0,0:0:0:0:
424,108,115073,1,0,0:0:0:0:
264,304,115242,2,0,B|184:332|184:332|108:288,2,168.750006437302
212,84,115916,1,0,0:0:0:0:
44,220,116084,6,0,P|18:268|22:324,1,112.500004291535,4|0,0:0|0:0,0:0:0:0:
352,336,116421,2,0,P|356:280|330:232,2,112.500004291535
104,288,116927,1,0,0:0:0:0:
272,296,117096,1,0,0:0:0:0:
104,288,117264,1,0,0:0:0:0:
330,68,117433,6,0,B|279:44|224:32|224:32|183:61|144:112,1,225.000008583069,4|0,0:0|0:0,0:0:0:0:
176,304,117938,2,0,B|227:328|281:341|281:341|323:311|361:261,1,225.000008583069
244,128,118444,1,0,0:0:0:0:
176,304,118612,1,0,0:0:0:0:
112,176,118781,1,0,0:0:0:0:
272,240,118950,5,0,0:0:0:0:
300,238,119034,1,0,0:0:0:0:
327,234,119118,1,0,0:0:0:0:
354,226,119202,1,0,0:0:0:0:
380,214,119287,1,0,0:0:0:0:
399,233,119371,1,0,0:0:0:0:
422,250,119455,1,0,0:0:0:0:
447,263,119539,1,0,0:0:0:0:
473,273,119624,1,0,0:0:0:0:
364,312,119792,1,0,0:0:0:0:
396,112,119961,1,2,0:0:0:0:
224,264,120129,6,0,P|168:258|128:221,1,112.500004291535,4|0,0:0|0:0,0:0:0:0:
176,72,120382,1,0,0:0:0:0:
152,43,120466,2,0,P|97:32|48:56,1,112.500004291535,2|0,0:0|0:0,0:0:0:0:
140,340,120803,5,2,0:0:0:0:
376,162,120972,1,0,0:0:0:0:
112,120,121141,5,2,0:0:0:0:
290,356,121309,1,0,0:0:0:0:
256,48,121478,5,0,0:0:0:0:
44,244,121646,1,0,0:0:0:0:
99,234,121730,1,0,0:0:0:0:
155,225,121815,1,2,0:0:0:0:
432,180,121983,1,4,0:2:0:0:
24,190,122826,6,0,P|16:235|25:281,1,93.75,2|0,0:0|0:0,0:0:0:0:
489,195,123163,2,0,P|497:150|488:104,1,93.75,2|0,0:0|0:0,0:0:0:0:
189,40,123500,6,0,L|96:52,1,93.75,2|0,0:0|0:0,0:0:0:0:
322,343,123837,2,0,L|416:332,1,93.75,2|0,0:0|0:0,0:0:0:0:
444,328,124090,1,0,0:0:0:0:
466,306,124174,1,2,0:0:0:0:
475,279,124259,1,0,0:0:0:0:
473,248,124343,1,0,0:0:0:0:
100,156,124511,2,0,B|96:204|96:204|128:236,1,93.75,2|0,0:0|0:0,0:0:0:0:
256,332,124848,5,2,0:0:0:0:
256,48,125017,1,8,0:0:0:0:
16,232,125186,5,10,0:0:0:0:
340,292,125354,1,0,0:0:0:0:
256,48,125523,6,0,P|193:21|136:57,1,140.625,2|0,0:0|0:0,0:0:0:0:
228,164,125860,2,0,P|206:198|179:167,1,93.75,2|0,0:0|0:0,0:0:0:0:
376,192,126197,2,0,P|397:157|424:188,1,93.75,2|0,0:0|0:0,0:0:0:0:
228,284,126534,6,0,L|128:280,1,93.75
96,256,126787,1,0,0:0:0:0:
80,212,126871,1,0,0:0:0:0:
88,164,126955,1,0,0:0:0:0:
124,132,127039,1,0,0:0:0:0:
472,148,127208,6,0,P|443:112|400:96,1,93.75,2|0,0:0|0:0,0:0:0:0:
148,64,127545,1,2,0:0:0:0:
392,188,127714,1,0,0:0:0:0:
124,132,127882,1,2,0:0:0:0:
109,177,127966,1,2,0:0:0:0:
94,221,128051,1,2,0:0:0:0:
78,265,128135,1,2,0:0:0:0:
63,310,128219,6,0,P|112:340|168:340,1,93.75,6|0,0:0|0:0,0:0:0:0:
468,104,128472,1,0,0:0:0:0:
449,74,128556,2,0,P|400:44|344:44,1,93.75,2|0,0:0|0:0,0:0:0:0:
208,304,128893,6,0,B|256:288|256:288|297:303,1,93.75,2|0,0:0|0:0,0:0:0:0:
304,80,129230,2,0,B|256:96|256:96|216:82,1,93.75,2|0,0:0|0:0,0:0:0:0:
365,344,129568,6,0,P|411:337|449:310,1,93.75,2|0,0:0|0:0,0:0:0:0:
148,41,129905,2,0,P|102:48|63:74,1,93.75,2|0,0:0|0:0,0:0:0:0:
256,256,130242,5,2,0:0:0:0:
256,12,130410,1,8,0:0:0:0:
92,300,130579,1,10,0:0:0:0:
420,300,130747,1,0,0:0:0:0:
340,120,130916,6,0,P|400:80|464:92,1,140.625,2|0,0:0|0:0,0:0:0:0:
414,163,131253,2,0,P|427:203|464:183,1,93.75,2|0,0:0|0:0,0:0:0:0:
167,104,131590,2,0,P|130:85|116:124,1,93.75,2|0,0:0|0:0,0:0:0:0:
64,308,131927,6,0,L|168:336,1,93.75
186,299,132180,1,0,0:0:0:0:
218,264,132264,1,2,0:0:0:0:
248,232,132348,1,2,0:0:0:0:
280,196,132433,1,2,0:0:0:0:
356,84,132601,2,2,L|312:56,1,46.875,2|2,0:3|0:3,0:3:0:0:
144,80,132770,2,2,L|188:52,1,46.875,2|2,0:3|0:3,0:3:0:0:
376,176,132938,5,0,0:0:0:0:
376,176,133023,1,0,0:0:0:0:
376,176,133107,2,2,L|304:160,1,46.875
136,176,133275,2,2,L|208:160,1,46.875
256,252,133444,1,4,0:2:0:0:
